  0
SECTION
  2
HEADER
  9
$ACADVER
  1
AC1015
  9
$ACADMAINTVER
 70
     6
  9
$DWGCODEPAGE
  3
ANSI_932
  9
$INSBASE
 10
0.0
 20
0.0
 30
0.0
  9
$EXTMIN
 10
0.0
 20
0.0
 30
0.0
  9
$EXTMAX
 10
630.0
 20
891.0
 30
0.0
  9
$LIMMIN
 10
0.0
 20
0.0
  9
$LIMMAX
 10
12.0
 20
9.0
  9
$ORTHOMODE
 70
     0
  9
$REGENMODE
 70
     1
  9
$FILLMODE
 70
     1
  9
$QTEXTMODE
 70
     0
  9
$MIRRTEXT
 70
     1
  9
$LTSCALE
 40
1.0
  9
$ATTMODE
 70
     1
  9
$TEXTSIZE
 40
0.2
  9
$TRACEWID
 40
0.05
  9
$TEXTSTYLE
  7
Standard
  9
$CLAYER
  8
0
  9
$CELTYPE
  6
ByLayer
  9
$CECOLOR
 62
   256
  9
$CELTSCALE
 40
1.0
  9
$DISPSILH
 70
     0
  9
$DIMSCALE
 40
1.0
  9
$DIMASZ
 40
0.18
  9
$DIMEXO
 40
0.0625
  9
$DIMDLI
 40
0.38
  9
$DIMRND
 40
0.0
  9
$DIMDLE
 40
0.0
  9
$DIMEXE
 40
0.18
  9
$DIMTP
 40
0.0
  9
$DIMTM
 40
0.0
  9
$DIMTXT
 40
0.18
  9
$DIMCEN
 40
0.09
  9
$DIMTSZ
 40
0.0
  9
$DIMTOL
 70
     0
  9
$DIMLIM
 70
     0
  9
$DIMTIH
 70
     1
  9
$DIMTOH
 70
     1
  9
$DIMSE1
 70
     0
  9
$DIMSE2
 70
     0
  9
$DIMTAD
 70
     0
  9
$DIMZIN
 70
     0
  9
$DIMBLK
  1

  9
$DIMASO
 70
     1
  9
$DIMSHO
 70
     1
  9
$DIMPOST
  1

  9
$DIMAPOST
  1

  9
$DIMALT
 70
     0
  9
$DIMALTD
 70
     2
  9
$DIMALTF
 40
25.4
  9
$DIMLFAC
 40
1.0
  9
$DIMTOFL
 70
     0
  9
$DIMTVP
 40
0.0
  9
$DIMTIX
 70
     0
  9
$DIMSOXD
 70
     0
  9
$DIMSAH
 70
     0
  9
$DIMBLK1
  1

  9
$DIMBLK2
  1

  9
$DIMSTYLE
  2
Standard
  9
$DIMCLRD
 70
     0
  9
$DIMCLRE
 70
     0
  9
$DIMCLRT
 70
     0
  9
$DIMTFAC
 40
1.0
  9
$DIMGAP
 40
0.09
  9
$DIMJUST
 70
     0
  9
$DIMSD1
 70
     0
  9
$DIMSD2
 70
     0
  9
$DIMTOLJ
 70
     1
  9
$DIMTZIN
 70
     0
  9
$DIMALTZ
 70
     0
  9
$DIMALTTZ
 70
     0
  9
$DIMUPT
 70
     0
  9
$DIMDEC
 70
     4
  9
$DIMTDEC
 70
     4
  9
$DIMALTU
 70
     2
  9
$DIMALTTD
 70
     2
  9
$DIMTXSTY
  7
Standard
  9
$DIMAUNIT
 70
     0
  9
$DIMADEC
 70
     0
  9
$DIMALTRND
 40
0.0
  9
$DIMAZIN
 70
     0
  9
$DIMDSEP
 70
    46
  9
$DIMATFIT
 70
     3
  9
$DIMFRAC
 70
     0
  9
$DIMLDRBLK
  1

  9
$DIMLUNIT
 70
     2
  9
$DIMLWD
 70
    -2
  9
$DIMLWE
 70
    -2
  9
$DIMTMOVE
 70
     0
  9
$LUNITS
 70
     2
  9
$LUPREC
 70
     4
  9
$SKETCHINC
 40
0.1
  9
$FILLETRAD
 40
0.5
  9
$AUNITS
 70
     0
  9
$AUPREC
 70
     0
  9
$MENU
  1
.
  9
$ELEVATION
 40
0.0
  9
$PELEVATION
 40
0.0
  9
$THICKNESS
 40
0.0
  9
$LIMCHECK
 70
     0
  9
$CHAMFERA
 40
0.5
  9
$CHAMFERB
 40
0.5
  9
$CHAMFERC
 40
1.0
  9
$CHAMFERD
 40
0.0
  9
$SKPOLY
 70
     0
  9
$TDCREATE
 40
2457185.749271296
  9
$TDUCREATE
 40
2457185.374271296
  9
$TDUPDATE
 40
2457185.749272373
  9
$TDUUPDATE
 40
2457185.374272373
  9
$TDINDWG
 40
0.0000000116
  9
$TDUSRTIMER
 40
0.0000000116
  9
$USRTIMER
 70
     1
  9
$ANGBASE
 50
0.0
  9
$ANGDIR
 70
     0
  9
$PDMODE
 70
     0
  9
$PDSIZE
 40
0.0
  9
$PLINEWID
 40
0.0
  9
$SPLFRAME
 70
     0
  9
$SPLINETYPE
 70
     6
  9
$SPLINESEGS
 70
     8
  9
$HANDSEED
  5
29A
  9
$SURFTAB1
 70
     6
  9
$SURFTAB2
 70
     6
  9
$SURFTYPE
 70
     6
  9
$SURFU
 70
     6
  9
$SURFV
 70
     6
  9
$UCSBASE
  2

  9
$UCSNAME
  2

  9
$UCSORG
 10
0.0
 20
0.0
 30
0.0
  9
$UCSXDIR
 10
1.0
 20
0.0
 30
0.0
  9
$UCSYDIR
 10
0.0
 20
1.0
 30
0.0
  9
$UCSORTHOREF
  2

  9
$UCSORTHOVIEW
 70
     0
  9
$UCSORGTOP
 10
0.0
 20
0.0
 30
0.0
  9
$UCSORGBOTTOM
 10
0.0
 20
0.0
 30
0.0
  9
$UCSORGLEFT
 10
0.0
 20
0.0
 30
0.0
  9
$UCSORGRIGHT
 10
0.0
 20
0.0
 30
0.0
  9
$UCSORGFRONT
 10
0.0
 20
0.0
 30
0.0
  9
$UCSORGBACK
 10
0.0
 20
0.0
 30
0.0
  9
$PUCSBASE
  2

  9
$PUCSNAME
  2

  9
$PUCSORG
 10
0.0
 20
0.0
 30
0.0
  9
$PUCSXDIR
 10
1.0
 20
0.0
 30
0.0
  9
$PUCSYDIR
 10
0.0
 20
1.0
 30
0.0
  9
$PUCSORTHOREF
  2

  9
$PUCSORTHOVIEW
 70
     0
  9
$PUCSORGTOP
 10
0.0
 20
0.0
 30
0.0
  9
$PUCSORGBOTTOM
 10
0.0
 20
0.0
 30
0.0
  9
$PUCSORGLEFT
 10
0.0
 20
0.0
 30
0.0
  9
$PUCSORGRIGHT
 10
0.0
 20
0.0
 30
0.0
  9
$PUCSORGFRONT
 10
0.0
 20
0.0
 30
0.0
  9
$PUCSORGBACK
 10
0.0
 20
0.0
 30
0.0
  9
$USERI1
 70
     0
  9
$USERI2
 70
     0
  9
$USERI3
 70
     0
  9
$USERI4
 70
     0
  9
$USERI5
 70
     0
  9
$USERR1
 40
18.1
  9
$USERR2
 40
0.0
  9
$USERR3
 40
0.0
  9
$USERR4
 40
0.0
  9
$USERR5
 40
0.0
  9
$WORLDVIEW
 70
     1
  9
$SHADEDGE
 70
     3
  9
$SHADEDIF
 70
    70
  9
$TILEMODE
 70
     1
  9
$MAXACTVP
 70
    64
  9
$PINSBASE
 10
0.0
 20
0.0
 30
0.0
  9
$PLIMCHECK
 70
     0
  9
$PEXTMIN
 10
1.00000000000000E+20
 20
1.00000000000000E+20
 30
1.00000000000000E+20
  9
$PEXTMAX
 10
-1.00000000000000E+20
 20
-1.00000000000000E+20
 30
-1.00000000000000E+20
  9
$PLIMMIN
 10
0.0
 20
0.0
  9
$PLIMMAX
 10
12.0
 20
9.0
  9
$UNITMODE
 70
     0
  9
$VISRETAIN
 70
     1
  9
$PLINEGEN
 70
     0
  9
$PSLTSCALE
 70
     1
  9
$TREEDEPTH
 70
  3020
  9
$CMLSTYLE
  2
Standard
  9
$CMLJUST
 70
     0
  9
$CMLSCALE
 40
1.0
  9
$PROXYGRAPHICS
 70
     1
  9
$MEASUREMENT
 70
     1
  9
$CELWEIGHT
370
    -1
  9
$ENDCAPS
280
     0
  9
$JOINSTYLE
280
     0
  9
$LWDISPLAY
290
     0
  9
$INSUNITS
 70
     4
  9
$HYPERLINKBASE
  1

  9
$STYLESHEET
  1

  9
$XEDIT
290
     1
  9
$CEPSNTYPE
380
     0
  9
$PSTYLEMODE
290
     1
  9
$FINGERPRINTGUID
  2
{07599745-FE78-40B7-9A26-458677516482}
  9
$VERSIONGUID
  2
{FAEB1C32-E019-11D5-929B-00C0DF256EC4}
  9
$EXTNAMES
290
     1
  9
$PSVPSCALE
 40
0.0
  9
$OLESTARTUP
290
     0
  0
ENDSEC
  0
SECTION
  2
CLASSES
  0
CLASS
  1
ACDBDICTIONARYWDFLT
  2
AcDbDictionaryWithDefault
  3
ObjectDBX Classes
 90
        0
280
     0
281
     0
  0
CLASS
  1
VISUALSTYLE
  2
AcDbVisualStyle
  3
ObjectDBX Classes
 90
     4095
280
     0
281
     0
  0
CLASS
  1
MATERIAL
  2
AcDbMaterial
  3
ObjectDBX Classes
 90
     1153
280
     0
281
     0
  0
CLASS
  1
DICTIONARYVAR
  2
AcDbDictionaryVar
  3
ObjectDBX Classes
 90
        0
280
     0
281
     0
  0
CLASS
  1
ACDBPLACEHOLDER
  2
AcDbPlaceHolder
  3
ObjectDBX Classes
 90
        0
280
     0
281
     0
  0
CLASS
  1
LAYOUT
  2
AcDbLayout
  3
ObjectDBX Classes
 90
        0
280
     0
281
     0
  0
ENDSEC
  0
SECTION
  2
TABLES
  0
TABLE
  2
VPORT
  5
8
330
0
100
AcDbSymbolTable
 70
     1
  0
VPORT
  5
29
330
8
100
AcDbSymbolTableRecord
100
AcDbViewportTableRecord
  2
*Active
 70
     0
 10
0.0
 20
0.0
 11
1.0
 21
1.0
 12
315.0
 22
445.5
 13
0.0
 23
0.0
 14
0.5
 24
0.5
 15
0.5
 25
0.5
 16
0.0
 26
0.0
 36
1.0
 17
0.0
 27
0.0
 37
0.0
 40
980.1
 41
1.60267857142857
 42
50.0
 43
0.0
 44
0.0
 50
0.0
 51
0.0
 71
     0
 72
   100
 73
     1
 74
     3
 75
     0
 76
     0
 77
     0
 78
     0
281
     0
 65
     1
110
0.0
120
0.0
130
0.0
111
1.0
121
0.0
131
0.0
112
0.0
122
1.0
132
0.0
 79
     0
146
0.0
  0
ENDTAB
  0
TABLE
  2
LTYPE
  5
5
330
0
100
AcDbSymbolTable
 70
     8
  0
LTYPE
  5
14
330
5
100
AcDbSymbolTableRecord
100
AcDbLinetypeTableRecord
  2
ByBlock
 70
     0
  3

 72
    65
 73
     0
 40
0.0
  0
LTYPE
  5
15
330
5
100
AcDbSymbolTableRecord
100
AcDbLinetypeTableRecord
  2
ByLayer
 70
     0
  3

 72
    65
 73
     0
 40
0.0
  0
LTYPE
  5
16
330
5
100
AcDbSymbolTableRecord
100
AcDbLinetypeTableRecord
  2
Continuous
 70
     0
  3
Solid line
 72
    65
 73
     0
 40
0.0
  0
LTYPE
  5
3F
330
5
100
AcDbSymbolTableRecord
100
AcDbLinetypeTableRecord
  2
DASHED
 70
     0
  3
Dashed
 72
    65
 73
     2
 40
15.0
 49
7.0
 74
     0
 49
-8.0
 74
     0
  0
LTYPE
  5
40
330
5
100
AcDbSymbolTableRecord
100
AcDbLinetypeTableRecord
  2
DOTTED
 70
     0
  3
Dotted
 72
    65
 73
     2
 40
1.0
 49
0.0
 74
     0
 49
-1.0
 74
     0
  0
LTYPE
  5
41
330
5
100
AcDbSymbolTableRecord
100
AcDbLinetypeTableRecord
  2
DOT_CENTER
 70
     0
  3
Dot_Center
 72
    65
 73
     4
 40
14.0
 49
12.0
 74
     0
 49
-1.0
 74
     0
 49
0.0
 74
     0
 49
-1.0
 74
     0
  0
LTYPE
  5
42
330
5
100
AcDbSymbolTableRecord
100
AcDbLinetypeTableRecord
  2
LONG_DASHED
 70
     0
  3
Long_Dashed
 72
    65
 73
     2
 40
15.0
 49
10.0
 74
     0
 49
-5.0
 74
     0
  0
LTYPE
  5
43
330
5
100
AcDbSymbolTableRecord
100
AcDbLinetypeTableRecord
  2
DASH_CENTER
 70
     0
  3
Dash_Center
 72
    65
 73
     4
 40
14.0
 49
11.0
 74
     0
 49
-1.0
 74
     0
 49
1.0
 74
     0
 49
-1.0
 74
     0
  0
LTYPE
  5
44
330
5
100
AcDbSymbolTableRecord
100
AcDbLinetypeTableRecord
  2
PHANTOM
 70
     0
  3
Phantom
 72
    65
 73
     6
 40
13.0
 49
10.0
 74
     0
 49
-1.0
 74
     0
 49
0.0
 74
     0
 49
-1.0
 74
     0
 49
0.0
 74
     0
 49
-1.0
 74
     0
  0
LTYPE
  5
45
330
5
100
AcDbSymbolTableRecord
100
AcDbLinetypeTableRecord
  2
CENTER_DASH_DASH
 70
     0
  3
Center_Dash_Dash
 72
    65
 73
     6
 40
14.0
 49
9.0
 74
     0
 49
-1.0
 74
     0
 49
1.0
 74
     0
 49
-1.0
 74
     0
 49
1.0
 74
     0
 49
-1.0
 74
     0
  0
ENDTAB
  0
TABLE
  2
LAYER
  5
2
330
0
100
AcDbSymbolTable
 70
     2
  0
LAYER
  5
10
330
2
100
AcDbSymbolTableRecord
100
AcDbLayerTableRecord
  2
0
 70
     0
 62
     7
  6
Continuous
370
    -3
390
F
  0
LAYER
  5
46
330
2
100
AcDbSymbolTableRecord
100
AcDbLayerTableRecord
  2
1
 70
     0
 62
     7
  6
Continuous
370
    -3
390
F
  0
ENDTAB
  0
TABLE
  2
STYLE
  5
3
330
0
100
AcDbSymbolTable
 70
     3
  0
STYLE
  5
11
330
3
100
AcDbSymbolTableRecord
100
AcDbTextStyleTableRecord
  2
Standard
 70
     0
 40
0.0
 41
1.0
 50
0.0
 71
     0
 42
0.2
  3
txt
  4

  0
STYLE
  5
B2
330
3
100
AcDbSymbolTableRecord
100
AcDbTextStyleTableRecord
  2
CONVERTER_11
 70
     0
 40
0.0
 41
0.89
 50
0.0
 71
     0
 42
0.2
  3
MS Mincho.ttf
  4

1001
ACAD
1000
MS Mincho
1071
    32785
  0
STYLE
  5
218
330
3
100
AcDbSymbolTableRecord
100
AcDbTextStyleTableRecord
  2
CONVERTER_12
 70
     0
 40
0.0
 41
0.9
 50
0.0
 71
     0
 42
0.2
  3
txt.shx
  4

  0
ENDTAB
  0
TABLE
  2
VIEW
  5
6
330
0
100
AcDbSymbolTable
 70
     0
  0
ENDTAB
  0
TABLE
  2
UCS
  5
7
330
0
100
AcDbSymbolTable
 70
     0
  0
ENDTAB
  0
TABLE
  2
APPID
  5
9
330
0
100
AcDbSymbolTable
 70
     1
  0
APPID
  5
12
330
9
100
AcDbSymbolTableRecord
100
AcDbRegAppTableRecord
  2
ACAD
 70
     0
  0
ENDTAB
  0
TABLE
  2
DIMSTYLE
  5
A
330
0
100
AcDbSymbolTable
 70
     8
100
AcDbDimStyleTable
  0
DIMSTYLE
105
27
330
A
100
AcDbSymbolTableRecord
100
AcDbDimStyleTableRecord
  2
Standard
 70
     0
178
     0
340
11
  0
DIMSTYLE
105
228
102
{ACAD_REACTORS
330
229
102
}
330
A
100
AcDbSymbolTableRecord
100
AcDbDimStyleTableRecord
  2
ME10_DIM_10
 70
     0
  3
{\Fgdt;n}<>
 41
10.5
 42
0.0
 44
3.0
 73
     0
 74
     0
 77
     1
 78
     8
140
10.5
147
3.0
172
     1
173
     1
174
     1
175
     1
176
     2
177
     2
271
     2
178
     7
271
     2
340
218
  0
DIMSTYLE
105
233
102
{ACAD_REACTORS
330
234
102
}
330
A
100
AcDbSymbolTableRecord
100
AcDbDimStyleTableRecord
  2
ME10_DIM_11
 70
     0
 41
10.5
 42
0.0
 44
3.0
 73
     0
 74
     0
 77
     1
 78
     8
140
10.5
147
3.0
172
     1
173
     1
174
     1
175
     1
176
     2
177
     2
271
     2
178
     7
271
     2
340
218
  0
DIMSTYLE
105
23E
102
{ACAD_REACTORS
330
23F
102
}
330
A
100
AcDbSymbolTableRecord
100
AcDbDimStyleTableRecord
  2
ME10_DIM_12
 70
     0
 41
10.5
 42
0.0
 44
3.0
 73
     0
 74
     0
 77
     1
 78
     8
140
10.5
147
3.0
172
     1
173
     1
174
     1
175
     1
176
     2
177
     2
271
     2
178
     7
271
     2
340
B2
  0
DIMSTYLE
105
24C
102
{ACAD_REACTORS
330
24D
102
}
330
A
100
AcDbSymbolTableRecord
100
AcDbDimStyleTableRecord
  2
ME10_DIM_13
 70
     0
 41
0.0
 42
0.0
 44
3.0
 73
     0
 74
     0
 77
     1
 78
     8
140
10.5
147
3.0
172
     1
173
     1
174
     1
175
     1
176
     2
177
     2
271
     2
178
     7
271
     2
340
218
344
249
  0
DIMSTYLE
105
257
102
{ACAD_REACTORS
330
258
102
}
330
A
100
AcDbSymbolTableRecord
100
AcDbDimStyleTableRecord
  2
ME10_DIM_14
 70
     0
 41
10.5
 42
0.0
 44
3.0
 73
     0
 74
     0
 77
     1
 78
     8
140
10.5
147
3.0
172
     1
173
     1
174
     1
175
     1
176
     2
177
     2
271
     2
178
     7
271
     2
340
218
  0
DIMSTYLE
105
262
102
{ACAD_REACTORS
330
263
102
}
330
A
100
AcDbSymbolTableRecord
100
AcDbDimStyleTableRecord
  2
ME10_DIM_15
 70
     0
 41
10.5
 42
0.0
 44
3.0
 73
     0
 74
     0
 77
     1
 78
     8
140
10.5
147
3.0
172
     1
173
     1
174
     1
175
     1
176
     2
177
     2
271
     2
178
     7
271
     2
340
218
  0
DIMSTYLE
105
26D
102
{ACAD_REACTORS
330
26E
102
}
330
A
100
AcDbSymbolTableRecord
100
AcDbDimStyleTableRecord
  2
ME10_DIM_16
 70
     0
 41
10.5
 42
0.0
 44
3.0
 73
     0
 74
     0
 77
     1
 78
     8
140
10.5
147
3.0
172
     1
173
     1
174
     1
175
     1
176
     2
177
     2
271
     2
178
     7
271
     2
340
218
  0
ENDTAB
  0
TABLE
  2
BLOCK_RECORD
  5
1
330
0
100
AcDbSymbolTable
 70
    17
  0
BLOCK_RECORD
  5
1F
330
1
100
AcDbSymbolTableRecord
100
AcDbBlockTableRecord
  2
*Model_Space
340
22
  0
BLOCK_RECORD
  5
1B
330
1
100
AcDbSymbolTableRecord
100
AcDbBlockTableRecord
  2
*Paper_Space
340
1E
  0
BLOCK_RECORD
  5
23
330
1
100
AcDbSymbolTableRecord
100
AcDbBlockTableRecord
  2
*Paper_Space0
340
26
  0
BLOCK_RECORD
  5
47
330
1
100
AcDbSymbolTableRecord
100
AcDbBlockTableRecord
  2
開示A4
340
0
102
{BLKREFS
331
5F
102
}
  0
BLOCK_RECORD
  5
4A
330
1
100
AcDbSymbolTableRecord
100
AcDbBlockTableRecord
  2
51-1
340
0
102
{BLKREFS
331
60
102
}
  0
BLOCK_RECORD
  5
4D
330
1
100
AcDbSymbolTableRecord
100
AcDbBlockTableRecord
  2
36-54-M11
340
0
102
{BLKREFS
331
61
102
}
  0
BLOCK_RECORD
  5
50
330
1
100
AcDbSymbolTableRecord
100
AcDbBlockTableRecord
  2
A10-0A-13
340
0
102
{BLKREFS
331
62
102
}
  0
BLOCK_RECORD
  5
53
330
1
100
AcDbSymbolTableRecord
100
AcDbBlockTableRecord
  2
32-1-16
340
0
102
{BLKREFS
331
63
102
}
  0
BLOCK_RECORD
  5
56
330
1
100
AcDbSymbolTableRecord
100
AcDbBlockTableRecord
  2
60-1-16-240
340
0
102
{BLKREFS
331
64
102
}
  0
BLOCK_RECORD
  5
59
330
1
100
AcDbSymbolTableRecord
100
AcDbBlockTableRecord
  2
37-1-13
340
0
102
{BLKREFS
331
65
102
}
  0
BLOCK_RECORD
  5
5C
330
1
100
AcDbSymbolTableRecord
100
AcDbBlockTableRecord
  2
42-1
340
0
102
{BLKREFS
331
66
102
}
  0
BLOCK_RECORD
  5
21F
330
1
100
AcDbSymbolTableRecord
100
AcDbBlockTableRecord
  2
*D9
340
0
  0
BLOCK_RECORD
  5
22A
330
1
100
AcDbSymbolTableRecord
100
AcDbBlockTableRecord
  2
*D10
340
0
  0
BLOCK_RECORD
  5
235
330
1
100
AcDbSymbolTableRecord
100
AcDbBlockTableRecord
  2
*D11
340
0
  0
BLOCK_RECORD
  5
240
330
1
100
AcDbSymbolTableRecord
100
AcDbBlockTableRecord
  2
*D12
340
0
  0
BLOCK_RECORD
  5
249
330
1
100
AcDbSymbolTableRecord
100
AcDbBlockTableRecord
  2
_NONE
340
0
  0
BLOCK_RECORD
  5
24E
330
1
100
AcDbSymbolTableRecord
100
AcDbBlockTableRecord
  2
*D14
340
0
  0
BLOCK_RECORD
  5
259
330
1
100
AcDbSymbolTableRecord
100
AcDbBlockTableRecord
  2
*D15
340
0
  0
BLOCK_RECORD
  5
264
330
1
100
AcDbSymbolTableRecord
100
AcDbBlockTableRecord
  2
*D16
340
0
  0
ENDTAB
  0
ENDSEC
  0
SECTION
  2
BLOCKS
  0
BLOCK
  5
20
330
1F
100
AcDbEntity
  8
0
100
AcDbBlockBegin
  2
*Model_Space
 70
     0
 10
0.0
 20
0.0
 30
0.0
  3
*Model_Space
  1

  0
ENDBLK
  5
21
330
1F
100
AcDbEntity
  8
0
100
AcDbBlockEnd
  0
BLOCK
  5
1C
330
1B
100
AcDbEntity
 67
     1
  8
0
100
AcDbBlockBegin
  2
*Paper_Space
 70
     0
 10
0.0
 20
0.0
 30
0.0
  3
*Paper_Space
  1

  0
ENDBLK
  5
1D
330
1B
100
AcDbEntity
 67
     1
  8
0
100
AcDbBlockEnd
  0
BLOCK
  5
24
330
23
100
AcDbEntity
  8
0
100
AcDbBlockBegin
  2
*Paper_Space0
 70
     0
 10
0.0
 20
0.0
 30
0.0
  3
*Paper_Space0
  1

  0
ENDBLK
  5
25
330
23
100
AcDbEntity
  8
0
100
AcDbBlockEnd
  0
BLOCK
  5
48
330
47
100
AcDbEntity
  8
0
100
AcDbBlockBegin
  2
開示A4
 70
     0
 10
0.0
 20
0.0
 30
0.0
  3
開示A4
  1

  0
POINT
  5
67
330
47
100
AcDbEntity
  8
1
 62
     4
100
AcDbPoint
 10
34.0
 20
34.00000000000001
 30
0.0
  0
POINT
  5
68
330
47
100
AcDbEntity
  8
1
 62
     4
100
AcDbPoint
 10
57.0
 20
12.25
 30
0.0
  0
POINT
  5
69
330
47
100
AcDbEntity
  8
1
 62
     4
100
AcDbPoint
 10
57.0
 20
20.75000000000001
 30
0.0
  0
POINT
  5
6A
330
47
100
AcDbEntity
  8
1
 62
     4
100
AcDbPoint
 10
57.0
 20
24.75000000000001
 30
0.0
  0
POINT
  5
6B
330
47
100
AcDbEntity
  8
1
 62
     4
100
AcDbPoint
 10
57.0
 20
16.25
 30
0.0
  0
POINT
  5
6C
330
47
100
AcDbEntity
  8
1
 62
     4
100
AcDbPoint
 10
157.5
 20
19.00000000000001
 30
0.0
  0
POINT
  5
6D
330
47
100
AcDbEntity
  8
1
 62
     4
100
AcDbPoint
 10
47.5
 20
282.0000000000003
 30
0.0
  0
POINT
  5
6E
330
47
100
AcDbEntity
  8
1
 62
     4
100
AcDbPoint
 10
57.0
 20
22.75000000000001
 30
0.0
  0
POINT
  5
6F
330
47
100
AcDbEntity
  8
1
 62
     4
100
AcDbPoint
 10
57.0
 20
14.25
 30
0.0
  0
POINT
  5
70
330
47
100
AcDbEntity
  8
1
 62
     4
100
AcDbPoint
 10
157.5
 20
12.5
 30
0.0
  0
POINT
  5
71
330
47
100
AcDbEntity
  8
1
 62
     4
100
AcDbPoint
 10
163.25
 20
12.5
 30
0.0
  0
POINT
  5
72
330
47
100
AcDbEntity
  8
1
 62
     4
100
AcDbPoint
 10
151.75
 20
12.5
 30
0.0
  0
POINT
  5
73
330
47
100
AcDbEntity
  8
1
 62
     4
100
AcDbPoint
 10
134.75
 20
12.5
 30
0.0
  0
POINT
  5
74
330
47
100
AcDbEntity
  8
1
 62
     4
100
AcDbPoint
 10
146.25
 20
12.5
 30
0.0
  0
POINT
  5
75
330
47
100
AcDbEntity
  8
1
 62
     4
100
AcDbPoint
 10
140.5
 20
12.5
 30
0.0
  0
POINT
  5
76
330
47
100
AcDbEntity
  8
1
 62
     4
100
AcDbPoint
 10
140.5
 20
19.00000000000001
 30
0.0
  0
POINT
  5
77
330
47
100
AcDbEntity
  8
1
 62
     4
100
AcDbPoint
 10
117.75
 20
12.5
 30
0.0
  0
POINT
  5
78
330
47
100
AcDbEntity
  8
1
 62
     4
100
AcDbPoint
 10
129.25
 20
12.5
 30
0.0
  0
POINT
  5
79
330
47
100
AcDbEntity
  8
1
 62
     4
100
AcDbPoint
 10
123.5
 20
12.5
 30
0.0
  0
POINT
  5
7A
330
47
100
AcDbEntity
  8
1
 62
     4
100
AcDbPoint
 10
123.5
 20
19.00000000000001
 30
0.0
  0
POINT
  5
7B
330
47
100
AcDbEntity
  8
1
 62
     4
100
AcDbPoint
 10
100.75
 20
12.5
 30
0.0
  0
POINT
  5
7C
330
47
100
AcDbEntity
  8
1
 62
     4
100
AcDbPoint
 10
112.25
 20
12.5
 30
0.0
  0
POINT
  5
7D
330
47
100
AcDbEntity
  8
1
 62
     4
100
AcDbPoint
 10
106.5
 20
12.5
 30
0.0
  0
POINT
  5
7E
330
47
100
AcDbEntity
  8
1
 62
     4
100
AcDbPoint
 10
106.5
 20
19.00000000000001
 30
0.0
  0
POINT
  5
7F
330
47
100
AcDbEntity
  8
1
 62
     4
100
AcDbPoint
 10
85.25
 20
17.0
 30
0.0
  0
POINT
  5
80
330
47
100
AcDbEntity
  8
1
 62
     4
100
AcDbPoint
 10
93.75
 20
17.0
 30
0.0
  0
LINE
  5
81
330
47
100
AcDbEntity
  8
1
  6
Continuous
 62
     2
100
AcDbLine
 10
81.0
 20
27.00000000000001
 30
0.0
 11
81.0
 21
10.0
 31
0.0
  0
LINE
  5
82
330
47
100
AcDbEntity
  8
1
  6
DOT_CENTER
 62
     2
100
AcDbLine
 10
187.0
 20
26.50000000000001
 30
0.0
 11
187.0
 21
20.50000000000001
 31
0.0
  0
LINE
  5
83
330
47
100
AcDbEntity
  8
1
  6
DOT_CENTER
 62
     2
100
AcDbLine
 10
184.0
 20
23.50000000000001
 30
0.0
 11
197.0
 21
23.50000000000001
 31
0.0
  0
LINE
  5
84
330
47
100
AcDbEntity
  8
1
  6
Continuous
 62
     7
100
AcDbLine
 10
196.0
 20
21.50000000000001
 30
0.0
 11
191.0
 21
22.30000000000001
 31
0.0
  0
LINE
  5
85
330
47
100
AcDbEntity
  8
1
  6
Continuous
 62
     7
100
AcDbLine
 10
196.0
 20
25.50000000000001
 30
0.0
 11
196.0
 21
21.50000000000001
 31
0.0
  0
LINE
  5
86
330
47
100
AcDbEntity
  8
1
  6
Continuous
 62
     7
100
AcDbLine
 10
191.0
 20
24.70000000000001
 30
0.0
 11
196.0
 21
25.50000000000001
 31
0.0
  0
LINE
  5
87
330
47
100
AcDbEntity
  8
1
  6
Continuous
 62
     7
100
AcDbLine
 10
191.0
 20
24.70000000000001
 30
0.0
 11
191.0
 21
22.30000000000001
 31
0.0
  0
LINE
  5
88
330
47
100
AcDbEntity
  8
1
  6
Continuous
 62
     2
100
AcDbLine
 10
33.0
 20
27.0
 30
0.0
 11
33.0
 21
10.0
 31
0.0
  0
LINE
  5
89
330
47
100
AcDbEntity
  8
1
  6
Continuous
 62
     2
100
AcDbLine
 10
25.0
 20
18.50000000000001
 30
0.0
 11
81.0
 21
18.50000000000001
 31
0.0
  0
LINE
  5
8A
330
47
100
AcDbEntity
  8
1
  6
Continuous
 62
     7
100
AcDbLine
 10
200.0
 20
287.0000000000003
 30
0.0
 11
105.0
 21
287.0000000000003
 31
0.0
  0
LINE
  5
8B
330
47
100
AcDbEntity
  8
1
  6
Continuous
 62
     7
100
AcDbLine
 10
200.0
 20
10.0
 30
0.0
 11
200.0
 21
148.5
 31
0.0
  0
LINE
  5
8C
330
47
100
AcDbEntity
  8
1
  6
Continuous
 62
     7
100
AcDbLine
 10
25.0
 20
10.0
 30
0.0
 11
105.0
 21
10.0
 31
0.0
  0
LINE
  5
8D
330
47
100
AcDbEntity
  8
1
  6
PHANTOM
 62
     4
100
AcDbLine
 10
0.0
 20
297.0
 30
0.0
 11
0.0
 21
0.0
 31
0.0
  0
LINE
  5
8E
330
47
100
AcDbEntity
  8
1
  6
PHANTOM
 62
     4
100
AcDbLine
 10
210.0
 20
297.0
 30
0.0
 11
0.0
 21
297.0
 31
0.0
  0
LINE
  5
8F
330
47
100
AcDbEntity
  8
1
  6
PHANTOM
 62
     4
100
AcDbLine
 10
210.0
 20
0.0
 30
0.0
 11
210.0
 21
297.0
 31
0.0
  0
LINE
  5
90
330
47
100
AcDbEntity
  8
1
  6
PHANTOM
 62
     4
100
AcDbLine
 10
0.0
 20
0.0
 30
0.0
 11
210.0
 21
0.0
 31
0.0
  0
LINE
  5
91
330
47
100
AcDbEntity
  8
1
  6
Continuous
 62
     7
100
AcDbLine
 10
25.0
 20
41.0
 30
0.0
 11
200.0
 21
41.0
 31
0.0
  0
LINE
  5
92
330
47
100
AcDbEntity
  8
1
  6
Continuous
 62
     7
100
AcDbLine
 10
200.0
 20
27.00000000000001
 30
0.0
 11
25.0
 21
27.00000000000001
 31
0.0
  0
LINE
  5
93
330
47
100
AcDbEntity
  8
1
  6
Continuous
 62
     2
100
AcDbLine
 10
33.0
 20
41.00000000000001
 30
0.0
 11
33.0
 21
27.0
 31
0.0
  0
LINE
  5
94
330
47
100
AcDbEntity
  8
1
  6
Continuous
 62
     2
100
AcDbLine
 10
55.0
 20
287.0000000000003
 30
0.0
 11
55.0
 21
277.0000000000003
 31
0.0
  0
LINE
  5
95
330
47
100
AcDbEntity
  8
1
  6
Continuous
 62
     2
100
AcDbLine
 10
40.0
 20
287.0000000000003
 30
0.0
 11
40.0
 21
277.0000000000003
 31
0.0
  0
LINE
  5
96
330
47
100
AcDbEntity
  8
1
  6
Continuous
 62
     7
100
AcDbLine
 10
25.0
 20
10.0
 30
0.0
 11
25.0
 21
148.5
 31
0.0
  0
LINE
  5
97
330
47
100
AcDbEntity
  8
1
  6
Continuous
 62
     2
100
AcDbLine
 10
55.0
 20
277.0000000000003
 30
0.0
 11
25.0
 21
277.0000000000003
 31
0.0
  0
LINE
  5
98
330
47
100
AcDbEntity
  8
1
  6
Continuous
 62
     2
100
AcDbLine
 10
166.0
 20
27.00000000000001
 30
0.0
 11
166.0
 21
10.0
 31
0.0
  0
LINE
  5
99
330
47
100
AcDbEntity
  8
1
  6
Continuous
 62
     2
100
AcDbLine
 10
132.0
 20
27.00000000000001
 30
0.0
 11
132.0
 21
9.99999999999999
 31
0.0
  0
LINE
  5
9A
330
47
100
AcDbEntity
  8
1
  6
Continuous
 62
     2
100
AcDbLine
 10
149.0
 20
27.00000000000001
 30
0.0
 11
149.0
 21
10.0
 31
0.0
  0
LINE
  5
9B
330
47
100
AcDbEntity
  8
1
  6
Continuous
 62
     2
100
AcDbLine
 10
115.0
 20
27.00000000000001
 30
0.0
 11
115.0
 21
9.99999999999999
 31
0.0
  0
LINE
  5
9C
330
47
100
AcDbEntity
  8
1
  6
Continuous
 62
     2
100
AcDbLine
 10
98.0
 20
27.00000000000001
 30
0.0
 11
98.0
 21
9.99999999999999
 31
0.0
  0
LINE
  5
9D
330
47
100
AcDbEntity
  8
1
  6
Continuous
 62
     2
100
AcDbLine
 10
166.0
 20
20.00000000000001
 30
0.0
 11
200.0
 21
20.00000000000001
 31
0.0
  0
LINE
  5
9E
330
47
100
AcDbEntity
  8
1
  6
Continuous
 62
     2
100
AcDbLine
 10
105.0
 20
287.0000000000003
 30
0.0
 11
105.0
 21
292.0000000000003
 31
0.0
  0
LINE
  5
9F
330
47
100
AcDbEntity
  8
1
  6
Continuous
 62
     7
100
AcDbLine
 10
105.0
 20
287.0000000000003
 30
0.0
 11
25.0
 21
287.0000000000003
 31
0.0
  0
LINE
  5
A0
330
47
100
AcDbEntity
  8
1
  6
Continuous
 62
     2
100
AcDbLine
 10
25.0
 20
148.5
 30
0.0
 11
20.0
 21
148.5
 31
0.0
  0
LINE
  5
A1
330
47
100
AcDbEntity
  8
1
  6
Continuous
 62
     7
100
AcDbLine
 10
25.0
 20
148.5
 30
0.0
 11
25.0
 21
287.0000000000003
 31
0.0
  0
LINE
  5
A2
330
47
100
AcDbEntity
  8
1
  6
Continuous
 62
     2
100
AcDbLine
 10
200.0
 20
148.5
 30
0.0
 11
205.0
 21
148.5
 31
0.0
  0
LINE
  5
A3
330
47
100
AcDbEntity
  8
1
  6
Continuous
 62
     7
100
AcDbLine
 10
200.0
 20
148.5
 30
0.0
 11
200.0
 21
287.0000000000003
 31
0.0
  0
LINE
  5
A4
330
47
100
AcDbEntity
  8
1
  6
Continuous
 62
     2
100
AcDbLine
 10
105.0
 20
10.0
 30
0.0
 11
105.0
 21
5.0
 31
0.0
  0
LINE
  5
A5
330
47
100
AcDbEntity
  8
1
  6
Continuous
 62
     7
100
AcDbLine
 10
105.0
 20
10.0
 30
0.0
 11
200.0
 21
10.0
 31
0.0
  0
CIRCLE
  5
A6
330
47
100
AcDbEntity
  8
1
  6
DOT_CENTER
 62
     7
100
AcDbCircle
 10
89.5
 20
18.0
 30
0.0
 40
0.1000000000000227
  0
CIRCLE
  5
A7
330
47
100
AcDbEntity
  8
1
  6
DOT_CENTER
 62
     7
100
AcDbCircle
 10
89.5
 20
16.0
 30
0.0
 40
0.1000000000000227
  0
CIRCLE
  5
A8
330
47
100
AcDbEntity
  8
1
  6
Continuous
 62
     7
100
AcDbCircle
 10
187.0
 20
23.50000000000001
 30
0.0
 40
2.0
  0
CIRCLE
  5
A9
330
47
100
AcDbEntity
  8
1
  6
Continuous
 62
     7
100
AcDbCircle
 10
187.0
 20
23.50000000000001
 30
0.0
 40
1.200000000000102
  0
CIRCLE
  5
AA
330
47
100
AcDbEntity
  8
1
  6
Continuous
 62
     7
100
AcDbCircle
 10
154.5
 20
12.5
 30
0.0
 40
0.3000000000000114
  0
CIRCLE
  5
AB
330
47
100
AcDbEntity
  8
1
  6
Continuous
 62
     7
100
AcDbCircle
 10
160.5
 20
12.5
 30
0.0
 40
0.3000000000000114
  0
CIRCLE
  5
AC
330
47
100
AcDbEntity
  8
1
  6
Continuous
 62
     7
100
AcDbCircle
 10
143.5
 20
12.5
 30
0.0
 40
0.3000000000000114
  0
CIRCLE
  5
AD
330
47
100
AcDbEntity
  8
1
  6
Continuous
 62
     7
100
AcDbCircle
 10
137.5
 20
12.5
 30
0.0
 40
0.3000000000000114
  0
CIRCLE
  5
AE
330
47
100
AcDbEntity
  8
1
  6
Continuous
 62
     7
100
AcDbCircle
 10
126.5
 20
12.5
 30
0.0
 40
0.2999999999999972
  0
CIRCLE
  5
AF
330
47
100
AcDbEntity
  8
1
  6
Continuous
 62
     7
100
AcDbCircle
 10
120.5
 20
12.5
 30
0.0
 40
0.2999999999999972
  0
CIRCLE
  5
B0
330
47
100
AcDbEntity
  8
1
  6
Continuous
 62
     7
100
AcDbCircle
 10
109.5
 20
12.5
 30
0.0
 40
0.2999999999999972
  0
CIRCLE
  5
B1
330
47
100
AcDbEntity
  8
1
  6
Continuous
 62
     7
100
AcDbCircle
 10
103.5
 20
12.5
 30
0.0
 40
0.2999999999999972
  0
MTEXT
  5
B3
330
47
100
AcDbEntity
  8
1
 62
   250
100
AcDbMText
 10
25.0
 20
5.0
 30
0.0
 40
3.5
 41
0.0
 71
     4
 72
     1
  1
備考欄の文字列 原点位置=4
  7
CONVERTER_11
 73
     1
 44
0.54545454545455
  0
MTEXT
  5
B4
330
47
100
AcDbEntity
  8
1
 62
     2
100
AcDbMText
 10
89.5
 20
24.00000000000001
 30
0.0
 40
3.5
 41
0.0
 71
     5
 72
     1
  1
尺度
  7
CONVERTER_11
 73
     1
 44
0.54545454545455
  0
MTEXT
  5
B5
330
47
100
AcDbEntity
  8
1
 62
     2
100
AcDbMText
 10
135.5
 20
25.00000000000001
 30
0.0
 40
3.0
 41
0.0
 71
     5
 72
     1
  1
製図
  7
CONVERTER_11
 73
     1
 44
0.59090909090909
  0
MTEXT
  5
B6
330
47
100
AcDbEntity
  8
1
 62
     2
100
AcDbMText
 10
152.5
 20
25.00000000000001
 30
0.0
 40
3.0
 41
0.0
 71
     5
 72
     1
  1
設計
  7
CONVERTER_11
 73
     1
 44
0.59090909090909
  0
MTEXT
  5
B7
330
47
100
AcDbEntity
  8
1
 62
     2
100
AcDbMText
 10
118.5
 20
25.00000000000001
 30
0.0
 40
3.0
 41
0.0
 71
     5
 72
     1
  1
検図
  7
CONVERTER_11
 73
     1
 44
0.59090909090909
  0
MTEXT
  5
B8
330
47
100
AcDbEntity
  8
1
 62
     2
100
AcDbMText
 10
175.0
 20
23.50000000000001
 30
0.0
 40
3.5
 41
0.0
 71
     5
 72
     1
  1
第三角法
  7
CONVERTER_11
 73
     1
 44
0.54545454545455
  0
MTEXT
  5
B9
330
47
100
AcDbEntity
  8
1
 62
     2
100
AcDbMText
 10
101.5
 20
25.00000000000001
 30
0.0
 40
3.0
 41
0.0
 71
     5
 72
     1
  1
承認
  7
CONVERTER_11
 73
     1
 44
0.59090909090909
  0
MTEXT
  5
BA
330
47
100
AcDbEntity
  8
1
 62
     2
100
AcDbMText
 10
29.0
 20
14.25
 30
0.0
 40
3.5
 41
0.0
 71
     5
 72
     1
  1
品番
  7
CONVERTER_11
 73
     1
 44
0.72727272727273
  0
MTEXT
  5
BB
330
47
100
AcDbEntity
  8
1
 62
     2
100
AcDbMText
 10
29.0
 20
22.75
 30
0.0
 40
3.5
 41
0.0
 71
     5
 72
     1
  1
品名
  7
CONVERTER_11
 73
     1
 44
0.72727272727273
  0
MTEXT
  5
BC
330
47
100
AcDbEntity
  8
1
 62
     2
100
AcDbMText
 10
29.0
 20
34.00000000000001
 30
0.0
 40
3.5
 41
0.0
 71
     5
 72
     1
  1
備考
  7
CONVERTER_11
 73
     1
 44
0.45454545454545
  0
MTEXT
  5
BD
330
47
100
AcDbEntity
  8
1
 62
     2
100
AcDbMText
 10
32.5
 20
282.0000000000003
 30
0.0
 40
5.0
 41
0.0
 71
     5
 72
     1
  1
図番
  7
CONVERTER_11
 73
     1
 44
0.45454545454545
  0
MTEXT
  5
BE
330
47
100
AcDbEntity
  8
1
 62
     7
100
AcDbMText
 10
171.5
 20
15.0
 30
0.0
 40
2.5
 41
0.0
 71
     5
 72
     1
  1
株式会社
  7
CONVERTER_11
 73
     1
 44
1.0
  0
MTEXT
  5
BF
330
47
100
AcDbEntity
  8
1
 62
     7
100
AcDbMText
 10
188.5
 20
15.0
 30
0.0
 40
3.0
 41
0.0
 71
     5
 72
     1
  1
三栄水栓製作所
  7
CONVERTER_11
 73
     1
 44
1.0
  0
ENDBLK
  5
49
330
47
100
AcDbEntity
  8
0
100
AcDbBlockEnd
  0
BLOCK
  5
4B
330
4A
100
AcDbEntity
  8
0
100
AcDbBlockBegin
  2
51-1
 70
     0
 10
509.3588032702801
 20
690.7436533667878
 30
0.0
  3
51-1
  1

  0
LINE
  5
C0
330
4A
100
AcDbEntity
  8
1
  6
DASH_CENTER
 62
     2
100
AcDbLine
 10
159.5194675010769
 20
685.1136576060048
 30
0.0
 11
121.4143497345615
 21
707.1136576060048
 31
0.0
  0
LINE
  5
C1
330
4A
100
AcDbEntity
  8
1
  6
DASH_CENTER
 62
     2
100
AcDbLine
 10
142.198959425388
 20
685.1136576060048
 30
0.0
 11
180.3040771919033
 21
707.113657606005
 31
0.0
  0
LINE
  5
C2
330
4A
100
AcDbEntity
  8
1
  6
Continuous
 62
     7
100
AcDbLine
 10
123.6653524332431
 20
346.8988711004503
 30
0.0
 11
123.2134443342508
 21
343.6833778955796
 31
0.0
  0
LINE
  5
C3
330
4A
100
AcDbEntity
  8
1
  6
Continuous
 62
     7
100
AcDbLine
 10
178.5049825922143
 20
343.6833778955796
 30
0.0
 11
178.0530744932219
 21
346.8988711004503
 31
0.0
  0
LINE
  5
C4
330
4A
100
AcDbEntity
  8
1
  6
Continuous
 62
     7
100
AcDbLine
 10
123.7085783686215
 20
343.1137913450996
 30
0.0
 11
178.0098485578434
 21
343.1137913450996
 31
0.0
  0
LINE
  5
C5
330
4A
100
AcDbEntity
  8
1
  6
Continuous
 62
     7
100
AcDbLine
 10
145.0636585054979
 20
663.5607433353896
 30
0.0
 11
141.4122492940276
 21
677.1879880318226
 31
0.0
  0
LINE
  5
C6
330
4A
100
AcDbEntity
  8
1
  6
Continuous
 62
     7
100
AcDbLine
 10
124.9659376815021
 20
698.3710169188854
 30
0.0
 11
134.9417731664645
 21
688.3951814339232
 31
0.0
  0
LINE
  5
C7
330
4A
100
AcDbEntity
  8
1
  6
Continuous
 62
     7
100
AcDbLine
 10
130.7614926392365
 20
708.4092125637392
 30
0.0
 11
144.3887373356693
 21
704.7578033522688
 31
0.0
  0
LINE
  5
C8
330
4A
100
AcDbEntity
  8
1
  6
Continuous
 62
     7
100
AcDbLine
 10
171.7174391898486
 20
708.6129892382362
 30
0.0
 11
157.3296895907954
 21
704.7578033522688
 31
0.0
  0
LINE
  5
C9
330
4A
100
AcDbEntity
  8
1
  6
Continuous
 62
     7
100
AcDbLine
 10
176.7524892449626
 20
698.3710169188854
 30
0.0
 11
166.7766537600002
 21
688.3951814339232
 31
0.0
  0
LINE
  5
CA
330
4A
100
AcDbEntity
  8
1
  6
Continuous
 62
     7
100
AcDbLine
 10
156.6547684209668
 20
663.5607433353896
 30
0.0
 11
160.3061776324372
 21
677.1879880318226
 31
0.0
  0
LINE
  5
CB
330
4A
100
AcDbEntity
  8
1
  6
Continuous
 62
     7
100
AcDbLine
 10
453.875568428527
 20
346.5007002504671
 30
0.0
 11
453.875568428527
 21
343.6137913450996
 31
0.0
  0
LINE
  5
CC
330
4A
100
AcDbEntity
  8
1
  6
Continuous
 62
     7
100
AcDbLine
 10
454.375568428527
 20
343.1137913450996
 30
0.0
 11
502.875568428527
 21
343.1137913450996
 31
0.0
  0
LINE
  5
CD
330
4A
100
AcDbEntity
  8
1
  6
Continuous
 62
     7
100
AcDbLine
 10
503.375568428527
 20
346.0887407675093
 30
0.0
 11
503.375568428527
 21
343.6137913450996
 31
0.0
  0
ARC
  5
CE
330
4A
100
AcDbEntity
  8
1
  6
Continuous
 62
     7
100
AcDbCircle
 10
155.952106886839
 20
226.9936388047753
 30
0.0
 40
127.9436752841996
100
AcDbArc
 50
94.07541823806494
 51
102.3507945896197
  0
ARC
  5
CF
330
4A
100
AcDbEntity
  8
1
  6
Continuous
 62
     7
100
AcDbCircle
 10
145.766320039626
 20
226.9936388047752
 30
0.0
 40
127.9436752841999
100
AcDbArc
 50
77.64920541038038
 51
85.92458176193526
  0
ARC
  5
D0
330
4A
100
AcDbEntity
  8
1
  6
Continuous
 62
     7
100
AcDbCircle
 10
150.8592134632324
 20
665.1136576060048
 30
0.0
 40
6.000000000000129
100
AcDbArc
 50
195.0000000000009
 51
270.0
  0
ARC
  5
D1
330
4A
100
AcDbEntity
  8
1
  6
Continuous
 62
     7
100
AcDbCircle
 10
129.2085783686214
 20
702.6136576060048
 30
0.0
 40
5.999999999999926
100
AcDbArc
 50
75.0
 51
225.0000000000009
  0
ARC
  5
D2
330
4A
100
AcDbEntity
  8
1
  6
Continuous
 62
     7
100
AcDbCircle
 10
172.5098485578433
 20
702.6136576060048
 30
0.0
 40
6.000000000000109
100
AcDbArc
 50
314.999999999999
 51
97.5242410789414
  0
ARC
  5
D3
330
4A
100
AcDbEntity
  8
1
  6
Continuous
 62
     7
100
AcDbCircle
 10
150.8592134632324
 20
665.1136576060048
 30
0.0
 40
6.0
100
AcDbArc
 50
270.0
 51
344.9999999999989
  0
ARC
  5
D4
330
4A
100
AcDbEntity
  8
1
  6
Continuous
 62
     7
100
AcDbCircle
 10
484.775568428527
 20
206.0821252676792
 30
0.0
 40
148.6092050572046
100
AcDbArc
 50
91.8509457968689
 51
100.0532276375031
  0
ARC
  5
D5
330
4A
100
AcDbEntity
  8
1
  6
Continuous
 62
     7
100
AcDbCircle
 10
486.8244502411373
 20
333.0536265801095
 30
0.0
 40
21.76119949013513
100
AcDbArc
 50
67.2324503310244
 51
82.2058875849482
  0
ARC
  5
D6
330
4A
100
AcDbEntity
  8
1
  6
Continuous
 62
     7
100
AcDbCircle
 10
471.8715235699913
 20
275.9404580897182
 30
0.0
 40
80.64072525632025
100
AcDbArc
 50
70.02008322088787
 51
73.19210648524877
  0
ARC
  5
D7
330
4A
100
AcDbEntity
  8
1
  6
Continuous
 62
     7
100
AcDbCircle
 10
129.6069608456925
 20
346.0638324946899
 30
0.0
 40
6.000000000000131
100
AcDbArc
 50
99.8029017937676
 51
171.9999999999997
  0
ARC
  5
D8
330
4A
100
AcDbEntity
  8
1
  6
Continuous
 62
     7
100
AcDbCircle
 10
123.7085783686215
 20
343.6137913450996
 30
0.0
 40
0.499999999999916
100
AcDbArc
 50
172.0000000000044
 51
270.0
  0
ARC
  5
D9
330
4A
100
AcDbEntity
  8
1
  6
Continuous
 62
     7
100
AcDbCircle
 10
178.0098485578434
 20
343.6137913450996
 30
0.0
 40
0.5
100
AcDbArc
 50
270.0
 51
7.99999999999261
  0
ARC
  5
DA
330
4A
100
AcDbEntity
  8
1
  6
Continuous
 62
     7
100
AcDbCircle
 10
172.1114660807724
 20
346.0638324946899
 30
0.0
 40
6.000000000000092
100
AcDbArc
 50
8.00000000000011
 51
80.1970982062324
  0
ARC
  5
DB
330
4A
100
AcDbEntity
  8
1
  6
Continuous
 62
     7
100
AcDbCircle
 10
117.2641036368008
 20
670.7175119042595
 30
0.0
 40
25.0000000000001
100
AcDbArc
 50
15.00000000000007
 51
45.00000000000005
  0
ARC
  5
DC
330
4A
100
AcDbEntity
  8
1
  6
Continuous
 62
     7
100
AcDbCircle
 10
150.8592134632324
 20
728.9059490094953
 30
0.0
 40
24.99999999999988
100
AcDbArc
 50
254.9999999999997
 51
285.0
  0
ARC
  5
DD
330
4A
100
AcDbEntity
  8
1
  6
Continuous
 62
     7
100
AcDbCircle
 10
184.4543232896639
 20
670.7175119042595
 30
0.0
 40
25.00000000000004
100
AcDbArc
 50
135.0
 51
164.9999999999999
  0
ARC
  5
DE
330
4A
100
AcDbEntity
  8
1
  6
Continuous
 62
     7
100
AcDbCircle
 10
454.375568428527
 20
343.6137913450996
 30
0.0
 40
0.5
100
AcDbArc
 50
180.0
 51
270.0
  0
ARC
  5
DF
330
4A
100
AcDbEntity
  8
1
  6
Continuous
 62
     7
100
AcDbCircle
 10
459.875568428527
 20
346.5007002504671
 30
0.0
 40
5.999999999999872
100
AcDbArc
 50
99.99784348756816
 51
180.0
  0
ARC
  5
E0
330
4A
100
AcDbEntity
  8
1
  6
Continuous
 62
     7
100
AcDbCircle
 10
502.875568428527
 20
343.6137913450996
 30
0.0
 40
0.5
100
AcDbArc
 50
270.0
 51
0.0
  0
ARC
  5
E1
330
4A
100
AcDbEntity
  8
1
  6
Continuous
 62
     7
100
AcDbCircle
 10
497.375568428527
 20
346.0887407675093
 30
0.0
 40
6.0
100
AcDbArc
 50
0.0
 51
70.02008322088795
  0
ENDBLK
  5
4C
330
4A
100
AcDbEntity
  8
0
100
AcDbBlockEnd
  0
BLOCK
  5
4E
330
4D
100
AcDbEntity
  8
0
100
AcDbBlockBegin
  2
36-54-M11
 70
     0
 10
239.0617100065787
 20
201.5446653356634
 30
0.0
  3
36-54-M11
  1

  0
LINE
  5
E2
330
4D
100
AcDbEntity
  8
1
  6
Continuous
 62
     7
100
AcDbLine
 10
480.125568428527
 20
339.6137913450996
 30
0.0
 11
480.125568428527
 21
343.1137913450996
 31
0.0
  0
LINE
  5
E3
330
4D
100
AcDbEntity
  8
1
  6
Continuous
 62
     7
100
AcDbLine
 10
489.6255684285269
 20
343.1137913450996
 30
0.0
 11
489.6255684285269
 21
339.6137913450996
 31
0.0
  0
LINE
  5
E4
330
4D
100
AcDbEntity
  8
1
  6
Continuous
 62
     7
100
AcDbLine
 10
146.1092134632323
 20
339.6137913450996
 30
0.0
 11
146.1092134632323
 21
343.1137913450996
 31
0.0
  0
LINE
  5
E5
330
4D
100
AcDbEntity
  8
1
  6
Continuous
 62
     7
100
AcDbLine
 10
155.6092134632323
 20
343.1137913450996
 30
0.0
 11
155.6092134632323
 21
339.6137913450996
 31
0.0
  0
ENDBLK
  5
4F
330
4D
100
AcDbEntity
  8
0
100
AcDbBlockEnd
  0
BLOCK
  5
51
330
50
100
AcDbEntity
  8
0
100
AcDbBlockBegin
  2
A10-0A-13
 70
     0
 10
484.875568428527
 20
300.1137913450995
 30
0.0
  3
A10-0A-13
  1

  0
LINE
  5
E6
330
50
100
AcDbEntity
  8
0
  6
DASH_CENTER
 62
     4
100
AcDbLine
 10
173.8592134632323
 20
300.1137913450995
 30
0.0
 11
176.8592134632323
 21
300.1137913450995
 31
0.0
  0
LINE
  5
E7
330
50
100
AcDbEntity
  8
1
  6
Continuous
 62
     7
100
AcDbLine
 10
543.875568428527
 20
290.6137913450995
 30
0.0
 11
543.8755684285269
 21
309.6137913450995
 31
0.0
  0
LINE
  5
E8
330
50
100
AcDbEntity
  8
1
  6
Continuous
 62
     7
100
AcDbLine
 10
436.8755684285268
 20
284.3458421526683
 30
0.0
 11
436.8755684285268
 21
284.4737364004594
 31
0.0
  0
LINE
  5
E9
330
50
100
AcDbEntity
  8
1
  6
Continuous
 62
     7
100
AcDbLine
 10
472.8755684285268
 20
325.6137913450996
 30
0.0
 11
472.8755684285268
 21
322.3817405375309
 31
0.0
  0
LINE
  5
EA
330
50
100
AcDbEntity
  8
1
  6
Continuous
 62
     2
100
AcDbLine
 10
473.8755684285268
 20
324.1137913450996
 30
0.0
 11
473.875568428527
 21
325.6137913450996
 31
0.0
  0
LINE
  5
EB
330
50
100
AcDbEntity
  8
1
  6
Continuous
 62
     2
100
AcDbLine
 10
472.8755684285268
 20
322.3817405375309
 30
0.0
 11
473.8755684285268
 21
324.1137913450996
 31
0.0
  0
LINE
  5
EC
330
50
100
AcDbEntity
  8
1
  6
Continuous
 62
     7
100
AcDbLine
 10
496.8755684285269
 20
322.3817405375309
 30
0.0
 11
496.8755684285269
 21
325.6137913450996
 31
0.0
  0
LINE
  5
ED
330
50
100
AcDbEntity
  8
1
  6
Continuous
 62
     2
100
AcDbLine
 10
495.8755684285268
 20
324.1137913450996
 30
0.0
 11
496.8755684285269
 21
322.3817405375309
 31
0.0
  0
LINE
  5
EE
330
50
100
AcDbEntity
  8
1
  6
Continuous
 62
     7
100
AcDbLine
 10
496.8755684285269
 20
322.3817405375309
 30
0.0
 11
497.168145628176
 21
322.3817405375309
 31
0.0
  0
LINE
  5
EF
330
50
100
AcDbEntity
  8
1
  6
Continuous
 62
     7
100
AcDbLine
 10
472.582991228879
 20
322.3817405375309
 30
0.0
 11
472.8755684285268
 21
322.3817405375309
 31
0.0
  0
LINE
  5
F0
330
50
100
AcDbEntity
  8
1
  6
Continuous
 62
     2
100
AcDbLine
 10
437.8755684285268
 20
281.1137913450996
 30
0.0
 11
437.8755684285268
 21
282.6137913450995
 31
0.0
  0
LINE
  5
F1
330
50
100
AcDbEntity
  8
1
  6
Continuous
 62
     2
100
AcDbLine
 10
461.8755684285268
 20
282.6137913450995
 30
0.0
 11
461.8755684285268
 21
281.1137913450996
 31
0.0
  0
LINE
  5
F2
330
50
100
AcDbEntity
  8
1
  6
Continuous
 62
     2
100
AcDbLine
 10
461.8755684285268
 20
282.6137913450995
 30
0.0
 11
462.8755684285268
 21
284.3458421526683
 31
0.0
  0
LINE
  5
F3
330
50
100
AcDbEntity
  8
1
  6
Continuous
 62
     7
100
AcDbLine
 10
436.8755684285268
 20
281.1137913450996
 30
0.0
 11
436.8755684285268
 21
284.3458421526683
 31
0.0
  0
LINE
  5
F4
330
50
100
AcDbEntity
  8
1
  6
Continuous
 62
     2
100
AcDbLine
 10
436.8755684285268
 20
284.3458421526683
 30
0.0
 11
437.8755684285268
 21
282.6137913450995
 31
0.0
  0
LINE
  5
F5
330
50
100
AcDbEntity
  8
1
  6
Continuous
 62
     7
100
AcDbLine
 10
462.8755684285268
 20
284.4737364004594
 30
0.0
 11
462.8755684285268
 21
281.1137913450996
 31
0.0
  0
LINE
  5
F6
330
50
100
AcDbEntity
  8
1
  6
Continuous
 62
     7
100
AcDbLine
 10
527.3755684285269
 20
312.8637913450995
 30
0.0
 11
527.3755684285269
 21
322.6137913450996
 31
0.0
  0
LINE
  5
F7
330
50
100
AcDbEntity
  8
1
  6
Continuous
 62
     7
100
AcDbLine
 10
529.875568428527
 20
323.1137913450996
 30
0.0
 11
527.8755684285269
 21
323.1137913450996
 31
0.0
  0
LINE
  5
F8
330
50
100
AcDbEntity
  8
1
  6
Continuous
 62
     7
100
AcDbLine
 10
529.875568428527
 20
323.1137913450996
 30
0.0
 11
529.8755684285269
 21
310.6137913450995
 31
0.0
  0
LINE
  5
F9
330
50
100
AcDbEntity
  8
1
  6
Continuous
 62
     2
100
AcDbLine
 10
529.8755684285269
 20
310.6137913450995
 30
0.0
 11
531.607619236096
 21
309.6137913450995
 31
0.0
  0
LINE
  5
FA
330
50
100
AcDbEntity
  8
1
  6
Continuous
 62
     7
100
AcDbLine
 10
543.8755684285269
 20
309.6137913450995
 30
0.0
 11
542.8755684285269
 21
310.6137913450995
 31
0.0
  0
LINE
  5
FB
330
50
100
AcDbEntity
  8
1
  6
Continuous
 62
     7
100
AcDbLine
 10
529.8755684285269
 20
310.6137913450995
 30
0.0
 11
542.8755684285269
 21
310.6137913450995
 31
0.0
  0
LINE
  5
FC
330
50
100
AcDbEntity
  8
1
  6
Continuous
 62
     2
100
AcDbLine
 10
531.607619236096
 20
309.6137913450995
 30
0.0
 11
543.8755684285269
 21
309.6137913450995
 31
0.0
  0
LINE
  5
FD
330
50
100
AcDbEntity
  8
1
  6
Continuous
 62
     7
100
AcDbLine
 10
529.8755684285269
 20
289.6137913450995
 30
0.0
 11
529.875568428527
 21
277.1137913450995
 31
0.0
  0
LINE
  5
FE
330
50
100
AcDbEntity
  8
1
  6
Continuous
 62
     7
100
AcDbLine
 10
529.875568428527
 20
277.1137913450995
 30
0.0
 11
527.8755684285269
 21
277.1137913450995
 31
0.0
  0
LINE
  5
FF
330
50
100
AcDbEntity
  8
1
  6
Continuous
 62
     7
100
AcDbLine
 10
527.3755684285269
 20
287.3637913450995
 30
0.0
 11
527.375568428527
 21
277.6137913450995
 31
0.0
  0
LINE
  5
100
330
50
100
AcDbEntity
  8
1
  6
Continuous
 62
     7
100
AcDbLine
 10
542.8755684285269
 20
289.6137913450995
 30
0.0
 11
543.875568428527
 21
290.6137913450995
 31
0.0
  0
LINE
  5
101
330
50
100
AcDbEntity
  8
1
  6
Continuous
 62
     2
100
AcDbLine
 10
543.875568428527
 20
290.6137913450995
 30
0.0
 11
531.607619236096
 21
290.6137913450995
 31
0.0
  0
LINE
  5
102
330
50
100
AcDbEntity
  8
1
  6
Continuous
 62
     2
100
AcDbLine
 10
531.607619236096
 20
290.6137913450995
 30
0.0
 11
529.8755684285269
 21
289.6137913450995
 31
0.0
  0
LINE
  5
103
330
50
100
AcDbEntity
  8
1
  6
Continuous
 62
     7
100
AcDbLine
 10
542.8755684285269
 20
289.6137913450995
 30
0.0
 11
529.8755684285269
 21
289.6137913450995
 31
0.0
  0
LINE
  5
104
330
50
100
AcDbEntity
  8
1
  6
Continuous
 62
     2
100
AcDbLine
 10
495.8755684285268
 20
325.6137913450996
 30
0.0
 11
495.8755684285268
 21
324.1137913450996
 31
0.0
  0
LINE
  5
105
330
50
100
AcDbEntity
  8
1
  6
Continuous
 62
     7
100
AcDbLine
 10
461.8567152456479
 20
288.0397225405374
 30
0.0
 11
462.8755684285268
 21
284.4737364004594
 31
0.0
  0
LINE
  5
106
330
50
100
AcDbEntity
  8
1
  6
Continuous
 62
     7
100
AcDbLine
 10
466.44325983736
 20
291.6137913450995
 30
0.0
 11
465.6170423185539
 21
291.6137913450995
 31
0.0
  0
LINE
  5
107
330
50
100
AcDbEntity
  8
1
  6
Continuous
 62
     7
100
AcDbLine
 10
507.055232537795
 20
291.3637913450993
 30
0.0
 11
523.3755684285269
 21
291.3637913450995
 31
0.0
  0
LINE
  5
108
330
50
100
AcDbEntity
  8
1
  6
Continuous
 62
     7
100
AcDbLine
 10
497.168145628176
 20
322.3817405375309
 30
0.0
 11
497.320243620717
 21
317.5906537724927
 31
0.0
  0
LINE
  5
109
330
50
100
AcDbEntity
  8
1
  6
Continuous
 62
     7
100
AcDbLine
 10
523.3755684285269
 20
308.8637913450995
 30
0.0
 11
507.0552325377959
 21
308.8637913450997
 31
0.0
  0
LINE
  5
10A
330
50
100
AcDbEntity
  8
1
  6
Continuous
 62
     7
100
AcDbLine
 10
437.8543741457078
 20
287.8995564105923
 30
0.0
 11
436.8755684285268
 21
284.4737364004594
 31
0.0
  0
LINE
  5
10B
330
50
100
AcDbEntity
  8
1
  6
Continuous
 62
     7
100
AcDbLine
 10
472.4212122012618
 20
317.2857011676113
 30
0.0
 11
472.582991228879
 21
322.3817405375309
 31
0.0
  0
LINE
  5
10C
330
50
100
AcDbEntity
  8
1
  6
Continuous
 62
     7
100
AcDbLine
 10
462.875568428527
 20
282.6137913450995
 30
0.0
 11
436.8755684285268
 21
282.6137913450995
 31
0.0
  0
LINE
  5
10D
330
50
100
AcDbEntity
  8
1
  6
Continuous
 62
     7
100
AcDbLine
 10
496.8755684285269
 20
324.1137913450996
 30
0.0
 11
472.875568428527
 21
324.1137913450996
 31
0.0
  0
LINE
  5
10E
330
50
100
AcDbEntity
  8
1
  6
Continuous
 62
     7
100
AcDbLine
 10
496.8755684285269
 20
322.3817405375309
 30
0.0
 11
472.8755684285268
 21
322.3817405375309
 31
0.0
  0
LINE
  5
10F
330
50
100
AcDbEntity
  8
1
  6
Continuous
 62
     7
100
AcDbLine
 10
531.607619236096
 20
310.6137913450995
 30
0.0
 11
531.607619236096
 21
289.6137913450995
 31
0.0
  0
LINE
  5
110
330
50
100
AcDbEntity
  8
1
  6
Continuous
 62
     7
100
AcDbLine
 10
529.8755684285269
 20
289.6137913450995
 30
0.0
 11
529.8755684285269
 21
310.6137913450995
 31
0.0
  0
LINE
  5
111
330
50
100
AcDbEntity
  8
1
  6
Continuous
 62
     7
100
AcDbLine
 10
527.3755684285269
 20
312.8637913450995
 30
0.0
 11
527.3755684285269
 21
287.3637913450995
 31
0.0
  0
LINE
  5
112
330
50
100
AcDbEntity
  8
1
  6
Continuous
 62
     7
100
AcDbLine
 10
542.8755684285269
 20
310.6137913450995
 30
0.0
 11
542.8755684285269
 21
289.6137913450995
 31
0.0
  0
LINE
  5
113
330
50
100
AcDbEntity
  8
0
  6
PHANTOM
 62
     4
100
AcDbLine
 10
124.8592134632323
 20
300.1137913450995
 30
0.0
 11
173.8592134632323
 21
300.1137913450995
 31
0.0
  0
LINE
  5
114
330
50
100
AcDbEntity
  8
1
  6
PHANTOM
 62
     4
100
AcDbLine
 10
167.8592134632324
 20
690.1136576060048
 30
0.0
 11
133.8592134632324
 21
690.1136576060048
 31
0.0
  0
LINE
  5
115
330
50
100
AcDbEntity
  8
1
  6
Continuous
 62
     2
100
AcDbLine
 10
160.3592134632324
 20
736.8457084135734
 30
0.0
 11
160.3592134632324
 21
749.1136576060048
 31
0.0
  0
LINE
  5
116
330
50
100
AcDbEntity
  8
1
  6
Continuous
 62
     2
100
AcDbLine
 10
160.3592134632324
 20
736.8457084135734
 30
0.0
 11
161.3592134632324
 21
735.1136576060048
 31
0.0
  0
LINE
  5
117
330
50
100
AcDbEntity
  8
1
  6
Continuous
 62
     7
100
AcDbLine
 10
173.8592134632324
 20
735.1136576060048
 30
0.0
 11
127.8592134632324
 21
735.1136576060048
 31
0.0
  0
LINE
  5
118
330
50
100
AcDbEntity
  8
1
  6
Continuous
 62
     7
100
AcDbLine
 10
173.8592134632324
 20
733.0758528518338
 30
0.0
 11
173.8592134632324
 21
735.1136576060048
 31
0.0
  0
LINE
  5
119
330
50
100
AcDbEntity
  8
1
  6
Continuous
 62
     7
100
AcDbLine
 10
159.6092134632324
 20
728.5773941849673
 30
0.0
 11
159.6092134632324
 21
714.1331809151797
 31
0.0
  0
LINE
  5
11A
330
50
100
AcDbEntity
  8
1
  6
Continuous
 62
     7
100
AcDbLine
 10
127.8592134632324
 20
735.1136576060048
 30
0.0
 11
127.8592134632324
 21
733.0758528518338
 31
0.0
  0
LINE
  5
11B
330
50
100
AcDbEntity
  8
1
  6
Continuous
 62
     2
100
AcDbLine
 10
140.3592134632324
 20
735.1136576060048
 30
0.0
 11
141.3592134632324
 21
736.8457084135734
 31
0.0
  0
LINE
  5
11C
330
50
100
AcDbEntity
  8
1
  6
Continuous
 62
     2
100
AcDbLine
 10
141.3592134632324
 20
736.8457084135734
 30
0.0
 11
141.3592134632324
 21
749.1136576060048
 31
0.0
  0
LINE
  5
11D
330
50
100
AcDbEntity
  8
1
  6
Continuous
 62
     7
100
AcDbLine
 10
142.1092134632324
 20
728.5773941849673
 30
0.0
 11
142.1092134632324
 21
714.1331809151797
 31
0.0
  0
LINE
  5
11E
330
50
100
AcDbEntity
  8
1
  6
Continuous
 62
     7
100
AcDbLine
 10
140.3592134632324
 20
735.1136576060048
 30
0.0
 11
140.3592134632324
 21
748.1136576060048
 31
0.0
  0
LINE
  5
11F
330
50
100
AcDbEntity
  8
1
  6
Continuous
 62
     7
100
AcDbLine
 10
141.3592134632324
 20
749.1136576060048
 30
0.0
 11
140.3592134632324
 21
748.1136576060048
 31
0.0
  0
LINE
  5
120
330
50
100
AcDbEntity
  8
1
  6
Continuous
 62
     7
100
AcDbLine
 10
161.3592134632324
 20
748.1136576060048
 30
0.0
 11
161.3592134632324
 21
735.1136576060048
 31
0.0
  0
LINE
  5
121
330
50
100
AcDbEntity
  8
1
  6
Continuous
 62
     7
100
AcDbLine
 10
161.3592134632324
 20
748.1136576060048
 30
0.0
 11
160.3592134632324
 21
749.1136576060048
 31
0.0
  0
LINE
  5
122
330
50
100
AcDbEntity
  8
1
  6
Continuous
 62
     7
100
AcDbLine
 10
141.3592134632324
 20
749.1136576060048
 30
0.0
 11
160.3592134632324
 21
749.1136576060048
 31
0.0
  0
LINE
  5
123
330
50
100
AcDbEntity
  8
1
  6
Continuous
 62
     7
100
AcDbLine
 10
142.1092134632324
 20
657.1136576060048
 30
0.0
 11
142.1092134632324
 21
666.0941342968297
 31
0.0
  0
LINE
  5
124
330
50
100
AcDbEntity
  8
1
  6
Continuous
 62
     7
100
AcDbLine
 10
159.6092134632324
 20
657.1136576060048
 30
0.0
 11
159.6092134632324
 21
666.0941342968297
 31
0.0
  0
LINE
  5
125
330
50
100
AcDbEntity
  8
1
  6
Continuous
 62
     7
100
AcDbLine
 10
140.3592134632324
 20
736.8457084135734
 30
0.0
 11
161.3592134632324
 21
736.8457084135734
 31
0.0
  0
LINE
  5
126
330
50
100
AcDbEntity
  8
1
  6
Continuous
 62
     7
100
AcDbLine
 10
161.3592134632324
 20
748.1136576060048
 30
0.0
 11
140.3592134632324
 21
748.1136576060048
 31
0.0
  0
LINE
  5
127
330
50
100
AcDbEntity
  8
1
  6
Continuous
 62
     7
100
AcDbLine
 10
128.3199839153685
 20
732.5773941849673
 30
0.0
 11
173.3984430110963
 21
732.5773941849673
 31
0.0
  0
LINE
  5
128
330
50
100
AcDbEntity
  8
1
  6
PHANTOM
 62
     4
100
AcDbLine
 10
166.8592134632324
 20
655.1136576060048
 30
0.0
 11
134.8592134632324
 21
655.1136576060048
 31
0.0
  0
LINE
  5
129
330
50
100
AcDbEntity
  8
1
  6
Continuous
 62
     7
100
AcDbLine
 10
137.8592134632322
 20
284.3458421526683
 30
0.0
 11
137.8592134632322
 21
284.4737364004594
 31
0.0
  0
LINE
  5
12A
330
50
100
AcDbEntity
  8
1
  6
Continuous
 62
     7
100
AcDbLine
 10
138.8592134632322
 20
325.6137913450996
 30
0.0
 11
138.8592134632322
 21
322.3817405375309
 31
0.0
  0
LINE
  5
12B
330
50
100
AcDbEntity
  8
1
  6
Continuous
 62
     2
100
AcDbLine
 10
139.8592134632322
 20
324.1137913450996
 30
0.0
 11
139.8592134632323
 21
325.6137913450996
 31
0.0
  0
LINE
  5
12C
330
50
100
AcDbEntity
  8
1
  6
Continuous
 62
     2
100
AcDbLine
 10
138.8592134632322
 20
322.3817405375309
 30
0.0
 11
139.8592134632322
 21
324.1137913450996
 31
0.0
  0
LINE
  5
12D
330
50
100
AcDbEntity
  8
1
  6
Continuous
 62
     7
100
AcDbLine
 10
162.8592134632322
 20
322.3817405375309
 30
0.0
 11
162.8592134632322
 21
325.6137913450996
 31
0.0
  0
LINE
  5
12E
330
50
100
AcDbEntity
  8
1
  6
Continuous
 62
     2
100
AcDbLine
 10
161.8592134632322
 20
324.1137913450996
 30
0.0
 11
162.8592134632322
 21
322.3817405375309
 31
0.0
  0
LINE
  5
12F
330
50
100
AcDbEntity
  8
1
  6
Continuous
 62
     7
100
AcDbLine
 10
162.8592134632322
 20
322.3817405375309
 30
0.0
 11
163.1517906628814
 21
322.3817405375309
 31
0.0
  0
LINE
  5
130
330
50
100
AcDbEntity
  8
1
  6
Continuous
 62
     7
100
AcDbLine
 10
138.5666362635833
 20
322.3817405375309
 30
0.0
 11
138.8592134632322
 21
322.3817405375309
 31
0.0
  0
LINE
  5
131
330
50
100
AcDbEntity
  8
1
  6
Continuous
 62
     2
100
AcDbLine
 10
138.8592134632322
 20
281.1137913450996
 30
0.0
 11
138.8592134632322
 21
282.6137913450995
 31
0.0
  0
LINE
  5
132
330
50
100
AcDbEntity
  8
1
  6
Continuous
 62
     7
100
AcDbLine
 10
137.8592134632322
 20
281.1137913450996
 30
0.0
 11
137.8592134632322
 21
284.3458421526683
 31
0.0
  0
LINE
  5
133
330
50
100
AcDbEntity
  8
1
  6
Continuous
 62
     2
100
AcDbLine
 10
137.8592134632322
 20
284.3458421526683
 30
0.0
 11
138.8592134632322
 21
282.6137913450995
 31
0.0
  0
LINE
  5
134
330
50
100
AcDbEntity
  8
1
  6
Continuous
 62
     2
100
AcDbLine
 10
161.8592134632322
 20
325.6137913450996
 30
0.0
 11
161.8592134632322
 21
324.1137913450996
 31
0.0
  0
LINE
  5
135
330
50
100
AcDbEntity
  8
1
  6
Continuous
 62
     7
100
AcDbLine
 10
163.1517906628814
 20
322.3817405375309
 30
0.0
 11
163.8592041330633
 21
300.0982162268221
 31
0.0
  0
LINE
  5
136
330
50
100
AcDbEntity
  8
1
  6
Continuous
 62
     7
100
AcDbLine
 10
138.8380191804132
 20
287.8995564105923
 30
0.0
 11
137.8592134632322
 21
284.4737364004594
 31
0.0
  0
LINE
  5
137
330
50
100
AcDbEntity
  8
1
  6
Continuous
 62
     7
100
AcDbLine
 10
163.8592134632323
 20
282.6137913450995
 30
0.0
 11
137.8592134632322
 21
282.6137913450995
 31
0.0
  0
LINE
  5
138
330
50
100
AcDbEntity
  8
1
  6
Continuous
 62
     7
100
AcDbLine
 10
162.8592134632322
 20
324.1137913450996
 30
0.0
 11
138.8592134632323
 21
324.1137913450996
 31
0.0
  0
LINE
  5
139
330
50
100
AcDbEntity
  8
1
  6
Continuous
 62
     7
100
AcDbLine
 10
162.8592134632322
 20
322.3817405375309
 30
0.0
 11
138.8592134632322
 21
322.3817405375309
 31
0.0
  0
LINE
  5
13A
330
50
100
AcDbEntity
  8
1
  6
Continuous
 62
     7
100
AcDbLine
 10
137.8592227934014
 20
300.0982162268221
 30
0.0
 11
138.5666362635833
 21
322.3817405375309
 31
0.0
  0
LINE
  5
13B
330
50
100
AcDbEntity
  8
1
  6
Continuous
 62
     7
100
AcDbLine
 10
163.8592134632324
 20
284.4737364004594
 30
0.0
 11
163.8592134632324
 21
284.3458421526683
 31
0.0
  0
LINE
  5
13C
330
50
100
AcDbEntity
  8
1
  6
Continuous
 62
     2
100
AcDbLine
 10
162.8592134632324
 20
282.6137913450995
 30
0.0
 11
162.8592134632324
 21
281.1137913450996
 31
0.0
  0
LINE
  5
13D
330
50
100
AcDbEntity
  8
1
  6
Continuous
 62
     7
100
AcDbLine
 10
163.8592134632324
 20
284.3458421526683
 30
0.0
 11
163.8592134632324
 21
281.1137913450996
 31
0.0
  0
LINE
  5
13E
330
50
100
AcDbEntity
  8
1
  6
Continuous
 62
     2
100
AcDbLine
 10
162.8592134632324
 20
282.6137913450995
 30
0.0
 11
163.8592134632324
 21
284.3458421526683
 31
0.0
  0
LINE
  5
13F
330
50
100
AcDbEntity
  8
1
  6
Continuous
 62
     7
100
AcDbLine
 10
163.8592134632324
 20
284.4737364004594
 30
0.0
 11
162.8804077460515
 21
287.8995564105923
 31
0.0
  0
ARC
  5
140
330
50
100
AcDbEntity
  8
1
  6
Continuous
 62
     7
100
AcDbCircle
 10
150.8592134632323
 20
300.1137913450995
 30
0.0
 40
22.99999999999992
100
AcDbArc
 50
122.5778011728605
 51
235.5826112895583
  0
ARC
  5
141
330
50
100
AcDbEntity
  8
1
  6
Continuous
 62
     7
100
AcDbCircle
 10
150.8592134632323
 20
300.1137913450995
 30
0.0
 40
23.0
100
AcDbArc
 50
0.0
 51
57.42219882713905
  0
ARC
  5
142
330
50
100
AcDbEntity
  8
1
  6
Continuous
 62
     7
100
AcDbCircle
 10
150.8592134632323
 20
300.1137913450995
 30
0.0
 40
23.00000000000002
100
AcDbArc
 50
304.4173887104419
 51
0.0
  0
ARC
  5
143
330
50
100
AcDbEntity
  8
1
  6
Continuous
 62
     7
100
AcDbCircle
 10
463.4257439236002
 20
317.5712715891254
 30
0.0
 40
9.000000000003725
100
AcDbArc
 50
272.1940450997746
 51
358.1816970355417
  0
ARC
  5
144
330
50
100
AcDbEntity
  8
1
  6
Continuous
 62
     7
100
AcDbCircle
 10
465.6462131901882
 20
259.6137913446401
 30
0.0
 40
49.00000000045976
100
AcDbArc
 50
92.19404509977879
 51
99.36066212030435
  0
ARC
  5
145
330
50
100
AcDbEntity
  8
1
  6
Continuous
 62
     7
100
AcDbCircle
 10
461.5799990025192
 20
284.2808929620345
 30
0.0
 40
24.00000000000234
100
AcDbArc
 50
99.36066212030295
 51
171.3280051740366
  0
ARC
  5
146
330
50
100
AcDbEntity
  8
1
  6
Continuous
 62
     7
100
AcDbCircle
 10
523.3755684285269
 20
312.8637913450995
 30
0.0
 40
4.0
100
AcDbArc
 50
270.0
 51
0.0
  0
ARC
  5
147
330
50
100
AcDbEntity
  8
1
  6
Continuous
 62
     7
100
AcDbCircle
 10
523.3755684285269
 20
287.3637913450995
 30
0.0
 40
4.0
100
AcDbArc
 50
0.0
 51
90.0
  0
ARC
  5
148
330
50
100
AcDbEntity
  8
1
  6
Continuous
 62
     7
100
AcDbCircle
 10
465.834603052948
 20
287.6197123114757
 30
0.0
 40
3.999999999997907
100
AcDbArc
 50
93.11786651757339
 51
173.9726861048951
  0
ARC
  5
149
330
50
100
AcDbEntity
  8
1
  6
Continuous
 62
     7
100
AcDbCircle
 10
484.8755684285268
 20
316.1137913450995
 30
0.0
 40
29.0000000000001
100
AcDbArc
 50
242.5607598493191
 51
291.6947160223859
  0
ARC
  5
14A
330
50
100
AcDbEntity
  8
1
  6
Continuous
 62
     7
100
AcDbCircle
 10
150.8592134632324
 20
655.1136576060048
 30
0.0
 40
12.99999999999981
100
AcDbArc
 50
132.3049897071836
 51
47.69501029281641
  0
ARC
  5
14B
330
50
100
AcDbEntity
  8
1
  6
Continuous
 62
     7
100
AcDbCircle
 10
177.8592134632324
 20
690.1136576060048
 30
0.0
 40
39.99999999999999
100
AcDbArc
 50
191.2154399726498
 51
200.0680546208191
  0
ARC
  5
14C
330
50
100
AcDbEntity
  8
1
  6
Continuous
 62
     7
100
AcDbCircle
 10
138.1092134632324
 20
728.5773941849673
 30
0.0
 40
4.0
100
AcDbArc
 50
0.0
 51
90.0
  0
ARC
  5
14D
330
50
100
AcDbEntity
  8
1
  6
Continuous
 62
     7
100
AcDbCircle
 10
163.6092134632324
 20
728.5773941849673
 30
0.0
 40
4.0
100
AcDbArc
 50
90.0
 51
180.0
  0
ARC
  5
14E
330
50
100
AcDbEntity
  8
1
  6
Continuous
 62
     7
100
AcDbCircle
 10
162.5636440372246
 20
284.2808929620345
 30
0.0
 40
24.0000000000016
100
AcDbArc
 50
152.1298826058547
 51
171.3280051740366
  0
ARC
  5
14F
330
50
100
AcDbEntity
  8
1
  6
Continuous
 62
     7
100
AcDbCircle
 10
150.8592134632323
 20
300.1137913450995
 30
0.0
 40
13.00000000000004
100
AcDbArc
 50
325.6899072066109
 51
359.9313547110613
  0
ARC
  5
150
330
50
100
AcDbEntity
  8
1
  6
Continuous
 62
     7
100
AcDbCircle
 10
150.8592134632323
 20
300.1137913450995
 30
0.0
 40
13.0
100
AcDbArc
 50
180.0
 51
180.0686452889387
  0
ARC
  5
151
330
50
100
AcDbEntity
  8
1
  6
Continuous
 62
     7
100
AcDbCircle
 10
139.1547828892401
 20
284.2808929620345
 30
0.0
 40
24.00000000000157
100
AcDbArc
 50
8.67199482596342
 51
27.87011739414535
  0
ARC
  5
152
330
50
100
AcDbEntity
  8
1
  6
Continuous
 62
     7
100
AcDbCircle
 10
150.8592134632323
 20
300.1137913450995
 30
0.0
 40
13.0
100
AcDbArc
 50
180.0686452889387
 51
214.3100927933894
  0
ARC
  5
153
330
50
100
AcDbEntity
  8
1
  6
Continuous
 62
     7
100
AcDbCircle
 10
150.8592134632323
 20
300.1137913450995
 30
0.0
 40
8.351995935906189
100
AcDbArc
 50
90.0
 51
179.8094249769225
  0
ARC
  5
154
330
50
100
AcDbEntity
  8
1
  6
Continuous
 62
     7
100
AcDbCircle
 10
150.8592134632323
 20
300.1137913450995
 30
0.0
 40
8.351995935906153
100
AcDbArc
 50
0.19057502307754
 51
90.0
  0
ARC
  5
155
330
50
100
AcDbEntity
  8
1
  6
Continuous
 62
     7
100
AcDbCircle
 10
123.8592134632324
 20
690.1136576060048
 30
0.0
 40
40.00000000000001
100
AcDbArc
 50
339.9319453791809
 51
348.7845600273503
  0
ARC
  5
156
330
50
100
AcDbEntity
  8
1
  6
Continuous
 62
     7
100
AcDbCircle
 10
527.8755684285269
 20
322.6137913450996
 30
0.0
 40
0.5
100
AcDbArc
 50
90.0
 51
180.0
  0
ARC
  5
157
330
50
100
AcDbEntity
  8
1
  6
Continuous
 62
     7
100
AcDbCircle
 10
527.8755684285269
 20
277.6137913450995
 30
0.0
 40
0.4999999999998863
100
AcDbArc
 50
180.0
 51
270.0
  0
ARC
  5
158
330
50
100
AcDbEntity
  8
1
  6
Continuous
 62
     7
100
AcDbCircle
 10
466.44325983736
 20
280.6137913450995
 30
0.0
 40
10.9999999999999
100
AcDbArc
 50
62.56075984931849
 51
90.0
  0
ARC
  5
159
330
50
100
AcDbEntity
  8
1
  6
Continuous
 62
     7
100
AcDbCircle
 10
507.0552325377959
 20
260.3637913450993
 30
0.0
 40
31.0
100
AcDbArc
 50
90.00000000000168
 51
111.6947160223878
  0
ARC
  5
15A
330
50
100
AcDbEntity
  8
1
  6
Continuous
 62
     7
100
AcDbCircle
 10
506.315711898374
 20
317.8762241940058
 30
0.0
 40
8.999999999998678
100
AcDbArc
 50
181.8183029644527
 51
268.0736638597964
  0
ARC
  5
15B
330
50
100
AcDbEntity
  8
1
  6
Continuous
 62
     7
100
AcDbCircle
 10
507.0552325377959
 20
339.8637913450997
 30
0.0
 40
30.99999999999998
100
AcDbArc
 50
268.0736638597937
 51
270.0
  0
ARC
  5
15C
330
50
100
AcDbEntity
  8
1
  6
Continuous
 62
     7
100
AcDbCircle
 10
173.3592134632324
 20
733.0758528518338
 30
0.0
 40
0.4999999999999883
100
AcDbArc
 50
274.4999999999972
 51
0.0
  0
ARC
  5
15D
330
50
100
AcDbEntity
  8
1
  6
Continuous
 62
     7
100
AcDbCircle
 10
128.3592134632324
 20
733.0758528518338
 30
0.0
 40
0.5000000000000142
100
AcDbArc
 50
180.0
 51
265.5000000000028
  0
ARC
  5
15E
330
50
100
AcDbEntity
  8
1
  6
Continuous
 62
     7
100
AcDbCircle
 10
189.6092134632324
 20
666.0941342968297
 30
0.0
 40
30.00000000000006
100
AcDbArc
 50
159.9319453791804
 51
180.0
  0
ARC
  5
15F
330
50
100
AcDbEntity
  8
1
  6
Continuous
 62
     7
100
AcDbCircle
 10
112.1092134632324
 20
666.0941342968297
 30
0.0
 40
30.00000000000001
100
AcDbArc
 50
0.0
 51
20.06805462081958
  0
ARC
  5
160
330
50
100
AcDbEntity
  8
1
  6
Continuous
 62
     7
100
AcDbCircle
 10
112.1092134632324
 20
714.1331809151797
 30
0.0
 40
30.00000000000002
100
AcDbArc
 50
343.6603718092953
 51
0.0
  0
ARC
  5
161
330
50
100
AcDbEntity
  8
1
  6
Continuous
 62
     7
100
AcDbCircle
 10
140.1092134632324
 20
657.1136576060048
 30
0.0
 40
2.0
100
AcDbArc
 50
270.0
 51
0.0
  0
ARC
  5
162
330
50
100
AcDbEntity
  8
1
  6
Continuous
 62
     7
100
AcDbCircle
 10
161.6092134632324
 20
657.1136576060048
 30
0.0
 40
2.0
100
AcDbArc
 50
180.0
 51
270.0
  0
ARC
  5
163
330
50
100
AcDbEntity
  8
1
  6
Continuous
 62
     7
100
AcDbCircle
 10
189.6092134632324
 20
714.1331809151797
 30
0.0
 40
30.0
100
AcDbArc
 50
180.0
 51
196.3396281907047
  0
ARC
  5
164
330
50
100
AcDbEntity
  8
1
  6
Continuous
 62
     7
100
AcDbCircle
 10
132.5073190445204
 20
300.1748329371651
 30
0.0
 40
10.00000000000002
100
AcDbArc
 50
332.1298826058555
 51
359.8094249769229
  0
ARC
  5
165
330
50
100
AcDbEntity
  8
1
  6
Continuous
 62
     7
100
AcDbCircle
 10
169.2111078819443
 20
300.1748329371651
 30
0.0
 40
9.999999999999954
100
AcDbArc
 50
180.1905750230771
 51
207.8701173941446
  0
ENDBLK
  5
52
330
50
100
AcDbEntity
  8
0
100
AcDbBlockEnd
  0
BLOCK
  5
54
330
53
100
AcDbEntity
  8
0
100
AcDbBlockBegin
  2
32-1-16
 70
     0
 10
153.3298285928581
 20
480.5996234752086
 30
0.0
  3
32-1-16
  1

  0
LINE
  5
166
330
53
100
AcDbEntity
  8
1
  6
Continuous
 62
     7
100
AcDbLine
 10
440.1076192360958
 20
271.1137913450995
 30
0.0
 11
449.875568428527
 21
271.1137913450995
 31
0.0
  0
LINE
  5
167
330
53
100
AcDbEntity
  8
1
  6
Continuous
 62
     7
100
AcDbLine
 10
438.375568428527
 20
272.1137913450995
 30
0.0
 11
438.3175473667964
 21
272.1137913450995
 31
0.0
  0
LINE
  5
168
330
53
100
AcDbEntity
  8
1
  6
Continuous
 62
     7
100
AcDbLine
 10
436.5755684285269
 20
281.1137913450995
 30
0.0
 11
436.6885684285269
 21
281.1137913450995
 31
0.0
  0
LINE
  5
169
330
53
100
AcDbEntity
  8
1
  6
Continuous
 62
     7
100
AcDbLine
 10
449.875568428527
 20
281.1137913450995
 30
0.0
 11
436.5755684285269
 21
281.1137913450995
 31
0.0
  0
LINE
  5
16A
330
53
100
AcDbEntity
  8
1
  6
Continuous
 62
     7
100
AcDbLine
 10
164.8592134632324
 20
661.7657249538297
 30
0.0
 11
164.8592134632324
 21
648.4615902581797
 31
0.0
  0
LINE
  5
16B
330
53
100
AcDbEntity
  8
1
  6
Continuous
 62
     7
100
AcDbLine
 10
136.8592134632324
 20
661.7657249538297
 30
0.0
 11
136.8592134632324
 21
648.4615902581797
 31
0.0
  0
LINE
  5
16C
330
53
100
AcDbEntity
  8
1
  6
Continuous
 62
     7
100
AcDbLine
 10
138.098354152331
 20
646.315335626935
 30
0.0
 11
149.6200727741339
 21
639.6632682791101
 31
0.0
  0
LINE
  5
16D
330
53
100
AcDbEntity
  8
1
  6
Continuous
 62
     7
100
AcDbLine
 10
152.098354152331
 20
639.6632682791101
 30
0.0
 11
163.6200727741339
 21
646.315335626935
 31
0.0
  0
LINE
  5
16E
330
53
100
AcDbEntity
  8
1
  6
Continuous
 62
     7
100
AcDbLine
 10
449.875568428527
 20
271.1137913450995
 30
0.0
 11
459.6435176209581
 21
271.1137913450995
 31
0.0
  0
LINE
  5
16F
330
53
100
AcDbEntity
  8
1
  6
Continuous
 62
     7
100
AcDbLine
 10
461.4335894902575
 20
272.1137913450995
 30
0.0
 11
461.375568428527
 21
272.1137913450995
 31
0.0
  0
LINE
  5
170
330
53
100
AcDbEntity
  8
1
  6
Continuous
 62
     7
100
AcDbLine
 10
463.062568428527
 20
281.1137913450995
 30
0.0
 11
463.175568428527
 21
281.1137913450995
 31
0.0
  0
LINE
  5
171
330
53
100
AcDbEntity
  8
1
  6
Continuous
 62
     7
100
AcDbLine
 10
463.175568428527
 20
281.1137913450995
 30
0.0
 11
449.875568428527
 21
281.1137913450995
 31
0.0
  0
LINE
  5
172
330
53
100
AcDbEntity
  8
1
  6
Continuous
 62
     7
100
AcDbLine
 10
141.0912642708011
 20
271.1137913450995
 30
0.0
 11
150.8592134632322
 21
271.1137913450995
 31
0.0
  0
LINE
  5
173
330
53
100
AcDbEntity
  8
1
  6
Continuous
 62
     7
100
AcDbLine
 10
139.3592134632322
 20
272.1137913450995
 30
0.0
 11
139.3011924015017
 21
272.1137913450995
 31
0.0
  0
LINE
  5
174
330
53
100
AcDbEntity
  8
1
  6
Continuous
 62
     7
100
AcDbLine
 10
150.8592134632322
 20
281.1137913450995
 30
0.0
 11
137.5592134632323
 21
281.1137913450995
 31
0.0
  0
LINE
  5
175
330
53
100
AcDbEntity
  8
1
  6
Continuous
 62
     7
100
AcDbLine
 10
136.8592134632323
 20
280.5420425239294
 30
0.0
 11
136.8592134632323
 21
273.4006140953865
 31
0.0
  0
LINE
  5
176
330
53
100
AcDbEntity
  8
1
  6
Continuous
 62
     7
100
AcDbLine
 10
150.8592134632322
 20
271.1137913450995
 30
0.0
 11
160.6271626556635
 21
271.1137913450995
 31
0.0
  0
LINE
  5
177
330
53
100
AcDbEntity
  8
1
  6
Continuous
 62
     7
100
AcDbLine
 10
162.417234524963
 20
272.1137913450995
 30
0.0
 11
162.3592134632323
 21
272.1137913450995
 31
0.0
  0
LINE
  5
178
330
53
100
AcDbEntity
  8
1
  6
Continuous
 62
     7
100
AcDbLine
 10
164.1592134632324
 20
281.1137913450995
 30
0.0
 11
150.8592134632322
 21
281.1137913450995
 31
0.0
  0
LINE
  5
179
330
53
100
AcDbEntity
  8
1
  6
Continuous
 62
     7
100
AcDbLine
 10
164.8592134632323
 20
273.4006140953865
 30
0.0
 11
164.8592134632323
 21
280.5420425239294
 31
0.0
  0
LINE
  5
17A
330
53
100
AcDbEntity
  8
1
  6
Continuous
 62
     7
100
AcDbLine
 10
142.1089171140902
 20
666.2274791906481
 30
0.0
 11
138.098354152331
 21
663.9119795850743
 31
0.0
  0
LINE
  5
17B
330
53
100
AcDbEntity
  8
1
  6
Continuous
 62
     7
100
AcDbLine
 10
159.6095098123747
 20
666.2274791906481
 30
0.0
 11
163.6200727741339
 21
663.9119795850743
 31
0.0
  0
ARC
  5
17C
330
53
100
AcDbEntity
  8
1
  6
Continuous
 62
     7
100
AcDbCircle
 10
439.375568428527
 20
276.9713283096578
 30
0.0
 40
5.000000000000174
100
AcDbArc
 50
124.0557977425683
 51
254.662442330443
  0
ARC
  5
17D
330
53
100
AcDbEntity
  8
1
  6
Continuous
 62
     7
100
AcDbCircle
 10
150.8592134632324
 20
655.1136576060048
 30
0.0
 40
15.49999999999993
100
AcDbArc
 50
25.41462091516042
 51
34.58537908483842
  0
ARC
  5
17E
330
53
100
AcDbEntity
  8
1
  6
Continuous
 62
     7
100
AcDbCircle
 10
150.8592134632324
 20
655.1136576060048
 30
0.0
 40
15.49999999999985
100
AcDbArc
 50
145.4146209151614
 51
154.5853790848396
  0
ARC
  5
17F
330
53
100
AcDbEntity
  8
1
  6
Continuous
 62
     7
100
AcDbCircle
 10
150.8592134632324
 20
655.1136576060048
 30
0.0
 40
15.50000000000002
100
AcDbArc
 50
205.4146209151612
 51
214.5853790848396
  0
ARC
  5
180
330
53
100
AcDbEntity
  8
1
  6
Continuous
 62
     7
100
AcDbCircle
 10
150.8592134632324
 20
655.1136576060048
 30
0.0
 40
15.5000000000001
100
AcDbArc
 50
265.414620915161
 51
270.0
  0
ARC
  5
181
330
53
100
AcDbEntity
  8
1
  6
Continuous
 62
     7
100
AcDbCircle
 10
150.8592134632324
 20
655.1136576060048
 30
0.0
 40
15.50000000000011
100
AcDbArc
 50
325.4146209151606
 51
334.5853790848388
  0
ARC
  5
182
330
53
100
AcDbEntity
  8
1
  6
Continuous
 62
     7
100
AcDbCircle
 10
150.8592134632324
 20
655.1136576060048
 30
0.0
 40
15.5
100
AcDbArc
 50
270.0
 51
274.5853790848392
  0
ARC
  5
183
330
53
100
AcDbEntity
  8
1
  6
Continuous
 62
     7
100
AcDbCircle
 10
460.375568428527
 20
276.9713283096578
 30
0.0
 40
4.999999999999876
100
AcDbArc
 50
285.3375576695544
 51
55.94420225743279
  0
ARC
  5
184
330
53
100
AcDbEntity
  8
1
  6
Continuous
 62
     7
100
AcDbCircle
 10
140.3592134632322
 20
276.9713283096578
 30
0.0
 40
4.999999999999835
100
AcDbArc
 50
225.5729959991938
 51
254.6624423304453
  0
ARC
  5
185
330
53
100
AcDbEntity
  8
1
  6
Continuous
 62
     7
100
AcDbCircle
 10
140.3592134632322
 20
276.9713283096578
 30
0.0
 40
5.000000000000047
100
AcDbArc
 50
124.0557977425661
 51
134.4270040008035
  0
ARC
  5
186
330
53
100
AcDbEntity
  8
1
  6
Continuous
 62
     7
100
AcDbCircle
 10
161.3592134632323
 20
276.9713283096578
 30
0.0
 40
4.999999999999905
100
AcDbArc
 50
285.3375576695557
 51
314.4270040008069
  0
ARC
  5
187
330
53
100
AcDbEntity
  8
1
  6
Continuous
 62
     7
100
AcDbCircle
 10
161.3592134632323
 20
276.9713283096578
 30
0.0
 40
5.000000000000138
100
AcDbArc
 50
45.57299599919585
 51
55.94420225743199
  0
SPLINE
  5
188
330
53
100
AcDbEntity
  8
1
  6
Continuous
 62
     7
100
AcDbSpline
210
0.0
220
0.0
230
1.0
 70
     8
 71
     3
 72
    25
 73
    21
 74
    19
 42
0.000000001
 43
0.0000000001
 44
0.00000001
 40
0.0
 40
0.0
 40
0.0
 40
0.0
 40
1.525997363576665
 40
3.041991995961725
 40
4.036425729137866
 40
5.033630621467654
 40
5.779988201878437
 40
6.525153423607498
 40
7.11313965487567
 40
7.696814693755158
 40
7.949097143679812
 40
8.201245171958607
 40
8.846896618341344
 40
9.499909905031918
 40
10.24994289999123
 40
11.0021604537544
 40
12.12686675713027
 40
13.24812597618458
 40
14.81779813343696
 40
16.39782994900041
 40
16.39782994900041
 40
16.39782994900041
 40
16.39782994900041
 10
449.875568428527
 20
280.5420258747939
 30
0.0
 10
450.3831172542089
 20
280.5087080062701
 30
0.0
 10
451.3948879824965
 20
280.4422906530087
 30
0.0
 10
452.7285504021508
 20
280.2283703839389
 30
0.0
 10
453.843612744858
 20
279.8655309488353
 30
0.0
 10
454.668808208767
 20
279.4688872728448
 30
0.0
 10
455.3663505328637
 20
279.0156780475455
 30
0.0
 10
455.8795583369381
 20
278.5425754576693
 30
0.0
 10
456.2563657455947
 20
278.0220146770221
 30
0.0
 10
456.4455841134071
 20
277.5802965602117
 30
0.0
 10
456.5170035169218
 20
277.223755198622
 30
0.0
 10
456.5423977139151
 20
276.8400645175138
 30
0.0
 10
456.4436408741389
 20
276.3223109703559
 30
0.0
 10
456.1335484433089
 20
275.7062329643434
 30
0.0
 10
455.6529731025885
 20
275.1620939999591
 30
0.0
 10
454.9504477210812
 20
274.6341234996682
 30
0.0
 10
454.0653373773001
 20
274.1596559440134
 30
0.0
 10
452.8584532040203
 20
273.742978009466
 30
0.0
 10
451.4484547712235
 20
273.5076595726845
 30
0.0
 10
450.4010122538056
 20
273.4363056042827
 30
0.0
 10
449.875568428527
 20
273.4005112807425
 30
0.0
 11
449.875568428527
 21
280.5420258747939
 31
0.0
 11
451.3965349295469
 21
280.4182160303598
 31
0.0
 11
452.889424273252
 21
280.1545474202767
 31
0.0
 11
453.8345345343822
 21
279.845249755429
 31
0.0
 11
454.7323727529851
 21
279.411309515261
 31
0.0
 11
455.3541777660467
 21
278.9985042773208
 31
0.0
 11
455.8974343428185
 21
278.4884616315217
 31
0.0
 11
456.2384183146759
 21
278.0094441580518
 31
0.0
 11
456.4622156583892
 21
277.4703789478338
 31
0.0
 11
456.5115166620387
 21
277.2229605860194
 31
0.0
 11
456.5276357763519
 21
276.9713283096578
 31
0.0
 11
456.4159647710517
 21
276.3354074199152
 31
0.0
 11
456.126467028249
 21
275.7500721223178
 31
0.0
 11
455.6368142814179
 21
275.1819262939866
 31
0.0
 11
455.0416855195621
 21
274.7218686823943
 31
0.0
 11
454.0524449619888
 21
274.1867356240601
 31
0.0
 11
452.9938214911592
 21
273.8172243451771
 31
0.0
 11
451.4499843602786
 21
273.5336091167151
 31
0.0
 11
449.875568428527
 21
273.4005112807425
 31
0.0
  0
SPLINE
  5
189
330
53
100
AcDbEntity
  8
1
  6
Continuous
 62
     7
100
AcDbSpline
210
0.0
220
0.0
230
1.0
 70
     8
 71
     3
 72
    25
 73
    21
 74
    19
 42
0.000000001
 43
0.0000000001
 44
0.00000001
 40
0.0
 40
0.0
 40
0.0
 40
0.0
 40
1.525997363576722
 40
3.041991995961894
 40
4.036425729137981
 40
5.033630621467768
 40
5.779988201878552
 40
6.525153423607695
 40
7.113139654875867
 40
7.696814693755355
 40
7.949097143680021
 40
8.201245171958814
 40
8.846896618341624
 40
9.499909905032123
 40
10.24994289999147
 40
11.00216045375459
 40
12.12686675713046
 40
13.24812597618478
 40
14.81779813343721
 40
16.39782994900078
 40
16.39782994900078
 40
16.39782994900078
 40
16.39782994900078
 10
449.875568428527
 20
280.5420258747939
 30
0.0
 10
449.368019602845
 20
280.5087080062702
 30
0.0
 10
448.3562488745578
 20
280.4422906530087
 30
0.0
 10
447.0225864549027
 20
280.2283703839388
 30
0.0
 10
445.907524112196
 20
279.8655309488354
 30
0.0
 10
445.0823286482869
 20
279.4688872728448
 30
0.0
 10
444.38478632419
 20
279.0156780475455
 30
0.0
 10
443.8715785201158
 20
278.5425754576693
 30
0.0
 10
443.4947711114588
 20
278.0220146770222
 30
0.0
 10
443.3055527436467
 20
277.5802965602117
 30
0.0
 10
443.234133340132
 20
277.2237551986221
 30
0.0
 10
443.2087391431386
 20
276.8400645175138
 30
0.0
 10
443.307495982915
 20
276.322310970356
 30
0.0
 10
443.6175884137451
 20
275.7062329643434
 30
0.0
 10
444.0981637544653
 20
275.1620939999592
 30
0.0
 10
444.8006891359728
 20
274.6341234996682
 30
0.0
 10
445.6857994797538
 20
274.1596559440134
 30
0.0
 10
446.8926836530334
 20
273.742978009466
 30
0.0
 10
448.3026820858304
 20
273.5076595726844
 30
0.0
 10
449.3501246032484
 20
273.4363056042827
 30
0.0
 10
449.875568428527
 20
273.4005112807425
 30
0.0
 11
449.875568428527
 21
280.5420258747939
 31
0.0
 11
448.3546019275071
 21
280.4182160303598
 31
0.0
 11
446.8617125838018
 21
280.1545474202767
 31
0.0
 11
445.9166023226717
 21
279.845249755429
 31
0.0
 11
445.0187641040688
 21
279.411309515261
 31
0.0
 11
444.3969590910072
 21
278.9985042773208
 31
0.0
 11
443.8537025142353
 21
278.4884616315217
 31
0.0
 11
443.5127185423779
 21
278.0094441580518
 31
0.0
 11
443.2889211986646
 21
277.4703789478338
 31
0.0
 11
443.239620195015
 21
277.2229605860194
 31
0.0
 11
443.2235010807019
 21
276.9713283096578
 31
0.0
 11
443.3351720860022
 21
276.3354074199152
 31
0.0
 11
443.6246698288048
 21
275.7500721223178
 31
0.0
 11
444.114322575636
 21
275.1819262939866
 31
0.0
 11
444.7094513374917
 21
274.7218686823943
 31
0.0
 11
445.698691895065
 21
274.1867356240601
 31
0.0
 11
446.7573153658946
 21
273.8172243451771
 31
0.0
 11
448.3011524967753
 21
273.5336091167151
 31
0.0
 11
449.875568428527
 21
273.4005112807425
 31
0.0
  0
SPLINE
  5
18A
330
53
100
AcDbEntity
  8
1
  6
Continuous
 62
     7
100
AcDbSpline
210
0.0
220
0.0
230
1.0
 70
    11
 71
     3
 72
    79
 73
    75
 74
    73
 42
0.000000001
 43
0.0000000001
 44
0.00000001
 40
0.0
 40
0.0
 40
0.0
 40
0.0
 40
0.2903672471832122
 40
0.5807357518972396
 40
0.8724070977360119
 40
1.164081911024028
 40
1.458189924522295
 40
1.752302920472859
 40
2.049663201046483
 40
2.347029106415486
 40
2.648045786115943
 40
2.949067936325202
 40
3.253697746552282
 40
3.558332275329902
 40
3.866104857780038
 40
4.173881019540082
 40
4.483966061108379
 40
4.794053321447583
 40
5.105362217358609
 40
5.416671863434646
 40
5.727981509499996
 40
6.039290405378638
 40
6.34937766566363
 40
6.659462707155438
 40
6.967238868816696
 40
7.275011451144607
 40
7.579645979777359
 40
7.884275789834327
 40
8.185297939849551
 40
8.486314619328361
 40
8.783680524448858
 40
9.081040804740937
 40
9.375153800374257
 40
9.669261813502281
 40
9.960936626337242
 40
10.25260797152396
 40
10.54297647485864
 40
10.83334373090424
 40
11.12371098694973
 40
11.41407949028442
 40
11.70575083547114
 40
11.9974256483061
 40
12.29153366143418
 40
12.5856466570676
 40
12.88300693735968
 40
13.18037284248014
 40
13.48138952195895
 40
13.78241167197421
 40
14.08704148203118
 40
14.3916760106639
 40
14.69944859299179
 40
15.00722475465304
 40
15.31730979614485
 40
15.62739705642984
 40
15.93870595230843
 40
16.25001559837383
 40
16.56132524444986
 40
16.87263414036089
 40
17.18272140070011
 40
17.49280644226839
 40
17.80058260402841
 40
18.10835518647855
 40
18.41298971525627
 40
18.71761952548321
 40
19.01864167569254
 40
19.31965835539296
 40
19.61702426076196
 40
19.91438454133554
 40
20.20849753728615
 40
20.50260555078452
 40
20.79428036407254
 40
21.08595170991131
 40
21.37632021462528
 40
21.66668746180844
 40
21.66668746180844
 40
21.66668746180844
 40
21.66668746180844
 10
461.9999240815091
 20
273.4006140953866
 30
0.0
 10
462.0967478882188
 20
273.4032456927072
 30
0.0
 10
462.2903959211346
 20
273.4085088935257
 30
0.0
 10
462.5787567974413
 20
273.4508039657075
 30
0.0
 10
462.8624689414205
 20
273.5180148582009
 30
0.0
 10
463.1398940042062
 20
273.6120700234703
 30
0.0
 10
463.4082149155873
 20
273.7315014811539
 30
0.0
 10
463.6662146789583
 20
273.8757769766401
 30
0.0
 10
463.9110166822146
 20
274.043381051843
 30
0.0
 10
464.1417129072768
 20
274.2335436060031
 30
0.0
 10
464.3556086145535
 20
274.4441663263145
 30
0.0
 10
464.5519821571329
 20
274.6743879421463
 30
0.0
 10
464.7285315022965
 20
274.9216243655441
 30
0.0
 10
464.8846342989667
 20
275.184858539791
 30
0.0
 10
465.0185233135762
 20
275.4612220943727
 30
0.0
 10
465.1296513305793
 20
275.7494355382342
 30
0.0
 10
465.2168420905614
 20
276.0465739813872
 30
0.0
 10
465.2796676972016
 20
276.3509971354188
 30
0.0
 10
465.3175162471567
 20
276.6599337477111
 30
0.0
 10
465.3301785092951
 20
276.9713283002856
 30
0.0
 10
465.3175162475183
 20
277.2827228528624
 30
0.0
 10
465.2796676979256
 20
277.5916594651711
 30
0.0
 10
465.2168420916495
 20
277.8960826192054
 30
0.0
 10
465.1296513320341
 20
278.1932210624488
 30
0.0
 10
465.0185233154015
 20
278.4814345061149
 30
0.0
 10
464.8846343011662
 20
278.7577980616031
 30
0.0
 10
464.7285315048763
 20
279.0210322327247
 30
0.0
 10
464.5519821600992
 20
279.268268667989
 30
0.0
 10
464.3556086179144
 20
279.4984902403654
 30
0.0
 10
464.1417129110415
 20
279.7091131221822
 30
0.0
 10
463.9110166863961
 20
279.899275081059
 30
0.0
 10
463.666214683574
 20
280.0668813646526
 30
0.0
 10
463.4082149206658
 20
280.2111487051141
 30
0.0
 10
463.1398940097934
 20
280.3306104444528
 30
0.0
 10
462.8624689476381
 20
280.4245534915065
 30
0.0
 10
462.5787568045977
 20
280.4921814639438
 30
0.0
 10
462.290395926416
 20
280.5329265887862
 30
0.0
 10
461.9999240815091
 20
280.5466004667115
 30
0.0
 10
461.7094522366023
 20
280.5329265887863
 30
0.0
 10
461.4210913584207
 20
280.4921814639438
 30
0.0
 10
461.1373792153802
 20
280.4245534915066
 30
0.0
 10
460.8599541532249
 20
280.3306104444527
 30
0.0
 10
460.5916332423523
 20
280.2111487051142
 30
0.0
 10
460.3336334794444
 20
280.0668813646527
 30
0.0
 10
460.088831476622
 20
279.8992750810591
 30
0.0
 10
459.8581352519767
 20
279.7091131221821
 30
0.0
 10
459.644239545104
 20
279.4984902403654
 30
0.0
 10
459.4478660029189
 20
279.268268667989
 30
0.0
 10
459.2713166581418
 20
279.0210322327247
 30
0.0
 10
459.1152138618518
 20
278.757798061603
 30
0.0
 10
458.9813248476168
 20
278.4814345061149
 30
0.0
 10
458.8701968309841
 20
278.1932210624487
 30
0.0
 10
458.7830060713687
 20
277.8960826192055
 30
0.0
 10
458.7201804650927
 20
277.5916594651711
 30
0.0
 10
458.6823319155
 20
277.2827228528625
 30
0.0
 10
458.6696696537232
 20
276.9713283002856
 30
0.0
 10
458.6823319158615
 20
276.6599337477111
 30
0.0
 10
458.7201804658167
 20
276.3509971354188
 30
0.0
 10
458.7830060724569
 20
276.0465739813872
 30
0.0
 10
458.8701968324391
 20
275.7494355382343
 30
0.0
 10
458.981324849442
 20
275.4612220943726
 30
0.0
 10
459.1152138640516
 20
275.184858539791
 30
0.0
 10
459.2713166607219
 20
274.9216243655442
 30
0.0
 10
459.4478660058852
 20
274.6743879421462
 30
0.0
 10
459.6442395484648
 20
274.4441663263146
 30
0.0
 10
459.8581352557414
 20
274.233543606003
 30
0.0
 10
460.0888314808035
 20
274.043381051843
 30
0.0
 10
460.3336334840599
 20
273.8757769766401
 30
0.0
 10
460.5916332474311
 20
273.7315014811539
 30
0.0
 10
460.8599541588119
 20
273.6120700234704
 30
0.0
 10
461.1373792215977
 20
273.5180148582009
 30
0.0
 10
461.4210913655769
 20
273.4508039657076
 30
0.0
 10
461.7094522418837
 20
273.4085088935255
 30
0.0
 10
461.9031002747995
 20
273.4032456927072
 30
0.0
 10
461.9999240815091
 20
273.4006140953866
 30
0.0
 11
461.9999240815091
 21
273.4006140953866
 31
0.0
 11
462.2899718433072
 21
273.414231708239
 31
0.0
 11
462.5774837678429
 21
273.4548612676525
 31
0.0
 11
462.8612210777115
 21
273.522428365491
 31
0.0
 11
463.1374945953667
 21
273.6159545115718
 31
0.0
 11
463.4062116574654
 21
273.7354980770095
 31
0.0
 11
463.6629409184654
 21
273.8789990904447
 31
0.0
 11
463.9083582082476
 21
274.0469082631515
 31
0.0
 11
464.1378573165003
 21
274.2360025278495
 31
0.0
 11
464.3524118755371
 21
274.447136093679
 31
0.0
 11
464.5478136950364
 21
274.6761174549926
 31
0.0
 11
464.7249171001767
 21
274.9239756909901
 31
0.0
 11
464.8803537369598
 21
275.1859712025222
 31
0.0
 11
465.014606965583
 21
275.4629189107891
 31
0.0
 11
465.1253733813702
 21
275.7500721223178
 31
0.0
 11
465.2127311368432
 21
276.0475975087651
 31
0.0
 11
465.2754278303579
 21
276.3512802933803
 31
0.0
 11
465.313310250327
 21
276.6602756832527
 31
0.0
 11
465.3259577554217
 21
276.9713283096578
 31
0.0
 11
465.313310250327
 21
277.282380936063
 31
0.0
 11
465.2754278303579
 21
277.5913763259356
 31
0.0
 11
465.2127311368432
 21
277.8950591105508
 31
0.0
 11
465.1253733813702
 21
278.1925844969981
 31
0.0
 11
465.014606965583
 21
278.4797377085267
 31
0.0
 11
464.8803537369598
 21
278.7566854167936
 31
0.0
 11
464.7249171001766
 21
279.0186809283258
 31
0.0
 11
464.5478136950364
 21
279.2665391643232
 31
0.0
 11
464.3524118755371
 21
279.4955205256369
 31
0.0
 11
464.1378573165003
 21
279.7066540914665
 31
0.0
 11
463.9083582082475
 21
279.8957483561643
 31
0.0
 11
463.6629409184654
 21
280.0636575288711
 31
0.0
 11
463.4062116574654
 21
280.2071585423064
 31
0.0
 11
463.1374945953667
 21
280.3267021077442
 31
0.0
 11
462.8612210777115
 21
280.4202282538248
 31
0.0
 11
462.5774837678429
 21
280.4877953516633
 31
0.0
 11
462.2899718433072
 21
280.5284249110768
 31
0.0
 11
461.9999240815091
 21
280.5420425239294
 31
0.0
 11
461.7098763197111
 21
280.5284249110769
 31
0.0
 11
461.4223643951754
 21
280.4877953516633
 31
0.0
 11
461.1386270853068
 21
280.4202282538248
 31
0.0
 11
460.8623535676516
 21
280.3267021077442
 31
0.0
 11
460.5936365055528
 21
280.2071585423065
 31
0.0
 11
460.3369072445528
 21
280.0636575288711
 31
0.0
 11
460.0914899547706
 21
279.8957483561643
 31
0.0
 11
459.8619908465179
 21
279.7066540914665
 31
0.0
 11
459.6474362874811
 21
279.4955205256369
 31
0.0
 11
459.4520344679818
 21
279.2665391643232
 31
0.0
 11
459.2749310628416
 21
279.0186809283258
 31
0.0
 11
459.1194944260584
 21
278.7566854167936
 31
0.0
 11
458.9852411974353
 21
278.4797377085267
 31
0.0
 11
458.8744747816481
 21
278.1925844969981
 31
0.0
 11
458.7871170261751
 21
277.8950591105508
 31
0.0
 11
458.7244203326604
 21
277.5913763259356
 31
0.0
 11
458.6865379126912
 21
277.2823809360631
 31
0.0
 11
458.6738904075966
 21
276.9713283096578
 31
0.0
 11
458.6865379126912
 21
276.6602756832527
 31
0.0
 11
458.7244203326604
 21
276.3512802933803
 31
0.0
 11
458.7871170261751
 21
276.0475975087651
 31
0.0
 11
458.8744747816481
 21
275.7500721223178
 31
0.0
 11
458.9852411974352
 21
275.4629189107891
 31
0.0
 11
459.1194944260584
 21
275.1859712025222
 31
0.0
 11
459.2749310628416
 21
274.92397569099
 31
0.0
 11
459.4520344679818
 21
274.6761174549926
 31
0.0
 11
459.6474362874811
 21
274.447136093679
 31
0.0
 11
459.8619908465179
 21
274.2360025278495
 31
0.0
 11
460.0914899547706
 21
274.0469082631515
 31
0.0
 11
460.3369072445528
 21
273.8789990904447
 31
0.0
 11
460.5936365055528
 21
273.7354980770095
 31
0.0
 11
460.8623535676516
 21
273.6159545115718
 31
0.0
 11
461.1386270853068
 21
273.522428365491
 31
0.0
 11
461.4223643951754
 21
273.4548612676525
 31
0.0
 11
461.7098763197111
 21
273.414231708239
 31
0.0
 11
461.9999240815091
 21
273.4006140953866
 31
0.0
  0
SPLINE
  5
18B
330
53
100
AcDbEntity
  8
1
  6
Continuous
 62
     7
100
AcDbSpline
210
0.0
220
0.0
230
1.0
 70
    11
 71
     3
 72
    79
 73
    75
 74
    73
 42
0.000000001
 43
0.0000000001
 44
0.00000001
 40
0.0
 40
0.0
 40
0.0
 40
0.0
 40
0.290367247183269
 40
0.58073575189724
 40
0.872407097735957
 40
1.164081911024027
 40
1.458189924522345
 40
1.75230292047286
 40
2.04966320104639
 40
2.347029106415481
 40
2.648045786115898
 40
2.949067936325201
 40
3.253697746552281
 40
3.558332275329901
 40
3.866104857779987
 40
4.173881019540031
 40
4.483966061108257
 40
4.794053321447528
 40
5.105362217358554
 40
5.416671863434591
 40
5.727981509499941
 40
6.039290405378583
 40
6.349377665663586
 40
6.659462707155378
 40
6.967238868816636
 40
7.275011451144499
 40
7.579645979777251
 40
7.884275789834218
 40
8.18529793984948
 40
8.48631461932825
 40
8.783680524448746
 40
9.081040804740825
 40
9.375153800374145
 40
9.66926181350217
 40
9.960936626337077
 40
10.25260797152385
 40
10.54297647485853
 40
10.83334373090413
 40
11.12371098694968
 40
11.41407949028442
 40
11.70575083547114
 40
11.9974256483061
 40
12.29153366143423
 40
12.5856466570675
 40
12.88300693735958
 40
13.18037284248008
 40
13.48138952195884
 40
13.78241167197411
 40
14.08704148203107
 40
14.3916760106638
 40
14.69944859299171
 40
15.00722475465295
 40
15.31730979614476
 40
15.62739705642975
 40
15.93870595230833
 40
16.25001559837373
 40
16.56132524444977
 40
16.87263414036079
 40
17.18272140070001
 40
17.49280644226829
 40
17.80058260402831
 40
18.10835518647845
 40
18.41298971525612
 40
18.71761952548312
 40
19.01864167569241
 40
19.31965835539282
 40
19.61702426076187
 40
19.91438454133545
 40
20.20849753728596
 40
20.50260555078433
 40
20.79428036407235
 40
21.08595170991112
 40
21.37632021462521
 40
21.66668746180836
 40
21.66668746180836
 40
21.66668746180836
 40
21.66668746180836
 10
437.7512127755448
 20
273.4006140953866
 30
0.0
 10
437.654388968835
 20
273.4032456927072
 30
0.0
 10
437.4607409359194
 20
273.4085088935256
 30
0.0
 10
437.1723800596123
 20
273.4508039657074
 30
0.0
 10
436.8886679156334
 20
273.518014858201
 30
0.0
 10
436.6112428528476
 20
273.6120700234703
 30
0.0
 10
436.3429219414667
 20
273.7315014811539
 30
0.0
 10
436.0849221780956
 20
273.8757769766401
 30
0.0
 10
435.8401201748395
 20
274.0433810518431
 30
0.0
 10
435.6094239497771
 20
274.233543606003
 30
0.0
 10
435.3955282425004
 20
274.4441663263145
 30
0.0
 10
435.199154699921
 20
274.6743879421463
 30
0.0
 10
435.0226053547573
 20
274.921624365544
 30
0.0
 10
434.8665025580874
 20
275.1848585397911
 30
0.0
 10
434.7326135434778
 20
275.4612220943726
 30
0.0
 10
434.6214855264748
 20
275.7494355382343
 30
0.0
 10
434.5342947664926
 20
276.0465739813872
 30
0.0
 10
434.4714691598523
 20
276.3509971354188
 30
0.0
 10
434.4336206098972
 20
276.659933747711
 30
0.0
 10
434.420958347759
 20
276.9713283002856
 30
0.0
 10
434.4336206095358
 20
277.2827228528624
 30
0.0
 10
434.4714691591284
 20
277.5916594651711
 30
0.0
 10
434.5342947654046
 20
277.8960826192055
 30
0.0
 10
434.6214855250199
 20
278.1932210624488
 30
0.0
 10
434.7326135416524
 20
278.4814345061148
 30
0.0
 10
434.8665025558877
 20
278.7577980616031
 30
0.0
 10
435.0226053521775
 20
279.0210322327248
 30
0.0
 10
435.1991546969548
 20
279.2682686679889
 30
0.0
 10
435.3955282391395
 20
279.4984902403652
 30
0.0
 10
435.6094239460125
 20
279.7091131221822
 30
0.0
 10
435.8401201706579
 20
279.8992750810592
 30
0.0
 10
436.0849221734798
 20
280.0668813646525
 30
0.0
 10
436.3429219363883
 20
280.2111487051141
 30
0.0
 10
436.6112428472603
 20
280.3306104444528
 30
0.0
 10
436.8886679094159
 20
280.4245534915067
 30
0.0
 10
437.172380052456
 20
280.4921814639438
 30
0.0
 10
437.4607409306379
 20
280.5329265887862
 30
0.0
 10
437.7512127755448
 20
280.5466004667115
 30
0.0
 10
438.0416846204517
 20
280.5329265887863
 30
0.0
 10
438.3300454986333
 20
280.4921814639438
 30
0.0
 10
438.6137576416737
 20
280.4245534915065
 30
0.0
 10
438.8911827038293
 20
280.3306104444529
 30
0.0
 10
439.1595036147016
 20
280.2111487051141
 30
0.0
 10
439.4175033776097
 20
280.0668813646526
 30
0.0
 10
439.6623053804319
 20
279.8992750810591
 30
0.0
 10
439.8930016050771
 20
279.7091131221822
 30
0.0
 10
440.1068973119501
 20
279.4984902403653
 30
0.0
 10
440.3032708541348
 20
279.268268667989
 30
0.0
 10
440.4798201989121
 20
279.0210322327247
 30
0.0
 10
440.635922995202
 20
278.757798061603
 30
0.0
 10
440.7698120094371
 20
278.4814345061149
 30
0.0
 10
440.8809400260697
 20
278.1932210624487
 30
0.0
 10
440.9681307856853
 20
277.8960826192055
 30
0.0
 10
441.0309563919611
 20
277.591659465171
 30
0.0
 10
441.0688049415539
 20
277.2827228528625
 30
0.0
 10
441.0814672033306
 20
276.9713283002857
 30
0.0
 10
441.0688049411923
 20
276.6599337477111
 30
0.0
 10
441.0309563912373
 20
276.3509971354188
 30
0.0
 10
440.9681307845969
 20
276.0465739813872
 30
0.0
 10
440.8809400246149
 20
275.7494355382342
 30
0.0
 10
440.7698120076119
 20
275.4612220943727
 30
0.0
 10
440.6359229930023
 20
275.184858539791
 30
0.0
 10
440.4798201963322
 20
274.9216243655441
 30
0.0
 10
440.3032708511686
 20
274.6743879421463
 30
0.0
 10
440.1068973085889
 20
274.4441663263146
 30
0.0
 10
439.8930016013127
 20
274.233543606003
 30
0.0
 10
439.6623053762502
 20
274.043381051843
 30
0.0
 10
439.4175033729941
 20
273.8757769766402
 30
0.0
 10
439.159503609623
 20
273.7315014811538
 30
0.0
 10
438.8911826982419
 20
273.6120700234704
 30
0.0
 10
438.6137576354563
 20
273.5180148582009
 30
0.0
 10
438.3300454914771
 20
273.4508039657075
 30
0.0
 10
438.0416846151701
 20
273.4085088935255
 30
0.0
 10
437.8480365822544
 20
273.4032456927072
 30
0.0
 10
437.7512127755448
 20
273.4006140953866
 30
0.0
 11
437.7512127755448
 21
273.4006140953866
 31
0.0
 11
437.4611650137467
 21
273.414231708239
 31
0.0
 11
437.173653089211
 21
273.4548612676525
 31
0.0
 11
436.8899157793424
 21
273.522428365491
 31
0.0
 11
436.6136422616872
 21
273.6159545115718
 31
0.0
 11
436.3449251995884
 21
273.7354980770095
 31
0.0
 11
436.0881959385885
 21
273.8789990904447
 31
0.0
 11
435.8427786488064
 21
274.0469082631515
 31
0.0
 11
435.6132795405536
 21
274.2360025278495
 31
0.0
 11
435.3987249815168
 21
274.447136093679
 31
0.0
 11
435.2033231620175
 21
274.6761174549926
 31
0.0
 11
435.0262197568772
 21
274.9239756909901
 31
0.0
 11
434.8707831200941
 21
275.1859712025222
 31
0.0
 11
434.736529891471
 21
275.4629189107891
 31
0.0
 11
434.6257634756838
 21
275.7500721223178
 31
0.0
 11
434.5384057202108
 21
276.047597508765
 31
0.0
 11
434.4757090266961
 21
276.3512802933803
 31
0.0
 11
434.437826606727
 21
276.6602756832527
 31
0.0
 11
434.4251791016323
 21
276.9713283096578
 31
0.0
 11
434.437826606727
 21
277.282380936063
 31
0.0
 11
434.4757090266961
 21
277.5913763259356
 31
0.0
 11
434.5384057202108
 21
277.8950591105508
 31
0.0
 11
434.6257634756838
 21
278.1925844969981
 31
0.0
 11
434.736529891471
 21
278.4797377085267
 31
0.0
 11
434.8707831200941
 21
278.7566854167936
 31
0.0
 11
435.0262197568773
 21
279.0186809283258
 31
0.0
 11
435.2033231620175
 21
279.2665391643232
 31
0.0
 11
435.3987249815168
 21
279.4955205256369
 31
0.0
 11
435.6132795405536
 21
279.7066540914665
 31
0.0
 11
435.8427786488064
 21
279.8957483561643
 31
0.0
 11
436.0881959385885
 21
280.0636575288711
 31
0.0
 11
436.3449251995885
 21
280.2071585423064
 31
0.0
 11
436.6136422616872
 21
280.3267021077442
 31
0.0
 11
436.8899157793423
 21
280.4202282538248
 31
0.0
 11
437.173653089211
 21
280.4877953516633
 31
0.0
 11
437.4611650137467
 21
280.5284249110768
 31
0.0
 11
437.7512127755448
 21
280.5420425239294
 31
0.0
 11
438.0412605373429
 21
280.5284249110769
 31
0.0
 11
438.3287724618786
 21
280.4877953516633
 31
0.0
 11
438.6125097717472
 21
280.4202282538248
 31
0.0
 11
438.8887832894024
 21
280.3267021077442
 31
0.0
 11
439.1575003515012
 21
280.2071585423064
 31
0.0
 11
439.4142296125011
 21
280.0636575288711
 31
0.0
 11
439.6596469022833
 21
279.8957483561643
 31
0.0
 11
439.889146010536
 21
279.7066540914665
 31
0.0
 11
440.1037005695728
 21
279.4955205256369
 31
0.0
 11
440.2991023890721
 21
279.2665391643232
 31
0.0
 11
440.4762057942123
 21
279.0186809283258
 31
0.0
 11
440.6316424309955
 21
278.7566854167936
 31
0.0
 11
440.7658956596186
 21
278.4797377085267
 31
0.0
 11
440.8766620754058
 21
278.1925844969981
 31
0.0
 11
440.9640198308788
 21
277.8950591105508
 31
0.0
 11
441.0267165243935
 21
277.5913763259356
 31
0.0
 11
441.0645989443626
 21
277.2823809360631
 31
0.0
 11
441.0772464494573
 21
276.9713283096578
 31
0.0
 11
441.0645989443627
 21
276.6602756832527
 31
0.0
 11
441.0267165243935
 21
276.3512802933803
 31
0.0
 11
440.9640198308788
 21
276.0475975087651
 31
0.0
 11
440.8766620754058
 21
275.7500721223178
 31
0.0
 11
440.7658956596186
 21
275.4629189107891
 31
0.0
 11
440.6316424309955
 21
275.1859712025222
 31
0.0
 11
440.4762057942124
 21
274.92397569099
 31
0.0
 11
440.2991023890721
 21
274.6761174549926
 31
0.0
 11
440.1037005695728
 21
274.4471360936791
 31
0.0
 11
439.889146010536
 21
274.2360025278495
 31
0.0
 11
439.6596469022833
 21
274.0469082631515
 31
0.0
 11
439.4142296125011
 21
273.8789990904447
 31
0.0
 11
439.1575003515012
 21
273.7354980770095
 31
0.0
 11
438.8887832894024
 21
273.6159545115718
 31
0.0
 11
438.6125097717472
 21
273.522428365491
 31
0.0
 11
438.3287724618786
 21
273.4548612676525
 31
0.0
 11
438.0412605373428
 21
273.414231708239
 31
0.0
 11
437.7512127755448
 21
273.4006140953866
 31
0.0
  0
SPLINE
  5
18C
330
53
100
AcDbEntity
  8
1
  6
Continuous
 62
     7
100
AcDbSpline
210
0.0
220
0.0
230
1.0
 70
    11
 71
     3
 72
    79
 73
    75
 74
    73
 42
0.000000001
 43
0.0000000001
 44
0.00000001
 40
0.0
 40
0.0
 40
0.0
 40
0.0
 40
0.3210813056648518
 40
0.6418951396081605
 40
0.9828988891664971
 40
1.323531051596535
 40
1.692967055112309
 40
2.062075178394251
 40
2.46373385437992
 40
2.865152862487577
 40
3.298564779288386
 40
3.731815223728941
 40
4.193131260568732
 40
4.654344167617047
 40
5.137240966498856
 40
5.620077099452177
 40
6.116559525296353
 40
6.613013903592072
 40
7.114121230352255
 40
7.615228557112199
 40
8.11168293540679
 40
8.608165361247893
 40
9.091001494194574
 40
9.573898293063628
 40
10.03511120009043
 40
10.49642723689454
 40
10.92967768128244
 40
11.36308959800322
 40
11.76450860600181
 40
12.16616728182965
 40
12.53527540490445
 40
12.90471140812289
 40
13.24534357014017
 40
13.58634731899434
 40
13.90716115088629
 40
14.22824246386882
 40
14.54200444896826
 40
14.85576643406649
 40
15.17684774704572
 40
15.49766157893242
 40
15.83866532777937
 40
16.17929748978868
 40
16.54873349299774
 40
16.91784161606295
 40
17.31950029188041
 40
17.720919299869
 40
18.15433121657945
 40
18.58758166095758
 40
19.04889769775214
 40
19.51011060477001
 40
19.99300740363052
 40
20.47584353656945
 40
20.97232596240338
 40
21.46878034069161
 40
21.96988766744611
 40
22.47099499420184
 40
22.96744937249422
 40
23.46393179833605
 40
23.94676793128814
 40
24.4296647301697
 40
24.89087763721854
 40
25.35219367405956
 40
25.78544411850119
 40
26.21885603530203
 40
26.62027504340729
 40
27.0219337193849
 40
27.39104184264867
 40
27.76047784612173
 40
28.10111000845227
 40
28.44211375771932
 40
28.76292759014589
 40
29.08400890392564
 40
29.39777089116755
 40
29.71153286919174
 40
29.71153286919174
 40
29.71153286919174
 40
29.71153286919174
 10
138.1208451341326
 20
276.6583734580921
 30
0.0
 10
138.1401249848818
 20
276.5529123750283
 30
0.0
 10
138.1786686169494
 20
276.3420780598575
 30
0.0
 10
138.2937219291011
 20
276.0337384367979
 30
0.0
 10
138.4461103949486
 20
275.7356503422422
 30
0.0
 10
138.6431870394046
 20
275.4449782579242
 30
0.0
 10
138.876373549232
 20
275.1702126794968
 30
0.0
 10
139.1505420157797
 20
274.9061837342592
 30
0.0
 10
139.4560852158635
 20
274.6617997581836
 30
0.0
 10
139.7987028067561
 20
274.4319281837876
 30
0.0
 10
140.1673990235224
 20
274.2243609315532
 30
0.0
 10
140.5679537656595
 20
274.0351439719051
 30
0.0
 10
140.9890582628086
 20
273.8701793567023
 30
0.0
 10
141.4354165687681
 20
273.7269953350398
 30
0.0
 10
141.8966124266005
 20
273.6094681080845
 30
0.0
 10
142.3753075229562
 20
273.5163843015752
 30
0.0
 10
142.8629748319531
 20
273.4498815030117
 30
0.0
 10
143.3595926377041
 20
273.4094959405548
 30
0.0
 10
143.8592134532755
 20
273.3961524603523
 30
0.0
 10
144.3588342688626
 20
273.4094959405516
 30
0.0
 10
144.8554520745649
 20
273.4498815030088
 30
0.0
 10
145.3431193837327
 20
273.5163843015325
 30
0.0
 10
145.8218144794591
 20
273.6094681081034
 30
0.0
 10
146.2830103395803
 20
273.7269953346813
 30
0.0
 10
146.7293686373528
 20
273.8701793574526
 30
0.0
 10
147.1504731641415
 20
274.0351439682864
 30
0.0
 10
147.5510278020641
 20
274.2243609428145
 30
0.0
 10
147.9197243932462
 20
274.4319281409379
 30
0.0
 10
148.2623406847181
 20
274.6617999023097
 30
0.0
 10
148.5678885283518
 20
274.9061832091551
 30
0.0
 10
148.8420409940256
 20
275.1702144591546
 30
0.0
 10
149.0752846590041
 20
275.444971803294
 30
0.0
 10
149.2721636924707
 20
275.7356723551174
 30
0.0
 10
149.425263234686
 20
276.0336580097972
 30
0.0
 10
149.5378107051976
 20
276.3423586291759
 30
0.0
 10
149.6043622155623
 20
276.6549292662762
 30
0.0
 10
149.6278374722544
 20
276.9713283092762
 30
0.0
 10
149.6043622155733
 20
277.2877273522759
 30
0.0
 10
149.5378107052194
 20
277.600297989375
 30
0.0
 10
149.4252632347184
 20
277.9089986087523
 30
0.0
 10
149.2721636925129
 20
278.2069842634295
 30
0.0
 10
149.0752846590562
 20
278.4976848152497
 30
0.0
 10
148.8420409940865
 20
278.772442159385
 30
0.0
 10
148.5678885284215
 20
279.0364734093793
 30
0.0
 10
148.2623406847956
 20
279.2808567162189
 30
0.0
 10
147.9197243933313
 20
279.5107284775835
 30
0.0
 10
147.5510278021561
 20
279.7182956756988
 30
0.0
 10
147.1504731642399
 20
279.9075126502173
 30
0.0
 10
146.729368637457
 20
280.0724772610406
 30
0.0
 10
146.2830103396902
 20
280.2156612837994
 30
0.0
 10
145.8218144795738
 20
280.3331885103629
 30
0.0
 10
145.3431193838522
 20
280.4262723169177
 30
0.0
 10
144.8554520746891
 20
280.4927751154225
 30
0.0
 10
144.3588342689906
 20
280.533160677859
 30
0.0
 10
143.8592134534113
 20
280.5465041580337
 30
0.0
 10
143.3595926378333
 20
280.5331606778067
 30
0.0
 10
142.8629748321314
 20
280.4927751153127
 30
0.0
 10
142.375307522981
 20
280.4262723167431
 30
0.0
 10
141.896612427216
 20
280.3331885101009
 30
0.0
 10
141.4354165672649
 20
280.2156612834606
 30
0.0
 10
140.9890582689219
 20
280.0724772604941
 30
0.0
 10
140.567953744251
 20
279.9075126498215
 30
0.0
 10
140.1673990989527
 20
279.7182956740506
 30
0.0
 10
139.7987025343681
 20
279.51072847954
 30
0.0
 10
139.4560861507222
 20
279.2808567046229
 30
0.0
 10
139.1505386366648
 20
279.0364734449431
 30
0.0
 10
138.8763850355751
 20
278.7724420309999
 30
0.0
 10
138.6431454266509
 20
278.497685270753
 30
0.0
 10
138.4462523700357
 20
278.206982698224
 30
0.0
 10
138.2932032888607
 20
277.9090043124507
 30
0.0
 10
138.1804779937767
 20
277.6002780746356
 30
0.0
 10
138.1145770486424
 20
277.2878011576375
 30
0.0
 10
138.088725538814
 20
276.9710597890597
 30
0.0
 10
138.1101386055294
 20
276.7626022343177
 30
0.0
 10
138.1208451341326
 20
276.6583734580921
 30
0.0
 11
138.1208451341326
 21
276.6583734580921
 31
0.0
 11
138.1878406758354
 21
276.344359434479
 31
0.0
 11
138.2967955079798
 21
276.0426139136092
 31
0.0
 11
138.4522203745572
 21
275.7390901622135
 31
0.0
 11
138.6424560986629
 21
275.4565293030307
 31
0.0
 11
138.8809493952181
 21
275.1743876576849
 31
0.0
 11
139.1462865243231
 21
274.9178004123046
 31
0.0
 11
139.4594478815448
 21
274.666285688558
 31
0.0
 11
139.7924750007257
 21
274.4421648329646
 31
0.0
 11
140.169803363444
 21
274.2289297601494
 31
0.0
 11
140.5613710326375
 21
274.0435094051985
 31
0.0
 11
140.9907043843767
 21
273.8747333437517
 31
0.0
 11
141.4297934728772
 21
273.7336017810814
 31
0.0
 11
141.897639363278
 21
273.6139792865303
 31
0.0
 11
142.3715713907768
 21
273.5216799658642
 31
0.0
 11
142.8634680974704
 21
273.454356648091
 31
0.0
 11
143.3582876494526
 21
273.4141004596838
 31
0.0
 11
143.8592134632322
 21
273.4006140953864
 31
0.0
 11
144.3601392770119
 21
273.4141004596837
 31
0.0
 11
144.8549588289943
 21
273.4543566480908
 31
0.0
 11
145.3468555356879
 21
273.5216799658641
 31
0.0
 11
145.8207875631867
 21
273.6139792865303
 31
0.0
 11
146.2886334535875
 21
273.7336017810814
 31
0.0
 11
146.727722542088
 21
273.8747333437516
 31
0.0
 11
147.1570558938272
 21
274.0435094051985
 31
0.0
 11
147.5486235630207
 21
274.2289297601494
 31
0.0
 11
147.925951925739
 21
274.4421648329646
 31
0.0
 11
148.2589790449198
 21
274.666285688558
 31
0.0
 11
148.5721404021414
 21
274.9178004123047
 31
0.0
 11
148.8374775312464
 21
275.174387657685
 31
0.0
 11
149.0759708278017
 21
275.4565293030307
 31
0.0
 11
149.2662065519073
 21
275.7390901622135
 31
0.0
 11
149.4216314184847
 21
276.0426139136092
 31
0.0
 11
149.5305862506291
 21
276.344359434479
 31
0.0
 11
149.5975817923319
 21
276.6583734580921
 31
0.0
 11
149.6200727741337
 21
276.9713283096578
 31
0.0
 11
149.5975817923319
 21
277.2842831612236
 31
0.0
 11
149.5305862506291
 21
277.5982971848368
 31
0.0
 11
149.4216314184847
 21
277.9000427057067
 31
0.0
 11
149.2662065519074
 21
278.2035664571022
 31
0.0
 11
149.0759708278017
 21
278.4861273162852
 31
0.0
 11
148.8374775312464
 21
278.768268961631
 31
0.0
 11
148.5721404021414
 21
279.0248562070113
 31
0.0
 11
148.2589790449198
 21
279.276370930758
 31
0.0
 11
147.9259519257389
 21
279.5004917863513
 31
0.0
 11
147.5486235630207
 21
279.7137268591665
 31
0.0
 11
147.1570558938272
 21
279.8991472141173
 31
0.0
 11
146.727722542088
 21
280.0679232755643
 31
0.0
 11
146.2886334535875
 21
280.2090548382346
 31
0.0
 11
145.8207875631867
 21
280.3286773327857
 31
0.0
 11
145.3468555356879
 21
280.4209766534518
 31
0.0
 11
144.8549588289943
 21
280.4882999712251
 31
0.0
 11
144.360139277012
 21
280.5285561596321
 31
0.0
 11
143.8592134632323
 21
280.5420425239295
 31
0.0
 11
143.3582876494526
 21
280.5285561596321
 31
0.0
 11
142.8634680974703
 21
280.488299971225
 31
0.0
 11
142.3715713907767
 21
280.4209766534518
 31
0.0
 11
141.8976393632779
 21
280.3286773327857
 31
0.0
 11
141.4297934728771
 21
280.2090548382346
 31
0.0
 11
140.9907043843767
 21
280.0679232755643
 31
0.0
 11
140.5613710326375
 21
279.8991472141173
 31
0.0
 11
140.169803363444
 21
279.7137268591664
 31
0.0
 11
139.7924750007257
 21
279.5004917863512
 31
0.0
 11
139.4594478815449
 21
279.2763709307579
 31
0.0
 11
139.1462865243232
 21
279.0248562070112
 31
0.0
 11
138.8809493952182
 21
278.7682689616308
 31
0.0
 11
138.6424560986629
 21
278.4861273162852
 31
0.0
 11
138.4522203745573
 21
278.2035664571023
 31
0.0
 11
138.2967955079801
 21
277.9000427057066
 31
0.0
 11
138.1878406758357
 21
277.5982971848367
 31
0.0
 11
138.1208451341328
 21
277.2842831612235
 31
0.0
 11
138.0983541523308
 21
276.9713283096578
 31
0.0
 11
138.1208451341326
 21
276.6583734580921
 31
0.0
  0
SPLINE
  5
18D
330
53
100
AcDbEntity
  8
1
  6
Continuous
 62
     7
100
AcDbSpline
210
0.0
220
0.0
230
1.0
 70
    11
 71
     3
 72
    79
 73
    75
 74
    73
 42
0.000000001
 43
0.0000000001
 44
0.00000001
 40
0.0
 40
0.0
 40
0.0
 40
0.0
 40
0.3210813056648518
 40
0.6418951396081412
 40
0.982898889166439
 40
1.323531051596525
 40
1.692967055112354
 40
2.062075178394255
 40
2.463733854379879
 40
2.865152862487536
 40
3.298564779288371
 40
3.731815223728874
 40
4.193131260568612
 40
4.654344167616954
 40
5.137240966498846
 40
5.620077099452167
 40
6.11655952529637
 40
6.61301390359206
 40
7.114121230352244
 40
7.615228557112216
 40
8.111682935406835
 40
8.608165361247938
 40
9.091001494194591
 40
9.573898293063591
 40
10.03511120009031
 40
10.49642723689442
 40
10.92967768128227
 40
11.3630895980031
 40
11.76450860600173
 40
12.16616728182964
 40
12.53527540490446
 40
12.9047114081229
 40
13.24534357014015
 40
13.5863473189943
 40
13.90716115088627
 40
14.2282424638688
 40
14.54200444896824
 40
14.85576643406647
 40
15.17684774704572
 40
15.49766157893242
 40
15.83866532777936
 40
16.17929748978865
 40
16.54873349299769
 40
16.9178416160629
 40
17.31950029188038
 40
17.72091929986897
 40
18.15433121657948
 40
18.58758166095761
 40
19.04889769775211
 40
19.51011060476992
 40
19.99300740363038
 40
20.47584353656937
 40
20.97232596240329
 40
21.46878034069156
 40
21.96988766744608
 40
22.47099499420179
 40
22.96744937249414
 40
23.46393179833596
 40
23.946767931288
 40
24.42966473016964
 40
24.89087763721857
 40
25.35219367405958
 40
25.78544411850121
 40
26.21885603530201
 40
26.62027504340724
 40
27.02193371938485
 40
27.3910418426486
 40
27.76047784612166
 40
28.10111000845222
 40
28.44211375771929
 40
28.76292759014586
 40
29.08400890392561
 40
29.39777089116752
 40
29.71153286919171
 40
29.71153286919171
 40
29.71153286919171
 40
29.71153286919171
 10
163.5975817923319
 20
276.6583734580921
 30
0.0
 10
163.5783019415827
 20
276.5529123750283
 30
0.0
 10
163.5397583095151
 20
276.3420780598574
 30
0.0
 10
163.4247049973634
 20
276.0337384367979
 30
0.0
 10
163.2723165315161
 20
275.7356503422421
 30
0.0
 10
163.07523988706
 20
275.4449782579242
 30
0.0
 10
162.8420533772325
 20
275.1702126794969
 30
0.0
 10
162.5678849106849
 20
274.9061837342593
 30
0.0
 10
162.262341710601
 20
274.6617997581836
 30
0.0
 10
161.9197241197085
 20
274.4319281837877
 30
0.0
 10
161.5510279029422
 20
274.2243609315532
 30
0.0
 10
161.1504731608052
 20
274.0351439719051
 30
0.0
 10
160.7293686636561
 20
273.8701793567022
 30
0.0
 10
160.2830103576965
 20
273.7269953350398
 30
0.0
 10
159.8218144998642
 20
273.6094681080845
 30
0.0
 10
159.3431194035084
 20
273.5163843015752
 30
0.0
 10
158.8554520945115
 20
273.4498815030118
 30
0.0
 10
158.3588342887604
 20
273.4094959405547
 30
0.0
 10
157.8592134731891
 20
273.3961524603524
 30
0.0
 10
157.359592657602
 20
273.4094959405516
 30
0.0
 10
156.8629748518997
 20
273.4498815030089
 30
0.0
 10
156.3753075427318
 20
273.5163843015325
 30
0.0
 10
155.8966124470055
 20
273.6094681081034
 30
0.0
 10
155.4354165868843
 20
273.7269953346813
 30
0.0
 10
154.9890582891119
 20
273.8701793574526
 30
0.0
 10
154.5679537623232
 20
274.0351439682863
 30
0.0
 10
154.1673991244006
 20
274.2243609428147
 30
0.0
 10
153.7987025332185
 20
274.4319281409378
 30
0.0
 10
153.4560862417466
 20
274.6617999023098
 30
0.0
 10
153.1505383981127
 20
274.9061832091551
 30
0.0
 10
152.8763859324391
 20
275.1702144591545
 30
0.0
 10
152.6431422674604
 20
275.444971803294
 30
0.0
 10
152.4462632339939
 20
275.7356723551173
 30
0.0
 10
152.2931636917786
 20
276.0336580097973
 30
0.0
 10
152.1806162212669
 20
276.3423586291759
 30
0.0
 10
152.1140647109022
 20
276.6549292662763
 30
0.0
 10
152.0905894542102
 20
276.9713283092763
 30
0.0
 10
152.1140647108912
 20
277.2877273522757
 30
0.0
 10
152.1806162212453
 20
277.6002979893751
 30
0.0
 10
152.2931636917463
 20
277.9089986087522
 30
0.0
 10
152.4462632339517
 20
278.2069842634295
 30
0.0
 10
152.6431422674085
 20
278.4976848152496
 30
0.0
 10
152.8763859323781
 20
278.772442159385
 30
0.0
 10
153.1505383980431
 20
279.0364734093794
 30
0.0
 10
153.456086241669
 20
279.2808567162188
 30
0.0
 10
153.7987025331334
 20
279.5107284775836
 30
0.0
 10
154.1673991243086
 20
279.7182956756988
 30
0.0
 10
154.5679537622248
 20
279.9075126502173
 30
0.0
 10
154.9890582890076
 20
280.0724772610405
 30
0.0
 10
155.4354165867745
 20
280.2156612837994
 30
0.0
 10
155.8966124468907
 20
280.333188510363
 30
0.0
 10
156.3753075426124
 20
280.4262723169177
 30
0.0
 10
156.8629748517755
 20
280.4927751154227
 30
0.0
 10
157.359592657474
 20
280.5331606778588
 30
0.0
 10
157.8592134730533
 20
280.5465041580338
 30
0.0
 10
158.3588342886313
 20
280.5331606778067
 30
0.0
 10
158.8554520943332
 20
280.4927751153127
 30
0.0
 10
159.3431194034836
 20
280.4262723167431
 30
0.0
 10
159.8218144992487
 20
280.333188510101
 30
0.0
 10
160.2830103591997
 20
280.2156612834606
 30
0.0
 10
160.7293686575428
 20
280.0724772604941
 30
0.0
 10
161.1504731822138
 20
279.9075126498215
 30
0.0
 10
161.5510278275119
 20
279.7182956740506
 30
0.0
 10
161.9197243920965
 20
279.51072847954
 30
0.0
 10
162.2623407757424
 20
279.2808567046227
 30
0.0
 10
162.5678882897999
 20
279.0364734449432
 30
0.0
 10
162.8420418908894
 20
278.7724420309999
 30
0.0
 10
163.0752814998137
 20
278.4976852707529
 30
0.0
 10
163.2721745564289
 20
278.206982698224
 30
0.0
 10
163.4252236376039
 20
277.9090043124507
 30
0.0
 10
163.537948932688
 20
277.6002780746356
 30
0.0
 10
163.6038498778222
 20
277.2878011576374
 30
0.0
 10
163.6297013876507
 20
276.9710597890598
 30
0.0
 10
163.6082883209352
 20
276.7626022343176
 30
0.0
 10
163.5975817923319
 20
276.6583734580921
 30
0.0
 11
163.5975817923319
 21
276.6583734580921
 31
0.0
 11
163.5305862506292
 21
276.344359434479
 31
0.0
 11
163.4216314184848
 21
276.0426139136092
 31
0.0
 11
163.2662065519074
 21
275.7390901622135
 31
0.0
 11
163.0759708278017
 21
275.4565293030307
 31
0.0
 11
162.8374775312464
 21
275.1743876576849
 31
0.0
 11
162.5721404021415
 21
274.9178004123046
 31
0.0
 11
162.2589790449198
 21
274.666285688558
 31
0.0
 11
161.9259519257389
 21
274.4421648329646
 31
0.0
 11
161.5486235630206
 21
274.2289297601494
 31
0.0
 11
161.1570558938271
 21
274.0435094051985
 31
0.0
 11
160.727722542088
 21
273.8747333437517
 31
0.0
 11
160.2886334535875
 21
273.7336017810814
 31
0.0
 11
159.8207875631866
 21
273.6139792865303
 31
0.0
 11
159.3468555356878
 21
273.5216799658642
 31
0.0
 11
158.8549588289942
 21
273.454356648091
 31
0.0
 11
158.360139277012
 21
273.4141004596838
 31
0.0
 11
157.8592134632324
 21
273.4006140953864
 31
0.0
 11
157.3582876494526
 21
273.4141004596837
 31
0.0
 11
156.8634680974703
 21
273.4543566480908
 31
0.0
 11
156.3715713907766
 21
273.5216799658641
 31
0.0
 11
155.8976393632779
 21
273.6139792865303
 31
0.0
 11
155.4297934728771
 21
273.7336017810814
 31
0.0
 11
154.9907043843767
 21
273.8747333437516
 31
0.0
 11
154.5613710326375
 21
274.0435094051985
 31
0.0
 11
154.1698033634441
 21
274.2289297601494
 31
0.0
 11
153.7924750007257
 21
274.4421648329646
 31
0.0
 11
153.4594478815449
 21
274.666285688558
 31
0.0
 11
153.1462865243231
 21
274.9178004123047
 31
0.0
 11
152.8809493952182
 21
275.174387657685
 31
0.0
 11
152.6424560986629
 21
275.4565293030307
 31
0.0
 11
152.4522203745572
 21
275.7390901622135
 31
0.0
 11
152.2967955079799
 21
276.0426139136092
 31
0.0
 11
152.1878406758355
 21
276.344359434479
 31
0.0
 11
152.1208451341327
 21
276.6583734580921
 31
0.0
 11
152.0983541523308
 21
276.9713283096578
 31
0.0
 11
152.1208451341328
 21
277.2842831612236
 31
0.0
 11
152.1878406758356
 21
277.5982971848368
 31
0.0
 11
152.29679550798
 21
277.9000427057067
 31
0.0
 11
152.4522203745573
 21
278.2035664571022
 31
0.0
 11
152.6424560986629
 21
278.4861273162852
 31
0.0
 11
152.8809493952182
 21
278.768268961631
 31
0.0
 11
153.1462865243232
 21
279.0248562070113
 31
0.0
 11
153.4594478815449
 21
279.276370930758
 31
0.0
 11
153.7924750007257
 21
279.5004917863513
 31
0.0
 11
154.169803363444
 21
279.7137268591665
 31
0.0
 11
154.5613710326375
 21
279.8991472141173
 31
0.0
 11
154.9907043843766
 21
280.0679232755643
 31
0.0
 11
155.4297934728771
 21
280.2090548382346
 31
0.0
 11
155.8976393632779
 21
280.3286773327857
 31
0.0
 11
156.3715713907767
 21
280.4209766534518
 31
0.0
 11
156.8634680974703
 21
280.4882999712251
 31
0.0
 11
157.3582876494526
 21
280.5285561596321
 31
0.0
 11
157.8592134632323
 21
280.5420425239295
 31
0.0
 11
158.360139277012
 21
280.5285561596321
 31
0.0
 11
158.8549588289943
 21
280.488299971225
 31
0.0
 11
159.3468555356879
 21
280.4209766534518
 31
0.0
 11
159.8207875631866
 21
280.3286773327857
 31
0.0
 11
160.2886334535875
 21
280.2090548382346
 31
0.0
 11
160.727722542088
 21
280.0679232755643
 31
0.0
 11
161.1570558938272
 21
279.8991472141173
 31
0.0
 11
161.5486235630207
 21
279.7137268591664
 31
0.0
 11
161.9259519257389
 21
279.5004917863512
 31
0.0
 11
162.2589790449197
 21
279.2763709307579
 31
0.0
 11
162.5721404021414
 21
279.0248562070112
 31
0.0
 11
162.8374775312463
 21
278.7682689616308
 31
0.0
 11
163.0759708278017
 21
278.4861273162852
 31
0.0
 11
163.2662065519073
 21
278.2035664571023
 31
0.0
 11
163.4216314184846
 21
277.9000427057066
 31
0.0
 11
163.530586250629
 21
277.5982971848367
 31
0.0
 11
163.5975817923318
 21
277.2842831612235
 31
0.0
 11
163.6200727741338
 21
276.9713283096578
 31
0.0
 11
163.5975817923319
 21
276.6583734580921
 31
0.0
  0
ARC
  5
18E
330
53
100
AcDbEntity
  8
1
  6
Continuous
 62
     7
100
AcDbCircle
 10
438.375568428527
 20
271.1137913450995
 30
0.0
 40
0.9999999999999836
100
AcDbArc
 50
30.00000000000054
 51
90.0
  0
ARC
  5
18F
330
53
100
AcDbEntity
  8
1
  6
Continuous
 62
     7
100
AcDbCircle
 10
440.1076192360958
 20
272.1137913450995
 30
0.0
 40
0.9999999999999344
100
AcDbArc
 50
210.0000000000022
 51
270.0
  0
ARC
  5
190
330
53
100
AcDbEntity
  8
1
  6
Continuous
 62
     7
100
AcDbCircle
 10
438.3175473667964
 20
273.1137913450995
 30
0.0
 40
1.000000000000059
100
AcDbArc
 50
254.6624423304354
 51
270.0
  0
ARC
  5
191
330
53
100
AcDbEntity
  8
1
  6
Continuous
 62
     7
100
AcDbCircle
 10
461.375568428527
 20
271.1137913450995
 30
0.0
 40
1.0
100
AcDbArc
 50
90.0
 51
150.0000000000011
  0
ARC
  5
192
330
53
100
AcDbEntity
  8
1
  6
Continuous
 62
     7
100
AcDbCircle
 10
459.6435176209581
 20
272.1137913450995
 30
0.0
 40
1.0
100
AcDbArc
 50
270.0
 51
329.9999999999995
  0
ARC
  5
193
330
53
100
AcDbEntity
  8
1
  6
Continuous
 62
     7
100
AcDbCircle
 10
461.4335894902575
 20
273.1137913450995
 30
0.0
 40
1.0
100
AcDbArc
 50
270.0
 51
285.3375576695583
  0
ARC
  5
194
330
53
100
AcDbEntity
  8
1
  6
Continuous
 62
     7
100
AcDbCircle
 10
139.3592134632322
 20
271.1137913450995
 30
0.0
 40
0.9999999999999589
100
AcDbArc
 50
30.00000000000136
 51
90.0
  0
ARC
  5
195
330
53
100
AcDbEntity
  8
1
  6
Continuous
 62
     7
100
AcDbCircle
 10
141.0912642708011
 20
272.1137913450995
 30
0.0
 40
1.000000000000058
100
AcDbArc
 50
209.9999999999981
 51
270.0
  0
ARC
  5
196
330
53
100
AcDbEntity
  8
1
  6
Continuous
 62
     7
100
AcDbCircle
 10
139.3011924015017
 20
273.1137913450995
 30
0.0
 40
1.000000000000029
100
AcDbArc
 50
254.6624423304416
 51
270.0
  0
ARC
  5
197
330
53
100
AcDbEntity
  8
1
  6
Continuous
 62
     7
100
AcDbCircle
 10
162.3592134632323
 20
271.1137913450995
 30
0.0
 40
1.0
100
AcDbArc
 50
90.0
 51
149.9999999999987
  0
ARC
  5
198
330
53
100
AcDbEntity
  8
1
  6
Continuous
 62
     7
100
AcDbCircle
 10
160.6271626556635
 20
272.1137913450995
 30
0.0
 40
1.0
100
AcDbArc
 50
270.0
 51
329.9999999999987
  0
ARC
  5
199
330
53
100
AcDbEntity
  8
1
  6
Continuous
 62
     7
100
AcDbCircle
 10
162.417234524963
 20
273.1137913450995
 30
0.0
 40
1.0
100
AcDbArc
 50
270.0
 51
285.337557669552
  0
ENDBLK
  5
55
330
53
100
AcDbEntity
  8
0
100
AcDbBlockEnd
  0
BLOCK
  5
57
330
56
100
AcDbEntity
  8
0
100
AcDbBlockBegin
  2
60-1-16-240
 70
     0
 10
311.7093344231132
 20
175.2476935151057
 30
0.0
  3
60-1-16-240
  1

  0
LINE
  5
19A
330
56
100
AcDbEntity
  8
1
  6
Continuous
 62
     7
100
AcDbLine
 10
424.8755684285251
 20
230.6137913450995
 30
0.0
 11
234.8737690241163
 21
230.6137913450995
 31
0.0
  0
LINE
  5
19B
330
56
100
AcDbEntity
  8
1
  6
Continuous
 62
     7
100
AcDbLine
 10
217.8737690241163
 20
210.6137913450995
 30
0.0
 11
217.8737690241163
 21
213.6137913450995
 31
0.0
  0
LINE
  5
19C
330
56
100
AcDbEntity
  8
1
  6
Continuous
 62
     7
100
AcDbLine
 10
201.8737690241163
 20
210.6137913450995
 30
0.0
 11
201.8737690241163
 21
213.6137913450995
 31
0.0
  0
LINE
  5
19D
330
56
100
AcDbEntity
  8
1
  6
Continuous
 62
     7
100
AcDbLine
 10
457.875568428527
 20
271.1137913450995
 30
0.0
 11
457.875568428527
 21
263.6137913450995
 31
0.0
  0
LINE
  5
19E
330
56
100
AcDbEntity
  8
1
  6
Continuous
 62
     7
100
AcDbLine
 10
441.875568428527
 20
263.6137913450995
 30
0.0
 11
441.875568428527
 21
271.1137913450995
 31
0.0
  0
LINE
  5
19F
330
56
100
AcDbEntity
  8
1
  6
Continuous
 62
     7
100
AcDbLine
 10
424.8755684285251
 20
246.6137913450995
 30
0.0
 11
234.8737690241163
 21
246.6137913450995
 31
0.0
  0
LINE
  5
1A0
330
56
100
AcDbEntity
  8
1
  6
Continuous
 62
     7
100
AcDbLine
 10
217.8737690241163
 20
210.6137913450995
 30
0.0
 11
201.8737690241163
 21
210.6137913450995
 31
0.0
  0
LINE
  5
1A1
330
56
100
AcDbEntity
  8
1
  6
Continuous
 62
     7
100
AcDbLine
 10
202.4873620181302
 20
205.6137913450995
 30
0.0
 11
217.2601760301023
 21
205.6137913450995
 31
0.0
  0
LINE
  5
1A2
330
56
100
AcDbEntity
  8
1
  6
Continuous
 62
     7
100
AcDbLine
 10
158.8592134632324
 20
643.5666522222122
 30
0.0
 11
158.8592134632323
 21
415.1118582015941
 31
0.0
  0
LINE
  5
1A3
330
56
100
AcDbEntity
  8
1
  6
Continuous
 62
     7
100
AcDbLine
 10
142.8592134632324
 20
643.5666522222122
 30
0.0
 11
142.8592134632323
 21
415.1118582015941
 31
0.0
  0
LINE
  5
1A4
330
56
100
AcDbEntity
  8
1
  6
PHANTOM
 62
     4
100
AcDbLine
 10
162.2334356570945
 20
415.1118582015941
 30
0.0
 11
139.8812622510114
 21
415.1118582015941
 31
0.0
  0
LINE
  5
1A5
330
56
100
AcDbEntity
  8
1
  6
Continuous
 62
     7
100
AcDbLine
 10
158.8592134632323
 20
210.6137913450995
 30
0.0
 11
142.8592134632323
 21
210.6137913450995
 31
0.0
  0
LINE
  5
1A6
330
56
100
AcDbEntity
  8
1
  6
Continuous
 62
     7
100
AcDbLine
 10
143.4728064572463
 20
205.6137913450995
 30
0.0
 11
158.2456204692184
 21
205.6137913450995
 31
0.0
  0
LINE
  5
1A7
330
56
100
AcDbEntity
  8
1
  6
Continuous
 62
     7
100
AcDbLine
 10
158.8592134632323
 20
210.6137913450995
 30
0.0
 11
158.8592134632323
 21
271.1137913450995
 31
0.0
  0
LINE
  5
1A8
330
56
100
AcDbEntity
  8
1
  6
Continuous
 62
     7
100
AcDbLine
 10
142.8592134632323
 20
210.6137913450995
 30
0.0
 11
142.8592134632323
 21
271.1137913450995
 31
0.0
  0
ARC
  5
1A9
330
56
100
AcDbEntity
  8
1
  6
Continuous
 62
     7
100
AcDbCircle
 10
214.663742729398
 20
208.4700716378773
 30
0.0
 40
3.86002629471821
100
AcDbArc
 50
0.0
 51
33.73579100002586
  0
ARC
  5
1AA
330
56
100
AcDbEntity
  8
1
  6
Continuous
 62
     7
100
AcDbCircle
 10
205.0837953188344
 20
208.4700716378773
 30
0.0
 40
3.86002629471821
100
AcDbArc
 50
180.0
 51
227.7283445035843
  0
ARC
  5
1AB
330
56
100
AcDbEntity
  8
1
  6
Continuous
 62
     7
100
AcDbCircle
 10
205.0837953188344
 20
208.4700716378773
 30
0.0
 40
3.860026294717989
100
AcDbArc
 50
146.2642089999723
 51
180.0
  0
ARC
  5
1AC
330
56
100
AcDbEntity
  8
1
  6
Continuous
 62
     7
100
AcDbCircle
 10
214.663742729398
 20
208.4700716378773
 30
0.0
 40
3.860026294718361
100
AcDbArc
 50
312.2716554964167
 51
0.0
  0
ARC
  5
1AD
330
56
100
AcDbEntity
  8
1
  6
Continuous
 62
     7
100
AcDbCircle
 10
150.8592134632323
 20
415.1118582015941
 30
0.0
 40
8.0
100
AcDbArc
 50
180.0
 51
0.0
  0
ARC
  5
1AE
330
56
100
AcDbEntity
  8
1
  6
Continuous
 62
     7
100
AcDbCircle
 10
150.8592134632323
 20
415.1118582015941
 30
0.0
 40
8.650000000000091
100
AcDbArc
 50
270.0
 51
22.35342559933236
  0
ARC
  5
1AF
330
56
100
AcDbEntity
  8
1
  6
Continuous
 62
     7
100
AcDbCircle
 10
150.8592134632323
 20
415.1118582015941
 30
0.0
 40
8.650000000000071
100
AcDbArc
 50
157.6465744006676
 51
270.0
  0
ARC
  5
1B0
330
56
100
AcDbEntity
  8
1
  6
Continuous
 62
     7
100
AcDbCircle
 10
155.649187168514
 20
208.4700716378773
 30
0.0
 40
3.860026294718296
100
AcDbArc
 50
0.0
 51
33.7357910000261
  0
ARC
  5
1B1
330
56
100
AcDbEntity
  8
1
  6
Continuous
 62
     7
100
AcDbCircle
 10
146.0692397579504
 20
208.4700716378773
 30
0.0
 40
3.86002629471821
100
AcDbArc
 50
180.0
 51
227.7283445035852
  0
ARC
  5
1B2
330
56
100
AcDbEntity
  8
1
  6
Continuous
 62
     7
100
AcDbCircle
 10
146.0692397579504
 20
208.4700716378773
 30
0.0
 40
3.860026294718012
100
AcDbArc
 50
146.2642089999725
 51
180.0
  0
ARC
  5
1B3
330
56
100
AcDbEntity
  8
1
  6
Continuous
 62
     7
100
AcDbCircle
 10
155.649187168514
 20
208.4700716378773
 30
0.0
 40
3.860026294718437
100
AcDbArc
 50
312.2716554964179
 51
0.0
  0
ARC
  5
1B4
330
56
100
AcDbEntity
  8
1
  6
Continuous
 62
     7
100
AcDbCircle
 10
150.8592134632323
 20
238.6137913450994
 30
0.0
 40
8.0
100
AcDbArc
 50
0.0
 51
180.0
  0
ARC
  5
1B5
330
56
100
AcDbEntity
  8
1
  6
Continuous
 62
     7
100
AcDbCircle
 10
234.8737690241163
 20
213.6137913450995
 30
0.0
 40
17.0
100
AcDbArc
 50
90.0
 51
180.0
  0
ARC
  5
1B6
330
56
100
AcDbEntity
  8
1
  6
Continuous
 62
     7
100
AcDbCircle
 10
234.8737690241163
 20
213.6137913450995
 30
0.0
 40
33.0
100
AcDbArc
 50
90.0
 51
180.0
  0
ARC
  5
1B7
330
56
100
AcDbEntity
  8
1
  6
Continuous
 62
     7
100
AcDbCircle
 10
424.8755684285251
 20
263.6137913450995
 30
0.0
 40
17.00000000000003
100
AcDbArc
 50
270.0
 51
0.0
  0
ARC
  5
1B8
330
56
100
AcDbEntity
  8
1
  6
Continuous
 62
     7
100
AcDbCircle
 10
424.8755684285251
 20
263.6137913450995
 30
0.0
 40
33.00000000000003
100
AcDbArc
 50
270.0
 51
0.0
  0
ENDBLK
  5
58
330
56
100
AcDbEntity
  8
0
100
AcDbBlockEnd
  0
BLOCK
  5
5A
330
59
100
AcDbEntity
  8
0
100
AcDbBlockBegin
  2
37-1-13
 70
     0
 10
393.074338211756
 20
183.618085454955
 30
0.0
  3
37-1-13
  1

  0
LINE
  5
1B9
330
59
100
AcDbEntity
  8
1
  6
Continuous
 62
     7
100
AcDbLine
 10
490.875568428527
 20
339.6137913450996
 30
0.0
 11
478.875568428527
 21
339.6137913450996
 31
0.0
  0
LINE
  5
1BA
330
59
100
AcDbEntity
  8
1
  6
Continuous
 62
     7
100
AcDbLine
 10
497.9462826427984
 20
325.6137913450996
 30
0.0
 11
471.8048542142555
 21
325.6137913450996
 31
0.0
  0
LINE
  5
1BB
330
59
100
AcDbEntity
  8
1
  6
Continuous
 62
     7
100
AcDbLine
 10
150.8592134632323
 20
339.6137913450996
 30
0.0
 11
145.8592134632323
 21
339.6137913450996
 31
0.0
  0
LINE
  5
1BC
330
59
100
AcDbEntity
  8
1
  6
Continuous
 62
     7
100
AcDbLine
 10
150.8592134632323
 20
339.6137913450996
 30
0.0
 11
156.8592134632323
 21
339.6137913450996
 31
0.0
  0
LINE
  5
1BD
330
59
100
AcDbEntity
  8
1
  6
Continuous
 62
     7
100
AcDbLine
 10
145.8592134632323
 20
339.6137913450996
 30
0.0
 11
144.8592134632323
 21
339.6137913450996
 31
0.0
  0
LINE
  5
1BE
330
59
100
AcDbEntity
  8
1
  6
Continuous
 62
     7
100
AcDbLine
 10
150.8592134632323
 20
325.6137913450996
 30
0.0
 11
163.8592134632323
 21
325.6137913450996
 31
0.0
  0
LINE
  5
1BF
330
59
100
AcDbEntity
  8
1
  6
Continuous
 62
     7
100
AcDbLine
 10
150.8592134632323
 20
325.6137913450996
 30
0.0
 11
137.8592134632323
 21
325.6137913450996
 31
0.0
  0
LINE
  5
1C0
330
59
100
AcDbEntity
  8
1
  6
Continuous
 62
     7
100
AcDbLine
 10
163.8592134632323
 20
332.684505559371
 30
0.0
 11
163.8592134632323
 21
325.6137913450996
 31
0.0
  0
LINE
  5
1C1
330
59
100
AcDbEntity
  8
1
  6
Continuous
 62
     7
100
AcDbLine
 10
137.8592134632323
 20
325.6137913450996
 30
0.0
 11
137.8592134632323
 21
332.684505559371
 31
0.0
  0
LINE
  5
1C2
330
59
100
AcDbEntity
  8
1
  6
Continuous
 62
     7
100
AcDbLine
 10
139.8348442989535
 20
681.4674731117167
 30
0.0
 11
138.7970645979104
 21
682.0666355014735
 31
0.0
  0
LINE
  5
1C3
330
59
100
AcDbEntity
  8
1
  6
Continuous
 62
     7
100
AcDbLine
 10
137.8592134632322
 20
683.6910413166722
 30
0.0
 11
137.8592134632322
 21
684.8893660961858
 31
0.0
  0
LINE
  5
1C4
330
59
100
AcDbEntity
  8
1
  6
Continuous
 62
     7
100
AcDbLine
 10
163.8592134632322
 20
684.8893660961858
 30
0.0
 11
163.8592134632322
 21
683.6910413166722
 31
0.0
  0
LINE
  5
1C5
330
59
100
AcDbEntity
  8
1
  6
Continuous
 62
     7
100
AcDbLine
 10
148.8835826275108
 20
703.984133610112
 30
0.0
 11
149.921362328554
 21
704.5832959998688
 31
0.0
  0
LINE
  5
1C6
330
59
100
AcDbEntity
  8
1
  6
Continuous
 62
     7
100
AcDbLine
 10
151.7970645979104
 20
704.5832959998688
 30
0.0
 11
152.8348442989537
 21
703.9841336101119
 31
0.0
  0
LINE
  5
1C7
330
59
100
AcDbEntity
  8
1
  6
Continuous
 62
     7
100
AcDbLine
 10
162.921362328554
 20
682.0666355014735
 30
0.0
 11
161.883582627511
 21
681.4674731117167
 31
0.0
  0
LINE
  5
1C8
330
59
100
AcDbEntity
  8
1
  6
PHANTOM
 62
     4
100
AcDbLine
 10
150.8592134632322
 20
672.1147490355252
 30
0.0
 11
150.8592134632322
 21
707.8186433033956
 31
0.0
  0
LINE
  5
1C9
330
59
100
AcDbEntity
  8
1
  6
PHANTOM
 62
     4
100
AcDbLine
 10
135.2929034081869
 20
690.1136576060048
 30
0.0
 11
166.3559102062301
 21
690.1136576060048
 31
0.0
  0
ARC
  5
1CA
330
59
100
AcDbEntity
  8
1
  6
Continuous
 62
     7
100
AcDbCircle
 10
475.375568428527
 20
329.1137913450996
 30
0.0
 40
4.999999999999932
100
AcDbArc
 50
126.869897645843
 51
224.4270040008051
  0
ARC
  5
1CB
330
59
100
AcDbEntity
  8
1
  6
Continuous
 62
     7
100
AcDbCircle
 10
458.969113223412
 20
353.0202465502146
 30
0.0
 40
24.00000000000015
100
AcDbArc
 50
303.9591925000978
 51
326.0408074999025
  0
ARC
  5
1CC
330
59
100
AcDbEntity
  8
1
  6
Continuous
 62
     7
100
AcDbCircle
 10
494.375568428527
 20
329.1137913450996
 30
0.0
 40
4.999999999999975
100
AcDbArc
 50
315.572995999194
 51
53.13010235415806
  0
ARC
  5
1CD
330
59
100
AcDbEntity
  8
1
  6
Continuous
 62
     7
100
AcDbCircle
 10
510.7820236336419
 20
353.0202465502146
 30
0.0
 40
24.00000000000003
100
AcDbArc
 50
213.9591925000976
 51
236.0408074999021
  0
ARC
  5
1CE
330
59
100
AcDbEntity
  8
1
  6
Continuous
 62
     7
100
AcDbCircle
 10
176.7656686683473
 20
353.0202465502144
 30
0.0
 40
23.99999999999998
100
AcDbArc
 50
213.959192500097
 51
236.0408074999021
  0
ARC
  5
1CF
330
59
100
AcDbEntity
  8
1
  6
Continuous
 62
     7
100
AcDbCircle
 10
160.3592134632323
 20
329.1137913450996
 30
0.0
 40
4.999999999999975
100
AcDbArc
 50
45.57299599919402
 51
53.13010235415597
  0
ARC
  5
1D0
330
59
100
AcDbEntity
  8
1
  6
Continuous
 62
     7
100
AcDbCircle
 10
124.9527582581176
 20
353.0202465502144
 30
0.0
 40
23.99999999999991
100
AcDbArc
 50
303.9591925000979
 51
326.0408074999025
  0
ARC
  5
1D1
330
59
100
AcDbEntity
  8
1
  6
Continuous
 62
     7
100
AcDbCircle
 10
141.3592134632323
 20
329.1137913450996
 30
0.0
 40
4.999999999999813
100
AcDbArc
 50
126.8698976458412
 51
134.427004000806
  0
ARC
  5
1D2
330
59
100
AcDbEntity
  8
1
  6
Continuous
 62
     7
100
AcDbCircle
 10
150.8592134632323
 20
690.1136576060048
 30
0.0
 40
14.5000000000001
100
AcDbArc
 50
206.2915552747294
 51
213.7084447252702
  0
ARC
  5
1D3
330
59
100
AcDbEntity
  8
1
  6
Continuous
 62
     7
100
AcDbCircle
 10
150.8592134632323
 20
690.1136576060048
 30
0.0
 40
14.5
100
AcDbArc
 50
90.00000000000034
 51
93.70844472527077
  0
ARC
  5
1D4
330
59
100
AcDbEntity
  8
1
  6
Continuous
 62
     7
100
AcDbCircle
 10
150.8592134632323
 20
690.1136576060048
 30
0.0
 40
14.49999999999995
100
AcDbArc
 50
326.2915552747294
 51
333.7084447252703
  0
ARC
  5
1D5
330
59
100
AcDbEntity
  8
1
  6
Continuous
 62
     7
100
AcDbCircle
 10
150.8592134632323
 20
690.1136576060048
 30
0.0
 40
14.49999999999999
100
AcDbArc
 50
86.29155527472992
 51
90.00000000000034
  0
SPLINE
  5
1D6
330
59
100
AcDbEntity
  8
1
  6
Continuous
 62
     7
100
AcDbSpline
210
0.0
220
0.0
230
1.0
 70
    11
 71
     3
 72
    79
 73
    75
 74
    73
 42
0.000000001
 43
0.0000000001
 44
0.00000001
 40
0.0
 40
0.0
 40
0.0
 40
0.0
 40
0.3102615582252967
 40
0.620559542082223
 40
0.9422162975289334
 40
1.263944872753886
 40
1.606039020845024
 40
1.948193468907062
 40
2.316051885190594
 40
2.683951048240041
 40
3.079084664080479
 40
3.474244780173803
 40
3.894897959207607
 40
4.315568207494263
 40
4.757452126736471
 40
5.199346674241728
 40
5.656354161987195
 40
6.113367478658284
 40
6.578223037733406
 40
7.043080455843
 40
7.507937873950429
 40
7.972793433018717
 40
8.42980674967762
 40
8.886814237403579
 40
9.328708784880384
 40
9.770592704081471
 40
10.19126295231275
 40
10.61191613126945
 40
11.00707624726329
 40
11.4022098629688
 40
11.77010902584999
 40
12.13796744190996
 40
12.48012188969642
 40
12.82221603741933
 40
13.14394461216158
 40
13.46560136682492
 40
13.77589934864155
 40
14.08616091447276
 40
14.39642248030386
 40
14.70672046212049
 40
15.02837721678384
 40
15.35010579152604
 40
15.6921999392489
 40
16.03435438703535
 40
16.40221280309528
 40
16.77011196597651
 40
17.1652455816821
 40
17.56040569767596
 40
17.98105887663259
 40
18.40172912486386
 40
18.84361304406491
 40
19.28550759154175
 40
19.74251507926771
 40
20.1995283959266
 40
20.66438395499489
 40
21.12924137310232
 40
21.59409879121191
 40
22.05895435028703
 40
22.51596766695812
 40
22.97297515470358
 40
23.41486970220877
 40
23.85675362145105
 40
24.2774238697377
 40
24.69807704877143
 40
25.09323716486479
 40
25.48837078070529
 40
25.85626994375481
 40
26.22412836003826
 40
26.5662828081002
 40
26.90837695619139
 40
27.23010553141633
 40
27.551762286863
 40
27.86206027071986
 40
28.1723218289451
 40
28.1723218289451
 40
28.1723218289451
 40
28.1723218289451
 10
149.9213623285542
 20
329.1491484522352
 30
0.0
 10
149.9173291368383
 20
329.2526386341574
 30
0.0
 10
149.9092622881675
 20
329.4596311485022
 30
0.0
 10
149.8452783103579
 20
329.7684800165248
 30
0.0
 10
149.7438575140606
 20
330.0704469302588
 30
0.0
 10
149.6014350139628
 20
330.3673565863735
 30
0.0
 10
149.4223324412029
 20
330.651674694734
 30
0.0
 10
149.2043621733424
 20
330.9271757410303
 30
0.0
 10
148.9540800193074
 20
331.1857817616988
 30
0.0
 10
148.6676178575356
 20
331.4315396513115
 30
0.0
 10
148.3537871052484
 20
331.6571849115062
 30
0.0
 10
148.0078729402172
 20
331.8659565793942
 30
0.0
 10
147.6397541480668
 20
332.0521773476655
 30
0.0
 10
147.24506021315
 20
332.2178618780121
 30
0.0
 10
146.833507013178
 20
332.3591696508616
 30
0.0
 10
146.4020813135834
 20
332.476949139436
 30
0.0
 10
145.9593072848729
 20
332.5690674410748
 30
0.0
 10
145.504249286279
 20
332.6355533684677
 30
0.0
 10
145.0434821841979
 20
332.6756109253781
 30
0.0
 10
144.578560008767
 20
332.6889528826732
 30
0.0
 10
144.11363783334
 20
332.6756109254565
 30
0.0
 10
143.6528707312474
 20
332.6355533686288
 30
0.0
 10
143.1978127326951
 20
332.5690674413274
 30
0.0
 10
142.7550387038302
 20
332.4769491397923
 30
0.0
 10
142.3236130047885
 20
332.3591696513396
 30
0.0
 10
141.9120598027896
 20
332.2178618786316
 30
0.0
 10
141.5173658750674
 20
332.0521773484546
 30
0.0
 10
141.1492470568453
 20
331.8659565803806
 30
0.0
 10
140.8033329834223
 20
331.657184912728
 30
0.0
 10
140.4895019014842
 20
331.4315396528052
 30
0.0
 10
140.2030408890112
 20
331.1857817635141
 30
0.0
 10
139.952754609938
 20
330.9271757432152
 30
0.0
 10
139.7347987119311
 20
330.6516746973587
 30
0.0
 10
139.555644398192
 20
330.3673565895195
 30
0.0
 10
139.4134040468043
 20
330.070446934107
 30
0.0
 10
139.311320394764
 20
329.7684800215976
 30
0.0
 10
139.2497271548363
 20
329.4596311524513
 30
0.0
 10
139.2287733513747
 20
329.1491484522352
 30
0.0
 10
139.2497271548363
 20
328.8386657520192
 30
0.0
 10
139.311320394764
 20
328.5298168828727
 30
0.0
 10
139.4134040468043
 20
328.2278499703635
 30
0.0
 10
139.555644398192
 20
327.930940314951
 30
0.0
 10
139.7347987119312
 20
327.6466222071119
 30
0.0
 10
139.952754609938
 20
327.3711211612552
 30
0.0
 10
140.2030408890113
 20
327.1125151409566
 30
0.0
 10
140.4895019014842
 20
326.8667572516653
 30
0.0
 10
140.8033329834223
 20
326.6411119917424
 30
0.0
 10
141.1492470568453
 20
326.4323403240899
 30
0.0
 10
141.5173658750674
 20
326.2461195560161
 30
0.0
 10
141.9120598027896
 20
326.0804350258388
 30
0.0
 10
142.3236130047885
 20
325.9391272531311
 30
0.0
 10
142.7550387038302
 20
325.8213477646783
 30
0.0
 10
143.1978127326951
 20
325.7292294631432
 30
0.0
 10
143.6528707312473
 20
325.6627435358417
 30
0.0
 10
144.11363783334
 20
325.6226859790141
 30
0.0
 10
144.578560008767
 20
325.6093440217975
 30
0.0
 10
145.0434821841978
 20
325.6226859790926
 30
0.0
 10
145.504249286279
 20
325.6627435360029
 30
0.0
 10
145.9593072848729
 20
325.7292294633959
 30
0.0
 10
146.4020813135834
 20
325.8213477650345
 30
0.0
 10
146.8335070131779
 20
325.9391272536089
 30
0.0
 10
147.24506021315
 20
326.0804350264585
 30
0.0
 10
147.6397541480668
 20
326.246119556805
 30
0.0
 10
148.0078729402173
 20
326.4323403250764
 30
0.0
 10
148.3537871052484
 20
326.6411119929642
 30
0.0
 10
148.6676178575357
 20
326.8667572531591
 30
0.0
 10
148.9540800193074
 20
327.1125151427717
 30
0.0
 10
149.2043621733424
 20
327.3711211634403
 30
0.0
 10
149.4223324412029
 20
327.6466222097367
 30
0.0
 10
149.6014350139629
 20
327.9309403180969
 30
0.0
 10
149.7438575140606
 20
328.2278499742117
 30
0.0
 10
149.845278310358
 20
328.5298168879457
 30
0.0
 10
149.9092622881674
 20
328.8386657559683
 30
0.0
 10
149.9173291368382
 20
329.045658270313
 30
0.0
 10
149.9213623285542
 20
329.1491484522352
 30
0.0
 11
149.9213623285542
 21
329.1491484522352
 31
0.0
 11
149.9007452353535
 21
329.4587242503719
 31
0.0
 11
149.8401931559554
 21
329.7630567712912
 31
0.0
 11
149.7377262673235
 21
330.0679561065546
 31
0.0
 11
149.5991519223946
 21
330.3583117967252
 31
0.0
 11
149.4173598780374
 21
330.6481049274167
 31
0.0
 11
149.2055625437812
 21
330.9168270058032
 31
0.0
 11
148.9502060335073
 21
331.1816153495721
 31
0.0
 11
148.671384034218
 21
331.4216321965193
 31
0.0
 11
148.3508921065931
 21
331.6527501288446
 31
0.0
 11
148.0128471374112
 21
331.8573891185977
 31
0.0
 11
147.6376834135671
 21
332.047655451189
 31
0.0
 11
147.2499611637343
 21
332.2108575184647
 31
0.0
 11
146.832124839273
 21
332.3546427890466
 31
0.0
 11
146.4059060174583
 21
332.4712974376537
 31
0.0
 11
145.9585160513683
 21
332.5645608393531
 31
0.0
 11
145.5063278870907
 21
332.6307955410093
 31
0.0
 11
145.0432246738784
 21
332.6711205297761
 31
0.0
 11
144.5785599989141
 21
332.684505559371
 31
0.0
 11
144.1138953239498
 21
332.6711205297761
 31
0.0
 11
143.6507921107375
 21
332.6307955410093
 31
0.0
 11
143.1986039464598
 21
332.5645608393531
 31
0.0
 11
142.7512139803698
 21
332.4712974376537
 31
0.0
 11
142.3249951585554
 21
332.3546427890466
 31
0.0
 11
141.9071588340941
 21
332.2108575184647
 31
0.0
 11
141.5194365842613
 21
332.047655451189
 31
0.0
 11
141.1442728604171
 21
331.8573891185977
 31
0.0
 11
140.8062278912352
 21
331.6527501288445
 31
0.0
 11
140.4857359636102
 21
331.4216321965193
 31
0.0
 11
140.2069139643209
 21
331.1816153495721
 31
0.0
 11
139.951557454047
 21
330.9168270058032
 31
0.0
 11
139.7397601197909
 21
330.6481049274167
 31
0.0
 11
139.5579680754337
 21
330.3583117967252
 31
0.0
 11
139.4193937305048
 21
330.0679561065546
 31
0.0
 11
139.3169268418728
 21
329.7630567712912
 31
0.0
 11
139.2563747624748
 21
329.458724250372
 31
0.0
 11
139.235757669274
 21
329.1491484522352
 31
0.0
 11
139.2563747624748
 21
328.8395726540985
 31
0.0
 11
139.3169268418728
 21
328.5352401331793
 31
0.0
 11
139.4193937305048
 21
328.2303407979159
 31
0.0
 11
139.5579680754337
 21
327.9399851077453
 31
0.0
 11
139.7397601197909
 21
327.6501919770539
 31
0.0
 11
139.951557454047
 21
327.3814698986674
 31
0.0
 11
140.2069139643209
 21
327.1166815548985
 31
0.0
 11
140.4857359636102
 21
326.8766647079513
 31
0.0
 11
140.8062278912352
 21
326.6455467756259
 31
0.0
 11
141.1442728604171
 21
326.4409077858727
 31
0.0
 11
141.5194365842613
 21
326.2506414532816
 31
0.0
 11
141.9071588340941
 21
326.0874393860059
 31
0.0
 11
142.3249951585553
 21
325.943654115424
 31
0.0
 11
142.7512139803698
 21
325.8269994668169
 31
0.0
 11
143.1986039464598
 21
325.7337360651175
 31
0.0
 11
143.6507921107375
 21
325.6675013634613
 31
0.0
 11
144.1138953239498
 21
325.6271763746946
 31
0.0
 11
144.5785599989141
 21
325.6137913450996
 31
0.0
 11
145.0432246738784
 21
325.6271763746946
 31
0.0
 11
145.5063278870907
 21
325.6675013634613
 31
0.0
 11
145.9585160513683
 21
325.7337360651175
 31
0.0
 11
146.4059060174583
 21
325.8269994668169
 31
0.0
 11
146.8321248392729
 21
325.943654115424
 31
0.0
 11
147.2499611637343
 21
326.0874393860059
 31
0.0
 11
147.6376834135671
 21
326.2506414532816
 31
0.0
 11
148.0128471374112
 21
326.4409077858727
 31
0.0
 11
148.350892106593
 21
326.645546775626
 31
0.0
 11
148.671384034218
 21
326.8766647079513
 31
0.0
 11
148.9502060335073
 21
327.1166815548985
 31
0.0
 11
149.2055625437812
 21
327.3814698986674
 31
0.0
 11
149.4173598780373
 21
327.6501919770539
 31
0.0
 11
149.5991519223946
 21
327.9399851077453
 31
0.0
 11
149.7377262673235
 21
328.230340797916
 31
0.0
 11
149.8401931559554
 21
328.5352401331793
 31
0.0
 11
149.9007452353534
 21
328.8395726540985
 31
0.0
 11
149.9213623285542
 21
329.1491484522352
 31
0.0
  0
SPLINE
  5
1D7
330
59
100
AcDbEntity
  8
1
  6
Continuous
 62
     7
100
AcDbSpline
210
0.0
220
0.0
230
1.0
 70
    11
 71
     3
 72
    79
 73
    75
 74
    73
 42
0.000000001
 43
0.0000000001
 44
0.00000001
 40
0.0
 40
0.0
 40
0.0
 40
0.0
 40
0.3102615582253005
 40
0.6205595420822155
 40
0.9422162975289079
 40
1.263944872753799
 40
1.606039020845027
 40
1.948193468907136
 40
2.316051885190568
 40
2.683951048239967
 40
3.079084664080428
 40
3.4742447801738
 40
3.894897959207655
 40
4.315568207494258
 40
4.757452126736439
 40
5.199346674241641
 40
5.656354161987164
 40
6.113367478658281
 40
6.578223037733432
 40
7.043080455843111
 40
7.507937873950454
 40
7.972793433018743
 40
8.429806749677645
 40
8.886814237403604
 40
9.32870878488038
 40
9.770592704081388
 40
10.19126295231282
 40
10.61191613126955
 40
11.00707624726338
 40
11.4022098629689
 40
11.77010902585008
 40
12.13796744190998
 40
12.48012188969643
 40
12.8222160374193
 40
13.14394461216152
 40
13.46560136682485
 40
13.7758993486415
 40
14.08616091447271
 40
14.39642248030376
 40
14.70672046212046
 40
15.02837721678378
 40
15.35010579152596
 40
15.69219993924878
 40
16.03435438703523
 40
16.40221280309516
 40
16.77011196597631
 40
17.1652455816819
 40
17.56040569767575
 40
17.98105887663246
 40
18.40172912486385
 40
18.84361304406483
 40
19.28550759154163
 40
19.74251507926758
 40
20.19952839592648
 40
20.66438395499476
 40
21.12924137310211
 40
21.5940987912117
 40
22.05895435028694
 40
22.51596766695808
 40
22.97297515470357
 40
23.41486970220876
 40
23.85675362145096
 40
24.27742386973761
 40
24.69807704877134
 40
25.09323716486475
 40
25.48837078070527
 40
25.85626994375476
 40
26.22412836003809
 40
26.56628280810014
 40
26.90837695619138
 40
27.23010553141624
 40
27.55176228686292
 40
27.86206027071984
 40
28.17232182894502
 40
28.17232182894502
 40
28.17232182894502
 40
28.17232182894502
 10
151.7970645979108
 20
329.1491484522352
 30
0.0
 10
151.8010977896268
 20
329.2526386341573
 30
0.0
 10
151.8091646382976
 20
329.4596311485022
 30
0.0
 10
151.873148616107
 20
329.7684800165246
 30
0.0
 10
151.9745694124044
 20
330.0704469302588
 30
0.0
 10
152.1169919125019
 20
330.3673565863737
 30
0.0
 10
152.2960944852621
 20
330.6516746947338
 30
0.0
 10
152.5140647531226
 20
330.9271757410303
 30
0.0
 10
152.7643469071577
 20
331.1857817616987
 30
0.0
 10
153.0508090689293
 20
331.4315396513115
 30
0.0
 10
153.3646398212165
 20
331.6571849115063
 30
0.0
 10
153.7105539862478
 20
331.865956579394
 30
0.0
 10
154.0786727783982
 20
332.0521773476655
 30
0.0
 10
154.473366713315
 20
332.2178618780122
 30
0.0
 10
154.884919913287
 20
332.3591696508615
 30
0.0
 10
155.3163456128815
 20
332.476949139436
 30
0.0
 10
155.759119641592
 20
332.5690674410747
 30
0.0
 10
156.214177640186
 20
332.6355533684678
 30
0.0
 10
156.6749447422672
 20
332.6756109253781
 30
0.0
 10
157.1398669176981
 20
332.6889528826732
 30
0.0
 10
157.604789093125
 20
332.6756109254565
 30
0.0
 10
158.0655561952177
 20
332.635553368629
 30
0.0
 10
158.52061419377
 20
332.5690674413273
 30
0.0
 10
158.9633882226348
 20
332.4769491397923
 30
0.0
 10
159.3948139216765
 20
332.3591696513396
 30
0.0
 10
159.8063671236753
 20
332.2178618786317
 30
0.0
 10
160.2010610513977
 20
332.0521773484545
 30
0.0
 10
160.5691798696198
 20
331.8659565803806
 30
0.0
 10
160.9150939430428
 20
331.6571849127279
 30
0.0
 10
161.2289250249809
 20
331.4315396528054
 30
0.0
 10
161.5153860374538
 20
331.185781763514
 30
0.0
 10
161.765672316527
 20
330.9271757432152
 30
0.0
 10
161.9836282145338
 20
330.6516746973588
 30
0.0
 10
162.1627825282728
 20
330.3673565895193
 30
0.0
 10
162.3050228796606
 20
330.070446934107
 30
0.0
 10
162.4071065317007
 20
329.7684800215977
 30
0.0
 10
162.4686997716287
 20
329.4596311524513
 30
0.0
 10
162.4896535750901
 20
329.1491484522353
 30
0.0
 10
162.4686997716286
 20
328.838665752019
 30
0.0
 10
162.4071065317007
 20
328.5298168828729
 30
0.0
 10
162.3050228796606
 20
328.2278499703635
 30
0.0
 10
162.1627825282729
 20
327.9309403149512
 30
0.0
 10
161.9836282145338
 20
327.6466222071119
 30
0.0
 10
161.765672316527
 20
327.3711211612553
 30
0.0
 10
161.5153860374537
 20
327.1125151409566
 30
0.0
 10
161.2289250249808
 20
326.8667572516652
 30
0.0
 10
160.9150939430429
 20
326.6411119917424
 30
0.0
 10
160.5691798696197
 20
326.4323403240898
 30
0.0
 10
160.2010610513977
 20
326.246119556016
 30
0.0
 10
159.8063671236753
 20
326.0804350258389
 30
0.0
 10
159.3948139216766
 20
325.9391272531311
 30
0.0
 10
158.9633882226348
 20
325.8213477646783
 30
0.0
 10
158.5206141937699
 20
325.7292294631432
 30
0.0
 10
158.0655561952177
 20
325.6627435358419
 30
0.0
 10
157.604789093125
 20
325.622685979014
 30
0.0
 10
157.1398669176981
 20
325.6093440217976
 30
0.0
 10
156.6749447422672
 20
325.6226859790926
 30
0.0
 10
156.214177640186
 20
325.6627435360029
 30
0.0
 10
155.7591196415921
 20
325.7292294633959
 30
0.0
 10
155.3163456128814
 20
325.8213477650345
 30
0.0
 10
154.884919913287
 20
325.9391272536088
 30
0.0
 10
154.473366713315
 20
326.0804350264585
 30
0.0
 10
154.0786727783982
 20
326.2461195568051
 30
0.0
 10
153.7105539862477
 20
326.4323403250764
 30
0.0
 10
153.3646398212166
 20
326.6411119929643
 30
0.0
 10
153.0508090689293
 20
326.8667572531591
 30
0.0
 10
152.7643469071577
 20
327.1125151427719
 30
0.0
 10
152.5140647531226
 20
327.3711211634403
 30
0.0
 10
152.2960944852621
 20
327.6466222097367
 30
0.0
 10
152.1169919125019
 20
327.9309403180968
 30
0.0
 10
151.9745694124043
 20
328.2278499742117
 30
0.0
 10
151.8731486161071
 20
328.5298168879457
 30
0.0
 10
151.8091646382976
 20
328.8386657559682
 30
0.0
 10
151.8010977896268
 20
329.0456582703131
 30
0.0
 10
151.7970645979108
 20
329.1491484522352
 30
0.0
 11
151.7970645979108
 21
329.1491484522352
 31
0.0
 11
151.8176816911116
 21
329.4587242503719
 31
0.0
 11
151.8782337705096
 21
329.7630567712912
 31
0.0
 11
151.9807006591414
 21
330.0679561065546
 31
0.0
 11
152.1192750040702
 21
330.3583117967252
 31
0.0
 11
152.3010670484276
 21
330.6481049274167
 31
0.0
 11
152.5128643826839
 21
330.9168270058032
 31
0.0
 11
152.7682208929577
 21
331.181615349572
 31
0.0
 11
153.0470428922469
 21
331.4216321965193
 31
0.0
 11
153.3675348198719
 21
331.6527501288446
 31
0.0
 11
153.7055797890538
 21
331.8573891185977
 31
0.0
 11
154.0807435128979
 21
332.047655451189
 31
0.0
 11
154.4684657627307
 21
332.2108575184647
 31
0.0
 11
154.886302087192
 21
332.3546427890466
 31
0.0
 11
155.3125209090066
 21
332.4712974376537
 31
0.0
 11
155.7599108750966
 21
332.5645608393531
 31
0.0
 11
156.2120990393743
 21
332.6307955410093
 31
0.0
 11
156.6752022525866
 21
332.6711205297761
 31
0.0
 11
157.139866927551
 21
332.684505559371
 31
0.0
 11
157.6045316025152
 21
332.6711205297761
 31
0.0
 11
158.0676348157275
 21
332.6307955410093
 31
0.0
 11
158.5198229800052
 21
332.5645608393531
 31
0.0
 11
158.9672129460952
 21
332.4712974376537
 31
0.0
 11
159.3934317679096
 21
332.3546427890466
 31
0.0
 11
159.8112680923708
 21
332.2108575184647
 31
0.0
 11
160.1989903422038
 21
332.047655451189
 31
0.0
 11
160.574154066048
 21
331.8573891185977
 31
0.0
 11
160.9121990352299
 21
331.6527501288445
 31
0.0
 11
161.2326909628549
 21
331.4216321965193
 31
0.0
 11
161.5115129621441
 21
331.181615349572
 31
0.0
 11
161.766869472418
 21
330.9168270058032
 31
0.0
 11
161.9786668066741
 21
330.6481049274167
 31
0.0
 11
162.1604588510312
 21
330.3583117967252
 31
0.0
 11
162.29903319596
 21
330.0679561065546
 31
0.0
 11
162.401500084592
 21
329.7630567712912
 31
0.0
 11
162.4620521639901
 21
329.458724250372
 31
0.0
 11
162.4826692571909
 21
329.1491484522352
 31
0.0
 11
162.4620521639901
 21
328.8395726540986
 31
0.0
 11
162.401500084592
 21
328.5352401331793
 31
0.0
 11
162.2990331959601
 21
328.2303407979159
 31
0.0
 11
162.1604588510312
 21
327.9399851077453
 31
0.0
 11
161.9786668066741
 21
327.6501919770539
 31
0.0
 11
161.766869472418
 21
327.3814698986674
 31
0.0
 11
161.5115129621441
 21
327.1166815548985
 31
0.0
 11
161.2326909628549
 21
326.8766647079513
 31
0.0
 11
160.9121990352299
 21
326.6455467756259
 31
0.0
 11
160.574154066048
 21
326.4409077858727
 31
0.0
 11
160.1989903422038
 21
326.2506414532815
 31
0.0
 11
159.8112680923708
 21
326.0874393860059
 31
0.0
 11
159.3934317679096
 21
325.943654115424
 31
0.0
 11
158.9672129460952
 21
325.8269994668169
 31
0.0
 11
158.5198229800052
 21
325.7337360651175
 31
0.0
 11
158.0676348157275
 21
325.6675013634613
 31
0.0
 11
157.6045316025152
 21
325.6271763746946
 31
0.0
 11
157.139866927551
 21
325.6137913450996
 31
0.0
 11
156.6752022525867
 21
325.6271763746946
 31
0.0
 11
156.2120990393743
 21
325.6675013634613
 31
0.0
 11
155.7599108750966
 21
325.7337360651175
 31
0.0
 11
155.3125209090066
 21
325.8269994668169
 31
0.0
 11
154.886302087192
 21
325.943654115424
 31
0.0
 11
154.4684657627307
 21
326.0874393860059
 31
0.0
 11
154.0807435128979
 21
326.2506414532816
 31
0.0
 11
153.7055797890538
 21
326.4409077858727
 31
0.0
 11
153.3675348198719
 21
326.645546775626
 31
0.0
 11
153.0470428922469
 21
326.8766647079513
 31
0.0
 11
152.7682208929577
 21
327.1166815548987
 31
0.0
 11
152.5128643826839
 21
327.3814698986674
 31
0.0
 11
152.3010670484276
 21
327.6501919770539
 31
0.0
 11
152.1192750040702
 21
327.9399851077453
 31
0.0
 11
151.9807006591414
 21
328.2303407979159
 31
0.0
 11
151.8782337705096
 21
328.5352401331793
 31
0.0
 11
151.8176816911116
 21
328.8395726540986
 31
0.0
 11
151.7970645979108
 21
329.1491484522352
 31
0.0
  0
SPLINE
  5
1D8
330
59
100
AcDbEntity
  8
1
  6
Continuous
 62
     7
100
AcDbSpline
210
0.0
220
0.0
230
1.0
 70
    11
 71
     3
 72
    79
 73
    75
 74
    73
 42
0.000000001
 43
0.0000000001
 44
0.00000001
 40
0.0
 40
0.0
 40
0.0
 40
0.0
 40
0.2803981055170672
 40
0.5607977780793778
 40
0.8427454767815031
 40
1.124697465942964
 40
1.409536444711969
 40
1.694381494092184
 40
1.983071303433781
 40
2.271767836809182
 40
2.564776135645537
 40
2.857790848031748
 40
3.155055692063416
 40
3.452325972452609
 40
3.753284820909548
 40
4.054247736388387
 40
4.357919800455253
 40
4.661594361771489
 40
4.966700742338087
 40
5.271807963175651
 40
5.576915184002864
 40
5.882021564538398
 40
6.185696125802556
 40
6.489368189795944
 40
6.790331105179744
 40
7.091289953518707
 40
7.38856023376748
 40
7.685825077633762
 40
7.978839789830529
 40
8.27184808844915
 40
8.56054462157981
 40
8.849234430642518
 40
9.134079479707296
 40
9.418918458106221
 40
9.70087044681284
 40
9.982818144856141
 40
10.26321781600886
 40
10.54361593035237
 40
10.82401404469594
 40
11.10441371584867
 40
11.38636141389204
 40
11.66831340259859
 40
11.95315238099756
 40
12.23799743006234
 40
12.52668723912505
 40
12.81538377225567
 40
13.10839207087417
 40
13.40140678307096
 40
13.6986716269372
 40
13.99594190718608
 40
14.29690075552497
 40
14.59786367090882
 40
14.90153573490214
 40
15.20521029616636
 40
15.5103166767019
 40
15.81542389752912
 40
16.12053111836668
 40
16.42563749893329
 40
16.72931206024947
 40
17.03298412431639
 40
17.33394703979528
 40
17.63490588825214
 40
17.93217616864136
 40
18.22944101267306
 40
18.52245572505928
 40
18.81546402389555
 40
19.10416055727091
 40
19.39285036661251
 40
19.67769541599273
 40
19.96253439476178
 40
20.24448638392319
 40
20.52643408262537
 40
20.80683375518768
 40
21.0872318607048
 40
21.0872318607048
 40
21.0872318607048
 40
21.0872318607048
 10
496.1338986777247
 20
332.6137913450996
 30
0.0
 10
496.2273992177668
 20
332.6112099592935
 30
0.0
 10
496.4144008205687
 20
332.6060471785889
 30
0.0
 10
496.6928852317623
 20
332.5645748300258
 30
0.0
 10
496.9668274289144
 20
332.4986746701837
 30
0.0
 10
497.2347555946835
 20
332.4064425612265
 30
0.0
 10
497.4938013825537
 20
332.2893603720974
 30
0.0
 10
497.7429606769709
 20
332.1478840906987
 30
0.0
 10
497.979270697385
 20
331.9836017448622
 30
0.0
 10
498.2020456915226
 20
331.7971415967834
 30
0.0
 10
498.408501724029
 20
331.5907171219706
 30
0.0
 10
498.5981144678688
 20
331.364999427647
 30
0.0
 10
498.7685136439873
 20
331.1227086294022
 30
0.0
 10
498.9192264517829
 20
330.8646511366581
 30
0.0
 10
499.0484495884923
 20
330.5938239332656
 30
0.0
 10
499.1557292618572
 20
330.3113070798524
 30
0.0
 10
499.2398837655907
 20
330.0201191093373
 30
0.0
 10
499.3005270395984
 20
329.7217403364961
 30
0.0
 10
499.3370608020448
 20
329.4189793646851
 30
0.0
 10
499.3492798329567
 20
329.1137913545025
 30
0.0
 10
499.3370608023949
 20
328.8086033443179
 30
0.0
 10
499.3005270402995
 20
328.5058423724913
 30
0.0
 10
499.239883766645
 20
328.2074635996485
 30
0.0
 10
499.155729263268
 20
327.9162756290445
 30
0.0
 10
499.0484495902634
 20
327.6337587758285
 30
0.0
 10
498.9192264539199
 20
327.3629315715324
 30
0.0
 10
498.7685136464964
 20
327.1048740819056
 30
0.0
 10
498.5981144707572
 20
326.8625832718492
 30
0.0
 10
498.4085017273064
 20
326.6368656206873
 30
0.0
 10
498.2020456951994
 20
326.4304409856935
 30
0.0
 10
497.9792707014756
 20
326.2439814265453
 30
0.0
 10
497.742960681494
 20
326.0796968988597
 30
0.0
 10
497.4938013875396
 20
325.9382286558117
 30
0.0
 10
497.234755600179
 20
325.8211166522277
 30
0.0
 10
496.9668274350453
 20
325.7289947337687
 30
0.0
 10
496.6928852388455
 20
325.6626849682111
 30
0.0
 10
496.4144008258089
 20
325.6227333031213
 30
0.0
 10
496.1338986777247
 20
325.6093203935005
 30
0.0
 10
495.8533965296405
 20
325.6227333031212
 30
0.0
 10
495.5749121166039
 20
325.662684968211
 30
0.0
 10
495.300969920404
 20
325.7289947337688
 30
0.0
 10
495.0330417552703
 20
325.8211166522278
 30
0.0
 10
494.7739959679097
 20
325.9382286558115
 30
0.0
 10
494.5248366739553
 20
326.0796968988598
 30
0.0
 10
494.2885266539736
 20
326.2439814265453
 30
0.0
 10
494.0657516602498
 20
326.4304409856935
 30
0.0
 10
493.8592956281433
 20
326.6368656206874
 30
0.0
 10
493.6696828846921
 20
326.8625832718492
 30
0.0
 10
493.4992837089529
 20
327.1048740819056
 30
0.0
 10
493.3485709015295
 20
327.3629315715323
 30
0.0
 10
493.2193477651861
 20
327.6337587758285
 30
0.0
 10
493.1120680921815
 20
327.9162756290444
 30
0.0
 10
493.0279135888044
 20
328.2074635996485
 30
0.0
 10
492.9672703151499
 20
328.5058423724912
 30
0.0
 10
492.9307365530547
 20
328.808603344318
 30
0.0
 10
492.9185175224925
 20
329.1137913545024
 30
0.0
 10
492.9307365534046
 20
329.4189793646851
 30
0.0
 10
492.9672703158509
 20
329.721740336496
 30
0.0
 10
493.0279135898588
 20
330.0201191093373
 30
0.0
 10
493.1120680935921
 20
330.3113070798523
 30
0.0
 10
493.219347766957
 20
330.5938239332655
 30
0.0
 10
493.3485709036664
 20
330.8646511366584
 30
0.0
 10
493.4992837114621
 20
331.122708629402
 30
0.0
 10
493.6696828875806
 20
331.3649994276469
 30
0.0
 10
493.8592956314205
 20
331.5907171219705
 30
0.0
 10
494.0657516639266
 20
331.7971415967835
 30
0.0
 10
494.2885266580644
 20
331.9836017448623
 30
0.0
 10
494.5248366784784
 20
332.1478840906985
 30
0.0
 10
494.7739959728952
 20
332.2893603720975
 30
0.0
 10
495.0330417607659
 20
332.4064425612264
 30
0.0
 10
495.3009699265348
 20
332.4986746701838
 30
0.0
 10
495.5749121236873
 20
332.5645748300257
 30
0.0
 10
495.8533965348805
 20
332.606047178589
 30
0.0
 10
496.0403981376826
 20
332.6112099592937
 30
0.0
 10
496.1338986777247
 20
332.6137913450996
 30
0.0
 11
496.1338986777247
 21
332.6137913450996
 31
0.0
 11
496.4139786765943
 21
332.6004385598016
 31
0.0
 11
496.6915364849729
 21
332.5606184806424
 31
0.0
 11
496.9655878893518
 21
332.4943588979183
 31
0.0
 11
497.2322307496263
 21
332.4027155178502
 31
0.0
 11
497.4918191741623
 21
332.2854675175651
 31
0.0
 11
497.7395527500578
 21
332.1448802583451
 31
0.0
 11
497.9766532346667
 21
331.980183062993
 31
0.0
 11
498.1980877640016
 21
331.794946896016
 31
0.0
 11
498.4053711533114
 21
331.5878540191007
 31
0.0
 11
498.593903437089
 21
331.3635479790024
 31
0.0
 11
498.7649919836625
 21
331.1204531483017
 31
0.0
 11
498.9149731103855
 21
330.8637913450996
 31
0.0
 11
499.0446498902599
 21
330.5922031251284
 31
0.0
 11
499.1515412443373
 21
330.3108618467394
 31
0.0
 11
499.2359073056675
 21
330.019144363194
 31
0.0
 11
499.2964198359033
 21
329.7215599669338
 31
0.0
 11
499.3329987844662
 21
329.4186542323995
 31
0.0
 11
499.3452068223909
 21
329.1137913450996
 31
0.0
 11
499.3329987844662
 21
328.8089284577997
 31
0.0
 11
499.2964198359033
 21
328.5060227232654
 31
0.0
 11
499.2359073056676
 21
328.2084383270052
 31
0.0
 11
499.1515412443373
 21
327.9167208434598
 31
0.0
 11
499.0446498902598
 21
327.6353795650708
 31
0.0
 11
498.9149731103855
 21
327.3637913450996
 31
0.0
 11
498.7649919836626
 21
327.1071295418975
 31
0.0
 11
498.593903437089
 21
326.8640347111966
 31
0.0
 11
498.4053711533115
 21
326.6397286710983
 31
0.0
 11
498.1980877640016
 21
326.4326357941832
 31
0.0
 11
497.9766532346667
 21
326.2473996272062
 31
0.0
 11
497.7395527500578
 21
326.0827024318541
 31
0.0
 11
497.4918191741623
 21
325.9421151726342
 31
0.0
 11
497.2322307496263
 21
325.824867172349
 31
0.0
 11
496.9655878893518
 21
325.7332237922808
 31
0.0
 11
496.6915364849729
 21
325.6669642095568
 31
0.0
 11
496.4139786765943
 21
325.6271441303977
 31
0.0
 11
496.1338986777247
 21
325.6137913450996
 31
0.0
 11
495.853818678855
 21
325.6271441303977
 31
0.0
 11
495.5762608704764
 21
325.6669642095568
 31
0.0
 11
495.3022094660975
 21
325.7332237922809
 31
0.0
 11
495.035566605823
 21
325.824867172349
 31
0.0
 11
494.775978181287
 21
325.9421151726342
 31
0.0
 11
494.5282446053915
 21
326.0827024318541
 31
0.0
 11
494.2911441207825
 21
326.2473996272062
 31
0.0
 11
494.0697095914477
 21
326.4326357941832
 31
0.0
 11
493.8624262021381
 21
326.6397286710984
 31
0.0
 11
493.6738939183604
 21
326.8640347111966
 31
0.0
 11
493.5028053717868
 21
327.1071295418975
 31
0.0
 11
493.3528242450638
 21
327.3637913450996
 31
0.0
 11
493.2231474651895
 21
327.6353795650708
 31
0.0
 11
493.1162561111121
 21
327.9167208434598
 31
0.0
 11
493.0318900497819
 21
328.2084383270052
 31
0.0
 11
492.9713775195461
 21
328.5060227232654
 31
0.0
 11
492.9347985709832
 21
328.8089284577997
 31
0.0
 11
492.9225905330584
 21
329.1137913450996
 31
0.0
 11
492.9347985709831
 21
329.4186542323995
 31
0.0
 11
492.9713775195461
 21
329.7215599669338
 31
0.0
 11
493.0318900497819
 21
330.019144363194
 31
0.0
 11
493.1162561111121
 21
330.3108618467394
 31
0.0
 11
493.2231474651895
 21
330.5922031251285
 31
0.0
 11
493.3528242450638
 21
330.8637913450996
 31
0.0
 11
493.5028053717868
 21
331.1204531483017
 31
0.0
 11
493.6738939183604
 21
331.3635479790024
 31
0.0
 11
493.862426202138
 21
331.5878540191007
 31
0.0
 11
494.0697095914477
 21
331.794946896016
 31
0.0
 11
494.2911441207825
 21
331.980183062993
 31
0.0
 11
494.5282446053915
 21
332.1448802583451
 31
0.0
 11
494.775978181287
 21
332.2854675175651
 31
0.0
 11
495.035566605823
 21
332.4027155178502
 31
0.0
 11
495.3022094660975
 21
332.4943588979183
 31
0.0
 11
495.5762608704764
 21
332.5606184806424
 31
0.0
 11
495.853818678855
 21
332.6004385598016
 31
0.0
 11
496.1338986777247
 21
332.6137913450996
 31
0.0
  0
SPLINE
  5
1D9
330
59
100
AcDbEntity
  8
1
  6
Continuous
 62
     7
100
AcDbSpline
210
0.0
220
0.0
230
1.0
 70
     8
 71
     3
 72
    29
 73
    25
 74
    23
 42
0.000000001
 43
0.0000000001
 44
0.00000001
 40
0.0
 40
0.0
 40
0.0
 40
0.0
 40
0.606907707133379
 40
1.212222618922033
 40
1.842666699980928
 40
2.474631891987716
 40
3.102420163134924
 40
3.729333881624461
 40
4.271042929453149
 40
4.812985317241321
 40
5.340107969104108
 40
5.866248914948774
 40
6.263874824440446
 40
6.661485222726749
 40
7.280966483141155
 40
7.902596723210252
 40
8.549168899022737
 40
9.195896755584895
 40
9.722415956711991
 40
10.24911839923906
 40
11.07897535377081
 40
11.90732205839658
 40
12.67331707894452
 40
13.44191268485662
 40
13.44191268485662
 40
13.44191268485662
 40
13.44191268485662
 10
484.875568428527
 20
332.6137913450996
 30
0.0
 10
485.0776282560725
 20
332.6039159717355
 30
0.0
 10
485.4812176157499
 20
332.584191130523
 30
0.0
 10
486.0929231638336
 20
332.5204007823015
 30
0.0
 10
486.7023402249756
 20
332.386217484561
 30
0.0
 10
487.3007463999541
 20
332.1857618650346
 30
0.0
 10
487.8753089314278
 20
331.9272007488042
 30
0.0
 10
488.3902067287961
 20
331.6182713596997
 30
0.0
 10
488.8392256025524
 20
331.2644544357555
 30
0.0
 10
489.2131672048503
 20
330.8764297682386
 30
0.0
 10
489.5201331061571
 20
330.4394993651634
 30
0.0
 10
489.7274417635965
 20
329.9992853987271
 30
0.0
 10
489.8433443518168
 20
329.5725762786746
 30
0.0
 10
489.8940475566944
 20
329.1016608368724
 30
0.0
 10
489.8335912334533
 20
328.5526862446316
 30
0.0
 10
489.620644001824
 20
327.9549401793098
 30
0.0
 10
489.2734070646717
 20
327.4133379341692
 30
0.0
 10
488.8520493390915
 20
326.9727299667794
 30
0.0
 10
488.4046358491111
 20
326.6228560438097
 30
0.0
 10
487.8687994635662
 20
326.2939456614685
 30
0.0
 10
487.20390841418
 20
325.9902070410662
 30
0.0
 10
486.4242473535435
 20
325.7654371753499
 30
0.0
 10
485.6418417374392
 20
325.6610503759591
 30
0.0
 10
485.1312812712656
 20
325.6296278854531
 30
0.0
 10
484.875568428527
 20
325.6138900211865
 30
0.0
 11
484.875568428527
 21
332.6137913450996
 31
0.0
 11
485.4814544502851
 21
332.5785904793373
 31
0.0
 11
486.0828972697666
 21
332.510233487253
 31
0.0
 11
486.6987884815077
 21
332.3755570014287
 31
0.0
 11
487.2982499430564
 21
332.1754921094836
 31
0.0
 11
487.8699487163764
 21
331.9161108712333
 31
0.0
 11
488.4065139333895
 21
331.5918909164552
 31
0.0
 11
488.8309464721686
 21
331.2552817764742
 31
0.0
 11
489.2056954474492
 21
330.8637913450996
 31
0.0
 11
489.5072513334092
 21
330.431446183881
 31
0.0
 11
489.7292716472429
 21
329.9544437982648
 31
0.0
 11
489.833032364386
 21
329.570594768135
 31
0.0
 11
489.8747904622067
 21
329.1751832223208
 31
0.0
 11
489.8101968505853
 21
328.5590787681109
 31
0.0
 11
489.602578680434
 21
327.9731445978341
 31
0.0
 11
489.2572060795791
 21
327.4265429639202
 31
0.0
 11
488.8129319529761
 21
326.9565669838398
 31
0.0
 11
488.3990615342014
 21
326.6310923362687
 31
0.0
 11
487.9510226869773
 21
326.3541868380891
 31
0.0
 11
487.1962619803397
 21
326.0092247499116
 31
0.0
 11
486.4001056699516
 21
325.7805472601652
 31
0.0
 11
485.642096539352
 21
325.6702271311505
 31
0.0
 11
484.875568428527
 21
325.6138900211865
 31
0.0
  0
SPLINE
  5
1DA
330
59
100
AcDbEntity
  8
1
  6
Continuous
 62
     7
100
AcDbSpline
210
0.0
220
0.0
230
1.0
 70
    11
 71
     3
 72
    79
 73
    75
 74
    73
 42
0.000000001
 43
0.0000000001
 44
0.00000001
 40
0.0
 40
0.0
 40
0.0
 40
0.0
 40
0.2803981055170672
 40
0.5607977780794904
 40
0.8427454767816709
 40
1.124697465943078
 40
1.409536444712083
 40
1.694381494092298
 40
1.983071303433816
 40
2.271767836809254
 40
2.564776135645608
 40
2.857790848031782
 40
3.155055692063549
 40
3.452325972452714
 40
3.753284820909628
 40
4.054247736388446
 40
4.357919800455313
 40
4.661594361771549
 40
4.966700742338153
 40
5.271807963175719
 40
5.576915184002934
 40
5.882021564538475
 40
6.185696125802633
 40
6.489368189796021
 40
6.790331105179761
 40
7.091289953518748
 40
7.38856023376755
 40
7.685825077633865
 40
7.978839789830625
 40
8.271848088449207
 40
8.560544621579867
 40
8.849234430642529
 40
9.134079479707307
 40
9.418918458106232
 40
9.70087044681285
 40
9.982818144856152
 40
10.26321781600899
 40
10.5436159303525
 40
10.824014044696
 40
11.10441371584868
 40
11.38636141389205
 40
11.6683134025986
 40
11.95315238099757
 40
12.23799743006235
 40
12.52668723912506
 40
12.81538377225568
 40
13.10839207087422
 40
13.40140678307098
 40
13.69867162693725
 40
13.9959419071861
 40
14.29690075552498
 40
14.59786367090884
 40
14.90153573490216
 40
15.20521029616638
 40
15.51031667670192
 40
15.81542389752914
 40
16.1205311183667
 40
16.42563749893332
 40
16.7293120602495
 40
17.03298412431642
 40
17.33394703979533
 40
17.63490588825217
 40
17.93217616864133
 40
18.2294410126731
 40
18.52245572505931
 40
18.81546402389559
 40
19.10416055727094
 40
19.39285036661254
 40
19.67769541599276
 40
19.96253439476181
 40
20.24448638392322
 40
20.5264340826254
 40
20.80683375518765
 40
21.08723186070472
 40
21.08723186070472
 40
21.08723186070472
 40
21.08723186070472
 10
473.6172381793293
 20
332.6137913450996
 30
0.0
 10
473.5237376392872
 20
332.6112099592935
 30
0.0
 10
473.3367360364853
 20
332.6060471785891
 30
0.0
 10
473.0582516252917
 20
332.5645748300255
 30
0.0
 10
472.7843094281393
 20
332.4986746701838
 30
0.0
 10
472.5163812623706
 20
332.4064425612265
 30
0.0
 10
472.2573354744998
 20
332.2893603720974
 30
0.0
 10
472.0081761800831
 20
332.1478840906987
 30
0.0
 10
471.7718661596691
 20
331.9836017448623
 30
0.0
 10
471.5490911655313
 20
331.7971415967835
 30
0.0
 10
471.3426351330251
 20
331.5907171219704
 30
0.0
 10
471.1530223891853
 20
331.364999427647
 30
0.0
 10
470.9826232130665
 20
331.1227086294022
 30
0.0
 10
470.8319104052709
 20
330.8646511366583
 30
0.0
 10
470.7026872685616
 20
330.5938239332654
 30
0.0
 10
470.5954075951967
 20
330.3113070798524
 30
0.0
 10
470.5112530914635
 20
330.0201191093374
 30
0.0
 10
470.4506098174556
 20
329.721740336496
 30
0.0
 10
470.4140760550091
 20
329.4189793646851
 30
0.0
 10
470.4018570240973
 20
329.1137913545025
 30
0.0
 10
470.4140760546589
 20
328.808603344318
 30
0.0
 10
470.4506098167546
 20
328.5058423724913
 30
0.0
 10
470.511253090409
 20
328.2074635996485
 30
0.0
 10
470.5954075937859
 20
327.9162756290445
 30
0.0
 10
470.7026872667906
 20
327.6337587758285
 30
0.0
 10
470.8319104031339
 20
327.3629315715323
 30
0.0
 10
470.9826232105575
 20
327.1048740819057
 30
0.0
 10
471.1530223862967
 20
326.8625832718493
 30
0.0
 10
471.3426351297477
 20
326.6368656206874
 30
0.0
 10
471.5490911618546
 20
326.4304409856935
 30
0.0
 10
471.7718661555782
 20
326.2439814265454
 30
0.0
 10
472.0081761755599
 20
326.0796968988597
 30
0.0
 10
472.2573354695144
 20
325.9382286558117
 30
0.0
 10
472.5163812568748
 20
325.8211166522277
 30
0.0
 10
472.7843094220085
 20
325.7289947337687
 30
0.0
 10
473.0582516182086
 20
325.6626849682112
 30
0.0
 10
473.3367360312451
 20
325.6227333031212
 30
0.0
 10
473.6172381793295
 20
325.6093203935006
 30
0.0
 10
473.8977403274134
 20
325.6227333031212
 30
0.0
 10
474.1762247404501
 20
325.6626849682111
 30
0.0
 10
474.4501669366499
 20
325.7289947337688
 30
0.0
 10
474.7180951017838
 20
325.8211166522279
 30
0.0
 10
474.977140889144
 20
325.9382286558115
 30
0.0
 10
475.2263001830986
 20
326.0796968988597
 30
0.0
 10
475.4626102030803
 20
326.2439814265454
 30
0.0
 10
475.6853851968041
 20
326.4304409856935
 30
0.0
 10
475.8918412289108
 20
326.6368656206874
 30
0.0
 10
476.0814539723618
 20
326.8625832718493
 30
0.0
 10
476.251853148101
 20
327.1048740819056
 30
0.0
 10
476.4025659555245
 20
327.3629315715323
 30
0.0
 10
476.5317890918679
 20
327.6337587758284
 30
0.0
 10
476.6390687648725
 20
327.9162756290445
 30
0.0
 10
476.7232232682496
 20
328.2074635996485
 30
0.0
 10
476.7838665419039
 20
328.5058423724913
 30
0.0
 10
476.8204003039997
 20
328.8086033443179
 30
0.0
 10
476.8326193345611
 20
329.1137913545025
 30
0.0
 10
476.8204003036498
 20
329.4189793646851
 30
0.0
 10
476.7838665412028
 20
329.7217403364959
 30
0.0
 10
476.7232232671953
 20
330.0201191093374
 30
0.0
 10
476.6390687634616
 20
330.3113070798523
 30
0.0
 10
476.5317890900967
 20
330.5938239332656
 30
0.0
 10
476.4025659533874
 20
330.8646511366582
 30
0.0
 10
476.2518531455919
 20
331.1227086294022
 30
0.0
 10
476.0814539694733
 20
331.364999427647
 30
0.0
 10
475.8918412256334
 20
331.5907171219706
 30
0.0
 10
475.6853851931272
 20
331.7971415967835
 30
0.0
 10
475.4626101989898
 20
331.9836017448623
 30
0.0
 10
475.2263001785753
 20
332.1478840906985
 30
0.0
 10
474.9771408841586
 20
332.2893603720975
 30
0.0
 10
474.718095096288
 20
332.4064425612264
 30
0.0
 10
474.4501669305191
 20
332.4986746701838
 30
0.0
 10
474.1762247333665
 20
332.5645748300255
 30
0.0
 10
473.8977403221736
 20
332.6060471785891
 30
0.0
 10
473.7107387193715
 20
332.6112099592936
 30
0.0
 10
473.6172381793293
 20
332.6137913450996
 30
0.0
 11
473.6172381793293
 21
332.6137913450996
 31
0.0
 11
473.3371581804597
 21
332.6004385598016
 31
0.0
 11
473.059600372081
 21
332.5606184806424
 31
0.0
 11
472.785548967702
 21
332.4943588979183
 31
0.0
 11
472.5189061074276
 21
332.4027155178502
 31
0.0
 11
472.2593176828916
 21
332.2854675175651
 31
0.0
 11
472.0115841069961
 21
332.1448802583451
 31
0.0
 11
471.7744836223872
 21
331.9801830629931
 31
0.0
 11
471.5530490930523
 21
331.794946896016
 31
0.0
 11
471.3457657037425
 21
331.5878540191007
 31
0.0
 11
471.157233419965
 21
331.3635479790024
 31
0.0
 11
470.9861448733913
 21
331.1204531483017
 31
0.0
 11
470.8361637466684
 21
330.8637913450996
 31
0.0
 11
470.706486966794
 21
330.5922031251284
 31
0.0
 11
470.5995956127167
 21
330.3108618467394
 31
0.0
 11
470.5152295513865
 21
330.019144363194
 31
0.0
 11
470.4547170211507
 21
329.7215599669338
 31
0.0
 11
470.4181380725877
 21
329.4186542323995
 31
0.0
 11
470.405930034663
 21
329.1137913450996
 31
0.0
 11
470.4181380725877
 21
328.8089284577997
 31
0.0
 11
470.4547170211507
 21
328.5060227232654
 31
0.0
 11
470.5152295513864
 21
328.2084383270052
 31
0.0
 11
470.5995956127167
 21
327.9167208434598
 31
0.0
 11
470.706486966794
 21
327.6353795650708
 31
0.0
 11
470.8361637466684
 21
327.3637913450996
 31
0.0
 11
470.9861448733914
 21
327.1071295418975
 31
0.0
 11
471.157233419965
 21
326.8640347111966
 31
0.0
 11
471.3457657037426
 21
326.6397286710984
 31
0.0
 11
471.5530490930523
 21
326.4326357941832
 31
0.0
 11
471.7744836223872
 21
326.2473996272062
 31
0.0
 11
472.0115841069961
 21
326.0827024318541
 31
0.0
 11
472.2593176828916
 21
325.9421151726342
 31
0.0
 11
472.5189061074276
 21
325.824867172349
 31
0.0
 11
472.7855489677021
 21
325.7332237922808
 31
0.0
 11
473.059600372081
 21
325.6669642095568
 31
0.0
 11
473.3371581804597
 21
325.6271441303977
 31
0.0
 11
473.6172381793293
 21
325.6137913450996
 31
0.0
 11
473.8973181781989
 21
325.6271441303977
 31
0.0
 11
474.1748759865775
 21
325.6669642095568
 31
0.0
 11
474.4489273909564
 21
325.7332237922809
 31
0.0
 11
474.7155702512309
 21
325.824867172349
 31
0.0
 11
474.9751586757669
 21
325.9421151726342
 31
0.0
 11
475.2228922516624
 21
326.0827024318541
 31
0.0
 11
475.4599927362714
 21
326.2473996272062
 31
0.0
 11
475.6814272656062
 21
326.4326357941832
 31
0.0
 11
475.8887106549159
 21
326.6397286710984
 31
0.0
 11
476.0772429386935
 21
326.8640347111966
 31
0.0
 11
476.2483314852671
 21
327.1071295418975
 31
0.0
 11
476.3983126119901
 21
327.3637913450996
 31
0.0
 11
476.5279893918644
 21
327.6353795650708
 31
0.0
 11
476.6348807459418
 21
327.9167208434598
 31
0.0
 11
476.719246807272
 21
328.2084383270052
 31
0.0
 11
476.7797593375078
 21
328.5060227232654
 31
0.0
 11
476.8163382860708
 21
328.8089284577997
 31
0.0
 11
476.8285463239955
 21
329.1137913450996
 31
0.0
 11
476.8163382860708
 21
329.4186542323995
 31
0.0
 11
476.7797593375078
 21
329.7215599669338
 31
0.0
 11
476.719246807272
 21
330.019144363194
 31
0.0
 11
476.6348807459418
 21
330.3108618467394
 31
0.0
 11
476.5279893918644
 21
330.5922031251285
 31
0.0
 11
476.3983126119901
 21
330.8637913450996
 31
0.0
 11
476.2483314852672
 21
331.1204531483017
 31
0.0
 11
476.0772429386935
 21
331.3635479790024
 31
0.0
 11
475.8887106549159
 21
331.5878540191007
 31
0.0
 11
475.6814272656062
 21
331.794946896016
 31
0.0
 11
475.4599927362714
 21
331.980183062993
 31
0.0
 11
475.2228922516624
 21
332.1448802583451
 31
0.0
 11
474.9751586757669
 21
332.2854675175651
 31
0.0
 11
474.7155702512309
 21
332.4027155178502
 31
0.0
 11
474.4489273909564
 21
332.4943588979183
 31
0.0
 11
474.1748759865775
 21
332.5606184806424
 31
0.0
 11
473.8973181781989
 21
332.6004385598016
 31
0.0
 11
473.6172381793293
 21
332.6137913450996
 31
0.0
  0
SPLINE
  5
1DB
330
59
100
AcDbEntity
  8
1
  6
Continuous
 62
     7
100
AcDbSpline
210
0.0
220
0.0
230
1.0
 70
     8
 71
     3
 72
    29
 73
    25
 74
    23
 42
0.000000001
 43
0.0000000001
 44
0.00000001
 40
0.0
 40
0.0
 40
0.0
 40
0.0
 40
0.6069077071335492
 40
1.212222618922147
 40
1.842666699981042
 40
2.47463189198783
 40
3.102420163135089
 40
3.729333881624577
 40
4.271042929453222
 40
4.812985317241433
 40
5.340107969104221
 40
5.866248914948887
 40
6.263874824440544
 40
6.661485222726853
 40
7.280966483141265
 40
7.902596723210342
 40
8.54916889902286
 40
9.195896755584979
 40
9.722415956712075
 40
10.24911839923924
 40
11.07897535377099
 40
11.90732205839665
 40
12.6733170789446
 40
13.44191268485681
 40
13.44191268485681
 40
13.44191268485681
 40
13.44191268485681
 10
484.875568428527
 20
332.6137913450996
 30
0.0
 10
484.6735086009813
 20
332.6039159717356
 30
0.0
 10
484.2699192413041
 20
332.584191130523
 30
0.0
 10
483.6582136932201
 20
332.5204007823015
 30
0.0
 10
483.0487966320783
 20
332.386217484561
 30
0.0
 10
482.4503904570998
 20
332.1857618650346
 30
0.0
 10
481.8758279256261
 20
331.9272007488042
 30
0.0
 10
481.3609301282573
 20
331.6182713596998
 30
0.0
 10
480.9119112545018
 20
331.2644544357555
 30
0.0
 10
480.5379696522035
 20
330.8764297682386
 30
0.0
 10
480.2310037508967
 20
330.4394993651635
 30
0.0
 10
480.0236950934573
 20
329.9992853987271
 30
0.0
 10
479.9077925052372
 20
329.5725762786745
 30
0.0
 10
479.8570893003594
 20
329.1016608368724
 30
0.0
 10
479.9175456236008
 20
328.5526862446317
 30
0.0
 10
480.1304928552299
 20
327.9549401793098
 30
0.0
 10
480.4777297923823
 20
327.4133379341694
 30
0.0
 10
480.8990875179626
 20
326.9727299667794
 30
0.0
 10
481.3465010079427
 20
326.6228560438097
 30
0.0
 10
481.8823373934881
 20
326.2939456614685
 30
0.0
 10
482.5472284428736
 20
325.9902070410663
 30
0.0
 10
483.3268895035105
 20
325.7654371753499
 30
0.0
 10
484.1092951196146
 20
325.661050375959
 30
0.0
 10
484.6198555857886
 20
325.629627885453
 30
0.0
 10
484.875568428527
 20
325.6138900211865
 30
0.0
 11
484.875568428527
 21
332.6137913450996
 31
0.0
 11
484.2696824067687
 21
332.5785904793373
 31
0.0
 11
483.6682395872873
 21
332.510233487253
 31
0.0
 11
483.0523483755462
 21
332.3755570014287
 31
0.0
 11
482.4528869139975
 21
332.1754921094836
 31
0.0
 11
481.8811881406774
 21
331.9161108712333
 31
0.0
 11
481.3446229236644
 21
331.5918909164552
 31
0.0
 11
480.9201903848853
 21
331.2552817764742
 31
0.0
 11
480.5454414096047
 21
330.8637913450996
 31
0.0
 11
480.2438855236447
 21
330.431446183881
 31
0.0
 11
480.021865209811
 21
329.9544437982648
 31
0.0
 11
479.918104492668
 21
329.570594768135
 31
0.0
 11
479.8763463948472
 21
329.1751832223208
 31
0.0
 11
479.9409400064686
 21
328.5590787681109
 31
0.0
 11
480.1485581766199
 21
327.9731445978341
 31
0.0
 11
480.4939307774749
 21
327.4265429639202
 31
0.0
 11
480.9382049040778
 21
326.9565669838398
 31
0.0
 11
481.3520753228525
 21
326.6310923362687
 31
0.0
 11
481.8001141700767
 21
326.3541868380891
 31
0.0
 11
482.5548748767143
 21
326.0092247499116
 31
0.0
 11
483.3510311871023
 21
325.7805472601652
 31
0.0
 11
484.1090403177019
 21
325.6702271311505
 31
0.0
 11
484.875568428527
 21
325.6138900211865
 31
0.0
  0
ENDBLK
  5
5B
330
59
100
AcDbEntity
  8
0
100
AcDbBlockEnd
  0
BLOCK
  5
5D
330
5C
100
AcDbEntity
  8
0
100
AcDbBlockBegin
  2
42-1
 70
     0
 10
396.7713083419235
 20
147.8241423355148
 30
0.0
  3
42-1
  1

  0
LINE
  5
1DC
330
5C
100
AcDbEntity
  8
1
  6
Continuous
 62
     7
100
AcDbLine
 10
477.875568428527
 20
357.6137913450995
 30
0.0
 11
491.875568428527
 21
357.6137913450995
 31
0.0
  0
LINE
  5
1DD
330
5C
100
AcDbEntity
  8
1
  6
Continuous
 62
     7
100
AcDbLine
 10
479.125568428527
 20
357.9435570653034
 30
0.0
 11
490.6255684285269
 21
357.9435570653034
 31
0.0
  0
LINE
  5
1DE
330
5C
100
AcDbEntity
  8
1
  6
Continuous
 62
     2
100
AcDbLine
 10
483.875568428527
 20
356.8561294472709
 30
0.0
 11
483.875568428527
 21
355.5908903566603
 31
0.0
  0
LINE
  5
1DF
330
5C
100
AcDbEntity
  8
1
  6
Continuous
 62
     2
100
AcDbLine
 10
482.875568428527
 20
357.0994446570035
 30
0.0
 11
482.875568428527
 21
355.3313541329453
 31
0.0
  0
LINE
  5
1E0
330
5C
100
AcDbEntity
  8
1
  6
Continuous
 62
     2
100
AcDbLine
 10
481.875568428527
 20
357.3103178387719
 30
0.0
 11
481.875568428527
 21
354.9744918253373
 31
0.0
  0
LINE
  5
1E1
330
5C
100
AcDbEntity
  8
1
  6
Continuous
 62
     2
100
AcDbLine
 10
480.875568428527
 20
357.4238649366473
 30
0.0
 11
480.875568428527
 21
354.7798396575511
 31
0.0
  0
LINE
  5
1E2
330
5C
100
AcDbEntity
  8
1
  6
Continuous
 62
     2
100
AcDbLine
 10
479.875568428527
 20
357.6137913450995
 30
0.0
 11
479.875568428527
 21
354.6137913450995
 31
0.0
  0
LINE
  5
1E3
330
5C
100
AcDbEntity
  8
1
  6
Continuous
 62
     7
100
AcDbLine
 10
477.875568428527
 20
354.6137913450995
 30
0.0
 11
491.875568428527
 21
354.6137913450995
 31
0.0
  0
LINE
  5
1E4
330
5C
100
AcDbEntity
  8
1
  6
Continuous
 62
     2
100
AcDbLine
 10
478.875568428527
 20
357.6137913450995
 30
0.0
 11
478.875568428527
 21
354.6137913450995
 31
0.0
  0
LINE
  5
1E5
330
5C
100
AcDbEntity
  8
1
  6
Continuous
 62
     7
100
AcDbLine
 10
477.875568428527
 20
357.6137913450995
 30
0.0
 11
478.8755684285269
 21
357.8831135441228
 31
0.0
  0
LINE
  5
1E6
330
5C
100
AcDbEntity
  8
1
  6
Continuous
 62
     7
100
AcDbLine
 10
477.875568428527
 20
354.6137913450995
 30
0.0
 11
477.875568428527
 21
357.6137913450995
 31
0.0
  0
LINE
  5
1E7
330
5C
100
AcDbEntity
  8
1
  6
Continuous
 62
     7
100
AcDbLine
 10
491.875568428527
 20
357.6137913450995
 30
0.0
 11
491.875568428527
 21
354.6137913450995
 31
0.0
  0
LINE
  5
1E8
330
5C
100
AcDbEntity
  8
1
  6
Continuous
 62
     7
100
AcDbLine
 10
490.875568428527
 20
357.8831135441228
 30
0.0
 11
491.875568428527
 21
357.6137913450995
 31
0.0
  0
LINE
  5
1E9
330
5C
100
AcDbEntity
  8
1
  6
Continuous
 62
     2
100
AcDbLine
 10
490.875568428527
 20
354.6137913450995
 30
0.0
 11
490.875568428527
 21
357.6137913450995
 31
0.0
  0
LINE
  5
1EA
330
5C
100
AcDbEntity
  8
1
  6
Continuous
 62
     2
100
AcDbLine
 10
489.8755684285269
 20
354.6137913450995
 30
0.0
 11
489.8755684285269
 21
357.6137913450995
 31
0.0
  0
LINE
  5
1EB
330
5C
100
AcDbEntity
  8
1
  6
Continuous
 62
     2
100
AcDbLine
 10
488.8755684285269
 20
354.7798396575511
 30
0.0
 11
488.8755684285269
 21
357.4238649366473
 31
0.0
  0
LINE
  5
1EC
330
5C
100
AcDbEntity
  8
1
  6
Continuous
 62
     2
100
AcDbLine
 10
487.8755684285269
 20
354.9744918253373
 30
0.0
 11
487.8755684285269
 21
357.3103178387719
 31
0.0
  0
LINE
  5
1ED
330
5C
100
AcDbEntity
  8
1
  6
Continuous
 62
     2
100
AcDbLine
 10
486.8755684285269
 20
355.3313541329453
 30
0.0
 11
486.8755684285269
 21
357.0994446570035
 31
0.0
  0
LINE
  5
1EE
330
5C
100
AcDbEntity
  8
1
  6
Continuous
 62
     2
100
AcDbLine
 10
485.8755684285269
 20
355.5908903566603
 30
0.0
 11
485.8755684285269
 21
356.8561294472709
 31
0.0
  0
LINE
  5
1EF
330
5C
100
AcDbEntity
  8
1
  6
Continuous
 62
     7
100
AcDbLine
 10
143.8592134632323
 20
357.6137913450995
 30
0.0
 11
157.8592134632323
 21
357.6137913450995
 31
0.0
  0
LINE
  5
1F0
330
5C
100
AcDbEntity
  8
1
  6
Continuous
 62
     7
100
AcDbLine
 10
145.1092134632323
 20
357.9435570653034
 30
0.0
 11
156.6092134632322
 21
357.9435570653034
 31
0.0
  0
LINE
  5
1F1
330
5C
100
AcDbEntity
  8
1
  6
Continuous
 62
     2
100
AcDbLine
 10
149.8592134632323
 20
356.8561294472709
 30
0.0
 11
149.8592134632323
 21
355.5908903566603
 31
0.0
  0
LINE
  5
1F2
330
5C
100
AcDbEntity
  8
1
  6
Continuous
 62
     2
100
AcDbLine
 10
148.8592134632323
 20
357.0994446570035
 30
0.0
 11
148.8592134632323
 21
355.3313541329453
 31
0.0
  0
LINE
  5
1F3
330
5C
100
AcDbEntity
  8
1
  6
Continuous
 62
     2
100
AcDbLine
 10
147.8592134632323
 20
357.3103178387719
 30
0.0
 11
147.8592134632323
 21
354.9744918253373
 31
0.0
  0
LINE
  5
1F4
330
5C
100
AcDbEntity
  8
1
  6
Continuous
 62
     2
100
AcDbLine
 10
146.8592134632323
 20
357.4238649366473
 30
0.0
 11
146.8592134632323
 21
354.7798396575511
 31
0.0
  0
LINE
  5
1F5
330
5C
100
AcDbEntity
  8
1
  6
Continuous
 62
     2
100
AcDbLine
 10
145.8592134632323
 20
357.6137913450995
 30
0.0
 11
145.8592134632323
 21
354.6137913450995
 31
0.0
  0
LINE
  5
1F6
330
5C
100
AcDbEntity
  8
1
  6
Continuous
 62
     7
100
AcDbLine
 10
143.8592134632323
 20
354.6137913450995
 30
0.0
 11
157.8592134632323
 21
354.6137913450995
 31
0.0
  0
LINE
  5
1F7
330
5C
100
AcDbEntity
  8
1
  6
Continuous
 62
     2
100
AcDbLine
 10
144.8592134632323
 20
357.6137913450995
 30
0.0
 11
144.8592134632323
 21
354.6137913450995
 31
0.0
  0
LINE
  5
1F8
330
5C
100
AcDbEntity
  8
1
  6
Continuous
 62
     7
100
AcDbLine
 10
143.8592134632323
 20
357.6137913450995
 30
0.0
 11
144.8592134632322
 21
357.8831135441228
 31
0.0
  0
LINE
  5
1F9
330
5C
100
AcDbEntity
  8
1
  6
Continuous
 62
     7
100
AcDbLine
 10
143.8592134632323
 20
354.6137913450995
 30
0.0
 11
143.8592134632323
 21
357.6137913450995
 31
0.0
  0
LINE
  5
1FA
330
5C
100
AcDbEntity
  8
1
  6
Continuous
 62
     7
100
AcDbLine
 10
157.8592134632323
 20
357.6137913450995
 30
0.0
 11
157.8592134632323
 21
354.6137913450995
 31
0.0
  0
LINE
  5
1FB
330
5C
100
AcDbEntity
  8
1
  6
Continuous
 62
     7
100
AcDbLine
 10
156.8592134632323
 20
357.8831135441228
 30
0.0
 11
157.8592134632323
 21
357.6137913450995
 31
0.0
  0
LINE
  5
1FC
330
5C
100
AcDbEntity
  8
1
  6
Continuous
 62
     2
100
AcDbLine
 10
156.8592134632323
 20
354.6137913450995
 30
0.0
 11
156.8592134632323
 21
357.6137913450995
 31
0.0
  0
LINE
  5
1FD
330
5C
100
AcDbEntity
  8
1
  6
Continuous
 62
     2
100
AcDbLine
 10
155.8592134632322
 20
354.6137913450995
 30
0.0
 11
155.8592134632322
 21
357.6137913450995
 31
0.0
  0
LINE
  5
1FE
330
5C
100
AcDbEntity
  8
1
  6
Continuous
 62
     2
100
AcDbLine
 10
154.8592134632322
 20
354.7798396575511
 30
0.0
 11
154.8592134632322
 21
357.4238649366473
 31
0.0
  0
LINE
  5
1FF
330
5C
100
AcDbEntity
  8
1
  6
Continuous
 62
     2
100
AcDbLine
 10
153.8592134632322
 20
354.9744918253373
 30
0.0
 11
153.8592134632322
 21
357.3103178387719
 31
0.0
  0
LINE
  5
200
330
5C
100
AcDbEntity
  8
1
  6
Continuous
 62
     2
100
AcDbLine
 10
152.8592134632322
 20
355.3313541329453
 30
0.0
 11
152.8592134632322
 21
357.0994446570035
 31
0.0
  0
LINE
  5
201
330
5C
100
AcDbEntity
  8
1
  6
Continuous
 62
     2
100
AcDbLine
 10
151.8592134632322
 20
355.5908903566603
 30
0.0
 11
151.8592134632322
 21
356.8561294472709
 31
0.0
  0
ARC
  5
202
330
5C
100
AcDbEntity
  8
1
  6
Continuous
 62
     7
100
AcDbCircle
 10
484.875568428527
 20
333.6137913450996
 30
0.0
 40
24.99999999999989
100
AcDbArc
 50
90.0
 51
103.8865403626293
  0
ARC
  5
203
330
5C
100
AcDbEntity
  8
1
  6
Continuous
 62
     7
100
AcDbCircle
 10
484.875568428527
 20
333.6137913450996
 30
0.0
 40
24.99999999999999
100
AcDbArc
 50
76.11345963737101
 51
90.0
  0
ARC
  5
204
330
5C
100
AcDbEntity
  8
1
  6
Continuous
 62
     7
100
AcDbCircle
 10
150.8592134632323
 20
333.6137913450996
 30
0.0
 40
24.99999999999989
100
AcDbArc
 50
90.0
 51
103.8865403626292
  0
ARC
  5
205
330
5C
100
AcDbEntity
  8
1
  6
Continuous
 62
     7
100
AcDbCircle
 10
150.8592134632323
 20
333.6137913450996
 30
0.0
 40
24.99999999999999
100
AcDbArc
 50
76.11345963737101
 51
90.0
  0
CIRCLE
  5
206
330
5C
100
AcDbEntity
  8
1
  6
Continuous
 62
     7
100
AcDbCircle
 10
150.8592134632323
 20
690.1136576060048
 30
0.0
 40
5.749999999999915
  0
CIRCLE
  5
207
330
5C
100
AcDbEntity
  8
1
  6
Continuous
 62
     7
100
AcDbCircle
 10
150.8592134632323
 20
690.1136576060048
 30
0.0
 40
6.999999999999915
  0
ENDBLK
  5
5E
330
5C
100
AcDbEntity
  8
0
100
AcDbBlockEnd
  0
BLOCK
  5
226
330
21F
100
AcDbEntity
  8
0
100
AcDbBlockBegin
  2
*D9
 70
     1
 10
0.0
 20
0.0
 30
0.0
  3
*D9
  1

  0
LINE
  5
220
330
21F
100
AcDbEntity
  8
1
  6
Continuous
 62
     2
100
AcDbLine
 10
573.875568428527
 20
277.1137913450995
 30
0.0
 11
573.875568428527
 21
323.1137913450995
 31
0.0
  0
LINE
  5
221
330
21F
100
AcDbEntity
  8
1
  6
Continuous
 62
     2
100
AcDbLine
 10
529.875568428527
 20
277.1137913450996
 30
0.0
 11
576.875568428527
 21
277.1137913450996
 31
0.0
  0
LINE
  5
222
330
21F
100
AcDbEntity
  8
1
  6
Continuous
 62
     2
100
AcDbLine
 10
529.875568428527
 20
323.1137913450997
 30
0.0
 11
576.875568428527
 21
323.1137913450997
 31
0.0
  0
SOLID
  5
223
330
21F
100
AcDbEntity
  8
1
 62
     2
100
AcDbTrace
 10
572.4932172038593
 20
287.6137913450995
 30
0.0
 11
575.2579196531947
 21
287.6137913450995
 31
0.0
 12
573.875568428527
 22
277.1137913450995
 32
0.0
 13
573.875568428527
 23
277.1137913450995
 33
0.0
  0
SOLID
  5
224
330
21F
100
AcDbEntity
  8
1
 62
     2
100
AcDbTrace
 10
575.2579196531947
 20
312.6137913450995
 30
0.0
 11
572.4932172038593
 21
312.6137913450995
 31
0.0
 12
573.875568428527
 22
323.1137913450995
 32
0.0
 13
573.875568428527
 23
323.1137913450995
 33
0.0
  0
MTEXT
  5
225
330
21F
100
AcDbEntity
  8
1
 62
     7
100
AcDbMText
 10
570.875568428527
 20
289.9287913450995
 30
0.0
 40
10.5
 41
0.0
 71
     7
 72
     1
  1
\C7;{\Fgdt;n}\C7;46
  7
CONVERTER_12
 11
0.0
 21
1.0
 31
0.0
 73
     1
 44
0.60024009603842
  0
ENDBLK
  5
227
330
21F
100
AcDbEntity
  8
0
100
AcDbBlockEnd
  0
BLOCK
  5
231
330
22A
100
AcDbEntity
  8
0
100
AcDbBlockBegin
  2
*D10
 70
     1
 10
0.0
 20
0.0
 30
0.0
  3
*D10
  1

  0
LINE
  5
22B
330
22A
100
AcDbEntity
  8
0
  6
Continuous
 62
     2
100
AcDbLine
 10
405.3993907800352
 20
300.1137913450995
 30
0.0
 11
405.3993907800352
 21
205.6137913450995
 31
0.0
  0
LINE
  5
22C
330
22A
100
AcDbEntity
  8
0
  6
Continuous
 62
     2
100
AcDbLine
 10
435.0803021563376
 20
300.1137913450995
 30
0.0
 11
402.3993907800352
 21
300.1137913450995
 31
0.0
  0
LINE
  5
22D
330
22A
100
AcDbEntity
  8
0
  6
Continuous
 62
     2
100
AcDbLine
 10
217.2601760301023
 20
205.6137913450995
 30
0.0
 11
408.3993907800352
 21
205.6137913450995
 31
0.0
  0
SOLID
  5
22E
330
22A
100
AcDbEntity
  8
0
 62
     2
100
AcDbTrace
 10
406.7817420047029
 20
289.6137913450995
 30
0.0
 11
404.0170395553675
 21
289.6137913450995
 31
0.0
 12
405.3993907800352
 22
300.1137913450995
 32
0.0
 13
405.3993907800352
 23
300.1137913450995
 33
0.0
  0
SOLID
  5
22F
330
22A
100
AcDbEntity
  8
0
 62
     2
100
AcDbTrace
 10
404.0170395553675
 20
216.1137913450995
 30
0.0
 11
406.7817420047029
 21
216.1137913450995
 31
0.0
 12
405.3993907800352
 22
205.6137913450995
 32
0.0
 13
405.3993907800352
 23
205.6137913450995
 33
0.0
  0
MTEXT
  5
230
330
22A
100
AcDbEntity
  8
0
 62
     7
100
AcDbMText
 10
402.3993907800352
 20
256.7808285503097
 30
0.0
 40
10.5
 41
0.0
 71
     7
 72
     1
  1
95
  7
CONVERTER_12
 11
0.0
 21
1.0
 31
0.0
 73
     1
 44
0.60024009603842
  0
ENDBLK
  5
232
330
22A
100
AcDbEntity
  8
0
100
AcDbBlockEnd
  0
BLOCK
  5
23C
330
235
100
AcDbEntity
  8
0
100
AcDbBlockBegin
  2
*D11
 70
     1
 10
0.0
 20
0.0
 30
0.0
  3
*D11
  1

  0
LINE
  5
236
330
235
100
AcDbEntity
  8
0
  6
Continuous
 62
     2
100
AcDbLine
 10
405.3993907800351
 20
300.1137913450995
 30
0.0
 11
405.3993907800351
 21
358.6137913450995
 31
0.0
  0
LINE
  5
237
330
235
100
AcDbEntity
  8
0
  6
Continuous
 62
     2
100
AcDbLine
 10
484.875568428527
 20
358.6137913450995
 30
0.0
 11
402.3993907800351
 21
358.6137913450995
 31
0.0
  0
LINE
  5
238
330
235
100
AcDbEntity
  8
0
  6
Continuous
 62
     2
100
AcDbLine
 10
435.0803021563376
 20
300.1137913450995
 30
0.0
 11
402.3993907800351
 21
300.1137913450995
 31
0.0
  0
SOLID
  5
239
330
235
100
AcDbEntity
  8
0
 62
     2
100
AcDbTrace
 10
404.0170395553674
 20
310.6137913450995
 30
0.0
 11
406.7817420047028
 21
310.6137913450995
 31
0.0
 12
405.3993907800351
 22
300.1137913450995
 32
0.0
 13
405.3993907800351
 23
300.1137913450995
 33
0.0
  0
SOLID
  5
23A
330
235
100
AcDbEntity
  8
0
 62
     2
100
AcDbTrace
 10
406.7817420047028
 20
348.1137913450995
 30
0.0
 11
404.0170395553674
 21
348.1137913450995
 31
0.0
 12
405.3993907800351
 22
358.6137913450995
 32
0.0
 13
405.3993907800351
 23
358.6137913450995
 33
0.0
  0
MTEXT
  5
23B
330
235
100
AcDbEntity
  8
0
 62
     7
100
AcDbMText
 10
402.3993907800351
 20
302.3241759594496
 30
0.0
 40
10.5
 41
0.0
 71
     7
 72
     1
  1
59リフト5
  7
CONVERTER_11
 11
0.0
 21
1.0
 31
0.0
 73
     1
 44
0.45454545454545
  0
ENDBLK
  5
23D
330
235
100
AcDbEntity
  8
0
100
AcDbBlockEnd
  0
BLOCK
  5
247
330
240
100
AcDbEntity
  8
0
100
AcDbBlockBegin
  2
*D12
 70
     1
 10
0.0
 20
0.0
 30
0.0
  3
*D12
  1

  0
LINE
  5
241
330
240
100
AcDbEntity
  8
1
  6
Continuous
 62
     2
100
AcDbLine
 10
543.8755684285269
 20
175.6137913450995
 30
0.0
 11
564.8755684285269
 21
175.6137913450995
 31
0.0
  0
LINE
  5
242
330
240
100
AcDbEntity
  8
1
  6
Continuous
 62
     2
100
AcDbLine
 10
529.8755684285269
 20
175.6137913450995
 30
0.0
 11
543.8755684285269
 21
175.6137913450995
 31
0.0
  0
LINE
  5
243
330
240
100
AcDbEntity
  8
1
  6
Continuous
 62
     2
100
AcDbLine
 10
529.875568428527
 20
273.6344548803725
 30
0.0
 11
529.875568428527
 21
172.6137913450995
 31
0.0
  0
LINE
  5
244
330
240
100
AcDbEntity
  8
1
  6
Continuous
 62
     2
100
AcDbLine
 10
543.875568428527
 20
290.6137913450995
 30
0.0
 11
543.875568428527
 21
172.6137913450995
 31
0.0
  0
SOLID
  5
245
330
240
100
AcDbEntity
  8
1
 62
     2
100
AcDbTrace
 10
554.3755684285269
 20
176.9961425697671
 30
0.0
 11
554.3755684285269
 21
174.2314401204318
 31
0.0
 12
543.8755684285269
 22
175.6137913450995
 32
0.0
 13
543.8755684285269
 23
175.6137913450995
 33
0.0
  0
MTEXT
  5
246
330
240
100
AcDbEntity
  8
1
 62
     7
100
AcDbMText
 10
551.743215113248
 20
178.6137913450995
 30
0.0
 40
10.5
 41
0.0
 71
     7
 72
     1
  1
14
  7
CONVERTER_12
 11
0.9999999999970619
 21
2.424068405545306E-6
 31
0.0
 73
     1
 44
0.60024009603842
  0
ENDBLK
  5
248
330
240
100
AcDbEntity
  8
0
100
AcDbBlockEnd
  0
BLOCK
  5
24A
330
249
100
AcDbEntity
  8
0
100
AcDbBlockBegin
  2
_NONE
 70
     0
 10
0.0
 20
0.0
 30
0.0
  3
_NONE
  1

  0
ENDBLK
  5
24B
330
249
100
AcDbEntity
  8
0
100
AcDbBlockEnd
  0
BLOCK
  5
255
330
24E
100
AcDbEntity
  8
0
100
AcDbBlockBegin
  2
*D14
 70
     1
 10
0.0
 20
0.0
 30
0.0
  3
*D14
  1

  0
LINE
  5
24F
330
24E
100
AcDbEntity
  8
0
  6
Continuous
 62
     2
100
AcDbLine
 10
449.875568428527
 20
175.6137913450995
 30
0.0
 11
484.8755684285269
 21
175.6137913450995
 31
0.0
  0
LINE
  5
250
330
24E
100
AcDbEntity
  8
0
  6
Continuous
 62
     2
100
AcDbLine
 10
484.8755684285269
 20
284.4625063951354
 30
0.0
 11
484.8755684285269
 21
172.6137913450995
 31
0.0
  0
LINE
  5
251
330
24E
100
AcDbEntity
  8
0
  6
Continuous
 62
     2
100
AcDbLine
 10
449.875568428527
 20
263.6137913450994
 30
0.0
 11
449.875568428527
 21
172.6137913450995
 31
0.0
  0
SOLID
  5
252
330
24E
100
AcDbEntity
  8
0
 62
     2
100
AcDbTrace
 10
460.375568428527
 20
176.9961425697671
 30
0.0
 11
460.375568428527
 21
174.2314401204318
 31
0.0
 12
449.875568428527
 22
175.6137913450995
 32
0.0
 13
449.875568428527
 23
175.6137913450995
 33
0.0
  0
SOLID
  5
253
330
24E
100
AcDbEntity
  8
0
 62
     2
100
AcDbTrace
 10
474.3755684285269
 20
174.2314401204318
 30
0.0
 11
474.3755684285269
 21
176.9961425697671
 31
0.0
 12
484.8755684285269
 22
175.6137913450995
 32
0.0
 13
484.8755684285269
 23
175.6137913450995
 33
0.0
  0
MTEXT
  5
254
330
24E
100
AcDbEntity
  8
0
 62
     7
100
AcDbMText
 10
459.5005684285268
 20
178.6137913450995
 30
0.0
 40
10.5
 41
0.0
 71
     7
 72
     1
  1
35
  7
CONVERTER_12
 11
0.9999999999970619
 21
2.424068405545306E-6
 31
0.0
 73
     1
 44
0.60024009603842
  0
ENDBLK
  5
256
330
24E
100
AcDbEntity
  8
0
100
AcDbBlockEnd
  0
BLOCK
  5
260
330
259
100
AcDbEntity
  8
0
100
AcDbBlockBegin
  2
*D15
 70
     1
 10
0.0
 20
0.0
 30
0.0
  3
*D15
  1

  0
LINE
  5
25A
330
259
100
AcDbEntity
  8
0
  6
Continuous
 62
     2
100
AcDbLine
 10
484.875568428527
 20
175.6137913450995
 30
0.0
 11
529.875568428527
 21
175.6137913450995
 31
0.0
  0
LINE
  5
25B
330
259
100
AcDbEntity
  8
0
  6
Continuous
 62
     2
100
AcDbLine
 10
529.875568428527
 20
273.6344548803725
 30
0.0
 11
529.875568428527
 21
172.6137913450995
 31
0.0
  0
LINE
  5
25C
330
259
100
AcDbEntity
  8
0
  6
Continuous
 62
     2
100
AcDbLine
 10
484.875568428527
 20
284.4625063951354
 30
0.0
 11
484.875568428527
 21
172.6137913450995
 31
0.0
  0
SOLID
  5
25D
330
259
100
AcDbEntity
  8
0
 62
     2
100
AcDbTrace
 10
495.375568428527
 20
176.9961425697671
 30
0.0
 11
495.375568428527
 21
174.2314401204318
 31
0.0
 12
484.875568428527
 22
175.6137913450995
 32
0.0
 13
484.875568428527
 23
175.6137913450995
 33
0.0
  0
SOLID
  5
25E
330
259
100
AcDbEntity
  8
0
 62
     2
100
AcDbTrace
 10
519.375568428527
 20
174.2314401204318
 30
0.0
 11
519.375568428527
 21
176.9961425697671
 31
0.0
 12
529.875568428527
 22
175.6137913450995
 32
0.0
 13
529.875568428527
 23
175.6137913450995
 33
0.0
  0
MTEXT
  5
25F
330
259
100
AcDbEntity
  8
0
 62
     7
100
AcDbMText
 10
499.5005684285269
 20
178.6137913450995
 30
0.0
 40
10.5
 41
0.0
 71
     7
 72
     1
  1
45
  7
CONVERTER_12
 11
0.9999999999970619
 21
2.424068405545306E-6
 31
0.0
 73
     1
 44
0.60024009603842
  0
ENDBLK
  5
261
330
259
100
AcDbEntity
  8
0
100
AcDbBlockEnd
  0
BLOCK
  5
26B
330
264
100
AcDbEntity
  8
0
100
AcDbBlockBegin
  2
*D16
 70
     1
 10
0.0
 20
0.0
 30
0.0
  3
*D16
  1

  0
LINE
  5
265
330
264
100
AcDbEntity
  8
0
  6
Continuous
 62
     2
100
AcDbLine
 10
209.8737690241163
 20
175.6137913450995
 30
0.0
 11
449.875568428527
 21
175.6137913450995
 31
0.0
  0
LINE
  5
266
330
264
100
AcDbEntity
  8
0
  6
Continuous
 62
     2
100
AcDbLine
 10
449.875568428527
 20
263.6137913450994
 30
0.0
 11
449.875568428527
 21
172.6137913450995
 31
0.0
  0
LINE
  5
267
330
264
100
AcDbEntity
  8
0
  6
Continuous
 62
     2
100
AcDbLine
 10
209.8737690241163
 20
196.6137913450995
 30
0.0
 11
209.8737690241163
 21
172.6137913450995
 31
0.0
  0
SOLID
  5
268
330
264
100
AcDbEntity
  8
0
 62
     2
100
AcDbTrace
 10
220.3737690241163
 20
176.9961425697671
 30
0.0
 11
220.3737690241163
 21
174.2314401204318
 31
0.0
 12
209.8737690241163
 22
175.6137913450995
 32
0.0
 13
209.8737690241163
 23
175.6137913450995
 33
0.0
  0
SOLID
  5
269
330
264
100
AcDbEntity
  8
0
 62
     2
100
AcDbTrace
 10
439.375568428527
 20
174.2314401204318
 30
0.0
 11
439.375568428527
 21
176.9961425697671
 31
0.0
 12
449.875568428527
 22
175.6137913450995
 32
0.0
 13
449.875568428527
 23
175.6137913450995
 33
0.0
  0
MTEXT
  5
26A
330
264
100
AcDbEntity
  8
0
 62
     7
100
AcDbMText
 10
317.2746687263216
 20
178.6137913450995
 30
0.0
 40
10.5
 41
0.0
 71
     7
 72
     1
  1
240
  7
CONVERTER_12
 11
0.9999999999970619
 21
2.424068405545306E-6
 31
0.0
 73
     1
 44
0.60024009603842
  0
ENDBLK
  5
26C
330
264
100
AcDbEntity
  8
0
100
AcDbBlockEnd
  0
ENDSEC
  0
SECTION
  2
ENTITIES
  0
INSERT
  5
5F
330
1F
100
AcDbEntity
  8
1
100
AcDbBlockReference
  2
開示A4
 10
0.0
 20
0.0
 30
0.0
 41
3.0
 42
3.0
 43
3.0
  0
INSERT
  5
60
330
1F
100
AcDbEntity
  8
1
100
AcDbBlockReference
  2
51-1
 10
509.3588032702801
 20
690.7436533667878
 30
0.0
  0
INSERT
  5
61
330
1F
100
AcDbEntity
  8
0
100
AcDbBlockReference
  2
36-54-M11
 10
239.0617100065787
 20
201.5446653356634
 30
0.0
  0
INSERT
  5
62
330
1F
100
AcDbEntity
  8
1
100
AcDbBlockReference
  2
A10-0A-13
 10
484.875568428527
 20
300.1137913450995
 30
0.0
  0
INSERT
  5
63
330
1F
100
AcDbEntity
  8
1
100
AcDbBlockReference
  2
32-1-16
 10
153.3298285928581
 20
480.5996234752086
 30
0.0
  0
INSERT
  5
64
330
1F
100
AcDbEntity
  8
0
100
AcDbBlockReference
  2
60-1-16-240
 10
311.7093344231132
 20
175.2476935151057
 30
0.0
  0
INSERT
  5
65
330
1F
100
AcDbEntity
  8
0
100
AcDbBlockReference
  2
37-1-13
 10
393.074338211756
 20
183.618085454955
 30
0.0
  0
INSERT
  5
66
330
1F
100
AcDbEntity
  8
0
100
AcDbBlockReference
  2
42-1
 10
396.7713083419235
 20
147.8241423355148
 30
0.0
  0
LINE
  5
208
330
1F
100
AcDbEntity
  8
1
  6
DASH_CENTER
 62
     2
100
AcDbLine
 10
133.5592137439711
 20
415.1145573082102
 30
0.0
 11
168.1592133696528
 21
415.1109584993886
 31
0.0
  0
LINE
  5
209
330
1F
100
AcDbEntity
  8
0
  6
DASH_CENTER
 62
     2
100
AcDbLine
 10
124.8592134632323
 20
300.1137913450995
 30
0.0
 11
176.8592134632323
 21
300.1137913450995
 31
0.0
  0
LINE
  5
20A
330
1F
100
AcDbEntity
  8
1
  6
DASH_CENTER
 62
     2
100
AcDbLine
 10
166.8592134632324
 20
655.1136576060048
 30
0.0
 11
134.8592134632324
 21
655.1136576060048
 31
0.0
  0
LINE
  5
20B
330
1F
100
AcDbEntity
  8
1
  6
DASH_CENTER
 62
     2
100
AcDbLine
 10
167.8592134632324
 20
690.1136576060048
 30
0.0
 11
133.8592134632324
 21
690.1136576060048
 31
0.0
  0
LINE
  5
20C
330
1F
100
AcDbEntity
  8
1
  6
DASH_CENTER
 62
     2
100
AcDbLine
 10
546.91337496028
 20
300.1137913450995
 30
0.0
 11
435.0803021563376
 21
300.1137913450995
 31
0.0
  0
LINE
  5
20D
330
1F
100
AcDbEntity
  8
1
  6
DASH_CENTER
 62
     2
100
AcDbLine
 10
484.875568428527
 20
284.4625063951354
 30
0.0
 11
484.875568428527
 21
361.7816044027583
 31
0.0
  0
LINE
  5
20E
330
1F
100
AcDbEntity
  8
0
  6
DASH_CENTER
 62
     2
100
AcDbLine
 10
150.8592134632323
 20
361.7816044027583
 30
0.0
 11
150.8592134632323
 21
203.1708188435156
 31
0.0
  0
LINE
  5
20F
330
1F
100
AcDbEntity
  8
1
  6
DASH_CENTER
 62
     2
100
AcDbLine
 10
209.8737690241163
 20
196.6137913450995
 30
0.0
 11
209.8737690241163
 21
213.6137913450994
 31
0.0
  0
LINE
  5
210
330
1F
100
AcDbEntity
  8
1
  6
DASH_CENTER
 62
     2
100
AcDbLine
 10
234.8737690241163
 20
238.6137913450994
 30
0.0
 11
424.875568428527
 21
238.6137913450994
 31
0.0
  0
LINE
  5
211
330
1F
100
AcDbEntity
  8
1
  6
DASH_CENTER
 62
     2
100
AcDbLine
 10
449.875568428527
 20
263.6137913450994
 30
0.0
 11
449.875568428527
 21
308.7395300733873
 31
0.0
  0
LINE
  5
212
330
1F
100
AcDbEntity
  8
0
  6
Continuous
 62
     2
100
AcDbLine
 10
529.875568428527
 20
277.1137913450995
 30
0.0
 11
529.875568428527
 21
273.6344548803725
 31
0.0
  0
LINE
  5
213
330
1F
100
AcDbEntity
  8
1
  6
DASH_CENTER
 62
     2
100
AcDbLine
 10
150.8592134632324
 20
751.8354758001485
 30
0.0
 11
150.8592134632323
 21
403.1356609360396
 31
0.0
  0
ARC
  5
214
330
1F
100
AcDbEntity
  8
1
  6
DASH_CENTER
 62
     2
100
AcDbCircle
 10
234.8737690241163
 20
213.6137913450994
 30
0.0
 40
25.0
100
AcDbArc
 50
90.0
 51
180.0
  0
ARC
  5
215
330
1F
100
AcDbEntity
  8
1
  6
DASH_CENTER
 62
     2
100
AcDbCircle
 10
424.875568428527
 20
263.6137913450994
 30
0.0
 40
25.0
100
AcDbArc
 50
270.0
 51
0.0
  0
SOLID
  5
216
330
1F
100
AcDbEntity
  8
1
 62
     2
100
AcDbTrace
 10
165.4120621857178
 20
751.3980999580752
 30
0.0
 11
167.8063647407472
 21
750.0157487334076
 31
0.0
 12
161.3592134632324
 22
741.6136576060048
 32
0.0
 13
161.3592134632324
 23
741.6136576060048
 33
0.0
  0
LEADER
  5
217
330
1F
100
AcDbEntity
  8
1
  6
Continuous
 62
     2
100
AcDbLeader
  3
Standard
 71
     0
 76
     3
 10
161.3592134632324
 20
741.6136576060048
 30
0.0
 10
179.025984871484
 20
772.2134032908017
 30
0.0
 10
222.873141936404
 20
772.2134032908017
 30
0.0
  0
MTEXT
  5
219
330
1F
100
AcDbEntity
  8
1
 62
     7
100
AcDbMText
 10
281.25
 20
51.0
 30
0.0
 40
10.5
 41
0.0
 71
     5
 72
     1
  1
3
  7
CONVERTER_12
 73
     1
 44
0.7202881152461
  0
MTEXT
  5
21A
330
1F
100
AcDbEntity
  8
1
 62
     7
100
AcDbMText
 10
255.75
 20
51.0
 30
0.0
 40
10.5
 41
0.0
 71
     5
 72
     1
  1
1
  7
CONVERTER_12
 73
     1
 44
0.7202881152461
  0
MTEXT
  5
21B
330
1F
100
AcDbEntity
  8
0
 62
     7
100
AcDbMText
 10
171.0
 20
42.75
 30
0.0
 40
10.5
 41
0.0
 71
     5
 72
     1
  1
A10JK-L2-13X240
  7
CONVERTER_12
 73
     1
 44
0.90036014405762
  0
MTEXT
  5
21C
330
1F
100
AcDbEntity
  8
1
 62
     7
100
AcDbMText
 10
200.949563403944
 20
781.2134032908018
 30
0.0
 40
10.5
 41
0.0
 71
     5
 72
     1
  1
PJ1/2
  7
CONVERTER_12
 73
     1
 44
1.32052821128451
  0
MTEXT
  5
21D
330
1F
100
AcDbEntity
  8
0
 62
     7
100
AcDbMText
 10
171.0
 20
68.25000000000003
 30
0.0
 40
10.5
 41
0.0
 71
     5
 72
     1
  1
自在水栓
  7
CONVERTER_11
 73
     1
 44
1.0
  0
MTEXT
  5
21E
330
1F
100
AcDbEntity
  8
0
 62
     7
100
AcDbMText
 10
102.0
 20
102.0
 30
0.0
 40
10.5
 41
0.0
 71
     4
 72
     1
  1
JIS
  7
CONVERTER_12
 73
     1
 44
1.32052821128451
  0
DIMENSION
  5
229
330
1F
100
AcDbEntity
  8
1
100
AcDbDimension
  2
*D9
 10
573.875568428527
 20
277.1137913450995
 30
0.0
 11
565.625568428527
 21
300.1137913450995
 31
0.0
 70
    32
  1
<>
 71
     5
 42
-1.0
 53
90.0
  3
ME10_DIM_10
100
AcDbAlignedDimension
 13
529.875568428527
 23
323.1137913450996
 33
0.0
 14
529.875568428527
 24
277.1137913450995
 34
0.0
 50
90.0
100
AcDbRotatedDimension
  0
DIMENSION
  5
234
330
1F
100
AcDbEntity
  8
0
100
AcDbDimension
  2
*D10
 10
405.3993907800352
 20
300.1137913450995
 30
0.0
 11
397.1493907800352
 21
264.6558285503097
 31
0.0
 70
    32
  1
95
 71
     5
 42
-1.0
 53
90.0
  3
ME10_DIM_11
100
AcDbAlignedDimension
 13
217.2601760301023
 23
205.6137913450995
 33
0.0
 14
435.0803021563376
 24
300.1137913450995
 34
0.0
 50
90.0
100
AcDbRotatedDimension
  0
DIMENSION
  5
23F
330
1F
100
AcDbEntity
  8
0
100
AcDbDimension
  2
*D11
 10
405.3993907800351
 20
300.1137913450995
 30
0.0
 11
397.1493907800351
 21
330.6741759594496
 31
0.0
 70
    32
  1
59リフト5
 71
     5
 42
-1.0
 53
90.0
  3
ME10_DIM_12
100
AcDbAlignedDimension
 13
484.8755684285269
 23
358.6137913450995
 33
0.0
 14
435.0803021563376
 24
300.1137913450995
 34
0.0
 50
90.0
100
AcDbRotatedDimension
  0
DIMENSION
  5
24D
330
1F
100
AcDbEntity
  8
1
100
AcDbDimension
  2
*D12
 10
529.8755684285269
 20
175.6137913450995
 30
0.0
 11
558.0432151132479
 21
183.8637913450995
 31
0.0
 70
    32
  1
<>
 71
     5
 42
-1.0
 53
0.00013888888889
  3
ME10_DIM_13
100
AcDbAlignedDimension
 13
543.875568428527
 23
290.6137913450995
 33
0.0
 14
529.875568428527
 24
273.6344548803725
 34
0.0
100
AcDbRotatedDimension
  0
DIMENSION
  5
258
330
1F
100
AcDbEntity
  8
0
100
AcDbDimension
  2
*D14
 10
449.875568428527
 20
175.6137913450995
 30
0.0
 11
467.3755684285268
 21
183.8637913450995
 31
0.0
 70
    32
  1
<>
 71
     5
 42
-1.0
 53
0.00013888888889
  3
ME10_DIM_14
100
AcDbAlignedDimension
 13
484.875568428527
 23
284.4625063951354
 33
0.0
 14
449.875568428527
 24
263.6137913450994
 34
0.0
100
AcDbRotatedDimension
  0
DIMENSION
  5
263
330
1F
100
AcDbEntity
  8
0
100
AcDbDimension
  2
*D15
 10
484.875568428527
 20
175.6137913450995
 30
0.0
 11
507.3755684285269
 21
183.8637913450995
 31
0.0
 70
    32
  1
<>
 71
     5
 42
-1.0
 53
0.00013888888889
  3
ME10_DIM_15
100
AcDbAlignedDimension
 13
529.875568428527
 23
273.6344548803725
 33
0.0
 14
484.875568428527
 24
284.4625063951354
 34
0.0
100
AcDbRotatedDimension
  0
DIMENSION
  5
26E
330
1F
100
AcDbEntity
  8
0
100
AcDbDimension
  2
*D16
 10
209.8737690241163
 20
175.6137913450995
 30
0.0
 11
329.8746687263216
 21
183.8637913450995
 31
0.0
 70
    32
  1
<>
 71
     5
 42
-1.0
 53
0.00013888888889
  3
ME10_DIM_16
100
AcDbAlignedDimension
 13
449.875568428527
 23
263.6137913450994
 33
0.0
 14
209.8737690241163
 24
196.6137913450995
 34
0.0
100
AcDbRotatedDimension
  0
ENDSEC
  0
SECTION
  2
OBJECTS
  0
DICTIONARY
  5
C
330
0
100
AcDbDictionary
281
     1
  3
ACAD_GROUP
350
D
  3
ACAD_LAYOUT
350
1A
  3
ACAD_MATERIAL
350
3B
  3
ACAD_MLEADERSTYLE
350
271
  3
ACAD_MLINESTYLE
350
17
  3
ACAD_PLOTSETTINGS
350
19
  3
ACAD_PLOTSTYLENAME
350
E
  3
ACAD_VISUALSTYLE
350
2A
  3
AcDbVariableDictionary
350
26F
  0
DICTIONARY
  5
D
102
{ACAD_REACTORS
330
C
102
}
330
C
100
AcDbDictionary
281
     1
  0
DICTIONARY
  5
1A
102
{ACAD_REACTORS
330
C
102
}
330
C
100
AcDbDictionary
281
     1
  3
Layout1
350
1E
  3
Layout2
350
26
  3
Model
350
22
  0
DICTIONARY
  5
3B
102
{ACAD_REACTORS
330
C
102
}
330
C
100
AcDbDictionary
281
     1
  3
ByBlock
350
3D
  3
ByLayer
350
3C
  3
Global
350
3E
  0
DICTIONARY
  5
271
102
{ACAD_REACTORS
330
C
102
}
330
C
100
AcDbDictionary
281
     1
  0
DICTIONARY
  5
17
102
{ACAD_REACTORS
330
C
102
}
330
C
100
AcDbDictionary
281
     1
  3
Standard
350
18
  0
DICTIONARY
  5
19
102
{ACAD_REACTORS
330
C
102
}
330
C
100
AcDbDictionary
281
     1
  0
ACDBDICTIONARYWDFLT
  5
E
102
{ACAD_REACTORS
330
C
102
}
330
C
100
AcDbDictionary
281
     1
  3
Normal
350
F
100
AcDbDictionaryWithDefault
340
F
  0
DICTIONARY
  5
2A
102
{ACAD_REACTORS
330
C
102
}
330
C
100
AcDbDictionary
281
     1
  3
2dWireframe
350
2F
  3
3D Hidden
350
31
  3
3dWireframe
350
30
  3
Basic
350
32
  3
Brighten
350
36
  3
ColorChange
350
3A
  3
Conceptual
350
34
  3
Dim
350
35
  3
Facepattern
350
39
  3
Flat
350
2B
  3
FlatWithEdges
350
2C
  3
Gouraud
350
2D
  3
GouraudWithEdges
350
2E
  3
Linepattern
350
38
  3
Realistic
350
33
  3
Thicken
350
37
  0
DICTIONARY
  5
26F
102
{ACAD_REACTORS
330
C
102
}
330
C
100
AcDbDictionary
281
     1
  3
DIMASSOC
350
272
  3
HIDETEXT
350
273
  0
LAYOUT
  5
1E
102
{ACAD_REACTORS
330
1A
102
}
330
1A
100
AcDbPlotSettings
  1

  2
none_device
  4

  6

 40
0.0
 41
0.0
 42
0.0
 43
0.0
 44
0.0
 45
0.0
 46
0.0
 47
0.0
 48
0.0
 49
0.0
140
0.0
141
0.0
142
1.0
143
1.0
 70
   688
 72
     0
 73
     0
 74
     5
  7

 75
    16
147
1.0
148
0.0
149
0.0
100
AcDbLayout
  1
Layout1
 70
     1
 71
     1
 10
0.0
 20
0.0
 11
12.0
 21
9.0
 12
0.0
 22
0.0
 32
0.0
 14
1.00000000000000E+20
 24
1.00000000000000E+20
 34
1.00000000000000E+20
 15
-1.00000000000000E+20
 25
-1.00000000000000E+20
 35
-1.00000000000000E+20
146
0.0
 13
0.0
 23
0.0
 33
0.0
 16
1.0
 26
0.0
 36
0.0
 17
0.0
 27
1.0
 37
0.0
 76
     0
330
1B
  0
LAYOUT
  5
26
102
{ACAD_REACTORS
330
1A
102
}
330
1A
100
AcDbPlotSettings
  1

  2
none_device
  4

  6

 40
0.0
 41
0.0
 42
0.0
 43
0.0
 44
0.0
 45
0.0
 46
0.0
 47
0.0
 48
0.0
 49
0.0
140
0.0
141
0.0
142
1.0
143
1.0
 70
   688
 72
     0
 73
     0
 74
     5
  7

 75
    16
147
1.0
148
0.0
149
0.0
100
AcDbLayout
  1
Layout2
 70
     1
 71
     2
 10
0.0
 20
0.0
 11
0.0
 21
0.0
 12
0.0
 22
0.0
 32
0.0
 14
0.0
 24
0.0
 34
0.0
 15
0.0
 25
0.0
 35
0.0
146
0.0
 13
0.0
 23
0.0
 33
0.0
 16
1.0
 26
0.0
 36
0.0
 17
0.0
 27
1.0
 37
0.0
 76
     0
330
23
  0
LAYOUT
  5
22
102
{ACAD_REACTORS
330
1A
102
}
330
1A
100
AcDbPlotSettings
  1

  2
none_device
  4

  6

 40
0.0
 41
0.0
 42
0.0
 43
0.0
 44
0.0
 45
0.0
 46
0.0
 47
0.0
 48
0.0
 49
0.0
140
0.0
141
0.0
142
1.0
143
1.0
 70
  1712
 72
     0
 73
     0
 74
     0
  7

 75
     0
147
1.0
148
0.0
149
0.0
100
AcDbLayout
  1
Model
 70
     1
 71
     0
 10
0.0
 20
0.0
 11
12.0
 21
9.0
 12
0.0
 22
0.0
 32
0.0
 14
0.0
 24
0.0
 34
0.0
 15
630.0
 25
891.0
 35
0.0
146
0.0
 13
0.0
 23
0.0
 33
0.0
 16
1.0
 26
0.0
 36
0.0
 17
0.0
 27
1.0
 37
0.0
 76
     0
330
1F
331
29
  0
MATERIAL
  5
3D
102
{ACAD_REACTORS
330
3B
102
}
102
{ACAD_XDICTIONARY
360
296
102
}
330
3B
100
AcDbMaterial
  1
ByBlock
  0
MATERIAL
  5
3C
102
{ACAD_REACTORS
330
3B
102
}
102
{ACAD_XDICTIONARY
360
294
102
}
330
3B
100
AcDbMaterial
  1
ByLayer
  0
MATERIAL
  5
3E
102
{ACAD_REACTORS
330
3B
102
}
102
{ACAD_XDICTIONARY
360
298
102
}
330
3B
100
AcDbMaterial
  1
Global
  0
MLINESTYLE
  5
18
102
{ACAD_REACTORS
330
17
102
}
330
17
100
AcDbMlineStyle
  2
Standard
 70
     0
  3

 62
   256
 51
90.0
 52
90.0
 71
     2
 49
0.5
 62
   256
  6
BYLAYER
 49
-0.5
 62
   256
  6
BYLAYER
  0
ACDBPLACEHOLDER
  5
F
102
{ACAD_REACTORS
330
E
102
}
330
E
  0
VISUALSTYLE
  5
2F
102
{ACAD_REACTORS
330
2A
102
}
102
{ACAD_XDICTIONARY
360
27C
102
}
330
2A
100
AcDbVisualStyle
  2
2dWireframe
 70
     4
 71
     0
 72
     2
 73
     0
 90
        0
 40
-0.6
 41
-30.0
 62
     5
 63
     7
 74
     1
 91
        4
 64
     7
 65
   257
 75
     1
175
     1
 42
1.0
 92
        0
 66
   257
 43
1.0
 76
     1
 77
     6
 78
     2
 67
     7
 79
     5
170
     0
171
     0
290
     0
174
     0
 93
        1
 44
0.0
173
     0
291
     0
 45
0.0
1001
ACAD
1000
AcDbSavedByObjectVersion
1070
     0
  0
VISUALSTYLE
  5
31
102
{ACAD_REACTORS
330
2A
102
}
102
{ACAD_XDICTIONARY
360
280
102
}
330
2A
100
AcDbVisualStyle
  2
3D Hidden
 70
     6
 71
     1
 72
     2
 73
     2
 90
        0
 40
-0.6
 41
-30.0
 62
     5
 63
     7
 74
     2
 91
        2
 64
     7
 65
   257
 75
     2
175
     1
 42
40.0
 92
        0
 66
   257
 43
1.0
 76
     1
 77
     6
 78
     2
 67
     7
 79
     3
170
     0
171
     0
290
     0
174
     0
 93
        1
 44
0.0
173
     0
291
     0
 45
0.0
1001
ACAD
1000
AcDbSavedByObjectVersion
1070
     0
  0
VISUALSTYLE
  5
30
102
{ACAD_REACTORS
330
2A
102
}
102
{ACAD_XDICTIONARY
360
27E
102
}
330
2A
100
AcDbVisualStyle
  2
3dWireframe
 70
     5
 71
     0
 72
     2
 73
     0
 90
        0
 40
-0.6
 41
-30.0
 62
     5
 63
     7
 74
     1
 91
        4
 64
     7
 65
   257
 75
     1
175
     1
 42
1.0
 92
        0
 66
   257
 43
1.0
 76
     1
 77
     6
 78
     2
 67
     7
 79
     5
170
     0
171
     0
290
     0
174
     0
 93
        1
 44
0.0
173
     0
291
     0
 45
0.0
1001
ACAD
1000
AcDbSavedByObjectVersion
1070
     0
  0
VISUALSTYLE
  5
32
102
{ACAD_REACTORS
330
2A
102
}
102
{ACAD_XDICTIONARY
360
282
102
}
330
2A
100
AcDbVisualStyle
  2
Basic
 70
     7
 71
     1
 72
     0
 73
     1
 90
        0
 40
-0.6
 41
-30.0
 62
     5
 63
     7
 74
     0
 91
        4
 64
     7
 65
   257
 75
     1
175
     1
 42
1.0
 92
        8
 66
     7
 43
1.0
 76
     1
 77
     6
 78
     2
 67
     7
 79
     5
170
     0
171
     0
290
     0
174
     0
 93
        1
 44
0.0
173
     0
291
     1
 45
0.0
1001
ACAD
1000
AcDbSavedByObjectVersion
1070
     0
  0
VISUALSTYLE
  5
36
102
{ACAD_REACTORS
330
2A
102
}
102
{ACAD_XDICTIONARY
360
28A
102
}
330
2A
100
AcDbVisualStyle
  2
Brighten
 70
    12
 71
     2
 72
     2
 73
     0
 90
        0
 40
-0.6
 41
-30.0
 62
     5
 63
     7
 74
     1
 91
        4
 64
     7
 65
   257
 75
     1
175
     1
 42
1.0
 92
        8
 66
     7
 43
1.0
 76
     1
 77
     6
 78
     2
 67
     7
 79
     5
170
     0
171
     0
290
     0
174
     0
 93
        1
 44
50.0
173
     0
291
     1
 45
0.0
1001
ACAD
1000
AcDbSavedByObjectVersion
1070
     0
  0
VISUALSTYLE
  5
3A
102
{ACAD_REACTORS
330
2A
102
}
102
{ACAD_XDICTIONARY
360
292
102
}
330
2A
100
AcDbVisualStyle
  2
ColorChange
 70
    16
 71
     2
 72
     2
 73
     3
 90
        0
 40
-0.6
 41
-30.0
 62
     5
 63
     8
 74
     1
 91
        4
 64
     7
 65
   257
 75
     1
175
     1
 42
1.0
 92
        8
 66
     8
 43
1.0
 76
     1
 77
     6
 78
     2
 67
     7
 79
     5
170
     0
171
     0
290
     0
174
     0
 93
        1
 44
0.0
173
     0
291
     1
 45
0.0
1001
ACAD
1000
AcDbSavedByObjectVersion
1070
     0
  0
VISUALSTYLE
  5
34
102
{ACAD_REACTORS
330
2A
102
}
102
{ACAD_XDICTIONARY
360
286
102
}
330
2A
100
AcDbVisualStyle
  2
Conceptual
 70
     9
 71
     3
 72
     2
 73
     0
 90
        0
 40
-0.6
 41
-30.0
 62
     5
 63
     7
 74
     2
 91
        2
 64
     7
 65
   257
 75
     1
175
     1
 42
40.0
 92
        8
 66
     7
 43
1.0
 76
     1
 77
     6
 78
     2
 67
     7
 79
     3
170
     0
171
     0
290
     0
174
     0
 93
        1
 44
0.0
173
     0
291
     0
 45
0.0
1001
ACAD
1000
AcDbSavedByObjectVersion
1070
     0
  0
VISUALSTYLE
  5
35
102
{ACAD_REACTORS
330
2A
102
}
102
{ACAD_XDICTIONARY
360
288
102
}
330
2A
100
AcDbVisualStyle
  2
Dim
 70
    11
 71
     2
 72
     2
 73
     0
 90
        0
 40
-0.6
 41
-30.0
 62
     5
 63
     7
 74
     1
 91
        4
 64
     7
 65
   257
 75
     1
175
     1
 42
1.0
 92
        8
 66
     7
 43
1.0
 76
     1
 77
     6
 78
     2
 67
     7
 79
     5
170
     0
171
     0
290
     0
174
     0
 93
        1
 44
-50.0
173
     0
291
     1
 45
0.0
1001
ACAD
1000
AcDbSavedByObjectVersion
1070
     0
  0
VISUALSTYLE
  5
39
102
{ACAD_REACTORS
330
2A
102
}
102
{ACAD_XDICTIONARY
360
290
102
}
330
2A
100
AcDbVisualStyle
  2
Facepattern
 70
    15
 71
     2
 72
     2
 73
     0
 90
        0
 40
-0.6
 41
-30.0
 62
     5
 63
     7
 74
     1
 91
        4
 64
     7
 65
   257
 75
     1
175
     1
 42
1.0
 92
        8
 66
     7
 43
1.0
 76
     1
 77
     6
 78
     2
 67
     7
 79
     5
170
     0
171
     0
290
     0
174
     0
 93
        1
 44
0.0
173
     0
291
     1
 45
0.0
1001
ACAD
1000
AcDbSavedByObjectVersion
1070
     0
  0
VISUALSTYLE
  5
2B
102
{ACAD_REACTORS
330
2A
102
}
102
{ACAD_XDICTIONARY
360
274
102
}
330
2A
100
AcDbVisualStyle
  2
Flat
 70
     0
 71
     2
 72
     1
 73
     1
 90
        2
 40
-0.6
 41
30.0
 62
     5
 63
     7
 74
     0
 91
        4
 64
     7
 65
   257
 75
     1
175
     1
 42
1.0
 92
        8
 66
     7
 43
1.0
 76
     1
 77
     6
 78
     2
 67
     7
 79
     5
170
     0
171
     0
290
     0
174
     0
 93
       13
 44
0.0
173
     0
291
     1
 45
0.0
1001
ACAD
1000
AcDbSavedByObjectVersion
1070
     0
  0
VISUALSTYLE
  5
2C
102
{ACAD_REACTORS
330
2A
102
}
102
{ACAD_XDICTIONARY
360
276
102
}
330
2A
100
AcDbVisualStyle
  2
FlatWithEdges
 70
     1
 71
     2
 72
     1
 73
     1
 90
        2
 40
-0.6
 41
30.0
 62
     5
 63
     7
 74
     1
 91
        4
 64
     7
 65
   257
 75
     1
175
     1
 42
1.0
 92
        0
 66
   257
 43
1.0
 76
     1
 77
     6
 78
     2
 67
     7
 79
     5
170
     0
171
     0
290
     0
174
     0
 93
       13
 44
0.0
173
     0
291
     1
 45
0.0
1001
ACAD
1000
AcDbSavedByObjectVersion
1070
     0
  0
VISUALSTYLE
  5
2D
102
{ACAD_REACTORS
330
2A
102
}
102
{ACAD_XDICTIONARY
360
278
102
}
330
2A
100
AcDbVisualStyle
  2
Gouraud
 70
     2
 71
     2
 72
     2
 73
     1
 90
        2
 40
-0.6
 41
30.0
 62
     5
 63
     7
 74
     0
 91
        4
 64
     7
 65
   257
 75
     1
175
     1
 42
1.0
 92
        0
 66
     7
 43
1.0
 76
     1
 77
     6
 78
     2
 67
     7
 79
     5
170
     0
171
     0
290
     0
174
     0
 93
       13
 44
0.0
173
     0
291
     1
 45
0.0
1001
ACAD
1000
AcDbSavedByObjectVersion
1070
     0
  0
VISUALSTYLE
  5
2E
102
{ACAD_REACTORS
330
2A
102
}
102
{ACAD_XDICTIONARY
360
27A
102
}
330
2A
100
AcDbVisualStyle
  2
GouraudWithEdges
 70
     3
 71
     2
 72
     2
 73
     1
 90
        2
 40
-0.6
 41
30.0
 62
     5
 63
     7
 74
     1
 91
        4
 64
     7
 65
   257
 75
     1
175
     1
 42
1.0
 92
        0
 66
   257
 43
1.0
 76
     1
 77
     6
 78
     2
 67
     7
 79
     5
170
     0
171
     0
290
     0
174
     0
 93
       13
 44
0.0
173
     0
291
     1
 45
0.0
1001
ACAD
1000
AcDbSavedByObjectVersion
1070
     0
  0
VISUALSTYLE
  5
38
102
{ACAD_REACTORS
330
2A
102
}
102
{ACAD_XDICTIONARY
360
28E
102
}
330
2A
100
AcDbVisualStyle
  2
Linepattern
 70
    14
 71
     2
 72
     2
 73
     0
 90
        0
 40
-0.6
 41
-30.0
 62
     5
 63
     7
 74
     1
 91
        4
 64
     7
 65
   257
 75
     7
175
     7
 42
1.0
 92
        8
 66
     7
 43
1.0
 76
     1
 77
     6
 78
     2
 67
     7
 79
     5
170
     0
171
     0
290
     0
174
     0
 93
        1
 44
0.0
173
     0
291
     1
 45
0.0
1001
ACAD
1000
AcDbSavedByObjectVersion
1070
     0
  0
VISUALSTYLE
  5
33
102
{ACAD_REACTORS
330
2A
102
}
102
{ACAD_XDICTIONARY
360
284
102
}
330
2A
100
AcDbVisualStyle
  2
Realistic
 70
     8
 71
     2
 72
     2
 73
     0
 90
        0
 40
-0.6
 41
-30.0
 62
     5
 63
     7
 74
     1
 91
        0
 64
     7
 65
   257
 75
     1
175
     1
 42
1.0
 92
        8
 66
     8
 43
1.0
 76
     1
 77
     6
 78
     2
 67
     7
 79
     5
170
     0
171
     0
290
     0
174
     0
 93
       13
 44
0.0
173
     0
291
     0
 45
0.0
1001
ACAD
1000
AcDbSavedByObjectVersion
1070
     0
  0
VISUALSTYLE
  5
37
102
{ACAD_REACTORS
330
2A
102
}
102
{ACAD_XDICTIONARY
360
28C
102
}
330
2A
100
AcDbVisualStyle
  2
Thicken
 70
    13
 71
     2
 72
     2
 73
     0
 90
        0
 40
-0.6
 41
-30.0
 62
     5
 63
     7
 74
     1
 91
        4
 64
     7
 65
   257
 75
     1
175
     1
 42
1.0
 92
       12
 66
     7
 43
1.0
 76
     1
 77
     6
 78
     2
 67
     7
 79
     5
170
     0
171
     0
290
     0
174
     0
 93
        1
 44
0.0
173
     0
291
     1
 45
0.0
1001
ACAD
1000
AcDbSavedByObjectVersion
1070
     0
  0
DICTIONARYVAR
  5
272
102
{ACAD_REACTORS
330
26F
102
}
330
26F
100
DictionaryVariables
280
     0
  1
2
  0
DICTIONARYVAR
  5
273
102
{ACAD_REACTORS
330
26F
102
}
330
26F
100
DictionaryVariables
280
     0
  1
1
  0
DICTIONARY
  5
296
330
3D
100
AcDbDictionary
280
     1
281
     1
  3
ACAD_XREC_ROUNDTRIP
360
297
  0
DICTIONARY
  5
294
330
3C
100
AcDbDictionary
280
     1
281
     1
  3
ACAD_XREC_ROUNDTRIP
360
295
  0
DICTIONARY
  5
298
330
3E
100
AcDbDictionary
280
     1
281
     1
  3
ACAD_XREC_ROUNDTRIP
360
299
  0
DICTIONARY
  5
27C
330
2F
100
AcDbDictionary
280
     1
281
     1
  3
ACAD_XREC_ROUNDTRIP
360
27D
  0
DICTIONARY
  5
280
330
31
100
AcDbDictionary
280
     1
281
     1
  3
ACAD_XREC_ROUNDTRIP
360
281
  0
DICTIONARY
  5
27E
330
30
100
AcDbDictionary
280
     1
281
     1
  3
ACAD_XREC_ROUNDTRIP
360
27F
  0
DICTIONARY
  5
282
330
32
100
AcDbDictionary
280
     1
281
     1
  3
ACAD_XREC_ROUNDTRIP
360
283
  0
DICTIONARY
  5
28A
330
36
100
AcDbDictionary
280
     1
281
     1
  3
ACAD_XREC_ROUNDTRIP
360
28B
  0
DICTIONARY
  5
292
330
3A
100
AcDbDictionary
280
     1
281
     1
  3
ACAD_XREC_ROUNDTRIP
360
293
  0
DICTIONARY
  5
286
330
34
100
AcDbDictionary
280
     1
281
     1
  3
ACAD_XREC_ROUNDTRIP
360
287
  0
DICTIONARY
  5
288
330
35
100
AcDbDictionary
280
     1
281
     1
  3
ACAD_XREC_ROUNDTRIP
360
289
  0
DICTIONARY
  5
290
330
39
100
AcDbDictionary
280
     1
281
     1
  3
ACAD_XREC_ROUNDTRIP
360
291
  0
DICTIONARY
  5
274
330
2B
100
AcDbDictionary
280
     1
281
     1
  3
ACAD_XREC_ROUNDTRIP
360
275
  0
DICTIONARY
  5
276
330
2C
100
AcDbDictionary
280
     1
281
     1
  3
ACAD_XREC_ROUNDTRIP
360
277
  0
DICTIONARY
  5
278
330
2D
100
AcDbDictionary
280
     1
281
     1
  3
ACAD_XREC_ROUNDTRIP
360
279
  0
DICTIONARY
  5
27A
330
2E
100
AcDbDictionary
280
     1
281
     1
  3
ACAD_XREC_ROUNDTRIP
360
27B
  0
DICTIONARY
  5
28E
330
38
100
AcDbDictionary
280
     1
281
     1
  3
ACAD_XREC_ROUNDTRIP
360
28F
  0
DICTIONARY
  5
284
330
33
100
AcDbDictionary
280
     1
281
     1
  3
ACAD_XREC_ROUNDTRIP
360
285
  0
DICTIONARY
  5
28C
330
37
100
AcDbDictionary
280
     1
281
     1
  3
ACAD_XREC_ROUNDTRIP
360
28D
  0
XRECORD
  5
297
102
{ACAD_REACTORS
330
296
102
}
330
296
100
AcDbXrecord
280
     1
102
MATERIAL
148
0.0
149
0.0
149
0.0
 93
        0
 94
      127
282
     0
 72
     1
 77
     1
171
     1
175
     1
179
     1
273
     0
  0
XRECORD
  5
295
102
{ACAD_REACTORS
330
294
102
}
330
294
100
AcDbXrecord
280
     1
102
MATERIAL
148
0.0
149
0.0
149
0.0
 93
        0
 94
      127
282
     0
 72
     1
 77
     1
171
     1
175
     1
179
     1
273
     0
  0
XRECORD
  5
299
102
{ACAD_REACTORS
330
298
102
}
330
298
100
AcDbXrecord
280
     1
102
MATERIAL
148
0.0
149
0.0
149
0.0
 93
        0
 94
      127
282
     0
 72
     1
 77
     1
171
     1
175
     1
179
     1
273
     0
  0
XRECORD
  5
27D
102
{ACAD_REACTORS
330
27C
102
}
330
27C
100
AcDbXrecord
280
     1
102
RTVSPropertyOp0
 70
     1
102
RTVSPropertyOp1
 70
     1
102
RTVSPropertyOp2
 70
     1
102
RTVSPropertyOp3
 70
     1
102
RTVSPropertyOp4
 70
     1
102
RTVSPropertyOp5
 70
     1
102
RTVSPropertyOp6
 70
     1
102
RTVSPropertyOp7
 70
     1
102
RTVSPropertyOp8
 70
     1
102
RTVSPropertyOp9
 70
     1
102
RTVSPropertyOp10
 70
     1
102
RTVSPropertyOp11
 70
     1
102
RTVSPropertyOp12
 70
     1
102
RTVSPropertyOp13
 70
     1
102
RTVSPropertyOp14
 70
     1
102
RTVSPropertyOp15
 70
     1
102
RTVSPropertyOp16
 70
     1
102
RTVSPropertyOp17
 70
     1
102
RTVSPropertyOp18
 70
     1
102
RTVSPropertyOp19
 70
     1
102
RTVSPropertyOp20
 70
     1
102
RTVSPropertyOp21
 70
     1
102
RTVSPropertyOp22
 70
     1
102
RTVSPropertyOp23
 70
     1
102
RTVSPropertyOp24
 70
     1
102
RTVSPropertyOp25
 70
     1
102
RTVSPropertyOp26
 70
     1
102
RTVSPropertyOp27
 70
     1
102
RTVSPropertyOp28
 70
     1
102
RTVSPropertyOp29
 70
     1
102
RTVSPropertyOp30
 70
     1
102
RTVSPropertyOp31
 70
     1
102
RTVSPropertyOp32
 70
     1
  0
XRECORD
  5
281
102
{ACAD_REACTORS
330
280
102
}
330
280
100
AcDbXrecord
280
     1
102
RTVSPropertyOp0
 70
     1
102
RTVSPropertyOp1
 70
     1
102
RTVSPropertyOp2
 70
     1
102
RTVSPropertyOp3
 70
     1
102
RTVSPropertyOp4
 70
     1
102
RTVSPropertyOp5
 70
     1
102
RTVSPropertyOp6
 70
     1
102
RTVSPropertyOp7
 70
     1
102
RTVSPropertyOp8
 70
     1
102
RTVSPropertyOp9
 70
     1
102
RTVSPropertyOp10
 70
     1
102
RTVSPropertyOp11
 70
     1
102
RTVSPropertyOp12
 70
     1
102
RTVSPropertyOp13
 70
     1
102
RTVSPropertyOp14
 70
     1
102
RTVSPropertyOp15
 70
     1
102
RTVSPropertyOp16
 70
     1
102
RTVSPropertyOp17
 70
     1
102
RTVSPropertyOp18
 70
     1
102
RTVSPropertyOp19
 70
     1
102
RTVSPropertyOp20
 70
     1
102
RTVSPropertyOp21
 70
     1
102
RTVSPropertyOp22
 70
     1
102
RTVSPropertyOp23
 70
     1
102
RTVSPropertyOp24
 70
     1
102
RTVSPropertyOp25
 70
     1
102
RTVSPropertyOp26
 70
     1
102
RTVSPropertyOp27
 70
     1
102
RTVSPropertyOp28
 70
     1
102
RTVSPropertyOp29
 70
     1
102
RTVSPropertyOp30
 70
     1
102
RTVSPropertyOp31
 70
     1
102
RTVSPropertyOp32
 70
     1
  0
XRECORD
  5
27F
102
{ACAD_REACTORS
330
27E
102
}
330
27E
100
AcDbXrecord
280
     1
102
RTVSPropertyOp0
 70
     1
102
RTVSPropertyOp1
 70
     1
102
RTVSPropertyOp2
 70
     1
102
RTVSPropertyOp3
 70
     1
102
RTVSPropertyOp4
 70
     1
102
RTVSPropertyOp5
 70
     1
102
RTVSPropertyOp6
 70
     1
102
RTVSPropertyOp7
 70
     1
102
RTVSPropertyOp8
 70
     1
102
RTVSPropertyOp9
 70
     1
102
RTVSPropertyOp10
 70
     1
102
RTVSPropertyOp11
 70
     1
102
RTVSPropertyOp12
 70
     1
102
RTVSPropertyOp13
 70
     1
102
RTVSPropertyOp14
 70
     1
102
RTVSPropertyOp15
 70
     1
102
RTVSPropertyOp16
 70
     1
102
RTVSPropertyOp17
 70
     1
102
RTVSPropertyOp18
 70
     1
102
RTVSPropertyOp19
 70
     1
102
RTVSPropertyOp20
 70
     1
102
RTVSPropertyOp21
 70
     1
102
RTVSPropertyOp22
 70
     1
102
RTVSPropertyOp23
 70
     1
102
RTVSPropertyOp24
 70
     1
102
RTVSPropertyOp25
 70
     1
102
RTVSPropertyOp26
 70
     1
102
RTVSPropertyOp27
 70
     1
102
RTVSPropertyOp28
 70
     1
102
RTVSPropertyOp29
 70
     1
102
RTVSPropertyOp30
 70
     1
102
RTVSPropertyOp31
 70
     1
102
RTVSPropertyOp32
 70
     1
  0
XRECORD
  5
283
102
{ACAD_REACTORS
330
282
102
}
330
282
100
AcDbXrecord
280
     1
102
RTVSPropertyOp0
 70
     1
102
RTVSPropertyOp1
 70
     1
102
RTVSPropertyOp2
 70
     1
102
RTVSPropertyOp3
 70
     1
102
RTVSPropertyOp4
 70
     1
102
RTVSPropertyOp5
 70
     1
102
RTVSPropertyOp6
 70
     1
102
RTVSPropertyOp7
 70
     1
102
RTVSPropertyOp8
 70
     1
102
RTVSPropertyOp9
 70
     1
102
RTVSPropertyOp10
 70
     1
102
RTVSPropertyOp11
 70
     1
102
RTVSPropertyOp12
 70
     1
102
RTVSPropertyOp13
 70
     1
102
RTVSPropertyOp14
 70
     1
102
RTVSPropertyOp15
 70
     1
102
RTVSPropertyOp16
 70
     1
102
RTVSPropertyOp17
 70
     1
102
RTVSPropertyOp18
 70
     1
102
RTVSPropertyOp19
 70
     1
102
RTVSPropertyOp20
 70
     1
102
RTVSPropertyOp21
 70
     1
102
RTVSPropertyOp22
 70
     1
102
RTVSPropertyOp23
 70
     1
102
RTVSPropertyOp24
 70
     1
102
RTVSPropertyOp25
 70
     1
102
RTVSPropertyOp26
 70
     1
102
RTVSPropertyOp27
 70
     1
102
RTVSPropertyOp28
 70
     1
102
RTVSPropertyOp29
 70
     1
102
RTVSPropertyOp30
 70
     1
102
RTVSPropertyOp31
 70
     1
102
RTVSPropertyOp32
 70
     1
  0
XRECORD
  5
28B
102
{ACAD_REACTORS
330
28A
102
}
330
28A
100
AcDbXrecord
280
     1
102
RTVSPropertyOp0
 70
     1
102
RTVSPropertyOp1
 70
     1
102
RTVSPropertyOp2
 70
     1
102
RTVSPropertyOp3
 70
     1
102
RTVSPropertyOp4
 70
     1
102
RTVSPropertyOp5
 70
     1
102
RTVSPropertyOp6
 70
     1
102
RTVSPropertyOp7
 70
     1
102
RTVSPropertyOp8
 70
     1
102
RTVSPropertyOp9
 70
     1
102
RTVSPropertyOp10
 70
     1
102
RTVSPropertyOp11
 70
     1
102
RTVSPropertyOp12
 70
     1
102
RTVSPropertyOp13
 70
     1
102
RTVSPropertyOp14
 70
     1
102
RTVSPropertyOp15
 70
     1
102
RTVSPropertyOp16
 70
     1
102
RTVSPropertyOp17
 70
     1
102
RTVSPropertyOp18
 70
     1
102
RTVSPropertyOp19
 70
     1
102
RTVSPropertyOp20
 70
     1
102
RTVSPropertyOp21
 70
     1
102
RTVSPropertyOp22
 70
     1
102
RTVSPropertyOp23
 70
     1
102
RTVSPropertyOp24
 70
     1
102
RTVSPropertyOp25
 70
     1
102
RTVSPropertyOp26
 70
     1
102
RTVSPropertyOp27
 70
     1
102
RTVSPropertyOp28
 70
     1
102
RTVSPropertyOp29
 70
     1
102
RTVSPropertyOp30
 70
     1
102
RTVSPropertyOp31
 70
     1
102
RTVSPropertyOp32
 70
     1
  0
XRECORD
  5
293
102
{ACAD_REACTORS
330
292
102
}
330
292
100
AcDbXrecord
280
     1
102
RTVSPropertyOp0
 70
     1
102
RTVSPropertyOp1
 70
     1
102
RTVSPropertyOp2
 70
     1
102
RTVSPropertyOp3
 70
     1
102
RTVSPropertyOp4
 70
     1
102
RTVSPropertyOp5
 70
     1
102
RTVSPropertyOp6
 70
     1
102
RTVSPropertyOp7
 70
     1
102
RTVSPropertyOp8
 70
     1
102
RTVSPropertyOp9
 70
     1
102
RTVSPropertyOp10
 70
     1
102
RTVSPropertyOp11
 70
     1
102
RTVSPropertyOp12
 70
     1
102
RTVSPropertyOp13
 70
     1
102
RTVSPropertyOp14
 70
     1
102
RTVSPropertyOp15
 70
     1
102
RTVSPropertyOp16
 70
     1
102
RTVSPropertyOp17
 70
     1
102
RTVSPropertyOp18
 70
     1
102
RTVSPropertyOp19
 70
     1
102
RTVSPropertyOp20
 70
     1
102
RTVSPropertyOp21
 70
     1
102
RTVSPropertyOp22
 70
     1
102
RTVSPropertyOp23
 70
     1
102
RTVSPropertyOp24
 70
     1
102
RTVSPropertyOp25
 70
     1
102
RTVSPropertyOp26
 70
     1
102
RTVSPropertyOp27
 70
     1
102
RTVSPropertyOp28
 70
     1
102
RTVSPropertyOp29
 70
     1
102
RTVSPropertyOp30
 70
     1
102
RTVSPropertyOp31
 70
     1
102
RTVSPropertyOp32
 70
     1
  0
XRECORD
  5
287
102
{ACAD_REACTORS
330
286
102
}
330
286
100
AcDbXrecord
280
     1
102
RTVSPropertyOp0
 70
     1
102
RTVSPropertyOp1
 70
     1
102
RTVSPropertyOp2
 70
     1
102
RTVSPropertyOp3
 70
     1
102
RTVSPropertyOp4
 70
     1
102
RTVSPropertyOp5
 70
     1
102
RTVSPropertyOp6
 70
     1
102
RTVSPropertyOp7
 70
     1
102
RTVSPropertyOp8
 70
     1
102
RTVSPropertyOp9
 70
     1
102
RTVSPropertyOp10
 70
     1
102
RTVSPropertyOp11
 70
     1
102
RTVSPropertyOp12
 70
     1
102
RTVSPropertyOp13
 70
     1
102
RTVSPropertyOp14
 70
     1
102
RTVSPropertyOp15
 70
     1
102
RTVSPropertyOp16
 70
     1
102
RTVSPropertyOp17
 70
     1
102
RTVSPropertyOp18
 70
     1
102
RTVSPropertyOp19
 70
     1
102
RTVSPropertyOp20
 70
     1
102
RTVSPropertyOp21
 70
     1
102
RTVSPropertyOp22
 70
     1
102
RTVSPropertyOp23
 70
     1
102
RTVSPropertyOp24
 70
     1
102
RTVSPropertyOp25
 70
     1
102
RTVSPropertyOp26
 70
     1
102
RTVSPropertyOp27
 70
     1
102
RTVSPropertyOp28
 70
     1
102
RTVSPropertyOp29
 70
     1
102
RTVSPropertyOp30
 70
     1
102
RTVSPropertyOp31
 70
     1
102
RTVSPropertyOp32
 70
     1
  0
XRECORD
  5
289
102
{ACAD_REACTORS
330
288
102
}
330
288
100
AcDbXrecord
280
     1
102
RTVSPropertyOp0
 70
     1
102
RTVSPropertyOp1
 70
     1
102
RTVSPropertyOp2
 70
     1
102
RTVSPropertyOp3
 70
     1
102
RTVSPropertyOp4
 70
     1
102
RTVSPropertyOp5
 70
     1
102
RTVSPropertyOp6
 70
     1
102
RTVSPropertyOp7
 70
     1
102
RTVSPropertyOp8
 70
     1
102
RTVSPropertyOp9
 70
     1
102
RTVSPropertyOp10
 70
     1
102
RTVSPropertyOp11
 70
     1
102
RTVSPropertyOp12
 70
     1
102
RTVSPropertyOp13
 70
     1
102
RTVSPropertyOp14
 70
     1
102
RTVSPropertyOp15
 70
     1
102
RTVSPropertyOp16
 70
     1
102
RTVSPropertyOp17
 70
     1
102
RTVSPropertyOp18
 70
     1
102
RTVSPropertyOp19
 70
     1
102
RTVSPropertyOp20
 70
     1
102
RTVSPropertyOp21
 70
     1
102
RTVSPropertyOp22
 70
     1
102
RTVSPropertyOp23
 70
     1
102
RTVSPropertyOp24
 70
     1
102
RTVSPropertyOp25
 70
     1
102
RTVSPropertyOp26
 70
     1
102
RTVSPropertyOp27
 70
     1
102
RTVSPropertyOp28
 70
     1
102
RTVSPropertyOp29
 70
     1
102
RTVSPropertyOp30
 70
     1
102
RTVSPropertyOp31
 70
     1
102
RTVSPropertyOp32
 70
     1
  0
XRECORD
  5
291
102
{ACAD_REACTORS
330
290
102
}
330
290
100
AcDbXrecord
280
     1
102
RTVSPropertyOp0
 70
     1
102
RTVSPropertyOp1
 70
     1
102
RTVSPropertyOp2
 70
     1
102
RTVSPropertyOp3
 70
     1
102
RTVSPropertyOp4
 70
     1
102
RTVSPropertyOp5
 70
     1
102
RTVSPropertyOp6
 70
     1
102
RTVSPropertyOp7
 70
     1
102
RTVSPropertyOp8
 70
     1
102
RTVSPropertyOp9
 70
     1
102
RTVSPropertyOp10
 70
     1
102
RTVSPropertyOp11
 70
     1
102
RTVSPropertyOp12
 70
     1
102
RTVSPropertyOp13
 70
     1
102
RTVSPropertyOp14
 70
     1
102
RTVSPropertyOp15
 70
     1
102
RTVSPropertyOp16
 70
     1
102
RTVSPropertyOp17
 70
     1
102
RTVSPropertyOp18
 70
     1
102
RTVSPropertyOp19
 70
     1
102
RTVSPropertyOp20
 70
     1
102
RTVSPropertyOp21
 70
     1
102
RTVSPropertyOp22
 70
     1
102
RTVSPropertyOp23
 70
     1
102
RTVSPropertyOp24
 70
     1
102
RTVSPropertyOp25
 70
     1
102
RTVSPropertyOp26
 70
     1
102
RTVSPropertyOp27
 70
     1
102
RTVSPropertyOp28
 70
     1
102
RTVSPropertyOp29
 70
     1
102
RTVSPropertyOp30
 70
     1
102
RTVSPropertyOp31
 70
     1
102
RTVSPropertyOp32
 70
     1
  0
XRECORD
  5
275
102
{ACAD_REACTORS
330
274
102
}
330
274
100
AcDbXrecord
280
     1
102
RTVSPropertyOp0
 70
     1
102
RTVSPropertyOp1
 70
     1
102
RTVSPropertyOp2
 70
     1
102
RTVSPropertyOp3
 70
     1
102
RTVSPropertyOp4
 70
     1
102
RTVSPropertyOp5
 70
     1
102
RTVSPropertyOp6
 70
     1
102
RTVSPropertyOp7
 70
     1
102
RTVSPropertyOp8
 70
     1
102
RTVSPropertyOp9
 70
     1
102
RTVSPropertyOp10
 70
     1
102
RTVSPropertyOp11
 70
     1
102
RTVSPropertyOp12
 70
     1
102
RTVSPropertyOp13
 70
     1
102
RTVSPropertyOp14
 70
     1
102
RTVSPropertyOp15
 70
     1
102
RTVSPropertyOp16
 70
     1
102
RTVSPropertyOp17
 70
     1
102
RTVSPropertyOp18
 70
     1
102
RTVSPropertyOp19
 70
     1
102
RTVSPropertyOp20
 70
     1
102
RTVSPropertyOp21
 70
     1
102
RTVSPropertyOp22
 70
     1
102
RTVSPropertyOp23
 70
     1
102
RTVSPropertyOp24
 70
     1
102
RTVSPropertyOp25
 70
     1
102
RTVSPropertyOp26
 70
     1
102
RTVSPropertyOp27
 70
     1
102
RTVSPropertyOp28
 70
     1
102
RTVSPropertyOp29
 70
     1
102
RTVSPropertyOp30
 70
     1
102
RTVSPropertyOp31
 70
     1
102
RTVSPropertyOp32
 70
     1
  0
XRECORD
  5
277
102
{ACAD_REACTORS
330
276
102
}
330
276
100
AcDbXrecord
280
     1
102
RTVSPropertyOp0
 70
     1
102
RTVSPropertyOp1
 70
     1
102
RTVSPropertyOp2
 70
     1
102
RTVSPropertyOp3
 70
     1
102
RTVSPropertyOp4
 70
     1
102
RTVSPropertyOp5
 70
     1
102
RTVSPropertyOp6
 70
     1
102
RTVSPropertyOp7
 70
     1
102
RTVSPropertyOp8
 70
     1
102
RTVSPropertyOp9
 70
     1
102
RTVSPropertyOp10
 70
     1
102
RTVSPropertyOp11
 70
     1
102
RTVSPropertyOp12
 70
     1
102
RTVSPropertyOp13
 70
     1
102
RTVSPropertyOp14
 70
     1
102
RTVSPropertyOp15
 70
     1
102
RTVSPropertyOp16
 70
     1
102
RTVSPropertyOp17
 70
     1
102
RTVSPropertyOp18
 70
     1
102
RTVSPropertyOp19
 70
     1
102
RTVSPropertyOp20
 70
     1
102
RTVSPropertyOp21
 70
     1
102
RTVSPropertyOp22
 70
     1
102
RTVSPropertyOp23
 70
     1
102
RTVSPropertyOp24
 70
     1
102
RTVSPropertyOp25
 70
     1
102
RTVSPropertyOp26
 70
     1
102
RTVSPropertyOp27
 70
     1
102
RTVSPropertyOp28
 70
     1
102
RTVSPropertyOp29
 70
     1
102
RTVSPropertyOp30
 70
     1
102
RTVSPropertyOp31
 70
     1
102
RTVSPropertyOp32
 70
     1
  0
XRECORD
  5
279
102
{ACAD_REACTORS
330
278
102
}
330
278
100
AcDbXrecord
280
     1
102
RTVSPropertyOp0
 70
     1
102
RTVSPropertyOp1
 70
     1
102
RTVSPropertyOp2
 70
     1
102
RTVSPropertyOp3
 70
     1
102
RTVSPropertyOp4
 70
     1
102
RTVSPropertyOp5
 70
     1
102
RTVSPropertyOp6
 70
     1
102
RTVSPropertyOp7
 70
     1
102
RTVSPropertyOp8
 70
     1
102
RTVSPropertyOp9
 70
     1
102
RTVSPropertyOp10
 70
     1
102
RTVSPropertyOp11
 70
     1
102
RTVSPropertyOp12
 70
     1
102
RTVSPropertyOp13
 70
     1
102
RTVSPropertyOp14
 70
     1
102
RTVSPropertyOp15
 70
     1
102
RTVSPropertyOp16
 70
     1
102
RTVSPropertyOp17
 70
     1
102
RTVSPropertyOp18
 70
     1
102
RTVSPropertyOp19
 70
     1
102
RTVSPropertyOp20
 70
     1
102
RTVSPropertyOp21
 70
     1
102
RTVSPropertyOp22
 70
     1
102
RTVSPropertyOp23
 70
     1
102
RTVSPropertyOp24
 70
     1
102
RTVSPropertyOp25
 70
     1
102
RTVSPropertyOp26
 70
     1
102
RTVSPropertyOp27
 70
     1
102
RTVSPropertyOp28
 70
     1
102
RTVSPropertyOp29
 70
     1
102
RTVSPropertyOp30
 70
     1
102
RTVSPropertyOp31
 70
     1
102
RTVSPropertyOp32
 70
     1
  0
XRECORD
  5
27B
102
{ACAD_REACTORS
330
27A
102
}
330
27A
100
AcDbXrecord
280
     1
102
RTVSPropertyOp0
 70
     1
102
RTVSPropertyOp1
 70
     1
102
RTVSPropertyOp2
 70
     1
102
RTVSPropertyOp3
 70
     1
102
RTVSPropertyOp4
 70
     1
102
RTVSPropertyOp5
 70
     1
102
RTVSPropertyOp6
 70
     1
102
RTVSPropertyOp7
 70
     1
102
RTVSPropertyOp8
 70
     1
102
RTVSPropertyOp9
 70
     1
102
RTVSPropertyOp10
 70
     1
102
RTVSPropertyOp11
 70
     1
102
RTVSPropertyOp12
 70
     1
102
RTVSPropertyOp13
 70
     1
102
RTVSPropertyOp14
 70
     1
102
RTVSPropertyOp15
 70
     1
102
RTVSPropertyOp16
 70
     1
102
RTVSPropertyOp17
 70
     1
102
RTVSPropertyOp18
 70
     1
102
RTVSPropertyOp19
 70
     1
102
RTVSPropertyOp20
 70
     1
102
RTVSPropertyOp21
 70
     1
102
RTVSPropertyOp22
 70
     1
102
RTVSPropertyOp23
 70
     1
102
RTVSPropertyOp24
 70
     1
102
RTVSPropertyOp25
 70
     1
102
RTVSPropertyOp26
 70
     1
102
RTVSPropertyOp27
 70
     1
102
RTVSPropertyOp28
 70
     1
102
RTVSPropertyOp29
 70
     1
102
RTVSPropertyOp30
 70
     1
102
RTVSPropertyOp31
 70
     1
102
RTVSPropertyOp32
 70
     1
  0
XRECORD
  5
28F
102
{ACAD_REACTORS
330
28E
102
}
330
28E
100
AcDbXrecord
280
     1
102
RTVSPropertyOp0
 70
     1
102
RTVSPropertyOp1
 70
     1
102
RTVSPropertyOp2
 70
     1
102
RTVSPropertyOp3
 70
     1
102
RTVSPropertyOp4
 70
     1
102
RTVSPropertyOp5
 70
     1
102
RTVSPropertyOp6
 70
     1
102
RTVSPropertyOp7
 70
     1
102
RTVSPropertyOp8
 70
     1
102
RTVSPropertyOp9
 70
     1
102
RTVSPropertyOp10
 70
     1
102
RTVSPropertyOp11
 70
     1
102
RTVSPropertyOp12
 70
     1
102
RTVSPropertyOp13
 70
     1
102
RTVSPropertyOp14
 70
     1
102
RTVSPropertyOp15
 70
     1
102
RTVSPropertyOp16
 70
     1
102
RTVSPropertyOp17
 70
     1
102
RTVSPropertyOp18
 70
     1
102
RTVSPropertyOp19
 70
     1
102
RTVSPropertyOp20
 70
     1
102
RTVSPropertyOp21
 70
     1
102
RTVSPropertyOp22
 70
     1
102
RTVSPropertyOp23
 70
     1
102
RTVSPropertyOp24
 70
     1
102
RTVSPropertyOp25
 70
     1
102
RTVSPropertyOp26
 70
     1
102
RTVSPropertyOp27
 70
     1
102
RTVSPropertyOp28
 70
     1
102
RTVSPropertyOp29
 70
     1
102
RTVSPropertyOp30
 70
     1
102
RTVSPropertyOp31
 70
     1
102
RTVSPropertyOp32
 70
     1
  0
XRECORD
  5
285
102
{ACAD_REACTORS
330
284
102
}
330
284
100
AcDbXrecord
280
     1
102
RTVSPropertyOp0
 70
     1
102
RTVSPropertyOp1
 70
     1
102
RTVSPropertyOp2
 70
     1
102
RTVSPropertyOp3
 70
     1
102
RTVSPropertyOp4
 70
     1
102
RTVSPropertyOp5
 70
     1
102
RTVSPropertyOp6
 70
     1
102
RTVSPropertyOp7
 70
     1
102
RTVSPropertyOp8
 70
     1
102
RTVSPropertyOp9
 70
     1
102
RTVSPropertyOp10
 70
     1
102
RTVSPropertyOp11
 70
     1
102
RTVSPropertyOp12
 70
     1
102
RTVSPropertyOp13
 70
     1
102
RTVSPropertyOp14
 70
     1
102
RTVSPropertyOp15
 70
     1
102
RTVSPropertyOp16
 70
     1
102
RTVSPropertyOp17
 70
     1
102
RTVSPropertyOp18
 70
     1
102
RTVSPropertyOp19
 70
     1
102
RTVSPropertyOp20
 70
     1
102
RTVSPropertyOp21
 70
     1
102
RTVSPropertyOp22
 70
     1
102
RTVSPropertyOp23
 70
     1
102
RTVSPropertyOp24
 70
     1
102
RTVSPropertyOp25
 70
     1
102
RTVSPropertyOp26
 70
     1
102
RTVSPropertyOp27
 70
     1
102
RTVSPropertyOp28
 70
     1
102
RTVSPropertyOp29
 70
     1
102
RTVSPropertyOp30
 70
     1
102
RTVSPropertyOp31
 70
     1
102
RTVSPropertyOp32
 70
     1
  0
XRECORD
  5
28D
102
{ACAD_REACTORS
330
28C
102
}
330
28C
100
AcDbXrecord
280
     1
102
RTVSPropertyOp0
 70
     1
102
RTVSPropertyOp1
 70
     1
102
RTVSPropertyOp2
 70
     1
102
RTVSPropertyOp3
 70
     1
102
RTVSPropertyOp4
 70
     1
102
RTVSPropertyOp5
 70
     1
102
RTVSPropertyOp6
 70
     1
102
RTVSPropertyOp7
 70
     1
102
RTVSPropertyOp8
 70
     1
102
RTVSPropertyOp9
 70
     1
102
RTVSPropertyOp10
 70
     1
102
RTVSPropertyOp11
 70
     1
102
RTVSPropertyOp12
 70
     1
102
RTVSPropertyOp13
 70
     1
102
RTVSPropertyOp14
 70
     1
102
RTVSPropertyOp15
 70
     1
102
RTVSPropertyOp16
 70
     1
102
RTVSPropertyOp17
 70
     1
102
RTVSPropertyOp18
 70
     1
102
RTVSPropertyOp19
 70
     1
102
RTVSPropertyOp20
 70
     1
102
RTVSPropertyOp21
 70
     1
102
RTVSPropertyOp22
 70
     1
102
RTVSPropertyOp23
 70
     1
102
RTVSPropertyOp24
 70
     1
102
RTVSPropertyOp25
 70
     1
102
RTVSPropertyOp26
 70
     1
102
RTVSPropertyOp27
 70
     1
102
RTVSPropertyOp28
 70
     1
102
RTVSPropertyOp29
 70
     1
102
RTVSPropertyOp30
 70
     1
102
RTVSPropertyOp31
 70
     1
102
RTVSPropertyOp32
 70
     1
  0
ENDSEC
  0
EOF
