  0
SECTION
  2
HEADER
  9
$ACADVER
  1
AC1015
  9
$ACADMAINTVER
 70
     6
  9
$DWGCODEPAGE
  3
DOS932
  9
$INSBASE
 10
0.0
 20
0.0
 30
0.0
  9
$EXTMIN
 10
0.0
 20
0.0
 30
0.0
  9
$EXTMAX
 10
525.0
 20
742.5
 30
0.0
  9
$LIMMIN
 10
0.0
 20
0.0
  9
$LIMMAX
 10
12.0
 20
9.0
  9
$ORTHOMODE
 70
     0
  9
$REGENMODE
 70
     1
  9
$FILLMODE
 70
     1
  9
$QTEXTMODE
 70
     0
  9
$MIRRTEXT
 70
     1
  9
$LTSCALE
 40
1.0
  9
$ATTMODE
 70
     1
  9
$TEXTSIZE
 40
0.2
  9
$TRACEWID
 40
0.05
  9
$TEXTSTYLE
  7
Standard
  9
$CLAYER
  8
0
  9
$CELTYPE
  6
ByLayer
  9
$CECOLOR
 62
   256
  9
$CELTSCALE
 40
1.0
  9
$DISPSILH
 70
     0
  9
$DIMSCALE
 40
1.0
  9
$DIMASZ
 40
0.18
  9
$DIMEXO
 40
0.0625
  9
$DIMDLI
 40
0.38
  9
$DIMRND
 40
0.0
  9
$DIMDLE
 40
0.0
  9
$DIMEXE
 40
0.18
  9
$DIMTP
 40
0.0
  9
$DIMTM
 40
0.0
  9
$DIMTXT
 40
0.18
  9
$DIMCEN
 40
0.09
  9
$DIMTSZ
 40
0.0
  9
$DIMTOL
 70
     0
  9
$DIMLIM
 70
     0
  9
$DIMTIH
 70
     1
  9
$DIMTOH
 70
     1
  9
$DIMSE1
 70
     0
  9
$DIMSE2
 70
     0
  9
$DIMTAD
 70
     0
  9
$DIMZIN
 70
     0
  9
$DIMBLK
  1

  9
$DIMASO
 70
     1
  9
$DIMSHO
 70
     1
  9
$DIMPOST
  1

  9
$DIMAPOST
  1

  9
$DIMALT
 70
     0
  9
$DIMALTD
 70
     2
  9
$DIMALTF
 40
25.4
  9
$DIMLFAC
 40
1.0
  9
$DIMTOFL
 70
     0
  9
$DIMTVP
 40
0.0
  9
$DIMTIX
 70
     0
  9
$DIMSOXD
 70
     0
  9
$DIMSAH
 70
     0
  9
$DIMBLK1
  1

  9
$DIMBLK2
  1

  9
$DIMSTYLE
  2
Standard
  9
$DIMCLRD
 70
     0
  9
$DIMCLRE
 70
     0
  9
$DIMCLRT
 70
     0
  9
$DIMTFAC
 40
1.0
  9
$DIMGAP
 40
0.09
  9
$DIMJUST
 70
     0
  9
$DIMSD1
 70
     0
  9
$DIMSD2
 70
     0
  9
$DIMTOLJ
 70
     1
  9
$DIMTZIN
 70
     0
  9
$DIMALTZ
 70
     0
  9
$DIMALTTZ
 70
     0
  9
$DIMUPT
 70
     0
  9
$DIMDEC
 70
     4
  9
$DIMTDEC
 70
     4
  9
$DIMALTU
 70
     2
  9
$DIMALTTD
 70
     2
  9
$DIMTXSTY
  7
Standard
  9
$DIMAUNIT
 70
     0
  9
$DIMADEC
 70
     0
  9
$DIMALTRND
 40
0.0
  9
$DIMAZIN
 70
     0
  9
$DIMDSEP
 70
    46
  9
$DIMATFIT
 70
     3
  9
$DIMFRAC
 70
     0
  9
$DIMLDRBLK
  1

  9
$DIMLUNIT
 70
     2
  9
$DIMLWD
 70
    -2
  9
$DIMLWE
 70
    -2
  9
$DIMTMOVE
 70
     0
  9
$LUNITS
 70
     2
  9
$LUPREC
 70
     4
  9
$SKETCHINC
 40
0.1
  9
$FILLETRAD
 40
0.5
  9
$AUNITS
 70
     0
  9
$AUPREC
 70
     0
  9
$MENU
  1
.
  9
$ELEVATION
 40
0.0
  9
$PELEVATION
 40
0.0
  9
$THICKNESS
 40
0.0
  9
$LIMCHECK
 70
     0
  9
$CHAMFERA
 40
0.5
  9
$CHAMFERB
 40
0.5
  9
$CHAMFERC
 40
1.0
  9
$CHAMFERD
 40
0.0
  9
$SKPOLY
 70
     0
  9
$TDCREATE
 40
2456141.490000718
  9
$TDUCREATE
 40
2456141.115000718
  9
$TDUPDATE
 40
2456141.490000729
  9
$TDUUPDATE
 40
2456141.115000729
  9
$TDINDWG
 40
0.0000000116
  9
$TDUSRTIMER
 40
0.0000000116
  9
$USRTIMER
 70
     1
  9
$ANGBASE
 50
0.0
  9
$ANGDIR
 70
     0
  9
$PDMODE
 70
     0
  9
$PDSIZE
 40
0.0
  9
$PLINEWID
 40
0.0
  9
$SPLFRAME
 70
     0
  9
$SPLINETYPE
 70
     6
  9
$SPLINESEGS
 70
     8
  9
$HANDSEED
  5
36F
  9
$SURFTAB1
 70
     6
  9
$SURFTAB2
 70
     6
  9
$SURFTYPE
 70
     6
  9
$SURFU
 70
     6
  9
$SURFV
 70
     6
  9
$UCSBASE
  2

  9
$UCSNAME
  2

  9
$UCSORG
 10
0.0
 20
0.0
 30
0.0
  9
$UCSXDIR
 10
1.0
 20
0.0
 30
0.0
  9
$UCSYDIR
 10
0.0
 20
1.0
 30
0.0
  9
$UCSORTHOREF
  2

  9
$UCSORTHOVIEW
 70
     0
  9
$UCSORGTOP
 10
0.0
 20
0.0
 30
0.0
  9
$UCSORGBOTTOM
 10
0.0
 20
0.0
 30
0.0
  9
$UCSORGLEFT
 10
0.0
 20
0.0
 30
0.0
  9
$UCSORGRIGHT
 10
0.0
 20
0.0
 30
0.0
  9
$UCSORGFRONT
 10
0.0
 20
0.0
 30
0.0
  9
$UCSORGBACK
 10
0.0
 20
0.0
 30
0.0
  9
$PUCSBASE
  2

  9
$PUCSNAME
  2

  9
$PUCSORG
 10
0.0
 20
0.0
 30
0.0
  9
$PUCSXDIR
 10
1.0
 20
0.0
 30
0.0
  9
$PUCSYDIR
 10
0.0
 20
1.0
 30
0.0
  9
$PUCSORTHOREF
  2

  9
$PUCSORTHOVIEW
 70
     0
  9
$PUCSORGTOP
 10
0.0
 20
0.0
 30
0.0
  9
$PUCSORGBOTTOM
 10
0.0
 20
0.0
 30
0.0
  9
$PUCSORGLEFT
 10
0.0
 20
0.0
 30
0.0
  9
$PUCSORGRIGHT
 10
0.0
 20
0.0
 30
0.0
  9
$PUCSORGFRONT
 10
0.0
 20
0.0
 30
0.0
  9
$PUCSORGBACK
 10
0.0
 20
0.0
 30
0.0
  9
$USERI1
 70
     0
  9
$USERI2
 70
     0
  9
$USERI3
 70
     0
  9
$USERI4
 70
     0
  9
$USERI5
 70
     0
  9
$USERR1
 40
13.2
  9
$USERR2
 40
0.0
  9
$USERR3
 40
0.0
  9
$USERR4
 40
0.0
  9
$USERR5
 40
0.0
  9
$WORLDVIEW
 70
     1
  9
$SHADEDGE
 70
     3
  9
$SHADEDIF
 70
    70
  9
$TILEMODE
 70
     1
  9
$MAXACTVP
 70
    64
  9
$PINSBASE
 10
0.0
 20
0.0
 30
0.0
  9
$PLIMCHECK
 70
     0
  9
$PEXTMIN
 10
1.00000000000000E+20
 20
1.00000000000000E+20
 30
1.00000000000000E+20
  9
$PEXTMAX
 10
-1.00000000000000E+20
 20
-1.00000000000000E+20
 30
-1.00000000000000E+20
  9
$PLIMMIN
 10
0.0
 20
0.0
  9
$PLIMMAX
 10
12.0
 20
9.0
  9
$UNITMODE
 70
     0
  9
$VISRETAIN
 70
     1
  9
$PLINEGEN
 70
     0
  9
$PSLTSCALE
 70
     1
  9
$TREEDEPTH
 70
  3020
  9
$CMLSTYLE
  2
Standard
  9
$CMLJUST
 70
     0
  9
$CMLSCALE
 40
1.0
  9
$PROXYGRAPHICS
 70
     1
  9
$MEASUREMENT
 70
     1
  9
$CELWEIGHT
370
    -1
  9
$ENDCAPS
280
     0
  9
$JOINSTYLE
280
     0
  9
$LWDISPLAY
290
     0
  9
$INSUNITS
 70
     1
  9
$HYPERLINKBASE
  1

  9
$STYLESHEET
  1

  9
$XEDIT
290
     1
  9
$CEPSNTYPE
380
     0
  9
$PSTYLEMODE
290
     0
  9
$FINGERPRINTGUID
  2
{FAEB1C30-E019-11D5-929B-00C0DF256EC4}
  9
$VERSIONGUID
  2
{FAEB1C32-E019-11D5-929B-00C0DF256EC4}
  9
$EXTNAMES
290
     1
  9
$PSVPSCALE
 40
0.0
  9
$OLESTARTUP
290
     0
  0
ENDSEC
  0
SECTION
  2
CLASSES
  0
CLASS
  1
ACDBDICTIONARYWDFLT
  2
AcDbDictionaryWithDefault
  3
ObjectDBX Classes
 90
        0
280
     0
281
     0
  0
CLASS
  1
TABLESTYLE
  2
AcDbTableStyle
  3
ObjectDBX Classes
 90
     2047
280
     0
281
     0
  0
CLASS
  1
DICTIONARYVAR
  2
AcDbDictionaryVar
  3
ObjectDBX Classes
 90
        0
280
     0
281
     0
  0
CLASS
  1

  2
exOdDbSpline
  3

 90
        0
280
     0
281
     1
  0
CLASS
  1

  2
exOdDbCircle
  3

 90
        0
280
     0
281
     1
  0
CLASS
  1
ACDBPLACEHOLDER
  2
AcDbPlaceHolder
  3
ObjectDBX Classes
 90
        0
280
     0
281
     0
  0
CLASS
  1
LAYOUT
  2
AcDbLayout
  3
ObjectDBX Classes
 90
        0
280
     0
281
     0
  0
ENDSEC
  0
SECTION
  2
TABLES
  0
TABLE
  2
VPORT
  5
8
330
0
100
AcDbSymbolTable
 70
     2
  0
VPORT
  5
29
330
8
100
AcDbSymbolTableRecord
100
AcDbViewportTableRecord
  2
*Active
 70
     0
 10
0.0
 20
0.0
 11
1.0
 21
1.0
 12
262.5
 22
371.25
 13
0.0
 23
0.0
 14
0.5
 24
0.5
 15
0.5
 25
0.5
 16
0.0
 26
0.0
 36
1.0
 17
0.0
 27
0.0
 37
0.0
 40
816.7500000000001
 41
1.60267857142857
 42
50.0
 43
0.0
 44
0.0
 50
0.0
 51
0.0
 71
     0
 72
   100
 73
     1
 74
     3
 75
     0
 76
     0
 77
     0
 78
     0
281
     0
 65
     1
110
0.0
120
0.0
130
0.0
111
1.0
121
0.0
131
0.0
112
0.0
122
1.0
132
0.0
 79
     0
146
0.0
  0
ENDTAB
  0
TABLE
  2
LTYPE
  5
5
330
0
100
AcDbSymbolTable
 70
     8
  0
LTYPE
  5
14
330
5
100
AcDbSymbolTableRecord
100
AcDbLinetypeTableRecord
  2
ByBlock
 70
     0
  3

 72
    65
 73
     0
 40
0.0
  0
LTYPE
  5
15
330
5
100
AcDbSymbolTableRecord
100
AcDbLinetypeTableRecord
  2
ByLayer
 70
     0
  3

 72
    65
 73
     0
 40
0.0
  0
LTYPE
  5
16
330
5
100
AcDbSymbolTableRecord
100
AcDbLinetypeTableRecord
  2
Continuous
 70
     0
  3
Solid line
 72
    65
 73
     0
 40
0.0
  0
LTYPE
  5
2E
330
5
100
AcDbSymbolTableRecord
100
AcDbLinetypeTableRecord
  2
DASHED
 70
     0
  3
Dashed
 72
    65
 73
     2
 40
15.0
 49
7.0
 74
     0
 49
-8.0
 74
     0
  0
LTYPE
  5
2F
330
5
100
AcDbSymbolTableRecord
100
AcDbLinetypeTableRecord
  2
DOTTED
 70
     0
  3
Dotted
 72
    65
 73
     2
 40
1.0
 49
0.0
 74
     0
 49
-1.0
 74
     0
  0
LTYPE
  5
30
330
5
100
AcDbSymbolTableRecord
100
AcDbLinetypeTableRecord
  2
DOT_CENTER
 70
     0
  3
Dot_Center
 72
    65
 73
     4
 40
14.0
 49
12.0
 74
     0
 49
-1.0
 74
     0
 49
0.0
 74
     0
 49
-1.0
 74
     0
  0
LTYPE
  5
31
330
5
100
AcDbSymbolTableRecord
100
AcDbLinetypeTableRecord
  2
LONG_DASHED
 70
     0
  3
Long_Dashed
 72
    65
 73
     2
 40
15.0
 49
10.0
 74
     0
 49
-5.0
 74
     0
  0
LTYPE
  5
32
330
5
100
AcDbSymbolTableRecord
100
AcDbLinetypeTableRecord
  2
DASH_CENTER
 70
     0
  3
Dash_Center
 72
    65
 73
     4
 40
14.0
 49
11.0
 74
     0
 49
-1.0
 74
     0
 49
1.0
 74
     0
 49
-1.0
 74
     0
  0
LTYPE
  5
33
330
5
100
AcDbSymbolTableRecord
100
AcDbLinetypeTableRecord
  2
PHANTOM
 70
     0
  3
Phantom
 72
    65
 73
     6
 40
13.0
 49
10.0
 74
     0
 49
-1.0
 74
     0
 49
0.0
 74
     0
 49
-1.0
 74
     0
 49
0.0
 74
     0
 49
-1.0
 74
     0
  0
LTYPE
  5
34
330
5
100
AcDbSymbolTableRecord
100
AcDbLinetypeTableRecord
  2
CENTER_DASH_DASH
 70
     0
  3
Center_Dash_Dash
 72
    65
 73
     6
 40
14.0
 49
9.0
 74
     0
 49
-1.0
 74
     0
 49
1.0
 74
     0
 49
-1.0
 74
     0
 49
1.0
 74
     0
 49
-1.0
 74
     0
  0
ENDTAB
  0
TABLE
  2
LAYER
  5
2
330
0
100
AcDbSymbolTable
 70
     2
  0
LAYER
  5
10
330
2
100
AcDbSymbolTableRecord
100
AcDbLayerTableRecord
  2
0
 70
     0
 62
     7
  6
Continuous
370
    -3
390
F
  0
LAYER
  5
35
330
2
100
AcDbSymbolTableRecord
100
AcDbLayerTableRecord
  2
1
 70
     0
 62
     7
  6
Continuous
370
    -3
390
F
  0
ENDTAB
  0
TABLE
  2
STYLE
  5
3
330
0
100
AcDbSymbolTable
 70
     3
  0
STYLE
  5
11
330
3
100
AcDbSymbolTableRecord
100
AcDbTextStyleTableRecord
  2
Standard
 70
     0
 40
0.0
 41
1.0
 50
0.0
 71
     0
 42
0.2
  3
txt
  4

  0
STYLE
  5
2E4
330
3
100
AcDbSymbolTableRecord
100
AcDbTextStyleTableRecord
  2
CONVERTER_1
 70
     0
 40
0.0
 41
0.89
 50
0.0
 71
     0
 42
0.2
  3
msmincho.ttc
  4

1001
ACAD
1000
MS Mincho
1071
    32785
  0
STYLE
  5
300
330
3
100
AcDbSymbolTableRecord
100
AcDbTextStyleTableRecord
  2
CONVERTER_2
 70
     0
 40
0.0
 41
0.9
 50
0.0
 71
     0
 42
0.2
  3
txt.shx
  4

  0
ENDTAB
  0
TABLE
  2
VIEW
  5
6
330
0
100
AcDbSymbolTable
 70
     0
  0
ENDTAB
  0
TABLE
  2
UCS
  5
7
330
0
100
AcDbSymbolTable
 70
     0
  0
ENDTAB
  0
TABLE
  2
APPID
  5
9
330
0
100
AcDbSymbolTable
 70
     1
  0
APPID
  5
12
330
9
100
AcDbSymbolTableRecord
100
AcDbRegAppTableRecord
  2
ACAD
 70
     0
  0
ENDTAB
  0
TABLE
  2
DIMSTYLE
  5
A
330
0
100
AcDbSymbolTable
 70
    10
100
AcDbDimStyleTable
  0
DIMSTYLE
105
27
330
A
100
AcDbSymbolTableRecord
100
AcDbDimStyleTableRecord
  2
Standard
 70
     0
340
11
  0
DIMSTYLE
105
313
102
{ACAD_REACTORS
330
314
102
}
330
A
100
AcDbSymbolTableRecord
100
AcDbDimStyleTableRecord
  2
ME10_DIM_0
 70
     0
 41
8.75
 42
0.0
 44
2.5
 73
     0
 74
     0
 77
     1
 78
     8
140
8.75
147
0.625
172
     1
173
     1
176
     2
177
     2
178
     7
271
     2
340
300
344
310
  0
DIMSTYLE
105
31E
102
{ACAD_REACTORS
330
31F
102
}
330
A
100
AcDbSymbolTableRecord
100
AcDbDimStyleTableRecord
  2
ME10_DIM_1
 70
     0
  3
{\Fgdt;n}<>
 41
8.75
 42
0.0
 44
2.5
 73
     0
 74
     0
 77
     1
 78
     8
140
8.75
147
0.625
172
     1
173
     1
176
     2
177
     2
178
     7
271
     2
340
300
  0
DIMSTYLE
105
329
102
{ACAD_REACTORS
330
32A
102
}
330
A
100
AcDbSymbolTableRecord
100
AcDbDimStyleTableRecord
  2
ME10_DIM_2
 70
     0
 41
7.5
 42
0.0
 44
2.5
 73
     0
 74
     0
 77
     1
 78
     8
140
8.75
147
0.625
172
     1
173
     1
176
     2
177
     2
178
     7
271
     2
340
300
343
310
  0
DIMSTYLE
105
334
102
{ACAD_REACTORS
330
335
102
}
330
A
100
AcDbSymbolTableRecord
100
AcDbDimStyleTableRecord
  2
ME10_DIM_3
 70
     0
 41
8.75
 42
0.0
 44
2.5
 73
     0
 74
     0
 77
     1
 78
     8
140
8.75
147
0.625
172
     1
173
     1
176
     2
177
     2
178
     7
271
     2
340
300
  0
DIMSTYLE
105
340
102
{ACAD_REACTORS
330
341
102
}
330
A
100
AcDbSymbolTableRecord
100
AcDbDimStyleTableRecord
  2
ME10_DIM_4
 70
     0
 41
8.75
 42
0.0
 44
2.5
 73
     0
 74
     0
 77
     1
 78
     8
140
8.75
147
0.625
172
     1
173
     1
176
     2
177
     2
178
     7
271
     2
340
2E4
  0
DIMSTYLE
105
34C
102
{ACAD_REACTORS
330
34D
102
}
330
A
100
AcDbSymbolTableRecord
100
AcDbDimStyleTableRecord
  2
ME10_DIM_5
 70
     0
 41
8.75
 42
0.0
 44
2.5
 73
     0
 74
     0
 77
     1
 78
     8
140
8.75
147
0.625
172
     1
173
     1
176
     2
177
     2
178
     7
271
     2
340
300
  0
DIMSTYLE
105
357
102
{ACAD_REACTORS
330
358
102
}
330
A
100
AcDbSymbolTableRecord
100
AcDbDimStyleTableRecord
  2
ME10_DIM_6
 70
     0
 41
8.75
 42
0.0
 44
2.5
 73
     0
 74
     0
 77
     1
 78
     8
140
8.75
147
0.625
172
     1
173
     1
176
     2
177
     2
178
     7
271
     2
340
300
  0
DIMSTYLE
105
362
102
{ACAD_REACTORS
330
363
102
}
330
A
100
AcDbSymbolTableRecord
100
AcDbDimStyleTableRecord
  2
ME10_DIM_7
 70
     0
 41
8.75
 42
0.0
 44
2.5
 73
     0
 74
     0
 77
     1
 78
     8
140
8.75
147
0.625
172
     1
173
     1
176
     2
177
     2
178
     7
271
     2
340
300
  0
DIMSTYLE
105
36D
102
{ACAD_REACTORS
330
36E
102
}
330
A
100
AcDbSymbolTableRecord
100
AcDbDimStyleTableRecord
  2
ME10_DIM_8
 70
     0
 41
8.75
 42
0.0
 44
2.5
 73
     0
 74
     0
 77
     1
 78
     8
140
8.75
147
0.625
172
     1
173
     1
176
     2
177
     2
178
     7
271
     2
340
300
  0
ENDTAB
  0
TABLE
  2
BLOCK_RECORD
  5
1
330
0
100
AcDbSymbolTable
 70
    23
  0
BLOCK_RECORD
  5
1F
330
1
100
AcDbSymbolTableRecord
100
AcDbBlockTableRecord
  2
*Model_Space
340
22
  0
BLOCK_RECORD
  5
1B
330
1
100
AcDbSymbolTableRecord
100
AcDbBlockTableRecord
  2
*Paper_Space
340
1E
  0
BLOCK_RECORD
  5
23
330
1
100
AcDbSymbolTableRecord
100
AcDbBlockTableRecord
  2
*Paper_Space0
340
26
  0
BLOCK_RECORD
  5
36
330
1
100
AcDbSymbolTableRecord
100
AcDbBlockTableRecord
  2
32-1-16
340
0
102
{BLKREFS
331
61
102
}
  0
BLOCK_RECORD
  5
39
330
1
100
AcDbSymbolTableRecord
100
AcDbBlockTableRecord
  2
A10-0A-13
340
0
102
{BLKREFS
331
62
102
}
  0
BLOCK_RECORD
  5
3C
330
1
100
AcDbSymbolTableRecord
100
AcDbBlockTableRecord
  2
60-1-16-170
340
0
102
{BLKREFS
331
40
102
}
  0
BLOCK_RECORD
  5
3F
330
1
100
AcDbSymbolTableRecord
100
AcDbBlockTableRecord
  2
A10J-60X-16
340
0
102
{BLKREFS
331
63
102
}
  0
BLOCK_RECORD
  5
43
330
1
100
AcDbSymbolTableRecord
100
AcDbBlockTableRecord
  2
36-1A-13
340
0
102
{BLKREFS
331
59
102
}
  0
BLOCK_RECORD
  5
46
330
1
100
AcDbSymbolTableRecord
100
AcDbBlockTableRecord
  2
37-1-13
340
0
102
{BLKREFS
331
5A
102
}
  0
BLOCK_RECORD
  5
49
330
1
100
AcDbSymbolTableRecord
100
AcDbBlockTableRecord
  2
R230F-S-3
340
0
102
{BLKREFS
331
53
102
}
  0
BLOCK_RECORD
  5
4C
330
1
100
AcDbSymbolTableRecord
100
AcDbBlockTableRecord
  2
42-1
340
0
102
{BLKREFS
331
54
102
}
  0
BLOCK_RECORD
  5
4F
330
1
100
AcDbSymbolTableRecord
100
AcDbBlockTableRecord
  2
R230F-S-1
340
0
102
{BLKREFS
331
55
102
}
  0
BLOCK_RECORD
  5
52
330
1
100
AcDbSymbolTableRecord
100
AcDbBlockTableRecord
  2
R230F-S
340
0
102
{BLKREFS
331
5B
102
}
  0
BLOCK_RECORD
  5
58
330
1
100
AcDbSymbolTableRecord
100
AcDbBlockTableRecord
  2
R130A
340
0
102
{BLKREFS
331
64
102
}
  0
BLOCK_RECORD
  5
5E
330
1
100
AcDbSymbolTableRecord
100
AcDbBlockTableRecord
  2
_J__A4
340
0
102
{BLKREFS
331
65
102
}
  0
BLOCK_RECORD
  5
307
330
1
100
AcDbSymbolTableRecord
100
AcDbBlockTableRecord
  2
*D013
340
0
  0
BLOCK_RECORD
  5
310
330
1
100
AcDbSymbolTableRecord
100
AcDbBlockTableRecord
  2
_None
340
0
  0
BLOCK_RECORD
  5
315
330
1
100
AcDbSymbolTableRecord
100
AcDbBlockTableRecord
  2
*D115
340
0
  0
BLOCK_RECORD
  5
320
330
1
100
AcDbSymbolTableRecord
100
AcDbBlockTableRecord
  2
*D216
340
0
  0
BLOCK_RECORD
  5
32B
330
1
100
AcDbSymbolTableRecord
100
AcDbBlockTableRecord
  2
*D317
340
0
  0
BLOCK_RECORD
  5
336
330
1
100
AcDbSymbolTableRecord
100
AcDbBlockTableRecord
  2
*D418
340
0
  0
BLOCK_RECORD
  5
342
330
1
100
AcDbSymbolTableRecord
100
AcDbBlockTableRecord
  2
*D519
340
0
  0
BLOCK_RECORD
  5
34E
330
1
100
AcDbSymbolTableRecord
100
AcDbBlockTableRecord
  2
*D620
340
0
  0
BLOCK_RECORD
  5
359
330
1
100
AcDbSymbolTableRecord
100
AcDbBlockTableRecord
  2
*D721
340
0
  0
BLOCK_RECORD
  5
364
330
1
100
AcDbSymbolTableRecord
100
AcDbBlockTableRecord
  2
*D822
340
0
  0
ENDTAB
  0
ENDSEC
  0
SECTION
  2
BLOCKS
  0
BLOCK
  5
20
330
1F
100
AcDbEntity
  8
0
100
AcDbBlockBegin
  2
*Model_Space
 70
     0
 71
     0
 10
0.0
 20
0.0
 30
0.0
  3
*Model_Space
  1

  0
ENDBLK
  5
21
330
1F
100
AcDbEntity
  8
0
100
AcDbBlockEnd
  0
BLOCK
  5
1C
330
1B
100
AcDbEntity
 67
     1
  8
0
100
AcDbBlockBegin
  2
*Paper_Space
 70
     0
 71
     0
 10
0.0
 20
0.0
 30
0.0
  3
*Paper_Space
  1

  0
ENDBLK
  5
1D
330
1B
100
AcDbEntity
 67
     1
  8
0
100
AcDbBlockEnd
  0
BLOCK
  5
24
330
23
100
AcDbEntity
  8
0
100
AcDbBlockBegin
  2
*Paper_Space0
 70
     0
 71
     0
 10
0.0
 20
0.0
 30
0.0
  3
*Paper_Space0
  1

  0
ENDBLK
  5
25
330
23
100
AcDbEntity
  8
0
100
AcDbBlockEnd
  0
BLOCK
  5
37
330
36
100
AcDbEntity
  8
0
100
AcDbBlockBegin
  2
32-1-16
 70
     0
 71
     0
 10
37.66238187348984
 20
448.1265076928361
 30
0.0
  3
32-1-16
  1

  0
LINE
  5
66
330
36
100
AcDbEntity
  8
1
  6
Continuous
 62
     7
100
AcDbLine
 10
129.191766743864
 20
240.927498313014
 30
0.0
 11
129.191766743864
 21
248.0689267415568
 31
0.0
  0
LINE
  5
67
330
36
100
AcDbEntity
  8
1
  6
Continuous
 62
     7
100
AcDbLine
 10
128.4917667438641
 20
248.6406755627269
 30
0.0
 11
115.1917667438639
 21
248.6406755627269
 31
0.0
  0
LINE
  5
68
330
36
100
AcDbEntity
  8
1
  6
Continuous
 62
     7
100
AcDbLine
 10
126.7497878055947
 20
239.640675562727
 30
0.0
 11
126.691766743864
 21
239.640675562727
 31
0.0
  0
LINE
  5
69
330
36
100
AcDbEntity
  8
1
  6
Continuous
 62
     7
100
AcDbLine
 10
115.1917667438639
 20
238.640675562727
 30
0.0
 11
124.9597159362952
 21
238.640675562727
 31
0.0
  0
LINE
  5
6A
330
36
100
AcDbEntity
  8
1
  6
Continuous
 62
     7
100
AcDbLine
 10
123.9900887229337
 20
239.640675562727
 30
0.0
 11
115.1917667438639
 21
239.640675562727
 31
0.0
  0
LINE
  5
6B
330
36
100
AcDbEntity
  8
1
  6
Continuous
 62
     7
100
AcDbLine
 10
101.191766743864
 20
248.0689267415568
 30
0.0
 11
101.191766743864
 21
240.927498313014
 31
0.0
  0
LINE
  5
6C
330
36
100
AcDbEntity
  8
1
  6
Continuous
 62
     7
100
AcDbLine
 10
115.1917667438639
 20
248.6406755627269
 30
0.0
 11
101.891766743864
 21
248.6406755627269
 31
0.0
  0
LINE
  5
6D
330
36
100
AcDbEntity
  8
1
  6
Continuous
 62
     7
100
AcDbLine
 10
103.6917667438639
 20
239.640675562727
 30
0.0
 11
103.6337456821334
 21
239.640675562727
 31
0.0
  0
LINE
  5
6E
330
36
100
AcDbEntity
  8
1
  6
Continuous
 62
     7
100
AcDbLine
 10
105.4238175514328
 20
238.640675562727
 30
0.0
 11
115.1917667438639
 21
238.640675562727
 31
0.0
  0
LINE
  5
6F
330
36
100
AcDbEntity
  8
1
  6
Continuous
 62
     7
100
AcDbLine
 10
115.1917667438639
 20
239.640675562727
 30
0.0
 11
106.3934447647944
 21
239.640675562727
 31
0.0
  0
LINE
  5
70
330
36
100
AcDbEntity
  8
1
  6
Continuous
 62
     7
100
AcDbLine
 10
347.5081217091586
 20
248.6406755627269
 30
0.0
 11
334.2081217091587
 21
248.6406755627269
 31
0.0
  0
LINE
  5
71
330
36
100
AcDbEntity
  8
1
  6
Continuous
 62
     7
100
AcDbLine
 10
347.3951217091586
 20
248.6406755627269
 30
0.0
 11
347.5081217091586
 21
248.6406755627269
 31
0.0
  0
LINE
  5
72
330
36
100
AcDbEntity
  8
1
  6
Continuous
 62
     7
100
AcDbLine
 10
345.7661427708891
 20
239.640675562727
 30
0.0
 11
345.7081217091587
 21
239.640675562727
 31
0.0
  0
LINE
  5
73
330
36
100
AcDbEntity
  8
1
  6
Continuous
 62
     7
100
AcDbLine
 10
334.2081217091587
 20
238.640675562727
 30
0.0
 11
343.9760709015898
 21
238.640675562727
 31
0.0
  0
LINE
  5
74
330
36
100
AcDbEntity
  8
1
  6
Continuous
 62
     7
100
AcDbLine
 10
343.0064436882283
 20
239.640675562727
 30
0.0
 11
334.2081217091587
 21
239.640675562727
 31
0.0
  0
LINE
  5
75
330
36
100
AcDbEntity
  8
1
  6
Continuous
 62
     7
100
AcDbLine
 10
334.2081217091587
 20
248.6406755627269
 30
0.0
 11
320.9081217091585
 21
248.6406755627269
 31
0.0
  0
LINE
  5
76
330
36
100
AcDbEntity
  8
1
  6
Continuous
 62
     7
100
AcDbLine
 10
320.9081217091585
 20
248.6406755627269
 30
0.0
 11
321.0211217091586
 21
248.6406755627269
 31
0.0
  0
LINE
  5
77
330
36
100
AcDbEntity
  8
1
  6
Continuous
 62
     7
100
AcDbLine
 10
322.7081217091587
 20
239.640675562727
 30
0.0
 11
322.6501006474281
 21
239.640675562727
 31
0.0
  0
LINE
  5
78
330
36
100
AcDbEntity
  8
1
  6
Continuous
 62
     7
100
AcDbLine
 10
324.4401725167274
 20
238.640675562727
 30
0.0
 11
334.2081217091587
 21
238.640675562727
 31
0.0
  0
LINE
  5
79
330
36
100
AcDbEntity
  8
1
  6
Continuous
 62
     7
100
AcDbLine
 10
334.2081217091587
 20
239.640675562727
 30
0.0
 11
325.4097997300889
 21
239.640675562727
 31
0.0
  0
LINE
  5
7A
330
36
100
AcDbEntity
  8
1
  6
Continuous
 62
     7
100
AcDbLine
 10
101.1883285737811
 20
561.0387928013963
 30
0.0
 11
101.1894267788732
 21
574.34292745172
 31
0.0
  0
LINE
  5
7B
330
36
100
AcDbEntity
  8
1
  6
Continuous
 62
     7
100
AcDbLine
 10
102.4287446288059
 20
576.4890797893598
 30
0.0
 11
105.4374515085627
 21
578.2258263891894
 31
0.0
  0
LINE
  5
7C
330
36
100
AcDbEntity
  8
1
  6
Continuous
 62
     7
100
AcDbLine
 10
127.9504631636581
 20
576.4869730697579
 30
0.0
 11
124.942043048391
 21
578.2242163602537
 31
0.0
  0
LINE
  5
7D
330
36
100
AcDbEntity
  8
1
  6
Continuous
 62
     7
100
AcDbLine
 10
129.1883284783869
 20
561.0364815092091
 30
0.0
 11
129.189426683479
 21
574.3406161595328
 31
0.0
  0
LINE
  5
7E
330
36
100
AcDbEntity
  8
1
  6
Continuous
 62
     7
100
AcDbLine
 10
102.4272920936023
 20
558.8924358911711
 30
0.0
 11
109.5810391156194
 21
554.7614307324051
 31
0.0
  0
LINE
  5
7F
330
36
100
AcDbEntity
  8
1
  6
Continuous
 62
     7
100
AcDbLine
 10
127.9490106284544
 20
558.8903291715692
 30
0.0
 11
120.7945817067894
 21
554.760505097638
 31
0.0
  0
ARC
  5
80
330
36
100
AcDbEntity
  8
1
  6
Continuous
 62
     7
100
AcDbCircle
 10
125.691766743864
 20
244.4982125272854
 30
0.0
 40
4.999999999999986
100
AcDbArc
 50
45.57299599919391
 51
55.94420225743039
  0
ARC
  5
81
330
36
100
AcDbEntity
  8
1
  6
Continuous
 62
     7
100
AcDbCircle
 10
125.691766743864
 20
244.4982125272854
 30
0.0
 40
5.000000000000014
100
AcDbArc
 50
-74.66244233044463
 51
-45.57299599919391
  0
ARC
  5
82
330
36
100
AcDbEntity
  8
1
  6
Continuous
 62
     7
100
AcDbCircle
 10
104.6917667438639
 20
244.4982125272854
 30
0.0
 40
4.999999999999859
100
AcDbArc
 50
124.0557977425676
 51
134.4270040008052
  0
ARC
  5
83
330
36
100
AcDbEntity
  8
1
  6
Continuous
 62
     7
100
AcDbCircle
 10
104.6917667438639
 20
244.4982125272854
 30
0.0
 40
4.999999999999906
100
AcDbArc
 50
-134.4270040008052
 51
-105.3375576695541
  0
ARC
  5
84
330
36
100
AcDbEntity
  8
1
  6
Continuous
 62
     7
100
AcDbCircle
 10
344.7081217091587
 20
244.4982125272854
 30
0.0
 40
4.999999999999955
100
AcDbArc
 50
-74.66244233044715
 51
55.94420225743242
  0
ARC
  5
85
330
36
100
AcDbEntity
  8
1
  6
Continuous
 62
     7
100
AcDbCircle
 10
323.7081217091587
 20
244.4982125272854
 30
0.0
 40
5.00000000000005
100
AcDbArc
 50
124.0557977425708
 51
-105.3375576695554
  0
ARC
  5
86
330
36
100
AcDbEntity
  8
1
  6
Continuous
 62
     7
100
AcDbCircle
 10
115.18887762863
 20
567.6897044804646
 30
0.0
 40
15.49999999999985
100
AcDbArc
 50
145.4098913691715
 51
154.5806495388498
  0
ARC
  5
87
330
36
100
AcDbEntity
  8
1
  6
Continuous
 62
     7
100
AcDbCircle
 10
115.18887762863
 20
567.6897044804646
 30
0.0
 40
15.50000000000001
100
AcDbArc
 50
25.40989136917162
 51
34.58064953884934
  0
ARC
  5
88
330
36
100
AcDbEntity
  8
1
  6
Continuous
 62
     7
100
AcDbCircle
 10
115.18887762863
 20
567.6897044804646
 30
0.0
 40
15.50000000000018
100
AcDbArc
 50
-34.59010863082816
 51
-25.41935046115004
  0
ARC
  5
89
330
36
100
AcDbEntity
  8
1
  6
Continuous
 62
     7
100
AcDbCircle
 10
115.18887762863
 20
567.6897044804646
 30
0.0
 40
15.49999999999989
100
AcDbArc
 50
-154.5901086308282
 51
-145.4193504611495
  0
SPLINE
  5
8A
330
36
100
AcDbEntity
  8
1
  6
Continuous
 62
     7
100
AcDbSpline
210
0.0
220
0.0
230
1.0
 70
    11
 71
     3
 72
    79
 73
    75
 74
    73
 42
0.0000000001
 43
0.0000000001
 44
0.00000001
 40
0.0
 40
0.0
 40
0.0
 40
0.0
 40
0.3210813131183078
 40
0.6418951451340149
 40
0.9828988941043259
 40
1.323531056220948
 40
1.692967059529076
 40
2.062075182676627
 40
2.463733858567344
 40
2.865152866614749
 40
3.298564783375404
 40
3.731815227792642
 40
4.193131264618954
 40
4.65434417166074
 40
5.137240970539762
 40
5.620077103492298
 40
6.116559529336387
 40
6.613013907632166
 40
7.11412123439237
 40
7.615228561152549
 40
8.11168293944834
 40
8.608165365292461
 40
9.091001498244983
 40
9.573898297123936
 40
10.03511120416563
 40
10.49642724099193
 40
10.92967768540919
 40
11.36308960216988
 40
11.76450861021732
 40
12.16616728610811
 40
12.53527540925565
 40
12.90471141256365
 40
13.24534357468017
 40
13.58634732365053
 40
13.90716115566636
 40
14.22824246878463
 40
14.54200445402327
 40
14.85576643926193
 40
15.17684775238022
 40
15.49766158439611
 40
15.8386653333665
 40
16.17929749548303
 40
16.54873349879101
 40
16.91784162193851
 40
17.31950029782928
 40
17.72091930587678
 40
18.1543312226375
 40
18.58758166705471
 40
19.04889770388099
 40
19.51011061092276
 40
19.99300740980177
 40
20.47584354275426
 40
20.97232596859833
 40
21.46878034689405
 40
21.96988767365423
 40
22.47099500041445
 40
22.96744937871027
 40
23.46393180455437
 40
23.94676793750687
 40
24.4296647363859
 40
24.89087764342774
 40
25.35219368025399
 40
25.78544412467122
 40
26.21885604143191
 40
26.62027504947936
 40
27.02193372537009
 40
27.39104184851761
 40
27.76047785182557
 40
28.10111001394209
 40
28.44211376291248
 40
28.76292759492834
 40
29.08400890804659
 40
29.39777089328528
 40
29.71153287852398
 40
29.71153287852398
 40
29.71153287852398
 40
29.71153287852398
 10
113.9301350729635
 20
244.8111673788511
 30
0.0
 10
113.9108552217668
 20
244.9166284643631
 30
0.0
 10
113.8723115807123
 20
245.1274627796126
 30
0.0
 10
113.757258268636
 20
245.4358024038916
 30
0.0
 10
113.6048698022994
 20
245.7338904973388
 30
0.0
 10
113.4077931579025
 20
246.0245625811621
 30
0.0
 10
113.1746066479907
 20
246.2993281592572
 30
0.0
 10
112.9004381814203
 20
246.5633571042483
 30
0.0
 10
112.5948949813121
 20
246.8077410801399
 30
0.0
 10
112.2522773904067
 20
247.037612654397
 30
0.0
 10
111.8835811736311
 20
247.2451799065295
 30
0.0
 10
111.4830264314888
 20
247.4343968661051
 30
0.0
 10
111.0619219343363
 20
247.5993614812585
 30
0.0
 10
110.6155636283751
 20
247.7425455028899
 30
0.0
 10
110.1543677705419
 20
247.8600727298272
 30
0.0
 10
109.675672674186
 20
247.9531565363286
 30
0.0
 10
109.1880053651892
 20
248.0196593348898
 30
0.0
 10
108.6913875594382
 20
248.0600448973473
 30
0.0
 10
108.1917667438667
 20
248.0733883775497
 30
0.0
 10
107.6921459282791
 20
248.0600448973486
 30
0.0
 10
107.1955281225758
 20
248.0196593348844
 30
0.0
 10
106.7078608134062
 20
247.9531565363482
 30
0.0
 10
106.2291657176773
 20
247.8600727297563
 30
0.0
 10
105.7679698575528
 20
247.7425455031492
 30
0.0
 10
105.3216115597763
 20
247.5993614803387
 30
0.0
 10
104.9005070329829
 20
247.4343968694554
 30
0.0
 10
104.499952395055
 20
247.2451798948667
 30
0.0
 10
104.1312558038673
 20
247.0376126966723
 30
0.0
 10
103.7886395123899
 20
246.8077409352179
 30
0.0
 10
103.4830916687508
 20
246.5633576282799
 30
0.0
 10
103.2089392030725
 20
246.2993263781768
 30
0.0
 10
102.9756955380907
 20
246.0245690339255
 30
0.0
 10
102.7788165046223
 20
245.7338684819804
 30
0.0
 10
102.6257169624072
 20
245.4358828271733
 30
0.0
 10
102.5131694918974
 20
245.1271822076608
 30
0.0
 10
102.4466179815362
 20
244.8146115704241
 30
0.0
 10
102.4231427248489
 20
244.4982125272855
 30
0.0
 10
102.446617981536
 20
244.1818134841467
 30
0.0
 10
102.5131694918972
 20
243.86924284691
 30
0.0
 10
102.625716962407
 20
243.5605422273974
 30
0.0
 10
102.7788165046223
 20
243.2625565725904
 30
0.0
 10
102.9756955380906
 20
242.9718560206453
 30
0.0
 10
103.2089392030725
 20
242.697098676394
 30
0.0
 10
103.4830916687507
 20
242.4330674262908
 30
0.0
 10
103.7886395123898
 20
242.1886841193531
 30
0.0
 10
104.1312558038673
 20
241.9588123578984
 30
0.0
 10
104.499952395055
 20
241.7512451597043
 30
0.0
 10
104.9005070329829
 20
241.5620281851155
 30
0.0
 10
105.3216115597764
 20
241.3970635742323
 30
0.0
 10
105.7679698575527
 20
241.2538795514216
 30
0.0
 10
106.2291657176773
 20
241.1363523248145
 30
0.0
 10
106.7078608134063
 20
241.0432685182227
 30
0.0
 10
107.1955281225756
 20
240.9767657196867
 30
0.0
 10
107.6921459282797
 20
240.9363801572222
 30
0.0
 10
108.1917667438641
 20
240.9230366770217
 30
0.0
 10
108.6913875594474
 20
240.936380157222
 30
0.0
 10
109.188005365155
 20
240.976765719687
 30
0.0
 10
109.6756726743121
 20
241.0432685182212
 30
0.0
 10
110.1543677700855
 20
241.1363523248195
 30
0.0
 10
110.6155636300476
 20
241.2538795514032
 30
0.0
 10
111.0619219284048
 20
241.3970635742976
 30
0.0
 10
111.4830264530948
 20
241.5620281848777
 30
0.0
 10
111.8835810984182
 20
241.7512451605319
 30
0.0
 10
112.252277663036
 20
241.9588123548984
 30
0.0
 10
112.5948940467262
 20
242.1886841296374
 30
0.0
 10
112.9004415608415
 20
242.4330673891035
 30
0.0
 10
113.1745951620079
 20
242.6970988027867
 30
0.0
 10
113.407834771034
 20
242.971855562731
 30
0.0
 10
113.6047278277761
 20
243.2625581348897
 30
0.0
 10
113.7577769091601
 20
243.5605365202348
 30
0.0
 10
113.870502204361
 20
243.8692627574348
 30
0.0
 10
113.9364031503479
 20
244.1817396734078
 30
0.0
 10
113.9622546595118
 20
244.4984810429847
 30
0.0
 10
113.940841601813
 20
244.706938600229
 30
0.0
 10
113.9301350729635
 20
244.8111673788511
 30
0.0
 11
113.9301350729635
 21
244.8111673788511
 31
0.0
 11
113.8631395312608
 21
245.1251814024643
 31
0.0
 11
113.7541846991164
 21
245.4269269233341
 31
0.0
 11
113.5987598325391
 21
245.7304506747296
 31
0.0
 11
113.4085241084334
 21
246.0130115339127
 31
0.0
 11
113.1700308118781
 21
246.2951531792585
 31
0.0
 11
112.9046936827732
 21
246.5517404246388
 31
0.0
 11
112.5915323255515
 21
246.8032551483855
 31
0.0
 11
112.2585052063706
 21
247.0273760039788
 31
0.0
 11
111.8811768436524
 21
247.240611076794
 31
0.0
 11
111.4896091744589
 21
247.4260314317448
 31
0.0
 11
111.0602758227197
 21
247.5948074931918
 31
0.0
 11
110.6211867342192
 21
247.735939055862
 31
0.0
 11
110.1533408438184
 21
247.8555615504131
 31
0.0
 11
109.6794088163196
 21
247.9478608710793
 31
0.0
 11
109.1875121096259
 21
248.0151841888525
 31
0.0
 11
108.6926925576436
 21
248.0554403772596
 31
0.0
 11
108.191766743864
 21
248.0689267415569
 31
0.0
 11
107.6908409300844
 21
248.0554403772596
 31
0.0
 11
107.196021378102
 21
248.0151841888525
 31
0.0
 11
106.7041246714084
 21
247.9478608710792
 31
0.0
 11
106.2301926439096
 21
247.8555615504131
 31
0.0
 11
105.7623467535088
 21
247.735939055862
 31
0.0
 11
105.3232576650084
 21
247.5948074931918
 31
0.0
 11
104.8939243132692
 21
247.4260314317449
 31
0.0
 11
104.5023566440757
 21
247.240611076794
 31
0.0
 11
104.1250282813575
 21
247.0273760039787
 31
0.0
 11
103.7920011621766
 21
246.8032551483854
 31
0.0
 11
103.4788398049549
 21
246.5517404246386
 31
0.0
 11
103.2135026758499
 21
246.2951531792584
 31
0.0
 11
102.9750093792946
 21
246.0130115339127
 31
0.0
 11
102.784773655189
 21
245.7304506747298
 31
0.0
 11
102.6293487886117
 21
245.4269269233341
 31
0.0
 11
102.5203939564673
 21
245.1251814024642
 31
0.0
 11
102.4533984147645
 21
244.8111673788511
 31
0.0
 11
102.4309074329625
 21
244.4982125272854
 31
0.0
 11
102.4533984147644
 21
244.1852576757198
 31
0.0
 11
102.5203939564671
 21
243.8712436521066
 31
0.0
 11
102.6293487886116
 21
243.5694981312366
 31
0.0
 11
102.7847736551889
 21
243.265974379841
 31
0.0
 11
102.9750093792946
 21
242.9834135206581
 31
0.0
 11
103.2135026758498
 21
242.7012718753124
 31
0.0
 11
103.4788398049548
 21
242.4446846299322
 31
0.0
 11
103.7920011621765
 21
242.1931699061855
 31
0.0
 11
104.1250282813574
 21
241.9690490505921
 31
0.0
 11
104.5023566440757
 21
241.7558139777769
 31
0.0
 11
104.8939243132692
 21
241.5703936228261
 31
0.0
 11
105.3232576650084
 21
241.4016175613791
 31
0.0
 11
105.7623467535088
 21
241.2604859987089
 31
0.0
 11
106.2301926439097
 21
241.1408635041577
 31
0.0
 11
106.7041246714084
 21
241.0485641834916
 31
0.0
 11
107.1960213781021
 21
240.9812408657185
 31
0.0
 11
107.6908409300843
 21
240.9409846773114
 31
0.0
 11
108.1917667438639
 21
240.927498313014
 31
0.0
 11
108.6926925576436
 21
240.9409846773113
 31
0.0
 11
109.1875121096259
 21
240.9812408657184
 31
0.0
 11
109.6794088163196
 21
241.0485641834916
 31
0.0
 11
110.1533408438184
 21
241.1408635041577
 31
0.0
 11
110.6211867342192
 21
241.2604859987089
 31
0.0
 11
111.0602758227198
 21
241.4016175613792
 31
0.0
 11
111.4896091744589
 21
241.570393622826
 31
0.0
 11
111.8811768436524
 21
241.7558139777769
 31
0.0
 11
112.2585052063706
 21
241.9690490505921
 31
0.0
 11
112.5915323255515
 21
242.1931699061855
 31
0.0
 11
112.9046936827732
 21
242.4446846299322
 31
0.0
 11
113.1700308118781
 21
242.7012718753125
 31
0.0
 11
113.4085241084334
 21
242.9834135206581
 31
0.0
 11
113.598759832539
 21
243.265974379841
 31
0.0
 11
113.7541846991164
 21
243.5694981312367
 31
0.0
 11
113.8631395312608
 21
243.8712436521066
 31
0.0
 11
113.9301350729635
 21
244.1852576757197
 31
0.0
 11
113.9526260547654
 21
244.4982125272854
 31
0.0
 11
113.9301350729635
 21
244.8111673788511
 31
0.0
  0
SPLINE
  5
8B
330
36
100
AcDbEntity
  8
1
  6
Continuous
 62
     7
100
AcDbSpline
210
0.0
220
0.0
230
1.0
 70
    11
 71
     3
 72
    79
 73
    75
 74
    73
 42
0.0000000001
 43
0.0000000001
 44
0.00000001
 40
0.0
 40
0.0
 40
0.0
 40
0.0
 40
0.3210813131183167
 40
0.6418951451340287
 40
0.9828988941043073
 40
1.323531056220938
 40
1.692967059529047
 40
2.062075182676629
 40
2.463733858567346
 40
2.865152866614786
 40
3.298564783375453
 40
3.731815227792678
 40
4.193131264618977
 40
4.654344171660736
 40
5.137240970539745
 40
5.620077103492239
 40
6.1165595293363
 40
6.613013907632093
 40
7.114121234392283
 40
7.61522856115249
 40
8.111682939448295
 40
8.608165365292459
 40
9.09100149824501
 40
9.573898297123977
 40
10.03511120416569
 40
10.49642724099197
 40
10.92967768540924
 40
11.36308960216993
 40
11.76450861021738
 40
12.16616728610811
 40
12.53527540925563
 40
12.90471141256364
 40
13.24534357468017
 40
13.58634732365056
 40
13.90716115566637
 40
14.22824246878464
 40
14.54200445402328
 40
14.85576643926194
 40
15.17684775238022
 40
15.49766158439611
 40
15.83866533336651
 40
16.17929749548303
 40
16.54873349879103
 40
16.91784162193851
 40
17.31950029782927
 40
17.72091930587676
 40
18.15433122263746
 40
18.58758166705466
 40
19.04889770388096
 40
19.51011061092279
 40
19.99300740980182
 40
20.47584354275432
 40
20.97232596859837
 40
21.46878034689411
 40
21.9698876736543
 40
22.47099500041452
 40
22.96744937871034
 40
23.46393180455443
 40
23.9467679375069
 40
24.42966473638591
 40
24.89087764342769
 40
25.35219368025396
 40
25.78544412467117
 40
26.21885604143187
 40
26.62027504947933
 40
27.0219337253701
 40
27.39104184851761
 40
27.76047785182557
 40
28.10111001394208
 40
28.44211376291246
 40
28.76292759492833
 40
29.08400890804658
 40
29.39777089328528
 40
29.71153287852398
 40
29.71153287852398
 40
29.71153287852398
 40
29.71153287852398
 10
116.4533984147645
 20
244.8111673788511
 30
0.0
 10
116.4726782659613
 20
244.9166284643631
 30
0.0
 10
116.5112219070158
 20
245.1274627796126
 30
0.0
 10
116.6262752190921
 20
245.4358024038916
 30
0.0
 10
116.7786636854287
 20
245.7338904973389
 30
0.0
 10
116.9757403298255
 20
246.024562581162
 30
0.0
 10
117.2089268397373
 20
246.2993281592572
 30
0.0
 10
117.4830953063078
 20
246.5633571042482
 30
0.0
 10
117.788638506416
 20
246.80774108014
 30
0.0
 10
118.1312560973215
 20
247.037612654397
 30
0.0
 10
118.499952314097
 20
247.2451799065295
 30
0.0
 10
118.9005070562394
 20
247.4343968661052
 30
0.0
 10
119.3216115533917
 20
247.5993614812585
 30
0.0
 10
119.767969859353
 20
247.7425455028899
 30
0.0
 10
120.2291657171862
 20
247.8600727298272
 30
0.0
 10
120.707860813542
 20
247.9531565363287
 30
0.0
 10
121.1955281225388
 20
248.0196593348897
 30
0.0
 10
121.6921459282897
 20
248.0600448973473
 30
0.0
 10
122.1917667438614
 20
248.0733883775497
 30
0.0
 10
122.6913875594489
 20
248.0600448973486
 30
0.0
 10
123.1880053651522
 20
248.0196593348844
 30
0.0
 10
123.6756726743219
 20
247.9531565363482
 30
0.0
 10
124.1543677700508
 20
247.8600727297564
 30
0.0
 10
124.6155636301754
 20
247.7425455031492
 30
0.0
 10
125.0619219279518
 20
247.5993614803387
 30
0.0
 10
125.4830264547452
 20
247.4343968694554
 30
0.0
 10
125.8835810926731
 20
247.2451798948665
 30
0.0
 10
126.2522776838607
 20
247.0376126966724
 30
0.0
 10
126.5948939753383
 20
246.8077409352178
 30
0.0
 10
126.9004418189773
 20
246.56335762828
 30
0.0
 10
127.1745942846555
 20
246.2993263781768
 30
0.0
 10
127.4078379496374
 20
246.0245690339255
 30
0.0
 10
127.6047169831057
 20
245.7338684819804
 30
0.0
 10
127.757816525321
 20
245.4358828271734
 30
0.0
 10
127.8703639958307
 20
245.1271822076608
 30
0.0
 10
127.9369155061919
 20
244.8146115704241
 30
0.0
 10
127.9603907628791
 20
244.4982125272855
 30
0.0
 10
127.936915506192
 20
244.1818134841467
 30
0.0
 10
127.8703639958309
 20
243.86924284691
 30
0.0
 10
127.7578165253211
 20
243.5605422273974
 30
0.0
 10
127.6047169831058
 20
243.2625565725904
 30
0.0
 10
127.4078379496374
 20
242.9718560206453
 30
0.0
 10
127.1745942846555
 20
242.697098676394
 30
0.0
 10
126.9004418189774
 20
242.4330674262909
 30
0.0
 10
126.5948939753383
 20
242.188684119353
 30
0.0
 10
126.2522776838608
 20
241.9588123578984
 30
0.0
 10
125.8835810926732
 20
241.7512451597042
 30
0.0
 10
125.4830264547452
 20
241.5620281851155
 30
0.0
 10
125.0619219279518
 20
241.3970635742323
 30
0.0
 10
124.6155636301753
 20
241.2538795514216
 30
0.0
 10
124.1543677700507
 20
241.1363523248144
 30
0.0
 10
123.6756726743218
 20
241.0432685182227
 30
0.0
 10
123.1880053651524
 20
240.9767657196867
 30
0.0
 10
122.6913875594483
 20
240.9363801572222
 30
0.0
 10
122.1917667438639
 20
240.9230366770216
 30
0.0
 10
121.6921459282806
 20
240.9363801572221
 30
0.0
 10
121.195528122573
 20
240.9767657196869
 30
0.0
 10
120.7078608134159
 20
241.0432685182213
 30
0.0
 10
120.2291657176425
 20
241.1363523248195
 30
0.0
 10
119.7679698576806
 20
241.2538795514032
 30
0.0
 10
119.3216115593233
 20
241.3970635742976
 30
0.0
 10
118.9005070346333
 20
241.5620281848777
 30
0.0
 10
118.4999523893099
 20
241.7512451605319
 30
0.0
 10
118.131255824692
 20
241.9588123548984
 30
0.0
 10
117.7886394410019
 20
242.1886841296374
 30
0.0
 10
117.4830919268865
 20
242.4330673891034
 30
0.0
 10
117.2089383257202
 20
242.6970988027868
 30
0.0
 10
116.9756987166941
 20
242.971855562731
 30
0.0
 10
116.778805659952
 20
243.2625581348896
 30
0.0
 10
116.625756578568
 20
243.5605365202348
 30
0.0
 10
116.5130312833671
 20
243.8692627574348
 30
0.0
 10
116.4471303373801
 20
244.1817396734077
 30
0.0
 10
116.4212788282162
 20
244.4984810429847
 30
0.0
 10
116.4426918859151
 20
244.706938600229
 30
0.0
 10
116.4533984147645
 20
244.8111673788511
 30
0.0
 11
116.4533984147645
 21
244.8111673788511
 31
0.0
 11
116.5203939564673
 21
245.1251814024643
 31
0.0
 11
116.6293487886117
 21
245.4269269233341
 31
0.0
 11
116.7847736551889
 21
245.7304506747296
 31
0.0
 11
116.9750093792946
 21
246.0130115339127
 31
0.0
 11
117.2135026758499
 21
246.2951531792585
 31
0.0
 11
117.4788398049549
 21
246.5517404246388
 31
0.0
 11
117.7920011621766
 21
246.8032551483855
 31
0.0
 11
118.1250282813575
 21
247.0273760039788
 31
0.0
 11
118.5023566440757
 21
247.240611076794
 31
0.0
 11
118.8939243132692
 21
247.4260314317448
 31
0.0
 11
119.3232576650084
 21
247.5948074931918
 31
0.0
 11
119.7623467535088
 21
247.735939055862
 31
0.0
 11
120.2301926439097
 21
247.8555615504131
 31
0.0
 11
120.7041246714084
 21
247.9478608710793
 31
0.0
 11
121.196021378102
 21
248.0151841888525
 31
0.0
 11
121.6908409300844
 21
248.0554403772596
 31
0.0
 11
122.191766743864
 21
248.0689267415569
 31
0.0
 11
122.6926925576436
 21
248.0554403772596
 31
0.0
 11
123.187512109626
 21
248.0151841888525
 31
0.0
 11
123.6794088163197
 21
247.9478608710792
 31
0.0
 11
124.1533408438185
 21
247.8555615504131
 31
0.0
 11
124.6211867342193
 21
247.735939055862
 31
0.0
 11
125.0602758227198
 21
247.5948074931918
 31
0.0
 11
125.4896091744589
 21
247.4260314317449
 31
0.0
 11
125.8811768436524
 21
247.240611076794
 31
0.0
 11
126.2585052063707
 21
247.0273760039787
 31
0.0
 11
126.5915323255515
 21
246.8032551483854
 31
0.0
 11
126.9046936827732
 21
246.5517404246386
 31
0.0
 11
127.1700308118781
 21
246.2951531792584
 31
0.0
 11
127.4085241084334
 21
246.0130115339127
 31
0.0
 11
127.5987598325391
 21
245.7304506747298
 31
0.0
 11
127.7541846991164
 21
245.4269269233341
 31
0.0
 11
127.8631395312607
 21
245.1251814024642
 31
0.0
 11
127.9301350729635
 21
244.8111673788511
 31
0.0
 11
127.9526260547655
 21
244.4982125272854
 31
0.0
 11
127.9301350729637
 21
244.1852576757198
 31
0.0
 11
127.8631395312609
 21
243.8712436521066
 31
0.0
 11
127.7541846991165
 21
243.5694981312366
 31
0.0
 11
127.5987598325391
 21
243.265974379841
 31
0.0
 11
127.4085241084335
 21
242.9834135206581
 31
0.0
 11
127.1700308118782
 21
242.7012718753124
 31
0.0
 11
126.9046936827733
 21
242.4446846299322
 31
0.0
 11
126.5915323255516
 21
242.1931699061855
 31
0.0
 11
126.2585052063707
 21
241.9690490505921
 31
0.0
 11
125.8811768436524
 21
241.7558139777769
 31
0.0
 11
125.4896091744589
 21
241.5703936228261
 31
0.0
 11
125.0602758227197
 21
241.4016175613791
 31
0.0
 11
124.6211867342192
 21
241.2604859987089
 31
0.0
 11
124.1533408438183
 21
241.1408635041577
 31
0.0
 11
123.6794088163196
 21
241.0485641834916
 31
0.0
 11
123.187512109626
 21
240.9812408657185
 31
0.0
 11
122.6926925576437
 21
240.9409846773114
 31
0.0
 11
122.1917667438641
 21
240.927498313014
 31
0.0
 11
121.6908409300844
 21
240.9409846773113
 31
0.0
 11
121.1960213781021
 21
240.9812408657184
 31
0.0
 11
120.7041246714084
 21
241.0485641834916
 31
0.0
 11
120.2301926439097
 21
241.1408635041577
 31
0.0
 11
119.7623467535088
 21
241.2604859987089
 31
0.0
 11
119.3232576650084
 21
241.4016175613792
 31
0.0
 11
118.8939243132692
 21
241.570393622826
 31
0.0
 11
118.5023566440757
 21
241.7558139777769
 31
0.0
 11
118.1250282813575
 21
241.9690490505921
 31
0.0
 11
117.7920011621766
 21
242.1931699061855
 31
0.0
 11
117.4788398049549
 21
242.4446846299322
 31
0.0
 11
117.21350267585
 21
242.7012718753125
 31
0.0
 11
116.9750093792947
 21
242.9834135206581
 31
0.0
 11
116.7847736551891
 21
243.265974379841
 31
0.0
 11
116.6293487886117
 21
243.5694981312367
 31
0.0
 11
116.5203939564673
 21
243.8712436521066
 31
0.0
 11
116.4533984147645
 21
244.1852576757197
 31
0.0
 11
116.4309074329626
 21
244.4982125272854
 31
0.0
 11
116.4533984147645
 21
244.8111673788511
 31
0.0
  0
SPLINE
  5
8C
330
36
100
AcDbEntity
  8
1
  6
Continuous
 62
     7
100
AcDbSpline
210
0.0
220
0.0
230
1.0
 70
    11
 71
     3
 72
    79
 73
    75
 74
    73
 42
0.0000000001
 43
0.0000000001
 44
0.00000001
 40
0.0
 40
0.0
 40
0.0
 40
0.0
 40
0.3261189881638909
 40
0.6517242273663109
 40
1.007570734071789
 40
1.36278657815579
 40
1.759886314710476
 40
2.156516714717163
 40
2.5992100082689
 40
3.041603627004213
 40
3.528307206464714
 40
4.014826849024993
 40
4.539616314403974
 40
5.064295509496723
 40
5.618233632287947
 40
6.172109437578988
 40
6.744280968665913
 40
7.316424323670633
 40
7.894787044418134
 40
8.473149765165692
 40
9.045293120170472
 40
9.617464651257224
 40
10.17134045654816
 40
10.72527857933955
 40
11.24995777443225
 40
11.77474723981129
 40
12.2612668823715
 40
12.74797046183195
 40
13.19036408056734
 40
13.63305737411906
 40
14.02968777412564
 40
14.42678751068034
 40
14.78200335476442
 40
15.13784986146993
 40
15.46345510067232
 40
15.78957408883621
 40
16.10448972240911
 40
16.41940535598203
 40
16.74552434414595
 40
17.07112958334835
 40
17.42697609005385
 40
17.78219193413784
 40
18.17929167069248
 40
18.57592207069913
 40
19.01861536425086
 40
19.46100898298618
 40
19.94771256244664
 40
20.43423220500696
 40
20.95902167038594
 40
21.48370086547858
 40
22.03763898826986
 40
22.5915147935608
 40
23.16368632464773
 40
23.7358296796525
 40
24.31419240040006
 40
24.89255512114756
 40
25.46469847615227
 40
26.0368700072392
 40
26.59074581253026
 40
27.14468393532154
 40
27.66936313041417
 40
28.19415259579315
 40
28.68067223835348
 40
29.16737581781404
 40
29.60976943654934
 40
30.05246273010106
 40
30.44909313010763
 40
30.84619286666236
 40
31.20140871074634
 40
31.55725521745184
 40
31.88286045665418
 40
32.20897944481802
 40
32.52389507839092
 40
32.83881071196388
 40
32.83881071196388
 40
32.83881071196388
 40
32.83881071196388
 10
340.8339008660482
 20
244.8120290139236
 30
0.0
 10
340.8113435920533
 20
244.9186187721956
 30
0.0
 10
340.7662645794864
 20
245.1316303734093
 30
0.0
 10
340.6317368079151
 20
245.4414488681248
 30
0.0
 10
340.4549927177313
 20
245.739232714008
 30
0.0
 10
340.2261113049764
 20
246.0303787575967
 30
0.0
 10
339.9568933951951
 20
246.3037709746834
 30
0.0
 10
339.6396232792723
 20
246.5677307017947
 30
0.0
 10
339.287570858583
 20
246.8107369028787
 30
0.0
 10
338.8916974907926
 20
247.0403911535063
 30
0.0
 10
338.4669890761351
 20
247.2469421126079
 30
0.0
 10
338.0044717027884
 20
247.4359448677857
 30
0.0
 10
337.5192312010051
 20
247.6002586624258
 30
0.0
 10
337.0039897129769
 20
247.7432741642641
 30
0.0
 10
336.4723244522191
 20
247.8604265999084
 30
0.0
 10
335.9198754026198
 20
247.9534004909352
 30
0.0
 10
335.3574845626848
 20
248.0197195499001
 30
0.0
 10
334.784467912436
 20
248.0600658079442
 30
0.0
 10
334.2081217091625
 20
248.0733561397223
 30
0.0
 10
333.631775505866
 20
248.0600658079464
 30
0.0
 10
333.058758855684
 20
248.0197195498913
 30
0.0
 10
332.4963680155082
 20
247.9534004909672
 30
0.0
 10
331.9439189667784
 20
247.8604265997936
 30
0.0
 10
331.4122537028549
 20
247.7432741646831
 30
0.0
 10
330.8970122260454
 20
247.6002586609533
 30
0.0
 10
330.4117716838747
 20
247.4359448731226
 30
0.0
 10
329.9492544507993
 20
247.2469420942949
 30
0.0
 10
329.5245455365955
 20
247.0403912194175
 30
0.0
 10
329.1286738722349
 20
246.810736681589
 30
0.0
 10
328.7766154374673
 20
246.5677314944884
 30
0.0
 10
328.4593655607803
 20
246.3037683550083
 30
0.0
 10
328.1900764316166
 20
246.0303881456284
 30
0.0
 10
327.9614344394972
 20
245.7392017353208
 30
0.0
 10
327.7838417142492
 20
245.441560970726
 30
0.0
 10
327.6522286426147
 20
245.1312510527355
 30
0.0
 10
327.5748036665382
 20
244.8170924757093
 30
0.0
 10
327.5468435494252
 20
244.4982125272853
 30
0.0
 10
327.5748036665382
 20
244.1793325788614
 30
0.0
 10
327.6522286426149
 20
243.8651740018354
 30
0.0
 10
327.7838417142493
 20
243.5548640838446
 30
0.0
 10
327.9614344394972
 20
243.2572233192498
 30
0.0
 10
328.1900764316167
 20
242.9660369089426
 30
0.0
 10
328.4593655607802
 20
242.6926566995625
 30
0.0
 10
328.7766154374676
 20
242.4286935600824
 30
0.0
 10
329.1286738722349
 20
242.1856883729819
 30
0.0
 10
329.5245455365956
 20
241.9560338351533
 30
0.0
 10
329.9492544507992
 20
241.7494829602757
 30
0.0
 10
330.4117716838747
 20
241.5604801814483
 30
0.0
 10
330.8970122260455
 20
241.3961663936174
 30
0.0
 10
331.4122537028549
 20
241.2531508898877
 30
0.0
 10
331.9439189667783
 20
241.1359984547771
 30
0.0
 10
332.4963680155083
 20
241.0430245636036
 30
0.0
 10
333.0587588556836
 20
240.9767055046794
 30
0.0
 10
333.6317755058671
 20
240.9363592466241
 30
0.0
 10
334.208121709159
 20
240.9230689148495
 30
0.0
 10
334.784467912449
 20
240.936359246624
 30
0.0
 10
335.3574845626372
 20
240.97670550468
 30
0.0
 10
335.9198754027956
 20
241.0430245636013
 30
0.0
 10
336.4723244515869
 20
241.1359984547854
 30
0.0
 10
337.0039897152871
 20
241.2531508898582
 30
0.0
 10
337.5192311928877
 20
241.3961663937213
 30
0.0
 10
338.0044717322099
 20
241.5604801810718
 30
0.0
 10
338.4669889751793
 20
241.7494829615676
 30
0.0
 10
338.8916978541473
 20
241.9560338305041
 30
0.0
 10
339.2875696386608
 20
242.1856883885907
 30
0.0
 10
339.6396276492196
 20
242.4286935041688
 30
0.0
 10
339.9568789535006
 20
242.6926568843439
 30
0.0
 10
340.226163059137
 20
242.9660362467486
 30
0.0
 10
340.4548219390198
 20
243.2572255043613
 30
0.0
 10
340.6323548049818
 20
243.5548561765804
 30
0.0
 10
340.764173467764
 20
243.8652007575819
 30
0.0
 10
340.840853329322
 20
244.1792337070561
 30
0.0
 10
340.8715052296301
 20
244.4985674946207
 30
0.0
 10
340.8464356539089
 20
244.7075418408226
 30
0.0
 10
340.8339008660482
 20
244.8120290139236
 30
0.0
 11
340.8339008660482
 21
244.8120290139236
 31
0.0
 11
340.7557282034945
 21
245.1286401780829
 31
0.0
 11
340.630021948418
 21
245.4290011429746
 31
0.0
 11
340.4484655649829
 21
245.7350469172772
 31
0.0
 11
340.230103505088
 21
246.015218840722
 31
0.0
 11
339.9523559557127
 21
246.2990224692891
 31
0.0
 11
339.6480564035333
 21
246.5534187286029
 31
0.0
 11
339.2844087782142
 21
246.8058821056609
 31
0.0
 11
338.9020757713353
 21
247.028443525832
 31
0.0
 11
338.4648072105601
 21
247.2421643250475
 31
0.0
 11
338.014611782861
 21
247.4266241837589
 31
0.0
 11
337.5177720612465
 21
247.5956042831751
 31
0.0
 11
337.012285393327
 21
247.7362154005125
 31
0.0
 11
336.47142758632
 21
247.8558827581376
 31
0.0
 11
335.9252572782031
 21
247.9479501368248
 31
0.0
 11
335.3570573111638
 21
248.0152484164679
 31
0.0
 11
334.7863276331131
 21
248.0554436060827
 31
0.0
 11
334.2081217091586
 21
248.0689100924214
 31
0.0
 11
333.6299157852039
 21
248.0554436060827
 31
0.0
 11
333.0591861071532
 21
248.0152484164678
 31
0.0
 11
332.4909861401141
 21
247.9479501368248
 31
0.0
 11
331.9448158319973
 21
247.8558827581376
 31
0.0
 11
331.4039580249901
 21
247.7362154005125
 31
0.0
 11
330.8984713570707
 21
247.5956042831751
 31
0.0
 11
330.4016316354561
 21
247.4266241837588
 31
0.0
 11
329.951436207757
 21
247.2421643250475
 31
0.0
 11
329.514167646982
 21
247.028443525832
 31
0.0
 11
329.1318346401029
 21
246.8058821056609
 31
0.0
 11
328.7681870147839
 21
246.5534187286029
 31
0.0
 11
328.4638874626045
 21
246.2990224692891
 31
0.0
 11
328.1861399132292
 21
246.0152188407221
 31
0.0
 11
327.9677778533343
 21
245.7350469172772
 31
0.0
 11
327.7862214698992
 21
245.4290011429746
 31
0.0
 11
327.6605152148226
 21
245.1286401780829
 31
0.0
 11
327.5823425522689
 21
244.8120290139236
 31
0.0
 11
327.5560543613336
 21
244.4982125272854
 31
0.0
 11
327.5823425522689
 21
244.1843960406471
 31
0.0
 11
327.6605152148227
 21
243.8677848764878
 31
0.0
 11
327.7862214698993
 21
243.5674239115961
 31
0.0
 11
327.9677778533343
 21
243.2613781372935
 31
0.0
 11
328.1861399132293
 21
242.9812062138487
 31
0.0
 11
328.4638874626045
 21
242.6974025852817
 31
0.0
 11
328.768187014784
 21
242.443006325968
 31
0.0
 11
329.131834640103
 21
242.19054294891
 31
0.0
 11
329.514167646982
 21
241.9679815287388
 31
0.0
 11
329.951436207757
 21
241.7542607295233
 31
0.0
 11
330.4016316354562
 21
241.569800870812
 31
0.0
 11
330.8984713570707
 21
241.4008207713957
 31
0.0
 11
331.4039580249901
 21
241.2602096540583
 31
0.0
 11
331.9448158319972
 21
241.1405422964332
 31
0.0
 11
332.4909861401139
 21
241.048474917746
 31
0.0
 11
333.0591861071532
 21
240.9811766381029
 31
0.0
 11
333.629915785204
 21
240.9409814484881
 31
0.0
 11
334.2081217091586
 21
240.9275149621495
 31
0.0
 11
334.7863276331132
 21
240.9409814484881
 31
0.0
 11
335.3570573111639
 21
240.9811766381029
 31
0.0
 11
335.9252572782032
 21
241.048474917746
 31
0.0
 11
336.47142758632
 21
241.1405422964332
 31
0.0
 11
337.0122853933272
 21
241.2602096540583
 31
0.0
 11
337.5177720612465
 21
241.4008207713957
 31
0.0
 11
338.014611782861
 21
241.569800870812
 31
0.0
 11
338.4648072105602
 21
241.7542607295233
 31
0.0
 11
338.9020757713354
 21
241.9679815287388
 31
0.0
 11
339.2844087782144
 21
242.1905429489099
 31
0.0
 11
339.6480564035334
 21
242.4430063259679
 31
0.0
 11
339.9523559557127
 21
242.6974025852817
 31
0.0
 11
340.230103505088
 21
242.9812062138488
 31
0.0
 11
340.4484655649829
 21
243.2613781372936
 31
0.0
 11
340.630021948418
 21
243.5674239115962
 31
0.0
 11
340.7557282034945
 21
243.8677848764878
 31
0.0
 11
340.8339008660482
 21
244.184396040647
 31
0.0
 11
340.8601890569835
 21
244.4982125272853
 31
0.0
 11
340.8339008660482
 21
244.8120290139236
 31
0.0
  0
SPLINE
  5
8D
330
36
100
AcDbEntity
  8
1
  6
Continuous
 62
     7
100
AcDbSpline
210
0.0
220
0.0
230
1.0
 70
    11
 71
     3
 72
    79
 73
    75
 74
    73
 42
0.0000000001
 43
0.0000000001
 44
0.00000001
 40
0.0
 40
0.0
 40
0.0
 40
0.0
 40
0.2910229153818973
 40
0.5820342278737924
 40
0.8749339334364092
 40
1.167812547519265
 40
1.463561188767293
 40
1.759282806464836
 40
2.058487811140764
 40
2.357663885605909
 40
2.660503341347558
 40
2.963315625194629
 40
3.269530826276515
 40
3.57572346884381
 40
3.884662744191461
 40
4.19358602791902
 40
4.504289085610647
 40
4.814983882015303
 40
5.126294430971122
 40
5.437604979926912
 40
5.748299776331511
 40
6.059002834023167
 40
6.367926117750753
 40
6.676865393098358
 40
6.983058035665678
 40
7.289273236747569
 40
7.59208552059457
 40
7.894924976336263
 40
8.194101050801407
 40
8.493306055477415
 40
8.789027673175037
 40
9.084776314422937
 40
9.377654928505782
 40
9.670554634068498
 40
9.961565946560393
 40
10.25258886194217
 40
10.54295309984911
 40
10.83331733775609
 40
11.12434025313799
 40
11.41535156562983
 40
11.70825127119248
 40
12.00112988527543
 40
12.29687852652347
 40
12.59260014422102
 40
12.89180514889695
 40
13.19098122336208
 40
13.49382067910377
 40
13.79663296295077
 40
14.10284816403263
 40
14.40904080659992
 40
14.71798008194753
 40
15.02690336567512
 40
15.33760642336676
 40
15.6483012197714
 40
15.95961176872721
 40
16.27092231768303
 40
16.5816171140877
 40
16.89232017177931
 40
17.20124345550685
 40
17.51018273085447
 40
17.81637537342174
 40
18.12259057450355
 40
18.42540285835063
 40
18.72824231409235
 40
19.02741838855751
 40
19.3266233932335
 40
19.62234501093103
 40
19.91809365217889
 40
20.21097226626175
 40
20.50387197182443
 40
20.79488328431638
 40
21.08590619969827
 40
21.37627043760526
 40
21.66663467551224
 40
21.66663467551224
 40
21.66663467551224
 40
21.66663467551224
 10
322.3738095109269
 20
248.0552817786866
 30
0.0
 10
322.4701845696439
 20
248.0436061108852
 30
0.0
 10
322.6629308446683
 20
248.0202552407835
 30
0.0
 10
322.9468673539333
 20
247.9508992473331
 30
0.0
 10
323.2241316197919
 20
247.8574564897576
 30
0.0
 10
323.492884003642
 20
247.7375495037803
 30
0.0
 10
323.7505293871618
 20
247.5935039985932
 30
0.0
 10
323.9957563343966
 20
247.4254373977477
 30
0.0
 10
324.2260196904538
 20
247.2356026646739
 30
0.0
 10
324.4402518989697
 20
247.0244665360065
 30
0.0
 10
324.6362063277325
 20
246.7946869323725
 30
0.0
 10
324.8129636713531
 20
246.5469584001482
 30
0.0
 10
324.9687345053202
 20
246.2842261603144
 30
0.0
 10
325.1027029226892
 20
246.0074751486726
 30
0.0
 10
325.2136259539748
 20
245.7197431709089
 30
0.0
 10
325.3008027463461
 20
245.4223897244861
 30
0.0
 10
325.3635507564391
 20
245.1183437283431
 30
0.0
 10
325.4013511356512
 20
244.809402132589
 30
0.0
 10
325.4140282091395
 20
244.4982125272863
 30
0.0
 10
325.4013511356516
 20
244.1870229219782
 30
0.0
 10
325.3635507564377
 20
243.8780813262408
 30
0.0
 10
325.3008027463508
 20
243.5740353300361
 30
0.0
 10
325.2136259539578
 20
243.2766818838423
 30
0.0
 10
325.1027029227524
 20
242.9889499052275
 30
0.0
 10
324.9687345050871
 20
242.7121988967353
 30
0.0
 10
324.8129636722196
 20
242.449466645211
 30
0.0
 10
324.6362063245384
 20
242.2017381561529
 30
0.0
 10
324.4402519108352
 20
241.971958392432
 30
0.0
 10
324.2260196467642
 20
241.7608228543242
 30
0.0
 10
323.9957564967297
 20
241.5709859311966
 30
0.0
 10
323.7505287891345
 20
241.4029274131018
 30
0.0
 10
323.4928862274549
 20
241.2588519113089
 30
0.0
 10
323.2241234095637
 20
241.1390558408291
 30
0.0
 10
322.9468979238714
 20
241.0452008439881
 30
0.0
 10
322.6628175703688
 20
240.9773739373981
 30
0.0
 10
322.374450089856
 20
240.9366789757744
 30
0.0
 10
322.0837660561764
 20
240.9229131822094
 30
0.0
 10
321.7930820224971
 20
240.9366789757745
 30
0.0
 10
321.504714541984
 20
240.977373937398
 30
0.0
 10
321.2206341884815
 20
241.045200843988
 30
0.0
 10
320.9434087027892
 20
241.1390558408291
 30
0.0
 10
320.6746458848978
 20
241.2588519113089
 30
0.0
 10
320.4170033232183
 20
241.4029274131017
 30
0.0
 10
320.1717756156232
 20
241.5709859311967
 30
0.0
 10
319.9415124655887
 20
241.7608228543243
 30
0.0
 10
319.7272802015177
 20
241.9719583924322
 30
0.0
 10
319.5313257878145
 20
242.2017381561528
 30
0.0
 10
319.3545684401332
 20
242.4494666452111
 30
0.0
 10
319.198797607266
 20
242.7121988967353
 30
0.0
 10
319.0648291896004
 20
242.9889499052274
 30
0.0
 10
318.9539061583953
 20
243.2766818838423
 30
0.0
 10
318.8667293660022
 20
243.574035330036
 30
0.0
 10
318.8039813559155
 20
243.8780813262409
 30
0.0
 10
318.7661809767013
 20
244.1870229219782
 30
0.0
 10
318.7535039032137
 20
244.4982125272856
 30
0.0
 10
318.7661809767012
 20
244.8094021325923
 30
0.0
 10
318.8039813559156
 20
245.1183437283311
 30
0.0
 10
318.8667293660018
 20
245.4223897245312
 30
0.0
 10
318.9539061583965
 20
245.7197431707417
 30
0.0
 10
319.0648291895959
 20
246.0074751492952
 30
0.0
 10
319.1987976072827
 20
246.2842261580133
 30
0.0
 10
319.354568440071
 20
246.5469584086991
 30
0.0
 10
319.5313257880437
 20
246.794686900853
 30
0.0
 10
319.7272802006668
 20
247.0244666530932
 30
0.0
 10
319.941512468722
 20
247.235602233553
 30
0.0
 10
320.1717756039815
 20
247.4254389996213
 30
0.0
 10
320.4170033661058
 20
247.5934980973686
 30
0.0
 10
320.6746457254177
 20
247.7375714479624
 30
0.0
 10
320.9434092915836
 20
247.8573754727194
 30
0.0
 10
321.2206319961659
 20
247.9512009059246
 30
0.0
 10
321.504722665422
 20
248.0191374705967
 30
0.0
 10
321.7930517264932
 20
248.0594240275132
 30
0.0
 10
322.0838788391591
 20
248.0747107731973
 30
0.0
 10
322.2771659536709
 20
248.0617581101901
 30
0.0
 10
322.373809510927
 20
248.0552817786866
 30
0.0
 11
322.3738095109269
 21
248.0552817786866
 31
0.0
 11
322.6619690072018
 21
248.0145578056001
 31
0.0
 11
322.9450512135843
 21
247.9470889355347
 31
0.0
 11
323.2224752561281
 21
247.8531414068959
 31
0.0
 11
323.4900370082454
 21
247.7340255330965
 31
0.0
 11
323.7481693769607
 21
247.5896824036393
 31
0.0
 11
323.9921820295718
 21
247.4226222332236
 31
0.0
 11
324.2230615351027
 21
247.2323112016229
 31
0.0
 11
324.4362368300539
 21
247.0224002272674
 31
0.0
 11
324.6327711540621
 21
246.791996244141
 31
0.0
 11
324.8087446898617
 21
246.5455645214532
 31
0.0
 11
324.9649418303345
 21
246.2821822846153
 31
0.0
 11
325.0984375182987
 21
246.0066231518374
 31
0.0
 11
325.2095874438559
 21
245.7183712309401
 31
0.0
 11
325.2965640978822
 21
245.4219447528998
 31
0.0
 11
325.3593691722037
 21
245.1176555603569
 31
0.0
 11
325.3971445338753
 21
244.8092657444364
 31
0.0
 11
325.4097997300889
 21
244.4982125272854
 31
0.0
 11
325.3971445338753
 21
244.1871593101344
 31
0.0
 11
325.3593691722037
 21
243.8787694942139
 31
0.0
 11
325.2965640978822
 21
243.574480301671
 31
0.0
 11
325.2095874438559
 21
243.2780538236306
 31
0.0
 11
325.0984375182988
 21
242.9898019027334
 31
0.0
 11
324.9649418303346
 21
242.7142427699555
 31
0.0
 11
324.8087446898617
 21
242.4508605331176
 31
0.0
 11
324.6327711540621
 21
242.2044288104299
 31
0.0
 11
324.4362368300539
 21
241.9740248273034
 31
0.0
 11
324.2230615351027
 21
241.764113852948
 31
0.0
 11
323.9921820295718
 21
241.5738028213472
 31
0.0
 11
323.7481693769606
 21
241.4067426509314
 31
0.0
 11
323.4900370082454
 21
241.2623995214743
 31
0.0
 11
323.2224752561281
 21
241.1432836476749
 31
0.0
 11
322.9450512135842
 21
241.0493361190361
 31
0.0
 11
322.6619690072017
 21
240.9818672489708
 31
0.0
 11
322.3738095109269
 21
240.9411432758843
 31
0.0
 11
322.0837660561765
 21
240.927498313014
 31
0.0
 11
321.7937226014261
 21
240.9411432758843
 31
0.0
 11
321.5055631051511
 21
240.9818672489708
 31
0.0
 11
321.2224808987687
 21
241.0493361190361
 31
0.0
 11
320.9450568562249
 21
241.1432836476749
 31
0.0
 11
320.6774951041074
 21
241.2623995214742
 31
0.0
 11
320.4193627353922
 21
241.4067426509315
 31
0.0
 11
320.1753500827811
 21
241.5738028213472
 31
0.0
 11
319.9444705772502
 21
241.764113852948
 31
0.0
 11
319.7312952822991
 21
241.9740248273035
 31
0.0
 11
319.5347609582908
 21
242.2044288104299
 31
0.0
 11
319.3587874224912
 21
242.4508605331176
 31
0.0
 11
319.2025902820184
 21
242.7142427699555
 31
0.0
 11
319.0690945940542
 21
242.9898019027334
 31
0.0
 11
318.9579446684971
 21
243.2780538236306
 31
0.0
 11
318.8709680144708
 21
243.574480301671
 31
0.0
 11
318.8081629401494
 21
243.8787694942139
 31
0.0
 11
318.7703875784777
 21
244.1871593101345
 31
0.0
 11
318.7577323822641
 21
244.4982125272854
 31
0.0
 11
318.7703875784777
 21
244.8092657444364
 31
0.0
 11
318.8081629401494
 21
245.117655560357
 31
0.0
 11
318.8709680144708
 21
245.4219447528998
 31
0.0
 11
318.9579446684971
 21
245.7183712309402
 31
0.0
 11
319.0690945940542
 21
246.0066231518374
 31
0.0
 11
319.2025902820184
 21
246.2821822846153
 31
0.0
 11
319.3587874224912
 21
246.5455645214531
 31
0.0
 11
319.5347609582909
 21
246.7919962441409
 31
0.0
 11
319.7312952822991
 21
247.0224002272674
 31
0.0
 11
319.9444705772502
 21
247.2323112016229
 31
0.0
 11
320.1753500827812
 21
247.4226222332237
 31
0.0
 11
320.4193627353923
 21
247.5896824036393
 31
0.0
 11
320.6774951041074
 21
247.7340255330965
 31
0.0
 11
320.9450568562248
 21
247.8531414068959
 31
0.0
 11
321.2224808987686
 21
247.9470889355347
 31
0.0
 11
321.5055631051511
 21
248.0145578056001
 31
0.0
 11
321.7937226014261
 21
248.0552817786866
 31
0.0
 11
322.0837660561765
 21
248.0689267415568
 31
0.0
 11
322.373809510927
 21
248.0552817786866
 31
0.0
  0
SPLINE
  5
8E
330
36
100
AcDbEntity
  8
1
  6
Continuous
 62
     7
100
AcDbSpline
210
0.0
220
0.0
230
1.0
 70
    11
 71
     3
 72
    79
 73
    75
 74
    73
 42
0.0000000001
 43
0.0000000001
 44
0.00000001
 40
0.0
 40
0.0
 40
0.0
 40
0.0
 40
0.2910229153818411
 40
0.5820342278736808
 40
0.8749339334363515
 40
1.167812547519259
 40
1.463561188767238
 40
1.759282806464733
 40
2.058487811140618
 40
2.357663885605803
 40
2.660503341347489
 40
2.96331562519456
 40
3.269530826276417
 40
3.575723468843711
 40
3.884662744191383
 40
4.193586027918942
 40
4.504289085610569
 40
4.814983882015225
 40
5.126294430971046
 40
5.437604979926839
 40
5.748299776331439
 40
6.059002834023082
 40
6.367926117750701
 40
6.676865393098326
 40
6.983058035665646
 40
7.289273236747479
 40
7.592085520594513
 40
7.894924976336206
 40
8.194101050801391
 40
8.493306055477312
 40
8.789027673174839
 40
9.08477631442274
 40
9.377654928505585
 40
9.670554634068301
 40
9.961565946560251
 40
10.25258886194209
 40
10.54295309984902
 40
10.83331733775601
 40
11.12434025313785
 40
11.4153515656298
 40
11.70825127119251
 40
12.00112988527535
 40
12.29687852652334
 40
12.59260014422089
 40
12.89180514889683
 40
13.19098122336199
 40
13.49382067910364
 40
13.79663296295071
 40
14.10284816403254
 40
14.40904080659981
 40
14.71798008194742
 40
15.02690336567502
 40
15.33760642336668
 40
15.64830121977131
 40
15.95961176872713
 40
16.27092231768295
 40
16.58161711408761
 40
16.89232017177923
 40
17.20124345550674
 40
17.51018273085437
 40
17.81637537342166
 40
18.1225905745035
 40
18.42540285835058
 40
18.7282423140923
 40
19.02741838855754
 40
19.3266233932334
 40
19.62234501093093
 40
19.91809365217884
 40
20.21097226626175
 40
20.50387197182443
 40
20.79488328431644
 40
21.08590619969833
 40
21.3762704376052
 40
21.66663467551213
 40
21.66663467551213
 40
21.66663467551213
 40
21.66663467551213
 10
346.0424339073904
 20
248.0552817786866
 30
0.0
 10
345.9460588486735
 20
248.0436061108852
 30
0.0
 10
345.7533125736491
 20
248.0202552407836
 30
0.0
 10
345.4693760643841
 20
247.950899247333
 30
0.0
 10
345.1921117985255
 20
247.8574564897575
 30
0.0
 10
344.9233594146753
 20
247.7375495037803
 30
0.0
 10
344.6657140311555
 20
247.5935039985932
 30
0.0
 10
344.4204870839209
 20
247.4254373977477
 30
0.0
 10
344.1902237278637
 20
247.2356026646739
 30
0.0
 10
343.9759915193478
 20
247.0244665360065
 30
0.0
 10
343.7800370905848
 20
246.7946869323726
 30
0.0
 10
343.6032797469643
 20
246.5469584001483
 30
0.0
 10
343.4475089129971
 20
246.2842261603142
 30
0.0
 10
343.3135404956282
 20
246.0074751486725
 30
0.0
 10
343.2026174643425
 20
245.7197431709089
 30
0.0
 10
343.1154406719713
 20
245.4223897244862
 30
0.0
 10
343.0526926618783
 20
245.1183437283431
 30
0.0
 10
343.0148922826662
 20
244.809402132589
 30
0.0
 10
343.0022152091777
 20
244.4982125272863
 30
0.0
 10
343.0148922826658
 20
244.187022921978
 30
0.0
 10
343.0526926618797
 20
243.8780813262408
 30
0.0
 10
343.1154406719666
 20
243.5740353300361
 30
0.0
 10
343.2026174643597
 20
243.2766818838423
 30
0.0
 10
343.3135404955651
 20
242.9889499052275
 30
0.0
 10
343.4475089132304
 20
242.7121988967353
 30
0.0
 10
343.6032797460978
 20
242.4494666452111
 30
0.0
 10
343.7800370937791
 20
242.2017381561529
 30
0.0
 10
343.9759915074822
 20
241.971958392432
 30
0.0
 10
344.1902237715533
 20
241.7608228543242
 30
0.0
 10
344.4204869215877
 20
241.5709859311966
 30
0.0
 10
344.6657146291828
 20
241.4029274131017
 30
0.0
 10
344.9233571908623
 20
241.2588519113089
 30
0.0
 10
345.1921200087535
 20
241.1390558408291
 30
0.0
 10
345.4693454944459
 20
241.045200843988
 30
0.0
 10
345.7534258479485
 20
240.9773739373981
 30
0.0
 10
346.0417933284613
 20
240.9366789757744
 30
0.0
 10
346.3324773621409
 20
240.9229131822095
 30
0.0
 10
346.6231613958203
 20
240.9366789757743
 30
0.0
 10
346.9115288763333
 20
240.9773739373981
 30
0.0
 10
347.195609229836
 20
241.0452008439879
 30
0.0
 10
347.4728347155283
 20
241.1390558408291
 30
0.0
 10
347.7415975334195
 20
241.2588519113088
 30
0.0
 10
347.9992400950991
 20
241.4029274131017
 30
0.0
 10
348.244467802694
 20
241.5709859311966
 30
0.0
 10
348.4747309527287
 20
241.7608228543244
 30
0.0
 10
348.6889632167996
 20
241.9719583924322
 30
0.0
 10
348.8849176305027
 20
242.2017381561529
 30
0.0
 10
349.0616749781843
 20
242.4494666452111
 30
0.0
 10
349.2174458110513
 20
242.7121988967352
 30
0.0
 10
349.351414228717
 20
242.9889499052274
 30
0.0
 10
349.462337259922
 20
243.2766818838422
 30
0.0
 10
349.5495140523151
 20
243.574035330036
 30
0.0
 10
349.6122620624022
 20
243.8780813262408
 30
0.0
 10
349.6500624416159
 20
244.1870229219783
 30
0.0
 10
349.662739515104
 20
244.4982125272855
 30
0.0
 10
349.6500624416159
 20
244.8094021325923
 30
0.0
 10
349.6122620624021
 20
245.118343728331
 30
0.0
 10
349.5495140523155
 20
245.4223897245313
 30
0.0
 10
349.462337259921
 20
245.7197431707415
 30
0.0
 10
349.3514142287216
 20
246.0074751492954
 30
0.0
 10
349.2174458110347
 20
246.2842261580132
 30
0.0
 10
349.0616749782463
 20
246.5469584086991
 30
0.0
 10
348.8849176302737
 20
246.794686900853
 30
0.0
 10
348.6889632176506
 20
247.0244666530932
 30
0.0
 10
348.4747309495954
 20
247.2356022335529
 30
0.0
 10
348.2444678143359
 20
247.4254389996214
 30
0.0
 10
347.9992400522117
 20
247.5934980973686
 30
0.0
 10
347.7415976928996
 20
247.7375714479623
 30
0.0
 10
347.4728341267339
 20
247.8573754727194
 30
0.0
 10
347.1956114221513
 20
247.9512009059246
 30
0.0
 10
346.9115207528952
 20
248.0191374705966
 30
0.0
 10
346.6231916918241
 20
248.0594240275133
 30
0.0
 10
346.3323645791583
 20
248.0747107731973
 30
0.0
 10
346.1390774646464
 20
248.0617581101901
 30
0.0
 10
346.0424339073905
 20
248.0552817786866
 30
0.0
 11
346.0424339073904
 21
248.0552817786866
 31
0.0
 11
345.7542744111156
 21
248.0145578056001
 31
0.0
 11
345.4711922047331
 21
247.9470889355347
 31
0.0
 11
345.1937681621893
 21
247.8531414068959
 31
0.0
 11
344.9262064100719
 21
247.7340255330965
 31
0.0
 11
344.6680740413567
 21
247.5896824036393
 31
0.0
 11
344.4240613887456
 21
247.4226222332236
 31
0.0
 11
344.1931818832148
 21
247.2323112016229
 31
0.0
 11
343.9800065882636
 21
247.0224002272674
 31
0.0
 11
343.7834722642553
 21
246.791996244141
 31
0.0
 11
343.6074987284557
 21
246.5455645214532
 31
0.0
 11
343.4513015879829
 21
246.2821822846153
 31
0.0
 11
343.3178059000187
 21
246.0066231518374
 31
0.0
 11
343.2066559744615
 21
245.7183712309401
 31
0.0
 11
343.1196793204352
 21
245.4219447528998
 31
0.0
 11
343.0568742461137
 21
245.1176555603569
 31
0.0
 11
343.0190988844421
 21
244.8092657444364
 31
0.0
 11
343.0064436882284
 21
244.4982125272854
 31
0.0
 11
343.0190988844421
 21
244.1871593101344
 31
0.0
 11
343.0568742461137
 21
243.8787694942139
 31
0.0
 11
343.1196793204351
 21
243.574480301671
 31
0.0
 11
343.2066559744615
 21
243.2780538236306
 31
0.0
 11
343.3178059000187
 21
242.9898019027334
 31
0.0
 11
343.4513015879829
 21
242.7142427699555
 31
0.0
 11
343.6074987284557
 21
242.4508605331176
 31
0.0
 11
343.7834722642554
 21
242.2044288104299
 31
0.0
 11
343.9800065882636
 21
241.9740248273034
 31
0.0
 11
344.1931818832148
 21
241.764113852948
 31
0.0
 11
344.4240613887456
 21
241.5738028213472
 31
0.0
 11
344.6680740413567
 21
241.4067426509314
 31
0.0
 11
344.9262064100719
 21
241.2623995214743
 31
0.0
 11
345.1937681621892
 21
241.1432836476749
 31
0.0
 11
345.4711922047331
 21
241.0493361190361
 31
0.0
 11
345.7542744111156
 21
240.9818672489708
 31
0.0
 11
346.0424339073905
 21
240.9411432758843
 31
0.0
 11
346.3324773621409
 21
240.927498313014
 31
0.0
 11
346.6225208168913
 21
240.9411432758843
 31
0.0
 11
346.9106803131662
 21
240.9818672489708
 31
0.0
 11
347.1937625195487
 21
241.0493361190361
 31
0.0
 11
347.4711865620926
 21
241.1432836476749
 31
0.0
 11
347.7387483142099
 21
241.2623995214742
 31
0.0
 11
347.9968806829252
 21
241.4067426509315
 31
0.0
 11
348.2408933355363
 21
241.5738028213472
 31
0.0
 11
348.4717728410671
 21
241.764113852948
 31
0.0
 11
348.6849481360183
 21
241.9740248273035
 31
0.0
 11
348.8814824600265
 21
242.2044288104299
 31
0.0
 11
349.0574559958262
 21
242.4508605331176
 31
0.0
 11
349.213653136299
 21
242.7142427699555
 31
0.0
 11
349.3471488242632
 21
242.9898019027334
 31
0.0
 11
349.4582987498202
 21
243.2780538236306
 31
0.0
 11
349.5452754038466
 21
243.574480301671
 31
0.0
 11
349.6080804781681
 21
243.8787694942139
 31
0.0
 11
349.6458558398397
 21
244.1871593101345
 31
0.0
 11
349.6585110360534
 21
244.4982125272854
 31
0.0
 11
349.6458558398397
 21
244.8092657444364
 31
0.0
 11
349.6080804781681
 21
245.117655560357
 31
0.0
 11
349.5452754038466
 21
245.4219447528998
 31
0.0
 11
349.4582987498204
 21
245.7183712309402
 31
0.0
 11
349.3471488242633
 21
246.0066231518374
 31
0.0
 11
349.213653136299
 21
246.2821822846153
 31
0.0
 11
349.0574559958262
 21
246.5455645214531
 31
0.0
 11
348.8814824600265
 21
246.7919962441409
 31
0.0
 11
348.6849481360183
 21
247.0224002272674
 31
0.0
 11
348.471772841067
 21
247.2323112016229
 31
0.0
 11
348.2408933355363
 21
247.4226222332237
 31
0.0
 11
347.9968806829251
 21
247.5896824036393
 31
0.0
 11
347.7387483142099
 21
247.7340255330965
 31
0.0
 11
347.4711865620926
 21
247.8531414068959
 31
0.0
 11
347.1937625195487
 21
247.9470889355347
 31
0.0
 11
346.9106803131662
 21
248.0145578056001
 31
0.0
 11
346.6225208168912
 21
248.0552817786866
 31
0.0
 11
346.3324773621409
 21
248.0689267415568
 31
0.0
 11
346.0424339073905
 21
248.0552817786866
 31
0.0
  0
ARC
  5
8F
330
36
100
AcDbEntity
  8
1
  6
Continuous
 62
     7
100
AcDbCircle
 10
126.7497878055947
 20
240.640675562727
 30
0.0
 40
1.0
100
AcDbArc
 50
-90.0
 51
-74.66244233044873
  0
ARC
  5
90
330
36
100
AcDbEntity
  8
1
  6
Continuous
 62
     7
100
AcDbCircle
 10
124.9597159362952
 20
239.640675562727
 30
0.0
 40
1.0
100
AcDbArc
 50
-90.0
 51
-30.00000000000095
  0
ARC
  5
91
330
36
100
AcDbEntity
  8
1
  6
Continuous
 62
     7
100
AcDbCircle
 10
126.691766743864
 20
238.640675562727
 30
0.0
 40
1.0
100
AcDbArc
 50
90.0
 51
149.9999999999987
  0
ARC
  5
92
330
36
100
AcDbEntity
  8
1
  6
Continuous
 62
     7
100
AcDbCircle
 10
103.6337456821334
 20
240.640675562727
 30
0.0
 40
1.000000000000021
100
AcDbArc
 50
-105.3375576695568
 51
-90.0
  0
ARC
  5
93
330
36
100
AcDbEntity
  8
1
  6
Continuous
 62
     7
100
AcDbCircle
 10
105.4238175514328
 20
239.640675562727
 30
0.0
 40
1.000000000000058
100
AcDbArc
 50
-150.0000000000019
 51
-90.0
  0
ARC
  5
94
330
36
100
AcDbEntity
  8
1
  6
Continuous
 62
     7
100
AcDbCircle
 10
103.6917667438639
 20
238.640675562727
 30
0.0
 40
0.9999999999999713
100
AcDbArc
 50
30.00000000000095
 51
90.0
  0
ARC
  5
95
330
36
100
AcDbEntity
  8
1
  6
Continuous
 62
     7
100
AcDbCircle
 10
345.7661427708891
 20
240.640675562727
 30
0.0
 40
1.0
100
AcDbArc
 50
-90.0
 51
-74.66244233044166
  0
ARC
  5
96
330
36
100
AcDbEntity
  8
1
  6
Continuous
 62
     7
100
AcDbCircle
 10
343.9760709015898
 20
239.640675562727
 30
0.0
 40
1.0
100
AcDbArc
 50
-90.0
 51
-30.00000000000217
  0
ARC
  5
97
330
36
100
AcDbEntity
  8
1
  6
Continuous
 62
     7
100
AcDbCircle
 10
345.7081217091587
 20
238.640675562727
 30
0.0
 40
1.0
100
AcDbArc
 50
90.0
 51
150.0000000000027
  0
ARC
  5
98
330
36
100
AcDbEntity
  8
1
  6
Continuous
 62
     7
100
AcDbCircle
 10
322.6501006474281
 20
240.640675562727
 30
0.0
 40
1.000000000000014
100
AcDbArc
 50
-105.3375576695552
 51
-90.0
  0
ARC
  5
99
330
36
100
AcDbEntity
  8
1
  6
Continuous
 62
     7
100
AcDbCircle
 10
324.4401725167274
 20
239.640675562727
 30
0.0
 40
0.9999999999999344
100
AcDbArc
 50
-149.9999999999978
 51
-90.0
  0
ARC
  5
9A
330
36
100
AcDbEntity
  8
1
  6
Continuous
 62
     7
100
AcDbCircle
 10
322.7081217091587
 20
238.640675562727
 30
0.0
 40
0.9999999999998851
100
AcDbArc
 50
30.0000000000038
 51
90.0
  0
ENDBLK
  5
38
330
36
100
AcDbEntity
  8
0
100
AcDbBlockEnd
  0
BLOCK
  5
3A
330
39
100
AcDbEntity
  8
0
100
AcDbBlockBegin
  2
A10-0A-13
 70
     0
 71
     0
 10
369.2081217091587
 20
267.6406755627269
 30
0.0
  3
A10-0A-13
  1

  0
LINE
  5
9B
330
39
100
AcDbEntity
  8
1
  6
Continuous
 62
     7
100
AcDbLine
 10
128.1917667438641
 20
252.0006206180869
 30
0.0
 11
127.2129610266832
 21
255.4264406282197
 31
0.0
  0
LINE
  5
9C
330
39
100
AcDbEntity
  8
1
  6
Continuous
 62
     2
100
AcDbLine
 10
127.1917667438641
 20
250.1406755627269
 30
0.0
 11
128.1917667438641
 21
251.8727263702958
 31
0.0
  0
LINE
  5
9D
330
39
100
AcDbEntity
  8
1
  6
Continuous
 62
     7
100
AcDbLine
 10
128.1917667438641
 20
251.8727263702958
 30
0.0
 11
128.1917667438641
 21
249.6406755627269
 31
0.0
  0
LINE
  5
9E
330
39
100
AcDbEntity
  8
1
  6
Continuous
 62
     2
100
AcDbLine
 10
127.1917667438641
 20
250.1406755627269
 30
0.0
 11
127.1917667438641
 21
249.6406755627269
 31
0.0
  0
LINE
  5
9F
330
39
100
AcDbEntity
  8
1
  6
Continuous
 62
     7
100
AcDbLine
 10
128.1917667438641
 20
252.0006206180869
 30
0.0
 11
128.1917667438641
 21
251.8727263702958
 31
0.0
  0
LINE
  5
A0
330
39
100
AcDbEntity
  8
1
  6
Continuous
 62
     7
100
AcDbLine
 10
102.1917760740331
 20
267.6251004444495
 30
0.0
 11
102.899189544215
 21
289.9086247551583
 31
0.0
  0
LINE
  5
A1
330
39
100
AcDbEntity
  8
1
  6
Continuous
 62
     7
100
AcDbLine
 10
127.1917667438639
 20
289.9086247551583
 30
0.0
 11
103.1917667438639
 21
289.9086247551583
 31
0.0
  0
LINE
  5
A2
330
39
100
AcDbEntity
  8
1
  6
Continuous
 62
     7
100
AcDbLine
 10
127.1917667438639
 20
291.640675562727
 30
0.0
 11
103.191766743864
 21
291.640675562727
 31
0.0
  0
LINE
  5
A3
330
39
100
AcDbEntity
  8
1
  6
Continuous
 62
     7
100
AcDbLine
 10
128.191766743864
 20
250.1406755627269
 30
0.0
 11
102.1917667438639
 21
250.1406755627269
 31
0.0
  0
LINE
  5
A4
330
39
100
AcDbEntity
  8
1
  6
Continuous
 62
     7
100
AcDbLine
 10
103.1705724610449
 20
255.4264406282197
 30
0.0
 11
102.1917667438639
 21
252.0006206180869
 31
0.0
  0
LINE
  5
A5
330
39
100
AcDbEntity
  8
1
  6
Continuous
 62
     7
100
AcDbLine
 10
127.4843439435131
 20
289.9086247551583
 30
0.0
 11
128.191757413695
 21
267.6251004444495
 31
0.0
  0
LINE
  5
A6
330
39
100
AcDbEntity
  8
1
  6
Continuous
 62
     2
100
AcDbLine
 10
126.1917667438639
 20
293.140675562727
 30
0.0
 11
126.1917667438639
 21
291.640675562727
 31
0.0
  0
LINE
  5
A7
330
39
100
AcDbEntity
  8
1
  6
Continuous
 62
     2
100
AcDbLine
 10
102.1917667438639
 20
251.8727263702958
 30
0.0
 11
103.1917667438639
 21
250.1406755627269
 31
0.0
  0
LINE
  5
A8
330
39
100
AcDbEntity
  8
1
  6
Continuous
 62
     7
100
AcDbLine
 10
102.1917667438639
 20
249.6406755627269
 30
0.0
 11
102.1917667438639
 21
251.8727263702958
 31
0.0
  0
LINE
  5
A9
330
39
100
AcDbEntity
  8
1
  6
Continuous
 62
     2
100
AcDbLine
 10
103.1917667438639
 20
249.6406755627269
 30
0.0
 11
103.1917667438639
 21
250.1406755627269
 31
0.0
  0
LINE
  5
AA
330
39
100
AcDbEntity
  8
1
  6
Continuous
 62
     7
100
AcDbLine
 10
102.899189544215
 20
289.9086247551583
 30
0.0
 11
103.1917667438639
 21
289.9086247551583
 31
0.0
  0
LINE
  5
AB
330
39
100
AcDbEntity
  8
1
  6
Continuous
 62
     7
100
AcDbLine
 10
127.1917667438639
 20
289.9086247551583
 30
0.0
 11
127.4843439435131
 21
289.9086247551583
 31
0.0
  0
LINE
  5
AC
330
39
100
AcDbEntity
  8
1
  6
Continuous
 62
     2
100
AcDbLine
 10
126.1917667438639
 20
291.640675562727
 30
0.0
 11
127.1917667438639
 21
289.9086247551583
 31
0.0
  0
LINE
  5
AD
330
39
100
AcDbEntity
  8
1
  6
Continuous
 62
     7
100
AcDbLine
 10
127.1917667438639
 20
289.9086247551583
 30
0.0
 11
127.1917667438639
 21
293.140675562727
 31
0.0
  0
LINE
  5
AE
330
39
100
AcDbEntity
  8
1
  6
Continuous
 62
     2
100
AcDbLine
 10
103.1917667438639
 20
289.9086247551583
 30
0.0
 11
104.1917667438639
 21
291.640675562727
 31
0.0
  0
LINE
  5
AF
330
39
100
AcDbEntity
  8
1
  6
Continuous
 62
     2
100
AcDbLine
 10
104.1917667438639
 20
291.640675562727
 30
0.0
 11
104.191766743864
 21
293.140675562727
 31
0.0
  0
LINE
  5
B0
330
39
100
AcDbEntity
  8
1
  6
Continuous
 62
     7
100
AcDbLine
 10
103.1917667438639
 20
293.140675562727
 30
0.0
 11
103.1917667438639
 21
289.9086247551583
 31
0.0
  0
LINE
  5
B1
330
39
100
AcDbEntity
  8
1
  6
Continuous
 62
     7
100
AcDbLine
 10
102.1917667438639
 20
251.8727263702958
 30
0.0
 11
102.1917667438639
 21
252.0006206180869
 31
0.0
  0
LINE
  5
B2
330
39
100
AcDbEntity
  8
1
  6
Continuous
 62
     7
100
AcDbLine
 10
427.2081217091585
 20
278.1406755627269
 30
0.0
 11
427.2081217091585
 21
257.1406755627269
 31
0.0
  0
LINE
  5
B3
330
39
100
AcDbEntity
  8
1
  6
Continuous
 62
     7
100
AcDbLine
 10
411.7081217091585
 20
280.3906755627269
 30
0.0
 11
411.7081217091585
 21
254.8906755627269
 31
0.0
  0
LINE
  5
B4
330
39
100
AcDbEntity
  8
1
  6
Continuous
 62
     7
100
AcDbLine
 10
414.2081217091585
 20
257.1406755627269
 30
0.0
 11
414.2081217091585
 21
278.1406755627269
 31
0.0
  0
LINE
  5
B5
330
39
100
AcDbEntity
  8
1
  6
Continuous
 62
     7
100
AcDbLine
 10
415.9401725167277
 20
278.1406755627269
 30
0.0
 11
415.9401725167277
 21
257.1406755627269
 31
0.0
  0
LINE
  5
B6
330
39
100
AcDbEntity
  8
1
  6
Continuous
 62
     7
100
AcDbLine
 10
381.2081217091585
 20
289.9086247551583
 30
0.0
 11
357.2081217091584
 21
289.9086247551583
 31
0.0
  0
LINE
  5
B7
330
39
100
AcDbEntity
  8
1
  6
Continuous
 62
     7
100
AcDbLine
 10
381.2081217091585
 20
291.640675562727
 30
0.0
 11
357.2081217091587
 21
291.640675562727
 31
0.0
  0
LINE
  5
B8
330
39
100
AcDbEntity
  8
1
  6
Continuous
 62
     7
100
AcDbLine
 10
347.2081217091587
 20
250.1406755627269
 30
0.0
 11
321.2081217091585
 21
250.1406755627269
 31
0.0
  0
LINE
  5
B9
330
39
100
AcDbEntity
  8
1
  6
Continuous
 62
     7
100
AcDbLine
 10
356.7537654818934
 20
284.8125853852387
 30
0.0
 11
356.9155445095106
 21
289.9086247551583
 31
0.0
  0
LINE
  5
BA
330
39
100
AcDbEntity
  8
1
  6
Continuous
 62
     7
100
AcDbLine
 10
322.1869274263395
 20
255.4264406282197
 30
0.0
 11
321.2081217091585
 21
252.0006206180869
 31
0.0
  0
LINE
  5
BB
330
39
100
AcDbEntity
  8
1
  6
Continuous
 62
     7
100
AcDbLine
 10
407.7081217091585
 20
276.3906755627269
 30
0.0
 11
391.3877858184276
 21
276.3906755627272
 31
0.0
  0
LINE
  5
BC
330
39
100
AcDbEntity
  8
1
  6
Continuous
 62
     7
100
AcDbLine
 10
381.5006989088076
 20
289.9086247551583
 30
0.0
 11
381.6527969013487
 21
285.1175379901202
 31
0.0
  0
LINE
  5
BD
330
39
100
AcDbEntity
  8
1
  6
Continuous
 62
     7
100
AcDbLine
 10
391.3877858184267
 20
258.8906755627268
 30
0.0
 11
407.7081217091585
 21
258.8906755627269
 31
0.0
  0
LINE
  5
BE
330
39
100
AcDbEntity
  8
1
  6
Continuous
 62
     7
100
AcDbLine
 10
350.7758131179916
 20
259.1406755627269
 30
0.0
 11
349.9495955991856
 21
259.1406755627269
 31
0.0
  0
LINE
  5
BF
330
39
100
AcDbEntity
  8
1
  6
Continuous
 62
     7
100
AcDbLine
 10
346.1892685262795
 20
255.5666067581648
 30
0.0
 11
347.2081217091584
 21
252.0006206180869
 31
0.0
  0
LINE
  5
C0
330
39
100
AcDbEntity
  8
1
  6
Continuous
 62
     2
100
AcDbLine
 10
380.2081217091584
 20
293.140675562727
 30
0.0
 11
380.2081217091584
 21
291.640675562727
 31
0.0
  0
LINE
  5
C1
330
39
100
AcDbEntity
  8
1
  6
Continuous
 62
     7
100
AcDbLine
 10
427.2081217091585
 20
257.1406755627269
 30
0.0
 11
414.2081217091585
 21
257.1406755627269
 31
0.0
  0
LINE
  5
C2
330
39
100
AcDbEntity
  8
1
  6
Continuous
 62
     2
100
AcDbLine
 10
415.9401725167277
 20
258.1406755627269
 30
0.0
 11
414.2081217091585
 21
257.1406755627269
 31
0.0
  0
LINE
  5
C3
330
39
100
AcDbEntity
  8
1
  6
Continuous
 62
     2
100
AcDbLine
 10
428.2081217091587
 20
258.1406755627269
 30
0.0
 11
415.9401725167277
 21
258.1406755627269
 31
0.0
  0
LINE
  5
C4
330
39
100
AcDbEntity
  8
1
  6
Continuous
 62
     7
100
AcDbLine
 10
427.2081217091585
 20
257.1406755627269
 30
0.0
 11
428.2081217091587
 21
258.1406755627269
 31
0.0
  0
LINE
  5
C5
330
39
100
AcDbEntity
  8
1
  6
Continuous
 62
     7
100
AcDbLine
 10
411.7081217091585
 20
254.8906755627269
 30
0.0
 11
411.7081217091587
 21
245.1406755627269
 31
0.0
  0
LINE
  5
C6
330
39
100
AcDbEntity
  8
1
  6
Continuous
 62
     7
100
AcDbLine
 10
414.2081217091586
 20
244.6406755627269
 30
0.0
 11
412.2081217091585
 21
244.6406755627269
 31
0.0
  0
LINE
  5
C7
330
39
100
AcDbEntity
  8
1
  6
Continuous
 62
     7
100
AcDbLine
 10
414.2081217091585
 20
257.1406755627269
 30
0.0
 11
414.2081217091586
 21
244.6406755627269
 31
0.0
  0
LINE
  5
C8
330
39
100
AcDbEntity
  8
1
  6
Continuous
 62
     2
100
AcDbLine
 10
415.9401725167277
 20
277.1406755627269
 30
0.0
 11
428.2081217091585
 21
277.1406755627269
 31
0.0
  0
LINE
  5
C9
330
39
100
AcDbEntity
  8
1
  6
Continuous
 62
     7
100
AcDbLine
 10
414.2081217091585
 20
278.1406755627269
 30
0.0
 11
427.2081217091585
 21
278.1406755627269
 31
0.0
  0
LINE
  5
CA
330
39
100
AcDbEntity
  8
1
  6
Continuous
 62
     7
100
AcDbLine
 10
428.2081217091585
 20
277.1406755627269
 30
0.0
 11
427.2081217091585
 21
278.1406755627269
 31
0.0
  0
LINE
  5
CB
330
39
100
AcDbEntity
  8
1
  6
Continuous
 62
     2
100
AcDbLine
 10
414.2081217091585
 20
278.1406755627269
 30
0.0
 11
415.9401725167277
 21
277.1406755627269
 31
0.0
  0
LINE
  5
CC
330
39
100
AcDbEntity
  8
1
  6
Continuous
 62
     7
100
AcDbLine
 10
414.2081217091586
 20
290.640675562727
 30
0.0
 11
414.2081217091585
 21
278.1406755627269
 31
0.0
  0
LINE
  5
CD
330
39
100
AcDbEntity
  8
1
  6
Continuous
 62
     7
100
AcDbLine
 10
414.2081217091586
 20
290.640675562727
 30
0.0
 11
412.2081217091585
 21
290.640675562727
 31
0.0
  0
LINE
  5
CE
330
39
100
AcDbEntity
  8
1
  6
Continuous
 62
     7
100
AcDbLine
 10
411.7081217091585
 20
280.3906755627269
 30
0.0
 11
411.7081217091585
 21
290.140675562727
 31
0.0
  0
LINE
  5
CF
330
39
100
AcDbEntity
  8
1
  6
Continuous
 62
     7
100
AcDbLine
 10
347.2081217091584
 20
252.0006206180869
 30
0.0
 11
347.2081217091584
 21
249.6406755627269
 31
0.0
  0
LINE
  5
D0
330
39
100
AcDbEntity
  8
1
  6
Continuous
 62
     2
100
AcDbLine
 10
321.2081217091585
 20
251.8727263702958
 30
0.0
 11
322.2081217091585
 21
250.1406755627269
 31
0.0
  0
LINE
  5
D1
330
39
100
AcDbEntity
  8
1
  6
Continuous
 62
     7
100
AcDbLine
 10
321.2081217091585
 20
249.6406755627269
 30
0.0
 11
321.2081217091585
 21
251.8727263702958
 31
0.0
  0
LINE
  5
D2
330
39
100
AcDbEntity
  8
1
  6
Continuous
 62
     2
100
AcDbLine
 10
346.2081217091585
 20
250.1406755627269
 30
0.0
 11
347.2081217091584
 21
251.8727263702959
 31
0.0
  0
LINE
  5
D3
330
39
100
AcDbEntity
  8
1
  6
Continuous
 62
     2
100
AcDbLine
 10
346.2081217091585
 20
250.1406755627269
 30
0.0
 11
346.2081217091585
 21
249.6406755627269
 31
0.0
  0
LINE
  5
D4
330
39
100
AcDbEntity
  8
1
  6
Continuous
 62
     2
100
AcDbLine
 10
322.2081217091585
 20
249.6406755627269
 30
0.0
 11
322.2081217091585
 21
250.1406755627269
 31
0.0
  0
LINE
  5
D5
330
39
100
AcDbEntity
  8
1
  6
Continuous
 62
     7
100
AcDbLine
 10
356.9155445095106
 20
289.9086247551583
 30
0.0
 11
357.2081217091584
 21
289.9086247551583
 31
0.0
  0
LINE
  5
D6
330
39
100
AcDbEntity
  8
1
  6
Continuous
 62
     7
100
AcDbLine
 10
381.2081217091585
 20
289.9086247551583
 30
0.0
 11
381.5006989088076
 21
289.9086247551583
 31
0.0
  0
LINE
  5
D7
330
39
100
AcDbEntity
  8
1
  6
Continuous
 62
     2
100
AcDbLine
 10
380.2081217091584
 20
291.640675562727
 30
0.0
 11
381.2081217091585
 21
289.9086247551583
 31
0.0
  0
LINE
  5
D8
330
39
100
AcDbEntity
  8
1
  6
Continuous
 62
     7
100
AcDbLine
 10
381.2081217091585
 20
289.9086247551583
 30
0.0
 11
381.2081217091585
 21
293.140675562727
 31
0.0
  0
LINE
  5
D9
330
39
100
AcDbEntity
  8
1
  6
Continuous
 62
     2
100
AcDbLine
 10
357.2081217091584
 20
289.9086247551583
 30
0.0
 11
358.2081217091584
 21
291.640675562727
 31
0.0
  0
LINE
  5
DA
330
39
100
AcDbEntity
  8
1
  6
Continuous
 62
     2
100
AcDbLine
 10
358.2081217091584
 20
291.640675562727
 30
0.0
 11
358.2081217091587
 21
293.140675562727
 31
0.0
  0
LINE
  5
DB
330
39
100
AcDbEntity
  8
1
  6
Continuous
 62
     7
100
AcDbLine
 10
357.2081217091584
 20
293.140675562727
 30
0.0
 11
357.2081217091584
 21
289.9086247551583
 31
0.0
  0
LINE
  5
DC
330
39
100
AcDbEntity
  8
1
  6
Continuous
 62
     7
100
AcDbLine
 10
321.2081217091585
 20
251.8727263702958
 30
0.0
 11
321.2081217091585
 21
252.0006206180869
 31
0.0
  0
LINE
  5
DD
330
39
100
AcDbEntity
  8
1
  6
Continuous
 62
     7
100
AcDbLine
 10
428.2081217091587
 20
258.1406755627269
 30
0.0
 11
428.2081217091585
 21
277.1406755627269
 31
0.0
  0
LINE
  5
DE
330
39
100
AcDbEntity
  8
1
  6
Continuous
 62
     7
100
AcDbLine
 10
123.6922865315972
 20
584.1504609302949
 30
0.0
 11
126.8964790226
 21
568.9830116716
 31
0.0
  0
LINE
  5
DF
330
39
100
AcDbEntity
  8
1
  6
Continuous
 62
     7
100
AcDbLine
 10
123.9417667438641
 20
624.8693684704899
 30
0.0
 11
123.941766743864
 21
641.189704361222
 31
0.0
  0
LINE
  5
E0
330
39
100
AcDbEntity
  8
1
  6
Continuous
 62
     7
100
AcDbLine
 10
103.4870544651281
 20
568.9830116716
 30
0.0
 11
106.6912469561308
 21
584.1504609302949
 31
0.0
  0
LINE
  5
E1
330
39
100
AcDbEntity
  8
1
  6
Continuous
 62
     7
100
AcDbLine
 10
106.4417667438641
 20
641.189704361222
 30
0.0
 11
106.441766743864
 21
624.8693684704899
 31
0.0
  0
LINE
  5
E2
330
39
100
AcDbEntity
  8
1
  6
Continuous
 62
     7
100
AcDbLine
 10
105.6917667438641
 20
661.6897043612219
 30
0.0
 11
124.691766743864
 21
661.6897043612219
 31
0.0
  0
LINE
  5
E3
330
39
100
AcDbEntity
  8
1
  6
Continuous
 62
     7
100
AcDbLine
 10
137.691766743864
 20
645.189704361222
 30
0.0
 11
92.69176674386415
 21
645.189704361222
 31
0.0
  0
LINE
  5
E4
330
39
100
AcDbEntity
  8
1
  6
Continuous
 62
     7
100
AcDbLine
 10
92.19176674386415
 20
647.689704361222
 30
0.0
 11
92.19176674386415
 21
645.689704361222
 31
0.0
  0
LINE
  5
E5
330
39
100
AcDbEntity
  8
1
  6
Continuous
 62
     7
100
AcDbLine
 10
92.19176674386415
 20
647.689704361222
 30
0.0
 11
138.191766743864
 21
647.689704361222
 31
0.0
  0
LINE
  5
E6
330
39
100
AcDbEntity
  8
1
  6
Continuous
 62
     2
100
AcDbLine
 10
104.6917667438641
 20
647.689704361222
 30
0.0
 11
105.6917667438641
 21
649.4217551687909
 31
0.0
  0
LINE
  5
E7
330
39
100
AcDbEntity
  8
1
  6
Continuous
 62
     7
100
AcDbLine
 10
105.6917667438641
 20
661.6897043612219
 30
0.0
 11
104.6917667438641
 21
660.6897043612219
 31
0.0
  0
LINE
  5
E8
330
39
100
AcDbEntity
  8
1
  6
Continuous
 62
     7
100
AcDbLine
 10
104.6917667438641
 20
647.689704361222
 30
0.0
 11
104.6917667438641
 21
660.6897043612219
 31
0.0
  0
LINE
  5
E9
330
39
100
AcDbEntity
  8
1
  6
Continuous
 62
     2
100
AcDbLine
 10
105.6917667438641
 20
649.4217551687909
 30
0.0
 11
105.6917667438641
 21
661.6897043612219
 31
0.0
  0
LINE
  5
EA
330
39
100
AcDbEntity
  8
1
  6
Continuous
 62
     7
100
AcDbLine
 10
138.191766743864
 20
647.689704361222
 30
0.0
 11
138.191766743864
 21
645.689704361222
 31
0.0
  0
LINE
  5
EB
330
39
100
AcDbEntity
  8
1
  6
Continuous
 62
     7
100
AcDbLine
 10
125.691766743864
 20
660.6897043612219
 30
0.0
 11
124.691766743864
 21
661.6897043612219
 31
0.0
  0
LINE
  5
EC
330
39
100
AcDbEntity
  8
1
  6
Continuous
 62
     2
100
AcDbLine
 10
124.691766743864
 20
661.6897043612219
 30
0.0
 11
124.691766743864
 21
649.4217551687909
 31
0.0
  0
LINE
  5
ED
330
39
100
AcDbEntity
  8
1
  6
Continuous
 62
     2
100
AcDbLine
 10
124.691766743864
 20
649.4217551687909
 30
0.0
 11
125.691766743864
 21
647.689704361222
 31
0.0
  0
LINE
  5
EE
330
39
100
AcDbEntity
  8
1
  6
Continuous
 62
     7
100
AcDbLine
 10
125.691766743864
 20
660.6897043612219
 30
0.0
 11
125.691766743864
 21
647.689704361222
 31
0.0
  0
LINE
  5
EF
330
39
100
AcDbEntity
  8
1
  6
PHANTOM
 62
     4
100
AcDbLine
 10
131.191766743864
 20
567.6897043612219
 30
0.0
 11
99.19176674386409
 21
567.6897043612219
 31
0.0
  0
LINE
  5
F0
330
39
100
AcDbEntity
  8
1
  6
Continuous
 62
     7
100
AcDbLine
 10
104.6917667438641
 20
649.4217551687909
 30
0.0
 11
125.691766743864
 21
649.4217551687909
 31
0.0
  0
LINE
  5
F1
330
39
100
AcDbEntity
  8
1
  6
Continuous
 62
     7
100
AcDbLine
 10
104.6917667438641
 20
660.6897043612219
 30
0.0
 11
125.691766743864
 21
660.6897043612219
 31
0.0
  0
ARC
  5
F2
330
39
100
AcDbEntity
  8
1
  6
Continuous
 62
     7
100
AcDbCircle
 10
115.191766743864
 20
267.6406755627269
 30
0.0
 40
8.351995935906155
100
AcDbArc
 50
0.19057502307832
 51
90.0
  0
ARC
  5
F3
330
39
100
AcDbEntity
  8
1
  6
Continuous
 62
     7
100
AcDbCircle
 10
115.191766743864
 20
267.6406755627269
 30
0.0
 40
8.351995935906189
100
AcDbArc
 50
90.0
 51
179.8094249769217
  0
ARC
  5
F4
330
39
100
AcDbEntity
  8
0
  6
Continuous
 62
     7
100
AcDbCircle
 10
115.191766743864
 20
267.6406755627269
 30
0.0
 40
23.00000000000001
100
AcDbArc
 50
0.0
 51
57.42219882713924
  0
ARC
  5
F5
330
39
100
AcDbEntity
  8
0
  6
Continuous
 62
     7
100
AcDbCircle
 10
115.191766743864
 20
267.6406755627269
 30
0.0
 40
23.00000000000007
100
AcDbArc
 50
122.5778011728606
 51
-126.896375003239
  0
ARC
  5
F6
330
39
100
AcDbEntity
  8
0
  6
Continuous
 62
     7
100
AcDbCircle
 10
115.191766743864
 20
267.6406755627269
 30
0.0
 40
22.99999999999991
100
AcDbArc
 50
-53.10362499676084
 51
0.0
  0
ARC
  5
F7
330
39
100
AcDbEntity
  8
1
  6
Continuous
 62
     7
100
AcDbCircle
 10
115.191766743864
 20
267.6406755627269
 30
0.0
 40
12.99999999999999
100
AcDbArc
 50
-179.9313547110613
 51
-145.6899072066108
  0
ARC
  5
F8
330
39
100
AcDbEntity
  8
1
  6
Continuous
 62
     7
100
AcDbCircle
 10
103.4873361698718
 20
251.807777179662
 30
0.0
 40
24.00000000000156
100
AcDbArc
 50
8.67199482596315
 51
27.87011739414517
  0
ARC
  5
F9
330
39
100
AcDbEntity
  8
1
  6
Continuous
 62
     7
100
AcDbCircle
 10
115.191766743864
 20
267.6406755627269
 30
0.0
 40
13.0
100
AcDbArc
 50
180.0
 51
-179.9313547110613
  0
ARC
  5
FA
330
39
100
AcDbEntity
  8
1
  6
Continuous
 62
     7
100
AcDbCircle
 10
115.191766743864
 20
267.6406755627269
 30
0.0
 40
13.00000000000001
100
AcDbArc
 50
-34.3100927933889
 51
-0.06864528893873
  0
ARC
  5
FB
330
39
100
AcDbEntity
  8
1
  6
Continuous
 62
     7
100
AcDbCircle
 10
126.8961973178563
 20
251.807777179662
 30
0.0
 40
24.00000000000156
100
AcDbArc
 50
152.1298826058549
 51
171.3280051740369
  0
ARC
  5
FC
330
39
100
AcDbEntity
  8
1
  6
Continuous
 62
     7
100
AcDbCircle
 10
369.2081217091584
 20
283.6406755627269
 30
0.0
 40
28.9999999999999
100
AcDbArc
 50
-117.4392401506809
 51
-68.3052839776139
  0
ARC
  5
FD
330
39
100
AcDbEntity
  8
1
  6
Continuous
 62
     7
100
AcDbCircle
 10
350.1671563335797
 20
255.1465965291032
 30
0.0
 40
3.999999999997851
100
AcDbArc
 50
93.11786651757343
 51
173.9726861048965
  0
ARC
  5
FE
330
39
100
AcDbEntity
  8
1
  6
Continuous
 62
     7
100
AcDbCircle
 10
407.7081217091585
 20
254.8906755627269
 30
0.0
 40
4.0
100
AcDbArc
 50
0.0
 51
90.0
  0
ARC
  5
FF
330
39
100
AcDbEntity
  8
1
  6
Continuous
 62
     7
100
AcDbCircle
 10
407.7081217091585
 20
280.3906755627269
 30
0.0
 40
4.0
100
AcDbArc
 50
-90.0
 51
0.0
  0
ARC
  5
100
330
39
100
AcDbEntity
  8
1
  6
Continuous
 62
     7
100
AcDbCircle
 10
345.9125522831508
 20
251.807777179662
 30
0.0
 40
24.00000000000224
100
AcDbArc
 50
99.36066212030271
 51
171.3280051740368
  0
ARC
  5
101
330
39
100
AcDbEntity
  8
1
  6
Continuous
 62
     7
100
AcDbCircle
 10
349.9787664708198
 20
227.1406755622676
 30
0.0
 40
49.00000000045973
100
AcDbArc
 50
92.19404509977881
 51
99.36066212030424
  0
ARC
  5
102
330
39
100
AcDbEntity
  8
1
  6
Continuous
 62
     7
100
AcDbCircle
 10
347.7582972042318
 20
285.0981558067529
 30
0.0
 40
9.00000000000378
100
AcDbArc
 50
-87.80595490022539
 51
-1.818302964459
  0
ARC
  5
103
330
39
100
AcDbEntity
  8
1
  6
Continuous
 62
     7
100
AcDbCircle
 10
99.19176674386432
 20
602.6897043612219
 30
0.0
 40
28.99999999999969
100
AcDbArc
 50
16.79248176998048
 51
21.69471602238591
  0
ARC
  5
104
330
39
100
AcDbEntity
  8
1
  6
Continuous
 62
     7
100
AcDbCircle
 10
131.191766743864
 20
602.6897043612219
 30
0.0
 40
29.00000000000001
100
AcDbArc
 50
-163.6028189727037
 51
-152.5607598493186
  0
ARC
  5
105
330
39
100
AcDbEntity
  8
1
  6
Continuous
 62
     7
100
AcDbCircle
 10
102.4417667438641
 20
641.189704361222
 30
0.0
 40
4.0
100
AcDbArc
 50
0.0
 51
90.0
  0
ARC
  5
106
330
39
100
AcDbEntity
  8
1
  6
Continuous
 62
     7
100
AcDbCircle
 10
127.941766743864
 20
641.189704361222
 30
0.0
 40
4.0
100
AcDbArc
 50
90.0
 51
180.0
  0
ARC
  5
107
330
39
100
AcDbEntity
  8
1
  6
Continuous
 62
     7
100
AcDbCircle
 10
115.191766743864
 20
567.6897043612219
 30
0.0
 40
13.00000000000008
100
AcDbArc
 50
-64.12010753559623
 51
37.57493618966849
  0
ARC
  5
108
330
39
100
AcDbEntity
  8
1
  6
Continuous
 62
     7
100
AcDbCircle
 10
131.191766743864
 20
602.6897043612219
 30
0.0
 40
28.99999999999996
100
AcDbArc
 50
158.3052839776143
 51
163.6028189727034
  0
ARC
  5
109
330
39
100
AcDbEntity
  8
1
  6
Continuous
 62
     7
100
AcDbCircle
 10
99.19176674386432
 20
602.6897043612219
 30
0.0
 40
28.99999999999994
100
AcDbArc
 50
-27.43924015068136
 51
-16.39718102729638
  0
ARC
  5
10A
330
39
100
AcDbEntity
  8
1
  6
Continuous
 62
     7
100
AcDbCircle
 10
115.191766743864
 20
567.6897043612219
 30
0.0
 40
12.99999999999992
100
AcDbArc
 50
142.4250638103307
 51
-115.8798924644037
  0
ARC
  5
10B
330
39
100
AcDbEntity
  8
1
  6
Continuous
 62
     7
100
AcDbCircle
 10
133.543661162576
 20
267.7017171547926
 30
0.0
 40
9.999999999999968
100
AcDbArc
 50
-179.8094249769229
 51
-152.1298826058548
  0
ARC
  5
10C
330
39
100
AcDbEntity
  8
1
  6
Continuous
 62
     7
100
AcDbCircle
 10
96.8398723251521
 20
267.7017171547926
 30
0.0
 40
10.00000000000006
100
AcDbArc
 50
-27.87011739414518
 51
-0.1905750230771
  0
ARC
  5
10D
330
39
100
AcDbEntity
  8
1
  6
Continuous
 62
     7
100
AcDbCircle
 10
391.3877858184276
 20
307.3906755627272
 30
0.0
 40
30.99999999999999
100
AcDbArc
 50
-91.92633614020643
 51
-90.0
  0
ARC
  5
10E
330
39
100
AcDbEntity
  8
1
  6
Continuous
 62
     7
100
AcDbCircle
 10
390.6482651790056
 20
285.4031084116332
 30
0.0
 40
8.999999999998565
100
AcDbArc
 50
-178.1816970355476
 51
-91.92633614020363
  0
ARC
  5
10F
330
39
100
AcDbEntity
  8
1
  6
Continuous
 62
     7
100
AcDbCircle
 10
391.3877858184276
 20
227.8906755627269
 30
0.0
 40
30.99999999999992
100
AcDbArc
 50
90.00000000000158
 51
111.6947160223878
  0
ARC
  5
110
330
39
100
AcDbEntity
  8
1
  6
Continuous
 62
     7
100
AcDbCircle
 10
350.7758131179916
 20
248.1406755627269
 30
0.0
 40
11.00000000000013
100
AcDbArc
 50
62.56075984931844
 51
90.0
  0
ARC
  5
111
330
39
100
AcDbEntity
  8
1
  6
Continuous
 62
     7
100
AcDbCircle
 10
412.2081217091585
 20
245.1406755627269
 30
0.0
 40
0.4999999999997726
100
AcDbArc
 50
180.0
 51
-90.0
  0
ARC
  5
112
330
39
100
AcDbEntity
  8
1
  6
Continuous
 62
     7
100
AcDbCircle
 10
412.2081217091585
 20
290.140675562727
 30
0.0
 40
0.5
100
AcDbArc
 50
90.0
 51
180.0
  0
ARC
  5
113
330
39
100
AcDbEntity
  8
1
  6
Continuous
 62
     7
100
AcDbCircle
 10
134.691766743864
 20
584.2573957700549
 30
0.0
 40
10.99999999999986
100
AcDbArc
 50
152.5607598493181
 51
-179.4429989537366
  0
ARC
  5
114
330
39
100
AcDbEntity
  8
1
  6
Continuous
 62
     7
100
AcDbCircle
 10
154.9417667438643
 20
624.8693684704908
 30
0.0
 40
31.0000000000002
100
AcDbArc
 50
-179.9999999999983
 51
-158.3052839776124
  0
ARC
  5
115
330
39
100
AcDbEntity
  8
1
  6
Continuous
 62
     7
100
AcDbCircle
 10
95.69176674386409
 20
584.2573957700549
 30
0.0
 40
11.00000000000006
100
AcDbArc
 50
-0.55700104626343
 51
27.43924015068123
  0
ARC
  5
116
330
39
100
AcDbEntity
  8
1
  6
Continuous
 62
     7
100
AcDbCircle
 10
75.44176674386404
 20
624.8693684704908
 30
0.0
 40
30.99999999999997
100
AcDbArc
 50
-21.69471602238778
 51
-0.00000000000168
  0
ARC
  5
117
330
39
100
AcDbEntity
  8
1
  6
Continuous
 62
     7
100
AcDbCircle
 10
92.69176674386415
 20
645.689704361222
 30
0.0
 40
0.5
100
AcDbArc
 50
180.0
 51
-90.0
  0
ARC
  5
118
330
39
100
AcDbEntity
  8
1
  6
Continuous
 62
     7
100
AcDbCircle
 10
137.691766743864
 20
645.689704361222
 30
0.0
 40
0.5
100
AcDbArc
 50
-90.0
 51
0.0
  0
ENDBLK
  5
3B
330
39
100
AcDbEntity
  8
0
100
AcDbBlockEnd
  0
BLOCK
  5
3D
330
3C
100
AcDbEntity
  8
0
100
AcDbBlockBegin
  2
60-1-16-170
 70
     0
 71
     0
 10
196.0418877037449
 20
142.7745777327332
 30
0.0
  3
60-1-16-170
  1

  0
LINE
  5
119
330
3C
100
AcDbEntity
  8
1
  6
Continuous
 62
     7
100
AcDbLine
 10
107.191766743864
 20
178.140675562727
 30
0.0
 11
107.191766743864
 21
238.640675562727
 31
0.0
  0
LINE
  5
11A
330
3C
100
AcDbEntity
  8
1
  6
Continuous
 62
     7
100
AcDbLine
 10
123.191766743864
 20
178.140675562727
 30
0.0
 11
123.191766743864
 21
238.640675562727
 31
0.0
  0
LINE
  5
11B
330
3C
100
AcDbEntity
  8
1
  6
Continuous
 62
     7
100
AcDbLine
 10
107.805359737878
 20
173.140675562727
 30
0.0
 11
122.5781737498501
 21
173.140675562727
 31
0.0
  0
LINE
  5
11C
330
3C
100
AcDbEntity
  8
1
  6
Continuous
 62
     7
100
AcDbLine
 10
123.191766743864
 20
178.140675562727
 30
0.0
 11
107.191766743864
 21
178.140675562727
 31
0.0
  0
LINE
  5
11D
330
3C
100
AcDbEntity
  8
1
  6
Continuous
 62
     7
100
AcDbLine
 10
156.8199152987619
 20
173.140675562727
 30
0.0
 11
171.5927293107341
 21
173.140675562727
 31
0.0
  0
LINE
  5
11E
330
3C
100
AcDbEntity
  8
1
  6
Continuous
 62
     7
100
AcDbLine
 10
172.206322304748
 20
178.140675562727
 30
0.0
 11
156.206322304748
 21
178.140675562727
 31
0.0
  0
LINE
  5
11F
330
3C
100
AcDbEntity
  8
1
  6
Continuous
 62
     7
100
AcDbLine
 10
307.2081217091587
 20
214.140675562727
 30
0.0
 11
191.206322304748
 21
214.140675562727
 31
0.0
  0
LINE
  5
120
330
3C
100
AcDbEntity
  8
1
  6
Continuous
 62
     7
100
AcDbLine
 10
326.2081217091587
 20
233.140675562727
 30
0.0
 11
326.2081217091587
 21
238.640675562727
 31
0.0
  0
LINE
  5
121
330
3C
100
AcDbEntity
  8
1
  6
Continuous
 62
     7
100
AcDbLine
 10
342.2081217091587
 20
238.640675562727
 30
0.0
 11
342.2081217091587
 21
233.140675562727
 31
0.0
  0
LINE
  5
122
330
3C
100
AcDbEntity
  8
1
  6
Continuous
 62
     7
100
AcDbLine
 10
156.206322304748
 20
178.140675562727
 30
0.0
 11
156.206322304748
 21
179.140675562727
 31
0.0
  0
LINE
  5
123
330
3C
100
AcDbEntity
  8
1
  6
Continuous
 62
     7
100
AcDbLine
 10
172.206322304748
 20
178.140675562727
 30
0.0
 11
172.206322304748
 21
179.140675562727
 31
0.0
  0
LINE
  5
124
330
3C
100
AcDbEntity
  8
1
  6
Continuous
 62
     7
100
AcDbLine
 10
307.2081217091587
 20
198.140675562727
 30
0.0
 11
191.206322304748
 21
198.140675562727
 31
0.0
  0
LINE
  5
125
330
3C
100
AcDbEntity
  8
1
  6
Continuous
 62
     7
100
AcDbLine
 10
122.2919191200028
 20
397.6879049568112
 30
0.0
 11
122.2919191200029
 21
555.6231717095633
 31
0.0
  0
LINE
  5
126
330
3C
100
AcDbEntity
  8
1
  6
Continuous
 62
     7
100
AcDbLine
 10
108.0916143677252
 20
397.6879049568112
 30
0.0
 11
108.0916143677252
 21
555.6231717095636
 31
0.0
  0
ARC
  5
127
330
3C
100
AcDbEntity
  8
1
  6
Continuous
 62
     7
100
AcDbCircle
 10
115.191766743864
 20
206.140675562727
 30
0.0
 40
8.0
100
AcDbArc
 50
0.0
 51
180.0
  0
ARC
  5
128
330
3C
100
AcDbEntity
  8
1
  6
Continuous
 62
     7
100
AcDbCircle
 10
119.9817404491457
 20
175.9969558555048
 30
0.0
 40
3.860026294718407
100
AcDbArc
 50
-47.72834450358196
 51
0.0
  0
ARC
  5
129
330
3C
100
AcDbEntity
  8
1
  6
Continuous
 62
     7
100
AcDbCircle
 10
110.4017930385821
 20
175.9969558555048
 30
0.0
 40
3.860026294718016
100
AcDbArc
 50
146.264208999972
 51
180.0
  0
ARC
  5
12A
330
3C
100
AcDbEntity
  8
1
  6
Continuous
 62
     7
100
AcDbCircle
 10
110.4017930385821
 20
175.9969558555048
 30
0.0
 40
3.860026294718196
100
AcDbArc
 50
180.0
 51
-132.2716554964148
  0
ARC
  5
12B
330
3C
100
AcDbEntity
  8
1
  6
Continuous
 62
     7
100
AcDbCircle
 10
119.9817404491457
 20
175.9969558555048
 30
0.0
 40
3.860026294718296
100
AcDbArc
 50
0.0
 51
33.73579100002645
  0
ARC
  5
12C
330
3C
100
AcDbEntity
  8
1
  6
Continuous
 62
     7
100
AcDbCircle
 10
307.2081217091587
 20
233.140675562727
 30
0.0
 40
35.0
100
AcDbArc
 50
-90.0
 51
0.0
  0
ARC
  5
12D
330
3C
100
AcDbEntity
  8
1
  6
Continuous
 62
     7
100
AcDbCircle
 10
307.2081217091587
 20
233.140675562727
 30
0.0
 40
19.0
100
AcDbArc
 50
-90.0
 51
0.0
  0
ARC
  5
12E
330
3C
100
AcDbEntity
  8
1
  6
Continuous
 62
     7
100
AcDbCircle
 10
191.206322304748
 20
179.140675562727
 30
0.0
 40
35.0
100
AcDbArc
 50
90.0
 51
180.0
  0
ARC
  5
12F
330
3C
100
AcDbEntity
  8
1
  6
Continuous
 62
     7
100
AcDbCircle
 10
191.206322304748
 20
179.140675562727
 30
0.0
 40
19.0
100
AcDbArc
 50
90.0
 51
180.0
  0
ARC
  5
130
330
3C
100
AcDbEntity
  8
1
  6
Continuous
 62
     7
100
AcDbCircle
 10
168.9962960100297
 20
175.9969558555048
 30
0.0
 40
3.860026294718397
100
AcDbArc
 50
-47.72834450358212
 51
0.0
  0
ARC
  5
131
330
3C
100
AcDbEntity
  8
1
  6
Continuous
 62
     7
100
AcDbCircle
 10
159.4163485994661
 20
175.9969558555048
 30
0.0
 40
3.860026294718005
100
AcDbArc
 50
146.2642089999719
 51
180.0
  0
ARC
  5
132
330
3C
100
AcDbEntity
  8
1
  6
Continuous
 62
     7
100
AcDbCircle
 10
159.4163485994661
 20
175.9969558555048
 30
0.0
 40
3.860026294718296
100
AcDbArc
 50
180.0
 51
-132.2716554964157
  0
ARC
  5
133
330
3C
100
AcDbEntity
  8
1
  6
Continuous
 62
     7
100
AcDbCircle
 10
168.9962960100297
 20
175.9969558555048
 30
0.0
 40
3.860026294718182
100
AcDbArc
 50
0.0
 51
33.73579100002645
  0
ARC
  5
134
330
3C
100
AcDbEntity
  8
1
  6
Continuous
 62
     7
100
AcDbCircle
 10
115.191766743864
 20
397.6879049568112
 30
0.0
 40
8.649999999999858
100
AcDbArc
 50
145.1676518966029
 51
34.8323481033971
  0
ARC
  5
135
330
3C
100
AcDbEntity
  8
1
  6
Continuous
 62
     7
100
AcDbCircle
 10
115.191766743864
 20
397.6879049568112
 30
0.0
 40
7.100152376138794
100
AcDbArc
 50
180.0
 51
0.0
  0
ENDBLK
  5
3E
330
3C
100
AcDbEntity
  8
0
100
AcDbBlockEnd
  0
BLOCK
  5
41
330
3F
100
AcDbEntity
  8
0
100
AcDbBlockBegin
  2
A10J-60X-16
 70
     0
 71
     0
 10
155.5563223047478
 20
170.992630643105
 30
0.0
  3
A10J-60X-16
  1

  0
INSERT
  5
40
330
3F
100
AcDbEntity
  8
0
100
AcDbBlockReference
  2
60-1-16-170
 10
196.0418877037449
 20
142.7745777327332
 30
0.0
  0
LINE
  5
136
330
3F
100
AcDbEntity
  8
0
  6
Continuous
 62
     2
100
AcDbLine
 10
414.2081217091587
 20
244.6406755627269
 30
0.0
 11
414.2081217091587
 21
241.161339098
 31
0.0
  0
ENDBLK
  5
42
330
3F
100
AcDbEntity
  8
0
100
AcDbBlockEnd
  0
BLOCK
  5
44
330
43
100
AcDbEntity
  8
0
100
AcDbBlockBegin
  2
36-1A-13
 70
     0
 71
     0
 10
545.4108488623657
 20
403.6173217486062
 30
0.0
  3
36-1A-13
  1

  0
LINE
  5
137
330
43
100
AcDbEntity
  8
1
  6
Continuous
 62
     7
100
AcDbLine
 10
373.9581217091587
 20
310.140675562727
 30
0.0
 11
373.9581217091587
 21
307.140675562727
 31
0.0
  0
LINE
  5
138
330
43
100
AcDbEntity
  8
1
  6
Continuous
 62
     7
100
AcDbLine
 10
364.4581217091587
 20
307.140675562727
 30
0.0
 11
364.4581217091587
 21
310.140675562727
 31
0.0
  0
LINE
  5
139
330
43
100
AcDbEntity
  8
1
  6
Continuous
 62
     7
100
AcDbLine
 10
119.941766743864
 20
310.140675562727
 30
0.0
 11
119.941766743864
 21
307.140675562727
 31
0.0
  0
LINE
  5
13A
330
43
100
AcDbEntity
  8
1
  6
Continuous
 62
     7
100
AcDbLine
 10
110.441766743864
 20
307.140675562727
 30
0.0
 11
110.441766743864
 21
310.140675562727
 31
0.0
  0
ENDBLK
  5
45
330
43
100
AcDbEntity
  8
0
100
AcDbBlockEnd
  0
BLOCK
  5
47
330
46
100
AcDbEntity
  8
0
100
AcDbBlockBegin
  2
37-1-13
 70
     0
 71
     0
 10
616.9364788059236
 20
-108.4725105843176
 30
0.0
  3
37-1-13
  1

  0
LINE
  5
13B
330
46
100
AcDbEntity
  8
1
  6
Continuous
 62
     7
100
AcDbLine
 10
106.2466573073085
 20
592.8140238853559
 30
0.0
 11
103.20068300453
 21
594.5371642198747
 31
0.0
  0
LINE
  5
13C
330
46
100
AcDbEntity
  8
1
  6
Continuous
 62
     7
100
AcDbLine
 10
127.3240522332229
 20
594.7488197250689
 30
0.0
 11
124.3087817778547
 21
592.9724987668474
 31
0.0
  0
LINE
  5
13D
330
46
100
AcDbEntity
  8
1
  6
Continuous
 62
     7
100
AcDbLine
 10
103.0594812545052
 20
610.6305889973748
 30
0.0
 11
114.1270017457521
 21
617.1505575690655
 31
0.0
  0
LINE
  5
13E
330
46
100
AcDbEntity
  8
1
  6
Continuous
 62
     7
100
AcDbLine
 10
116.0026318226147
 20
617.1670141190486
 30
0.0
 11
127.1828504831982
 21
610.8422445025693
 31
0.0
  0
LINE
  5
13F
330
46
100
AcDbEntity
  8
1
  6
Continuous
 62
     7
100
AcDbLine
 10
128.1349173119736
 20
609.2261294828955
 30
0.0
 11
128.2476154813102
 21
596.3813912947257
 31
0.0
  0
LINE
  5
140
330
46
100
AcDbEntity
  8
1
  6
Continuous
 62
     7
100
AcDbLine
 10
102.2486161757545
 20
596.1532792395483
 30
0.0
 11
102.1359180064179
 21
608.9980174277181
 31
0.0
  0
LINE
  5
141
330
46
100
AcDbEntity
  8
1
  6
Continuous
 62
     7
100
AcDbLine
 10
375.2081217091587
 20
307.140675562727
 30
0.0
 11
363.2081217091587
 21
307.140675562727
 31
0.0
  0
LINE
  5
142
330
46
100
AcDbEntity
  8
1
  6
Continuous
 62
     7
100
AcDbLine
 10
382.2788359234299
 20
293.140675562727
 30
0.0
 11
356.1374074948873
 21
293.140675562727
 31
0.0
  0
LINE
  5
143
330
46
100
AcDbEntity
  8
1
  6
Continuous
 62
     7
100
AcDbLine
 10
356.7081217091587
 20
300.6406755627271
 30
0.0
 11
369.2081217091587
 21
300.640675562727
 31
0.0
  0
LINE
  5
144
330
46
100
AcDbEntity
  8
1
  6
Continuous
 62
     7
100
AcDbLine
 10
369.2081217091587
 20
300.640675562727
 30
0.0
 11
381.7081217091584
 21
300.6406755627271
 31
0.0
  0
LINE
  5
145
330
46
100
AcDbEntity
  8
1
  6
Continuous
 62
     7
100
AcDbLine
 10
115.191766743864
 20
307.140675562727
 30
0.0
 11
110.191766743864
 21
307.140675562727
 31
0.0
  0
LINE
  5
146
330
46
100
AcDbEntity
  8
1
  6
Continuous
 62
     7
100
AcDbLine
 10
115.191766743864
 20
307.140675562727
 30
0.0
 11
121.191766743864
 21
307.140675562727
 31
0.0
  0
LINE
  5
147
330
46
100
AcDbEntity
  8
1
  6
Continuous
 62
     7
100
AcDbLine
 10
110.191766743864
 20
307.140675562727
 30
0.0
 11
109.191766743864
 21
307.140675562727
 31
0.0
  0
LINE
  5
148
330
46
100
AcDbEntity
  8
1
  6
Continuous
 62
     7
100
AcDbLine
 10
115.191766743864
 20
293.140675562727
 30
0.0
 11
128.191766743864
 21
293.140675562727
 31
0.0
  0
LINE
  5
149
330
46
100
AcDbEntity
  8
1
  6
Continuous
 62
     7
100
AcDbLine
 10
115.191766743864
 20
293.140675562727
 30
0.0
 11
102.191766743864
 21
293.140675562727
 31
0.0
  0
LINE
  5
14A
330
46
100
AcDbEntity
  8
1
  6
Continuous
 62
     7
100
AcDbLine
 10
128.191766743864
 20
300.2113897769985
 30
0.0
 11
128.191766743864
 21
293.140675562727
 31
0.0
  0
LINE
  5
14B
330
46
100
AcDbEntity
  8
1
  6
Continuous
 62
     7
100
AcDbLine
 10
102.191766743864
 20
293.140675562727
 30
0.0
 11
102.191766743864
 21
300.2113897769985
 31
0.0
  0
ARC
  5
14C
330
46
100
AcDbEntity
  8
1
  6
Continuous
 62
     7
100
AcDbCircle
 10
115.191766743864
 20
602.689704361222
 30
0.0
 40
12.99999999999996
100
AcDbArc
 50
90.50269329611329
 51
-134.198953570971
  0
ARC
  5
14D
330
46
100
AcDbEntity
  8
1
  6
Continuous
 62
     7
100
AcDbCircle
 10
115.191766743864
 20
602.689704361222
 30
0.0
 40
12.99999999999997
100
AcDbArc
 50
-44.79565983680268
 51
90.50269329611329
  0
ARC
  5
14E
330
46
100
AcDbEntity
  8
1
  6
Continuous
 62
     7
100
AcDbCircle
 10
115.191766743864
 20
602.689704361222
 30
0.0
 40
14.50000000000003
100
AcDbArc
 50
86.7942485708424
 51
94.21113802138345
  0
ARC
  5
14F
330
46
100
AcDbEntity
  8
1
  6
Continuous
 62
     7
100
AcDbCircle
 10
115.191766743864
 20
602.689704361222
 30
0.0
 40
14.50000000000004
100
AcDbArc
 50
-33.2057514291575
 51
-25.78886197861593
  0
ARC
  5
150
330
46
100
AcDbEntity
  8
1
  6
Continuous
 62
     7
100
AcDbCircle
 10
115.191766743864
 20
602.689704361222
 30
0.0
 40
14.49999999999982
100
AcDbArc
 50
146.794248570843
 51
154.2111380213843
  0
ARC
  5
151
330
46
100
AcDbEntity
  8
1
  6
Continuous
 62
     7
100
AcDbCircle
 10
115.191766743864
 20
602.689704361222
 30
0.0
 40
14.50000000000004
100
AcDbArc
 50
26.79424857084245
 51
34.21113802138414
  0
ARC
  5
152
330
46
100
AcDbEntity
  8
1
  6
Continuous
 62
     7
100
AcDbCircle
 10
115.191766743864
 20
602.689704361222
 30
0.0
 40
14.5
100
AcDbArc
 50
-153.205751429157
 51
-145.7888619786158
  0
ARC
  5
153
330
46
100
AcDbEntity
  8
1
  6
Continuous
 62
     7
100
AcDbCircle
 10
359.7081217091587
 20
296.640675562727
 30
0.0
 40
5.000000000000091
100
AcDbArc
 50
126.8698976458433
 51
-135.572995999194
  0
ARC
  5
154
330
46
100
AcDbEntity
  8
1
  6
Continuous
 62
     7
100
AcDbCircle
 10
343.3016665040436
 20
320.547130767842
 30
0.0
 40
24.0000000000001
100
AcDbArc
 50
-56.04080749990217
 51
-33.95919250009749
  0
ARC
  5
155
330
46
100
AcDbEntity
  8
1
  6
Continuous
 62
     7
100
AcDbCircle
 10
378.7081217091587
 20
296.640675562727
 30
0.0
 40
4.999999999999814
100
AcDbArc
 50
-44.42700400080781
 51
53.13010235415989
  0
ARC
  5
156
330
46
100
AcDbEntity
  8
1
  6
Continuous
 62
     7
100
AcDbCircle
 10
395.1145769142736
 20
320.547130767842
 30
0.0
 40
24.00000000000002
100
AcDbArc
 50
-146.0408074999022
 51
-123.9591925000981
  0
ARC
  5
157
330
46
100
AcDbEntity
  8
1
  6
Continuous
 62
     7
100
AcDbCircle
 10
141.098221948979
 20
320.5471307678419
 30
0.0
 40
24.00000000000006
100
AcDbArc
 50
-146.0408074999026
 51
-123.9591925000978
  0
ARC
  5
158
330
46
100
AcDbEntity
  8
1
  6
Continuous
 62
     7
100
AcDbCircle
 10
124.691766743864
 20
296.640675562727
 30
0.0
 40
5.000000000000067
100
AcDbArc
 50
45.57299599919482
 51
53.13010235415676
  0
ARC
  5
159
330
46
100
AcDbEntity
  8
1
  6
Continuous
 62
     7
100
AcDbCircle
 10
89.28531153874928
 20
320.5471307678419
 30
0.0
 40
23.99999999999996
100
AcDbArc
 50
-56.04080749990215
 51
-33.95919250009779
  0
ARC
  5
15A
330
46
100
AcDbEntity
  8
1
  6
Continuous
 62
     7
100
AcDbCircle
 10
105.691766743864
 20
296.640675562727
 30
0.0
 40
4.999999999999903
100
AcDbArc
 50
126.8698976458404
 51
134.4270040008051
  0
SPLINE
  5
15B
330
46
100
AcDbEntity
  8
1
  6
Continuous
 62
     7
100
AcDbSpline
210
0.0
220
0.0
230
1.0
 70
    11
 71
     3
 72
    79
 73
    75
 74
    73
 42
0.0000000001
 43
0.0000000001
 44
0.00000001
 40
0.0
 40
0.0
 40
0.0
 40
0.0
 40
0.316043646596357
 40
0.6318966345054697
 40
0.9639391318841405
 40
1.295702698074544
 40
1.650847227467522
 40
2.005727789197635
 40
2.387357022599157
 40
2.768780714705251
 40
3.176769171734168
 40
3.584612394008141
 40
4.015944751163394
 40
4.447181172427984
 40
4.896666773394744
 40
5.346094681847099
 40
5.807047420514849
 40
6.267973152330027
 40
6.732835060374327
 40
7.197696968418637
 40
7.658622700233872
 40
8.119575438901597
 40
8.569003347353885
 40
9.018488948320549
 40
9.449725369585112
 40
9.881057726740517
 40
10.28890094901454
 40
10.69688940604346
 40
11.07831309814953
 40
11.45994233155107
 40
11.81482289328114
 40
12.1699674226742
 40
12.50173098886465
 40
12.83377348624339
 40
13.14962647415251
 40
13.46567012074875
 40
13.77589255555606
 40
14.08611499036343
 40
14.40215863695968
 40
14.71801162486883
 40
15.05005412224748
 40
15.3818176884379
 40
15.73696221783098
 40
16.09184277956107
 40
16.47347201296257
 40
16.85489570506865
 40
17.26288416209753
 40
17.6707273843715
 40
18.10205974152684
 40
18.53329616279159
 40
18.98278176375846
 40
19.43220967221071
 40
19.89316241087836
 40
20.35408814269353
 40
20.81895005073785
 40
21.28381195878216
 40
21.7447376905973
 40
22.20569042926498
 40
22.65511833771729
 40
23.10460393868412
 40
23.53584035994879
 40
23.96717271710407
 40
24.37501593937803
 40
24.78300439640695
 40
25.16442808851308
 40
25.54605732191455
 40
25.90093788364461
 40
26.2560824130377
 40
26.58784597922814
 40
26.91988847660681
 40
27.23574146451596
 40
27.5517851111122
 40
27.86200754591957
 40
28.17222998072688
 40
28.17222998072688
 40
28.17222998072688
 40
28.17222998072688
 10
114.2331527190944
 20
296.985559504649
 30
0.0
 10
114.2153608097422
 20
297.0895535316337
 30
0.0
 10
114.1797877243086
 20
297.2974788494436
 30
0.0
 10
114.0736470014182
 20
297.6021245738135
 30
0.0
 10
113.9325936628132
 20
297.8972828638376
 30
0.0
 10
113.7503437441397
 20
298.1847943127357
 30
0.0
 10
113.5341284953357
 20
298.4573175378779
 30
0.0
 10
113.2801895987785
 20
298.7187056064605
 30
0.0
 10
112.9966007791775
 20
298.9612390524105
 30
0.0
 10
112.6790032965932
 20
299.1889117137563
 30
0.0
 10
112.336698612873
 20
299.394892520668
 30
0.0
 10
111.9652429199837
 20
299.5823346151736
 30
0.0
 10
111.5742993452511
 20
299.7459898759804
 30
0.0
 10
111.1602753359192
 20
299.8878424476848
 30
0.0
 10
110.7321781865314
 20
300.0044025453895
 30
0.0
 10
110.2880938782569
 20
300.0966239185001
 30
0.0
 10
109.8355006286283
 20
300.1625678581995
 30
0.0
 10
109.3747307576356
 20
300.2025751408078
 30
0.0
 10
108.9111132795481
 20
300.2158158337111
 30
0.0
 10
108.4474958014469
 20
300.2025751408089
 30
0.0
 10
107.9867259304947
 20
300.1625678581955
 30
0.0
 10
107.5341326807192
 20
300.0966239185155
 30
0.0
 10
107.0900483729791
 20
300.0044025453333
 30
0.0
 10
106.6619512216343
 20
299.8878424478913
 30
0.0
 10
106.247927219323
 20
299.7459898752439
 30
0.0
 10
105.8569836190856
 20
299.5823346178629
 30
0.0
 10
105.4855280164442
 20
299.3948925112355
 30
0.0
 10
105.1432230070426
 20
299.1889117480692
 30
0.0
 10
104.8256266647573
 20
298.961238933558
 30
0.0
 10
104.5420337466563
 20
298.7187060381203
 30
0.0
 10
104.2881091303821
 20
298.4573160514042
 30
0.0
 10
104.071842531212
 20
298.1847997236637
 30
0.0
 10
103.8897723315308
 20
297.897264134839
 30
0.0
 10
103.7480682542898
 20
297.6021932522867
 30
0.0
 10
103.6442444665174
 20
297.2972363162724
 30
0.0
 10
103.582699558823
 20
296.9883751859363
 30
0.0
 10
103.5611835172946
 20
296.6760326698627
 30
0.0
 10
103.5826995588231
 20
296.3636901537891
 30
0.0
 10
103.6442444665174
 20
296.0548290234531
 30
0.0
 10
103.7480682542898
 20
295.7498720874385
 30
0.0
 10
103.8897723315306
 20
295.4548012048863
 30
0.0
 10
104.071842531212
 20
295.1672656160617
 30
0.0
 10
104.2881091303821
 20
294.8947492883211
 30
0.0
 10
104.5420337466562
 20
294.6333593016051
 30
0.0
 10
104.8256266647572
 20
294.3908264061673
 30
0.0
 10
105.1432230070425
 20
294.163153591656
 30
0.0
 10
105.4855280164441
 20
293.95717282849
 30
0.0
 10
105.8569836190854
 20
293.7697307218623
 30
0.0
 10
106.2479272193228
 20
293.6060754644814
 30
0.0
 10
106.6619512216344
 20
293.4642228918341
 30
0.0
 10
107.0900483729793
 20
293.3476627943922
 30
0.0
 10
107.5341326807194
 20
293.25544142121
 30
0.0
 10
107.9867259304946
 20
293.1894974815299
 30
0.0
 10
108.4474958014475
 20
293.1494901989165
 30
0.0
 10
108.9111132795459
 20
293.1362495060145
 30
0.0
 10
109.3747307576435
 20
293.1494901989164
 30
0.0
 10
109.8355006285992
 20
293.1894974815302
 30
0.0
 10
110.2880938783641
 20
293.2554414212087
 30
0.0
 10
110.7321781861422
 20
293.347662794396
 30
0.0
 10
111.1602753373479
 20
293.4642228918193
 30
0.0
 10
111.5742993401587
 20
293.6060754645338
 30
0.0
 10
111.9652429385819
 20
293.7697307216711
 30
0.0
 10
112.3366985476421
 20
293.957172829161
 30
0.0
 10
112.6790035338797
 20
294.1631535892156
 30
0.0
 10
112.9965999572688
 20
294.3908264146206
 30
0.0
 10
113.2801925838636
 20
294.6333592709033
 30
0.0
 10
113.5341182158243
 20
294.8947493940468
 30
0.0
 10
113.750381162694
 20
295.1672652312088
 30
0.0
 10
113.9324641449088
 20
295.4548025369884
 30
0.0
 10
114.0741219382912
 20
295.7498672026744
 30
0.0
 10
114.1781105183341
 20
296.0548462736521
 30
0.0
 10
114.2390503204359
 20
296.3636261259649
 30
0.0
 10
114.2627857690142
 20
296.6762667536742
 30
0.0
 10
114.243030402401
 20
296.8824619209908
 30
0.0
 10
114.2331527190944
 20
296.985559504649
 30
0.0
 11
114.2331527190944
 21
296.985559504649
 31
0.0
 11
114.1712703698081
 21
297.295485562606
 31
0.0
 11
114.0702142428787
 21
297.5947359079377
 31
0.0
 11
113.9267605234102
 21
297.8941908301482
 31
0.0
 11
113.7499298100151
 21
298.1749005782004
 31
0.0
 11
113.5296192391786
 21
298.4534519902153
 31
0.0
 11
113.282811693055
 21
298.7084544377924
 31
0.0
 11
112.9932014045294
 21
298.9569836162942
 31
0.0
 11
112.6834990856006
 21
299.1796234746978
 31
0.0
 11
112.3342225034516
 21
299.3904799430148
 31
0.0
 11
111.9702787021917
 21
299.5745478747122
 31
0.0
 11
111.5725822101183
 21
299.7415362052075
 31
0.0
 11
111.1647063769634
 21
299.8815439041146
 31
0.0
 11
110.7310979956027
 21
299.9999545332414
 31
0.0
 11
110.29108523815
 21
300.0914652876627
 31
0.0
 11
109.8349793547874
 21
300.1581349992808
 31
0.0
 11
109.3757830576478
 21
300.1980259875196
 31
0.0
 11
108.9111132795458
 21
300.2113897769983
 31
0.0
 11
108.4464435014438
 21
300.1980259875197
 31
0.0
 11
107.9872472043042
 21
300.158134999281
 31
0.0
 11
107.5311413209415
 21
300.0914652876627
 31
0.0
 11
107.0911285634889
 21
299.9999545332414
 31
0.0
 11
106.6575201821283
 21
299.8815439041146
 31
0.0
 11
106.2496443489734
 21
299.7415362052075
 31
0.0
 11
105.8519478568999
 21
299.5745478747121
 31
0.0
 11
105.4880040556399
 21
299.390479943015
 31
0.0
 11
105.1387274734909
 21
299.1796234746979
 31
0.0
 11
104.8290251545622
 21
298.9569836162942
 31
0.0
 11
104.5394148660366
 21
298.7084544377924
 31
0.0
 11
104.2926073199129
 21
298.4534519902154
 31
0.0
 11
104.0722967490764
 21
298.1749005782004
 31
0.0
 11
103.8954660356813
 21
297.8941908301482
 31
0.0
 11
103.7520123162128
 21
297.5947359079376
 31
0.0
 11
103.6509561892834
 21
297.2954855626059
 31
0.0
 11
103.5890738399971
 21
296.985559504649
 31
0.0
 11
103.5683109499057
 21
296.6760326698627
 31
0.0
 11
103.5890738399971
 21
296.3665058350763
 31
0.0
 11
103.6509561892834
 21
296.0565797771195
 31
0.0
 11
103.7520123162128
 21
295.7573294317878
 31
0.0
 11
103.8954660356812
 21
295.4578745095772
 31
0.0
 11
104.0722967490764
 21
295.177164761525
 31
0.0
 11
104.2926073199129
 21
294.89861334951
 31
0.0
 11
104.5394148660365
 21
294.643610901933
 31
0.0
 11
104.8290251545621
 21
294.3950817234312
 31
0.0
 11
105.1387274734908
 21
294.1724418650275
 31
0.0
 11
105.4880040556397
 21
293.9615853967104
 31
0.0
 11
105.8519478568997
 21
293.7775174650133
 31
0.0
 11
106.2496443489732
 21
293.610529134518
 31
0.0
 11
106.6575201821283
 21
293.4705214356109
 31
0.0
 11
107.0911285634891
 21
293.3521108064841
 31
0.0
 11
107.5311413209417
 21
293.2606000520627
 31
0.0
 11
107.9872472043042
 21
293.1939303404444
 31
0.0
 11
108.4464435014438
 21
293.1540393522057
 31
0.0
 11
108.9111132795458
 21
293.140675562727
 31
0.0
 11
109.3757830576478
 21
293.1540393522057
 31
0.0
 11
109.8349793547873
 21
293.1939303404444
 31
0.0
 11
110.2910852381499
 21
293.2606000520626
 31
0.0
 11
110.7310979956026
 21
293.352110806484
 31
0.0
 11
111.1647063769633
 21
293.4705214356108
 31
0.0
 11
111.5725822101183
 21
293.6105291345179
 31
0.0
 11
111.9702787021917
 21
293.7775174650133
 31
0.0
 11
112.3342225034517
 21
293.9615853967105
 31
0.0
 11
112.6834990856007
 21
294.1724418650275
 31
0.0
 11
112.9932014045295
 21
294.3950817234312
 31
0.0
 11
113.282811693055
 21
294.643610901933
 31
0.0
 11
113.5296192391786
 21
294.89861334951
 31
0.0
 11
113.7499298100151
 21
295.177164761525
 31
0.0
 11
113.9267605234103
 21
295.4578745095772
 31
0.0
 11
114.0702142428787
 21
295.7573294317878
 31
0.0
 11
114.1712703698081
 21
296.0565797771195
 31
0.0
 11
114.2331527190944
 21
296.3665058350763
 31
0.0
 11
114.2539156091857
 21
296.6760326698627
 31
0.0
 11
114.2331527190944
 21
296.985559504649
 31
0.0
  0
SPLINE
  5
15C
330
46
100
AcDbEntity
  8
1
  6
Continuous
 62
     7
100
AcDbSpline
210
0.0
220
0.0
230
1.0
 70
    11
 71
     3
 72
    79
 73
    75
 74
    73
 42
0.0000000001
 43
0.0000000001
 44
0.00000001
 40
0.0
 40
0.0
 40
0.0
 40
0.0
 40
0.3160436465963681
 40
0.6318966345054946
 40
0.9639391318841899
 40
1.295702698074594
 40
1.650847227467527
 40
2.00572778919768
 40
2.387357022599224
 40
2.768780714705295
 40
3.176769171734176
 40
3.5846123940082
 40
4.015944751163466
 40
4.44718117242807
 40
4.896666773394816
 40
5.346094681847143
 40
5.807047420514851
 40
6.267973152330073
 40
6.732835060374386
 40
7.197696968418696
 40
7.658622700233861
 40
8.119575438901613
 40
8.569003347353915
 40
9.01848894832062
 40
9.44972536958521
 40
9.881057726740549
 40
10.28890094901455
 40
10.69688940604341
 40
11.07831309814949
 40
11.45994233155107
 40
11.81482289328118
 40
12.16996742267423
 40
12.50173098886467
 40
12.83377348624343
 40
13.14962647415255
 40
13.46567012074879
 40
13.7758925555561
 40
14.08611499036347
 40
14.40215863695971
 40
14.71801162486887
 40
15.05005412224754
 40
15.38181768843794
 40
15.73696221783101
 40
16.09184277956114
 40
16.47347201296271
 40
16.85489570506879
 40
17.26288416209768
 40
17.67072738437161
 40
18.10205974152689
 40
18.53329616279159
 40
18.98278176375841
 40
19.43220967221072
 40
19.89316241087839
 40
20.35408814269352
 40
20.81895005073781
 40
21.28381195878208
 40
21.74473769059727
 40
22.20569042926505
 40
22.65511833771739
 40
23.10460393868415
 40
23.53584035994876
 40
23.96717271710405
 40
24.37501593937804
 40
24.78300439640696
 40
25.16442808851307
 40
25.54605732191454
 40
25.90093788364462
 40
26.25608241303771
 40
26.58784597922812
 40
26.91988847660679
 40
27.23574146451596
 40
27.55178511111221
 40
27.86200754591959
 40
28.1722299807269
 40
28.1722299807269
 40
28.1722299807269
 40
28.1722299807269
 10
116.1503807686335
 20
296.985559504649
 30
0.0
 10
116.1681726779858
 20
297.0895535316338
 30
0.0
 10
116.2037457634193
 20
297.2974788494436
 30
0.0
 10
116.3098864863098
 20
297.6021245738136
 30
0.0
 10
116.4509398249149
 20
297.8972828638376
 30
0.0
 10
116.6331897435884
 20
298.1847943127356
 30
0.0
 10
116.8494049923923
 20
298.4573175378779
 30
0.0
 10
117.1033438889496
 20
298.7187056064605
 30
0.0
 10
117.3869327085506
 20
298.9612390524106
 30
0.0
 10
117.7045301911349
 20
299.1889117137562
 30
0.0
 10
118.046834874855
 20
299.394892520668
 30
0.0
 10
118.4182905677444
 20
299.5823346151738
 30
0.0
 10
118.809234142477
 20
299.7459898759803
 30
0.0
 10
119.2232581518089
 20
299.8878424476848
 30
0.0
 10
119.6513553011967
 20
300.0044025453896
 30
0.0
 10
120.0954396094711
 20
300.0966239185
 30
0.0
 10
120.5480328590998
 20
300.1625678581996
 30
0.0
 10
121.0088027300924
 20
300.2025751408078
 30
0.0
 10
121.47242020818
 20
300.2158158337111
 30
0.0
 10
121.9360376862811
 20
300.2025751408089
 30
0.0
 10
122.3968075572333
 20
300.1625678581955
 30
0.0
 10
122.8494008070088
 20
300.0966239185154
 30
0.0
 10
123.2934851147489
 20
300.0044025453334
 30
0.0
 10
123.7215822660937
 20
299.8878424478914
 30
0.0
 10
124.1356062684051
 20
299.745989875244
 30
0.0
 10
124.5265498686424
 20
299.582334617863
 30
0.0
 10
124.8980054712838
 20
299.3948925112355
 30
0.0
 10
125.2403104806854
 20
299.1889117480693
 30
0.0
 10
125.5579068229706
 20
298.961238933558
 30
0.0
 10
125.8414997410717
 20
298.7187060381202
 30
0.0
 10
126.0954243573459
 20
298.4573160514044
 30
0.0
 10
126.311690956516
 20
298.1847997236636
 30
0.0
 10
126.4937611561973
 20
297.8972641348391
 30
0.0
 10
126.6354652334382
 20
297.6021932522868
 30
0.0
 10
126.7392890212108
 20
297.2972363162723
 30
0.0
 10
126.800833928905
 20
296.9883751859363
 30
0.0
 10
126.8223499704334
 20
296.6760326698627
 30
0.0
 10
126.8008339289049
 20
296.363690153789
 30
0.0
 10
126.7392890212107
 20
296.0548290234531
 30
0.0
 10
126.6354652334382
 20
295.7498720874385
 30
0.0
 10
126.4937611561973
 20
295.4548012048864
 30
0.0
 10
126.3116909565161
 20
295.1672656160617
 30
0.0
 10
126.0954243573459
 20
294.8947492883211
 30
0.0
 10
125.8414997410717
 20
294.6333593016051
 30
0.0
 10
125.5579068229707
 20
294.3908264061673
 30
0.0
 10
125.2403104806854
 20
294.1631535916562
 30
0.0
 10
124.8980054712838
 20
293.9571728284899
 30
0.0
 10
124.5265498686426
 20
293.7697307218625
 30
0.0
 10
124.1356062684052
 20
293.6060754644814
 30
0.0
 10
123.7215822660938
 20
293.4642228918342
 30
0.0
 10
123.2934851147488
 20
293.3476627943922
 30
0.0
 10
122.8494008070087
 20
293.2554414212099
 30
0.0
 10
122.3968075572334
 20
293.1894974815299
 30
0.0
 10
121.9360376862806
 20
293.1494901989165
 30
0.0
 10
121.4724202081821
 20
293.1362495060145
 30
0.0
 10
121.0088027300847
 20
293.1494901989163
 30
0.0
 10
120.5480328591289
 20
293.1894974815301
 30
0.0
 10
120.095439609364
 20
293.2554414212087
 30
0.0
 10
119.6513553015858
 20
293.347662794396
 30
0.0
 10
119.2232581503801
 20
293.4642228918193
 30
0.0
 10
118.8092341475695
 20
293.6060754645338
 30
0.0
 10
118.4182905491462
 20
293.7697307216711
 30
0.0
 10
118.0468349400859
 20
293.9571728291609
 30
0.0
 10
117.7045299538484
 20
294.1631535892155
 30
0.0
 10
117.3869335304592
 20
294.3908264146207
 30
0.0
 10
117.1033409038645
 20
294.6333592709033
 30
0.0
 10
116.8494152719037
 20
294.8947493940468
 30
0.0
 10
116.6331523250341
 20
295.1672652312088
 30
0.0
 10
116.4510693428193
 20
295.4548025369884
 30
0.0
 10
116.309411549437
 20
295.7498672026744
 30
0.0
 10
116.2054229693938
 20
296.0548462736521
 30
0.0
 10
116.1444831672921
 20
296.3636261259648
 30
0.0
 10
116.1207477187137
 20
296.6762667536742
 30
0.0
 10
116.1405030853269
 20
296.8824619209908
 30
0.0
 10
116.1503807686335
 20
296.985559504649
 30
0.0
 11
116.1503807686335
 21
296.985559504649
 31
0.0
 11
116.2122631179199
 21
297.295485562606
 31
0.0
 11
116.3133192448493
 21
297.5947359079377
 31
0.0
 11
116.4567729643179
 21
297.8941908301482
 31
0.0
 11
116.633603677713
 21
298.1749005782004
 31
0.0
 11
116.8539142485494
 21
298.4534519902153
 31
0.0
 11
117.1007217946731
 21
298.7084544377924
 31
0.0
 11
117.3903320831987
 21
298.9569836162942
 31
0.0
 11
117.7000344021274
 21
299.1796234746978
 31
0.0
 11
118.0493109842764
 21
299.3904799430148
 31
0.0
 11
118.4132547855363
 21
299.5745478747122
 31
0.0
 11
118.8109512776098
 21
299.7415362052075
 31
0.0
 11
119.2188271107647
 21
299.8815439041146
 31
0.0
 11
119.6524354921254
 21
299.9999545332414
 31
0.0
 11
120.092448249578
 21
300.0914652876627
 31
0.0
 11
120.5485541329407
 21
300.1581349992808
 31
0.0
 11
121.0077504300803
 21
300.1980259875196
 31
0.0
 11
121.4724202081823
 21
300.2113897769983
 31
0.0
 11
121.9370899862843
 21
300.1980259875197
 31
0.0
 11
122.3962862834238
 21
300.158134999281
 31
0.0
 11
122.8523921667865
 21
300.0914652876627
 31
0.0
 11
123.2924049242391
 21
299.9999545332414
 31
0.0
 11
123.7260133055998
 21
299.8815439041146
 31
0.0
 11
124.1338891387547
 21
299.7415362052075
 31
0.0
 11
124.5315856308282
 21
299.5745478747121
 31
0.0
 11
124.8955294320882
 21
299.390479943015
 31
0.0
 11
125.2448060142371
 21
299.1796234746979
 31
0.0
 11
125.5545083331658
 21
298.9569836162942
 31
0.0
 11
125.8441186216914
 21
298.7084544377924
 31
0.0
 11
126.0909261678152
 21
298.4534519902154
 31
0.0
 11
126.3112367386516
 21
298.1749005782004
 31
0.0
 11
126.4880674520467
 21
297.8941908301482
 31
0.0
 11
126.6315211715153
 21
297.5947359079376
 31
0.0
 11
126.7325772984447
 21
297.2954855626059
 31
0.0
 11
126.794459647731
 21
296.985559504649
 31
0.0
 11
126.8152225378223
 21
296.6760326698627
 31
0.0
 11
126.7944596477309
 21
296.3665058350763
 31
0.0
 11
126.7325772984447
 21
296.0565797771195
 31
0.0
 11
126.6315211715153
 21
295.7573294317878
 31
0.0
 11
126.4880674520468
 21
295.4578745095772
 31
0.0
 11
126.3112367386517
 21
295.177164761525
 31
0.0
 11
126.0909261678152
 21
294.89861334951
 31
0.0
 11
125.8441186216915
 21
294.643610901933
 31
0.0
 11
125.5545083331658
 21
294.3950817234312
 31
0.0
 11
125.2448060142371
 21
294.1724418650275
 31
0.0
 11
124.8955294320882
 21
293.9615853967104
 31
0.0
 11
124.5315856308283
 21
293.7775174650133
 31
0.0
 11
124.1338891387548
 21
293.610529134518
 31
0.0
 11
123.7260133055998
 21
293.4705214356109
 31
0.0
 11
123.292404924239
 21
293.3521108064841
 31
0.0
 11
122.8523921667864
 21
293.2606000520627
 31
0.0
 11
122.3962862834238
 21
293.1939303404444
 31
0.0
 11
121.9370899862843
 21
293.1540393522057
 31
0.0
 11
121.4724202081823
 21
293.140675562727
 31
0.0
 11
121.0077504300803
 21
293.1540393522057
 31
0.0
 11
120.5485541329408
 21
293.1939303404444
 31
0.0
 11
120.092448249578
 21
293.2606000520626
 31
0.0
 11
119.6524354921254
 21
293.352110806484
 31
0.0
 11
119.2188271107647
 21
293.4705214356108
 31
0.0
 11
118.8109512776098
 21
293.6105291345179
 31
0.0
 11
118.4132547855363
 21
293.7775174650133
 31
0.0
 11
118.0493109842764
 21
293.9615853967105
 31
0.0
 11
117.7000344021274
 21
294.1724418650275
 31
0.0
 11
117.3903320831986
 21
294.3950817234312
 31
0.0
 11
117.1007217946731
 21
294.643610901933
 31
0.0
 11
116.8539142485495
 21
294.89861334951
 31
0.0
 11
116.633603677713
 21
295.177164761525
 31
0.0
 11
116.4567729643178
 21
295.4578745095772
 31
0.0
 11
116.3133192448493
 21
295.7573294317878
 31
0.0
 11
116.2122631179199
 21
296.0565797771195
 31
0.0
 11
116.1503807686336
 21
296.3665058350763
 31
0.0
 11
116.1296178785422
 21
296.6760326698627
 31
0.0
 11
116.1503807686335
 21
296.985559504649
 31
0.0
  0
SPLINE
  5
15D
330
46
100
AcDbEntity
  8
1
  6
Continuous
 62
     7
100
AcDbSpline
210
0.0
220
0.0
230
1.0
 70
    11
 71
     3
 72
    79
 73
    75
 74
    73
 42
0.0000000001
 43
0.0000000001
 44
0.00000001
 40
0.0
 40
0.0
 40
0.0
 40
0.0
 40
0.3056556000690896
 40
0.6111585955696273
 40
0.9305029536217346
 40
1.249617901759572
 40
1.588850771753307
 40
1.927858409347997
 40
2.290035982119285
 40
2.652031963933378
 40
3.037173436931015
 40
3.422183027098631
 40
3.827752361981583
 40
4.233232828173668
 40
4.654739094837044
 40
5.07619120433614
 40
5.507785187801475
 40
5.939353626682323
 40
6.374389412416797
 40
6.809425198151269
 40
7.240993637032122
 40
7.67258762049744
 40
8.094039729996492
 40
8.51554599665983
 40
8.921026462852057
 40
9.326595797734875
 40
9.711605387902441
 40
10.09674686090008
 40
10.45874284271425
 40
10.8209204154855
 40
11.15992805308023
 40
11.499160923074
 40
11.81827587121183
 40
12.13762022926385
 40
12.44312322476448
 40
12.74877882483357
 40
13.04947800488103
 40
13.35017718492838
 40
13.65583278499736
 40
13.96133578049797
 40
14.28068013855003
 40
14.59979508668786
 40
14.93902795668175
 40
15.2780355942764
 40
15.64021316704769
 40
16.00220914886178
 40
16.38735062185937
 40
16.77236021202696
 40
17.17792954690991
 40
17.5834100131021
 40
18.00491627976545
 40
18.42636838926449
 40
18.85796237272981
 40
19.28953081161066
 40
19.7245665973452
 40
20.15960238307961
 40
20.59117082196046
 40
21.02276480542585
 40
21.4442169149249
 40
21.86572318158829
 40
22.27120364778047
 40
22.67677298266334
 40
23.06178257283106
 40
23.44692404582862
 40
23.80892002764266
 40
24.17109760041392
 40
24.51010523800861
 40
24.84933810800234
 40
25.16845305614023
 40
25.48779741419244
 40
25.79330040969306
 40
26.09895600976201
 40
26.39965518980947
 40
26.70035436985683
 40
26.70035436985683
 40
26.70035436985683
 40
26.70035436985683
 10
374.187961007277
 20
297.0021412749346
 30
0.0
 10
374.1713548778818
 20
297.1028073602249
 30
0.0
 10
374.1381509100282
 20
297.3040892712832
 30
0.0
 10
374.0391122981603
 20
297.5992584122057
 30
0.0
 10
373.9072682184145
 20
297.8855467671606
 30
0.0
 10
373.7370157994277
 20
298.16426266284
 30
0.0
 10
373.5347439300829
 20
298.4288266358211
 30
0.0
 10
373.2973270920414
 20
298.6823385953314
 30
0.0
 10
373.0318789009503
 20
298.9178789897919
 30
0.0
 10
372.7348047716664
 20
299.1387514919202
 30
0.0
 10
372.4143308670998
 20
299.3387997178954
 30
0.0
 10
372.0667895396575
 20
299.5206676241936
 30
0.0
 10
371.7007757147276
 20
299.6795907817752
 30
0.0
 10
371.3133494347845
 20
299.8172340833161
 30
0.0
 10
370.9125789902052
 20
299.930408009306
 30
0.0
 10
370.4969822816734
 20
300.0198956369574
 30
0.0
 10
370.0733167973702
 20
300.0839182989934
 30
0.0
 10
369.6420694009746
 20
300.122737393019
 30
0.0
 10
369.2081217091607
 20
300.1355979417846
 30
0.0
 10
368.7741740173345
 20
300.1227373930199
 30
0.0
 10
368.3429266209749
 20
300.0839182989899
 30
0.0
 10
367.9192611365407
 20
300.0198956369707
 30
0.0
 10
367.5036644284863
 20
299.9304080092579
 30
0.0
 10
367.1028939821572
 20
299.8172340834936
 30
0.0
 10
366.7154677085073
 20
299.6795907811397
 30
0.0
 10
366.3494538606723
 20
299.5206676265191
 30
0.0
 10
366.0019126145847
 20
299.338799709703
 30
0.0
 10
365.6814384156761
 20
299.1387515217817
 30
0.0
 10
365.3843653221726
 20
298.9178788857424
 30
0.0
 10
365.1189133961729
 20
298.6823389741502
 30
0.0
 10
364.8815096518499
 20
298.4288253218163
 30
0.0
 10
364.679190528683
 20
298.164267458054
 30
0.0
 10
364.509104572369
 20
297.8855300412182
 30
0.0
 10
364.3766557845112
 20
297.5993198660594
 30
0.0
 10
364.2797816659936
 20
297.3038708882277
 30
0.0
 10
364.2222780595599
 20
297.0045847337119
 30
0.0
 10
364.2022651617332
 20
296.7020674399483
 30
0.0
 10
364.2222780595599
 20
296.3995501461846
 30
0.0
 10
364.2797816659936
 20
296.100263991669
 30
0.0
 10
364.3766557845113
 20
295.8048150138372
 30
0.0
 10
364.5091045723688
 20
295.5186048386784
 30
0.0
 10
364.679190528683
 20
295.2398674218426
 30
0.0
 10
364.88150965185
 20
294.9753095580804
 30
0.0
 10
365.118913396173
 20
294.7217959057465
 30
0.0
 10
365.3843653221727
 20
294.486255994154
 30
0.0
 10
365.681438415676
 20
294.2653833581149
 30
0.0
 10
366.0019126145847
 20
294.0653351701936
 30
0.0
 10
366.3494538606722
 20
293.8834672533773
 30
0.0
 10
366.7154677085073
 20
293.7245440987572
 30
0.0
 10
367.1028939821573
 20
293.5869007964027
 30
0.0
 10
367.5036644284862
 20
293.4737268706389
 30
0.0
 10
367.9192611365409
 20
293.3842392429258
 30
0.0
 10
368.3429266209747
 20
293.3202165809068
 30
0.0
 10
368.7741740173351
 20
293.2813974868765
 30
0.0
 10
369.2081217091588
 20
293.2685369381122
 30
0.0
 10
369.6420694009816
 20
293.2813974868765
 30
0.0
 10
370.0733167973444
 20
293.320216580907
 30
0.0
 10
370.4969822817691
 20
293.3842392429249
 30
0.0
 10
370.9125789898577
 20
293.4737268706423
 30
0.0
 10
371.3133494360621
 20
293.5869007963901
 30
0.0
 10
371.7007757101602
 20
293.7245440988023
 30
0.0
 10
372.0667895563643
 20
293.8834672532119
 30
0.0
 10
372.4143308082448
 20
294.065335170777
 30
0.0
 10
372.7348049861945
 20
294.2653833559886
 30
0.0
 10
373.0318781534515
 20
294.486256001563
 30
0.0
 10
373.2973298135034
 20
294.7217958787722
 30
0.0
 10
373.5347344901775
 20
294.9753096516453
 30
0.0
 10
373.73705024859
 20
295.2398670803947
 30
0.0
 10
373.9071480580403
 20
295.5186060296653
 30
0.0
 10
374.0395537870702
 20
295.8048106379561
 30
0.0
 10
374.1365820304372
 20
296.1002795418463
 30
0.0
 10
374.1935186387381
 20
296.3994923919072
 30
0.0
 10
374.2156155167303
 20
296.7022791134185
 30
0.0
 10
374.1971791770947
 20
296.9021872210959
 30
0.0
 10
374.1879610072769
 20
297.0021412749345
 30
0.0
 11
374.187961007277
 21
297.0021412749346
 31
0.0
 11
374.1301773814436
 21
297.302285237791
 31
0.0
 11
374.0356212205232
 21
297.5927868947429
 31
0.0
 11
373.9017309184652
 21
297.8827079288789
 31
0.0
 11
373.7360841702573
 21
298.1554633228369
 31
0.0
 11
373.5303910261569
 21
298.4252211226394
 31
0.0
 11
373.2990937214383
 21
298.6730673152215
 31
0.0
 11
373.0285503082454
 21
298.9138553045326
 31
0.0
 11
372.7383252961706
 21
299.1302127245942
 31
0.0
 11
372.4118799731281
 21
299.3345834790736
 31
0.0
 11
372.0709136478412
 21
299.513397207689
 31
0.0
 11
371.6990629751387
 21
299.6753032378674
 31
0.0
 11
371.3170567815926
 21
299.8112652787307
 31
0.0
 11
370.9114960947136
 21
299.9261045668457
 31
0.0
 11
370.4995132281705
 21
300.0149414864015
 31
0.0
 11
370.0727927147318
 21
300.0796173704238
 31
0.0
 11
369.6429641369743
 21
300.1183305617298
 31
0.0
 11
369.2081217091586
 21
300.1312996727605
 31
0.0
 11
368.7732792813429
 21
300.1183305617299
 31
0.0
 11
368.3434507035855
 21
300.0796173704238
 31
0.0
 11
367.9167301901467
 21
300.0149414864017
 31
0.0
 11
367.5047473236037
 21
299.9261045668458
 31
0.0
 11
367.0991866367248
 21
299.8112652787307
 31
0.0
 11
366.7171804431785
 21
299.6753032378674
 31
0.0
 11
366.3453297704762
 21
299.513397207689
 31
0.0
 11
366.0043634451893
 21
299.3345834790736
 31
0.0
 11
365.6779181221468
 21
299.1302127245942
 31
0.0
 11
365.3876931100719
 21
298.9138553045325
 31
0.0
 11
365.117149696879
 21
298.6730673152215
 31
0.0
 11
364.8858523921604
 21
298.4252211226394
 31
0.0
 11
364.6801592480599
 21
298.1554633228369
 31
0.0
 11
364.5145124998522
 21
297.8827079288789
 31
0.0
 11
364.3806221977941
 21
297.5927868947429
 31
0.0
 11
364.2860660368738
 21
297.3022852377909
 31
0.0
 11
364.2282824110404
 21
297.0021412749345
 31
0.0
 11
364.208899675479
 21
296.7020674399482
 31
0.0
 11
364.2282824110404
 21
296.4019936049621
 31
0.0
 11
364.2860660368738
 21
296.1018496421058
 31
0.0
 11
364.380622197794
 21
295.8113479851538
 31
0.0
 11
364.5145124998521
 21
295.5214269510178
 31
0.0
 11
364.6801592480599
 21
295.2486715570598
 31
0.0
 11
364.8858523921605
 21
294.9789137572573
 31
0.0
 11
365.117149696879
 21
294.7310675646751
 31
0.0
 11
365.3876931100719
 21
294.4902795753641
 31
0.0
 11
365.6779181221467
 21
294.2739221553024
 31
0.0
 11
366.0043634451891
 21
294.0695514008231
 31
0.0
 11
366.345329770476
 21
293.8907376722076
 31
0.0
 11
366.7171804431785
 21
293.7288316420292
 31
0.0
 11
367.0991866367248
 21
293.5928696011658
 31
0.0
 11
367.5047473236037
 21
293.4780303130507
 31
0.0
 11
367.9167301901467
 21
293.3891933934949
 31
0.0
 11
368.3434507035855
 21
293.3245175094728
 31
0.0
 11
368.7732792813429
 21
293.2858043181667
 31
0.0
 11
369.2081217091587
 21
293.272835207136
 31
0.0
 11
369.6429641369743
 21
293.2858043181666
 31
0.0
 11
370.0727927147318
 21
293.3245175094727
 31
0.0
 11
370.4995132281705
 21
293.3891933934949
 31
0.0
 11
370.9114960947136
 21
293.4780303130508
 31
0.0
 11
371.3170567815926
 21
293.5928696011658
 31
0.0
 11
371.6990629751388
 21
293.7288316420292
 31
0.0
 11
372.0709136478412
 21
293.8907376722076
 31
0.0
 11
372.4118799731282
 21
294.0695514008231
 31
0.0
 11
372.7383252961706
 21
294.2739221553024
 31
0.0
 11
373.0285503082454
 21
294.4902795753641
 31
0.0
 11
373.2990937214382
 21
294.7310675646751
 31
0.0
 11
373.5303910261568
 21
294.9789137572572
 31
0.0
 11
373.7360841702572
 21
295.2486715570597
 31
0.0
 11
373.9017309184651
 21
295.5214269510177
 31
0.0
 11
374.0356212205232
 21
295.8113479851538
 31
0.0
 11
374.1301773814437
 21
296.1018496421058
 31
0.0
 11
374.187961007277
 21
296.4019936049621
 31
0.0
 11
374.2073437428384
 21
296.7020674399483
 31
0.0
 11
374.1879610072769
 21
297.0021412749345
 31
0.0
  0
SPLINE
  5
15E
330
46
100
AcDbEntity
  8
1
  6
Continuous
 62
     7
100
AcDbSpline
210
0.0
220
0.0
230
1.0
 70
    11
 71
     3
 72
    79
 73
    75
 74
    73
 42
0.0000000001
 43
0.0000000001
 44
0.00000001
 40
0.0
 40
0.0
 40
0.0
 40
0.0
 40
0.2811775426108325
 40
0.5623408931992997
 40
0.8457466631368226
 40
1.12912683042296
 40
1.415908903032432
 40
1.702658539054677
 40
1.993527432940209
 40
2.284362055943298
 40
2.579517800564323
 40
2.874641782101788
 40
3.173769982296711
 40
3.472872122788169
 40
3.775199692337373
 40
4.077508957859648
 40
4.381905225139327
 40
4.686292091405371
 40
4.991400459518996
 40
5.29650882763262
 40
5.600895693898552
 40
5.905291961178355
 40
6.207601226700652
 40
6.509928796249877
 40
6.809030936741334
 40
7.108159136936209
 40
7.403283118473753
 40
7.698438863094778
 40
7.989273486097908
 40
8.280142379983433
 40
8.566892016005678
 40
8.853674088615255
 40
9.137054255901369
 40
9.42046002583891
 40
9.701623376427129
 40
9.98280091903813
 40
10.26319552186839
 40
10.54359012469859
 40
10.82476766730948
 40
11.10593101789778
 40
11.38933678783532
 40
11.67271695512138
 40
11.95949902773091
 40
12.2462486637532
 40
12.53711755763878
 40
12.82795218064183
 40
13.12310792526285
 40
13.4182319068004
 40
13.71736010699525
 40
14.01646224748668
 40
14.3187898170359
 40
14.62109908255823
 40
14.92549534983797
 40
15.22988221610396
 40
15.53499058421759
 40
15.84009895233121
 40
16.14448581859721
 40
16.44888208587694
 40
16.75119135139926
 40
17.0535189209485
 40
17.35262106143993
 40
17.65174926163469
 40
17.94687324317228
 40
18.2420289877933
 40
18.53286361079639
 40
18.82373250468192
 40
19.11048214070421
 40
19.39726421331366
 40
19.68064438059978
 40
19.9640501505373
 40
20.24521350112571
 40
20.5263910437366
 40
20.8067856465668
 40
21.08718024939694
 40
21.08718024939694
 40
21.08718024939694
 40
21.08718024939694
 10
358.2298665545586
 20
300.1272936838455
 30
0.0
 10
358.3229626296491
 20
300.1158425617556
 30
0.0
 10
358.5091500809426
 20
300.0929408955542
 30
0.0
 10
358.7833875342489
 20
300.0249036045056
 30
0.0
 10
359.0511142015559
 20
299.933281475532
 30
0.0
 10
359.3106746897241
 20
299.8156704877472
 30
0.0
 10
359.5594089820913
 20
299.6744521645283
 30
0.0
 10
359.7962230868816
 20
299.5096301937833
 30
0.0
 10
360.0184814509487
 20
299.3235528966188
 30
0.0
 10
360.2253368380837
 20
299.1165280470074
 30
0.0
 10
360.4144506415969
 20
298.8913292492933
 30
0.0
 10
360.5850990257479
 20
298.6484643437639
 30
0.0
 10
360.7354163429975
 20
298.3909957127536
 30
0.0
 10
360.8647396783583
 20
298.1197178154822
 30
0.0
 10
360.9717726057965
 20
297.8377646615747
 30
0.0
 10
361.0559197434586
 20
297.5463275082051
 30
0.0
 10
361.1164642521666
 20
297.2483895647476
 30
0.0
 10
361.1529514489056
 20
296.9456238999471
 30
0.0
 10
361.1651785052567
 20
296.640675562728
 30
0.0
 10
361.152951448906
 20
296.3357272255031
 30
0.0
 10
361.1164642521653
 20
296.0329615607196
 30
0.0
 10
361.0559197434632
 20
295.7350236172002
 30
0.0
 10
360.9717726057795
 20
295.4435864640594
 30
0.0
 10
360.8647396784223
 20
295.1616333093019
 30
0.0
 10
360.7354163427617
 20
294.8903554151706
 30
0.0
 10
360.585099026624
 20
294.6328867725185
 30
0.0
 10
360.4144506383752
 20
294.3900219098817
 30
0.0
 10
360.2253368500395
 20
294.1648229533048
 30
0.0
 10
360.0184814070516
 20
293.9577986883014
 30
0.0
 10
359.796223249829
 20
293.7717192261172
 30
0.0
 10
359.559408383496
 20
293.6069052263635
 30
0.0
 10
359.3106769138541
 20
293.4656573579495
 30
0.0
 10
359.0511060099676
 20
293.3481553904955
 30
0.0
 10
358.7834180186973
 20
293.2561284431255
 30
0.0
 10
358.5090373078143
 20
293.1895906155056
 30
0.0
 10
358.2305462963508
 20
293.149687831893
 30
0.0
 10
357.9497914599609
 20
293.1361757105636
 30
0.0
 10
357.6690366235708
 20
293.149687831893
 30
0.0
 10
357.3905456121075
 20
293.1895906155055
 30
0.0
 10
357.1161649012246
 20
293.2561284431258
 30
0.0
 10
356.8484769099541
 20
293.3481553904956
 30
0.0
 10
356.5889060060678
 20
293.4656573579496
 30
0.0
 10
356.3401745364258
 20
293.6069052263636
 30
0.0
 10
356.1033596700929
 20
293.7717192261173
 30
0.0
 10
355.8811015128702
 20
293.9577986883012
 30
0.0
 10
355.6742460698822
 20
294.1648229533049
 30
0.0
 10
355.4851322815464
 20
294.3900219098816
 30
0.0
 10
355.3144838932977
 20
294.6328867725187
 30
0.0
 10
355.1641665771602
 20
294.8903554151706
 30
0.0
 10
355.0348432414995
 20
295.1616333093019
 30
0.0
 10
354.9278103141425
 20
295.4435864640595
 30
0.0
 10
354.8436631764585
 20
295.7350236171999
 30
0.0
 10
354.7831186677565
 20
296.0329615607196
 30
0.0
 10
354.7466314710158
 20
296.3357272255033
 30
0.0
 10
354.7344044146651
 20
296.640675562727
 30
0.0
 10
354.7466314710158
 20
296.9456238999504
 30
0.0
 10
354.7831186677566
 20
297.2483895647354
 30
0.0
 10
354.8436631764583
 20
297.5463275082504
 30
0.0
 10
354.9278103141436
 20
297.8377646614074
 30
0.0
 10
355.0348432414949
 20
298.1197178161041
 30
0.0
 10
355.1641665771773
 20
298.3909957104603
 30
0.0
 10
355.314483893235
 20
298.6484643522779
 30
0.0
 10
355.4851322817774
 20
298.8913292179898
 30
0.0
 10
355.674246069025
 20
299.116528163177
 30
0.0
 10
355.8811015160176
 20
299.3235524700944
 30
0.0
 10
356.1033596584102
 20
299.5096317770556
 30
0.0
 10
356.3401745793426
 20
299.6744463482962
 30
0.0
 10
356.5889058466068
 20
299.8156920984425
 30
0.0
 10
356.8484774972569
 20
299.9332018822011
 30
0.0
 10
357.1161627156162
 20
300.0251998057746
 30
0.0
 10
357.3905536974721
 20
300.0918451386897
 30
0.0
 10
357.6690064743599
 20
300.1313477246365
 30
0.0
 10
357.9499036315704
 20
300.146349504454
 30
0.0
 10
358.1365455802292
 20
300.1336456240483
 30
0.0
 10
358.2298665545586
 20
300.1272936838456
 30
0.0
 11
358.2298665545586
 21
300.1272936838455
 31
0.0
 11
358.5081933082922
 21
300.0873558743816
 31
0.0
 11
358.7814673428412
 21
300.0212186552425
 31
0.0
 11
359.0494720136704
 21
299.9290648335767
 31
0.0
 11
359.3076936516881
 21
299.812334782302
 31
0.0
 11
359.5570802950385
 21
299.67073584414
 31
0.0
 11
359.7925266728946
 21
299.5070582436159
 31
0.0
 11
360.0155785217188
 21
299.3203697700395
 31
0.0
 11
360.2212465783139
 21
299.1147355597686
 31
0.0
 11
360.4110979830584
 21
298.8887414056421
 31
0.0
 11
360.5808709144299
 21
298.6473385965199
 31
0.0
 11
360.7317325968633
 21
298.3890394812965
 31
0.0
 11
360.8605324637948
 21
298.1190900698784
 31
0.0
 11
360.9678646958084
 21
297.836456470884
 31
0.0
 11
361.0517927173709
 21
297.5460309568236
 31
0.0
 11
361.1124273680665
 21
297.2477349181828
 31
0.0
 11
361.1488857189826
 21
296.9455393639406
 31
0.0
 11
361.1610996046271
 21
296.640675562727
 31
0.0
 11
361.1488857189826
 21
296.3358117615134
 31
0.0
 11
361.1124273680665
 21
296.0336162072713
 31
0.0
 11
361.0517927173708
 21
295.7353201686303
 31
0.0
 11
360.9678646958084
 21
295.4448946545699
 31
0.0
 11
360.8605324637948
 21
295.1622610555755
 31
0.0
 11
360.7317325968633
 21
294.8923116441574
 31
0.0
 11
360.5808709144299
 21
294.634012528934
 31
0.0
 11
360.4110979830584
 21
294.3926097198118
 31
0.0
 11
360.2212465783139
 21
294.1666155656853
 31
0.0
 11
360.0155785217187
 21
293.9609813554145
 31
0.0
 11
359.7925266728946
 21
293.7742928818379
 31
0.0
 11
359.5570802950384
 21
293.6106152813139
 31
0.0
 11
359.3076936516879
 21
293.4690163431518
 31
0.0
 11
359.0494720136703
 21
293.3522862918771
 31
0.0
 11
358.7814673428411
 21
293.2601324702113
 31
0.0
 11
358.5081933082923
 21
293.1939952510723
 31
0.0
 11
358.2298665545586
 21
293.1540574416084
 31
0.0
 11
357.9497914599608
 21
293.1406755627268
 31
0.0
 11
357.6697163653631
 21
293.1540574416084
 31
0.0
 11
357.3913896116295
 21
293.1939952510723
 31
0.0
 11
357.1181155770806
 21
293.2601324702114
 31
0.0
 11
356.8501109062514
 21
293.3522862918772
 31
0.0
 11
356.5918892682338
 21
293.4690163431519
 31
0.0
 11
356.3425026248834
 21
293.610615281314
 31
0.0
 11
356.1070562470272
 21
293.7742928818381
 31
0.0
 11
355.884004398203
 21
293.9609813554145
 31
0.0
 11
355.6783363416079
 21
294.1666155656853
 31
0.0
 11
355.4884849368633
 21
294.3926097198117
 31
0.0
 11
355.3187120054919
 21
294.634012528934
 31
0.0
 11
355.1678503230585
 21
294.8923116441574
 31
0.0
 11
355.039050456127
 21
295.1622610555755
 31
0.0
 11
354.9317182241134
 21
295.4448946545699
 31
0.0
 11
354.8477902025509
 21
295.7353201686303
 31
0.0
 11
354.7871555518553
 21
296.0336162072712
 31
0.0
 11
354.7506972009392
 21
296.3358117615134
 31
0.0
 11
354.7384833152947
 21
296.640675562727
 31
0.0
 11
354.7506972009392
 21
296.9455393639406
 31
0.0
 11
354.7871555518553
 21
297.2477349181827
 31
0.0
 11
354.847790202551
 21
297.5460309568236
 31
0.0
 11
354.9317182241134
 21
297.8364564708841
 31
0.0
 11
355.0390504561271
 21
298.1190900698784
 31
0.0
 11
355.1678503230587
 21
298.3890394812965
 31
0.0
 11
355.3187120054919
 21
298.6473385965199
 31
0.0
 11
355.4884849368634
 21
298.8887414056422
 31
0.0
 11
355.6783363416079
 21
299.1147355597686
 31
0.0
 11
355.8840043982031
 21
299.3203697700394
 31
0.0
 11
356.1070562470272
 21
299.5070582436159
 31
0.0
 11
356.3425026248834
 21
299.67073584414
 31
0.0
 11
356.5918892682338
 21
299.812334782302
 31
0.0
 11
356.8501109062514
 21
299.9290648335767
 31
0.0
 11
357.1181155770806
 21
300.0212186552425
 31
0.0
 11
357.3913896116296
 21
300.0873558743816
 31
0.0
 11
357.6697163653632
 21
300.1272936838455
 31
0.0
 11
357.9497914599609
 21
300.140675562727
 31
0.0
 11
358.2298665545586
 21
300.1272936838456
 31
0.0
  0
SPLINE
  5
15F
330
46
100
AcDbEntity
  8
1
  6
Continuous
 62
     7
100
AcDbSpline
210
0.0
220
0.0
230
1.0
 70
    11
 71
     3
 72
    79
 73
    75
 74
    73
 42
0.0000000001
 43
0.0000000001
 44
0.00000001
 40
0.0
 40
0.0
 40
0.0
 40
0.0
 40
0.2811775426108325
 40
0.5623408931992997
 40
0.8457466631368226
 40
1.12912683042296
 40
1.415908903032432
 40
1.702658539054677
 40
1.993527432940209
 40
2.284362055943338
 40
2.579517800564327
 40
2.874641782101824
 40
3.173769982296776
 40
3.472872122788185
 40
3.775199692337409
 40
4.077508957859668
 40
4.381905225139347
 40
4.686292091405392
 40
4.991400459519019
 40
5.296508827632648
 40
5.60089569389858
 40
5.905291961178359
 40
6.207601226700673
 40
6.509928796249898
 40
6.809030936741331
 40
7.108159136936205
 40
7.403283118473716
 40
7.698438863094742
 40
7.98927348609787
 40
8.280142379983483
 40
8.566892016005728
 40
8.853674088615305
 40
9.137054255901367
 40
9.420460025838855
 40
9.701623376427239
 40
9.982800919038128
 40
10.26319552186844
 40
10.54359012469864
 40
10.82476766730948
 40
11.10593101789783
 40
11.38933678783537
 40
11.67271695512149
 40
11.95949902773102
 40
12.24624866375326
 40
12.53711755763884
 40
12.82795218064188
 40
13.12310792526279
 40
13.41823190680042
 40
13.71736010699529
 40
14.01646224748675
 40
14.31878981703599
 40
14.62109908255829
 40
14.92549534983801
 40
15.229882216104
 40
15.53499058421763
 40
15.84009895233126
 40
16.14448581859725
 40
16.44888208587699
 40
16.75119135139929
 40
17.05351892094853
 40
17.35262106143989
 40
17.65174926163479
 40
17.94687324317235
 40
18.24202898779338
 40
18.53286361079647
 40
18.82373250468199
 40
19.11048214070424
 40
19.39726421331374
 40
19.68064438059985
 40
19.96405015053738
 40
20.24521350112579
 40
20.52639104373667
 40
20.80678564656687
 40
21.08718024939707
 40
21.08718024939707
 40
21.08718024939707
 40
21.08718024939707
 10
380.1863768637587
 20
300.1272936838455
 30
0.0
 10
380.0932807886682
 20
300.1158425617556
 30
0.0
 10
379.9070933373745
 20
300.0929408955542
 30
0.0
 10
379.6328558840686
 20
300.0249036045056
 30
0.0
 10
379.3651292167616
 20
299.933281475532
 30
0.0
 10
379.1055687285931
 20
299.8156704877472
 30
0.0
 10
378.8568344362262
 20
299.6744521645282
 30
0.0
 10
378.6200203314355
 20
299.5096301937833
 30
0.0
 10
378.3977619673687
 20
299.3235528966187
 30
0.0
 10
378.1909065802336
 20
299.1165280470074
 30
0.0
 10
378.0017927767203
 20
298.8913292492932
 30
0.0
 10
377.8311443925695
 20
298.6484643437639
 30
0.0
 10
377.6808270753195
 20
298.3909957127537
 30
0.0
 10
377.551503739959
 20
298.1197178154822
 30
0.0
 10
377.4444708125209
 20
297.8377646615749
 30
0.0
 10
377.3603236748587
 20
297.5463275082051
 30
0.0
 10
377.2997791661509
 20
297.2483895647476
 30
0.0
 10
377.2632919694116
 20
296.9456238999471
 30
0.0
 10
377.2510649130607
 20
296.640675562728
 30
0.0
 10
377.2632919694115
 20
296.335727225503
 30
0.0
 10
377.2997791661522
 20
296.0329615607196
 30
0.0
 10
377.360323674854
 20
295.7350236172001
 30
0.0
 10
377.4444708125379
 20
295.4435864640595
 30
0.0
 10
377.551503739895
 20
295.1616333093019
 30
0.0
 10
377.6808270755557
 20
294.8903554151706
 30
0.0
 10
377.8311443916933
 20
294.6328867725187
 30
0.0
 10
378.001792779942
 20
294.3900219098817
 30
0.0
 10
378.1909065682777
 20
294.1648229533049
 30
0.0
 10
378.3977620112656
 20
293.9577986883011
 30
0.0
 10
378.6200201684884
 20
293.7717192261173
 30
0.0
 10
378.8568350348212
 20
293.6069052263633
 30
0.0
 10
379.1055665044634
 20
293.4656573579496
 30
0.0
 10
379.3651374083496
 20
293.3481553904954
 30
0.0
 10
379.63282539962
 20
293.2561284431255
 30
0.0
 10
379.9072061105031
 20
293.1895906155057
 30
0.0
 10
380.1856971219665
 20
293.149687831893
 30
0.0
 10
380.4664519583565
 20
293.1361757105636
 30
0.0
 10
380.7472067947465
 20
293.1496878318931
 30
0.0
 10
381.0256978062097
 20
293.1895906155055
 30
0.0
 10
381.300078517093
 20
293.2561284431258
 30
0.0
 10
381.5677665083632
 20
293.3481553904956
 30
0.0
 10
381.8273374122496
 20
293.4656573579496
 30
0.0
 10
382.0760688818916
 20
293.6069052263636
 30
0.0
 10
382.3128837482245
 20
293.7717192261173
 30
0.0
 10
382.5351419054472
 20
293.9577986883014
 30
0.0
 10
382.7419973484351
 20
294.1648229533047
 30
0.0
 10
382.9311111367709
 20
294.3900219098819
 30
0.0
 10
383.1017595250195
 20
294.6328867725185
 30
0.0
 10
383.2520768411573
 20
294.8903554151706
 30
0.0
 10
383.3814001768178
 20
295.1616333093018
 30
0.0
 10
383.4884331041752
 20
295.4435864640595
 30
0.0
 10
383.5725802418588
 20
295.7350236172001
 30
0.0
 10
383.6331247505608
 20
296.0329615607195
 30
0.0
 10
383.6696119473014
 20
296.3357272255032
 30
0.0
 10
383.6818390036523
 20
296.6406755627271
 30
0.0
 10
383.6696119473015
 20
296.9456238999504
 30
0.0
 10
383.6331247505607
 20
297.2483895647354
 30
0.0
 10
383.5725802418589
 20
297.5463275082502
 30
0.0
 10
383.488433104174
 20
297.8377646614076
 30
0.0
 10
383.3814001768222
 20
298.119717816104
 30
0.0
 10
383.2520768411404
 20
298.3909957104606
 30
0.0
 10
383.1017595250823
 20
298.6484643522778
 30
0.0
 10
382.9311111365399
 20
298.8913292179898
 30
0.0
 10
382.7419973492923
 20
299.1165281631771
 30
0.0
 10
382.5351419022998
 20
299.3235524700944
 30
0.0
 10
382.312883759907
 20
299.5096317770555
 30
0.0
 10
382.0760688389748
 20
299.6744463482962
 30
0.0
 10
381.8273375717106
 20
299.8156920984426
 30
0.0
 10
381.5677659210603
 20
299.9332018822009
 30
0.0
 10
381.3000807027011
 20
300.0251998057747
 30
0.0
 10
381.0256897208452
 20
300.0918451386896
 30
0.0
 10
380.7472369439574
 20
300.1313477246364
 30
0.0
 10
380.4663397867471
 20
300.1463495044541
 30
0.0
 10
380.2796978380881
 20
300.1336456240484
 30
0.0
 10
380.1863768637587
 20
300.1272936838456
 30
0.0
 11
380.1863768637587
 21
300.1272936838455
 31
0.0
 11
379.9080501100251
 21
300.0873558743816
 31
0.0
 11
379.6347760754761
 21
300.0212186552425
 31
0.0
 11
379.3667714046469
 21
299.9290648335767
 31
0.0
 11
379.1085497666293
 21
299.812334782302
 31
0.0
 11
378.8591631232789
 21
299.67073584414
 31
0.0
 11
378.6237167454227
 21
299.5070582436159
 31
0.0
 11
378.4006648965985
 21
299.3203697700395
 31
0.0
 11
378.1949968400033
 21
299.1147355597686
 31
0.0
 11
378.0051454352589
 21
298.8887414056421
 31
0.0
 11
377.8353725038874
 21
298.6473385965199
 31
0.0
 11
377.684510821454
 21
298.3890394812965
 31
0.0
 11
377.5557109545225
 21
298.1190900698784
 31
0.0
 11
377.4483787225089
 21
297.836456470884
 31
0.0
 11
377.3644507009465
 21
297.5460309568236
 31
0.0
 11
377.3038160502508
 21
297.2477349181828
 31
0.0
 11
377.2673576993348
 21
296.9455393639406
 31
0.0
 11
377.2551438136902
 21
296.640675562727
 31
0.0
 11
377.2673576993348
 21
296.3358117615134
 31
0.0
 11
377.3038160502509
 21
296.0336162072713
 31
0.0
 11
377.3644507009465
 21
295.7353201686303
 31
0.0
 11
377.4483787225089
 21
295.4448946545699
 31
0.0
 11
377.5557109545225
 21
295.1622610555755
 31
0.0
 11
377.684510821454
 21
294.8923116441574
 31
0.0
 11
377.8353725038874
 21
294.634012528934
 31
0.0
 11
378.0051454352588
 21
294.3926097198118
 31
0.0
 11
378.1949968400033
 21
294.1666155656853
 31
0.0
 11
378.4006648965985
 21
293.9609813554145
 31
0.0
 11
378.6237167454228
 21
293.7742928818379
 31
0.0
 11
378.8591631232789
 21
293.6106152813139
 31
0.0
 11
379.1085497666294
 21
293.4690163431518
 31
0.0
 11
379.366771404647
 21
293.3522862918771
 31
0.0
 11
379.6347760754761
 21
293.2601324702113
 31
0.0
 11
379.908050110025
 21
293.1939952510723
 31
0.0
 11
380.1863768637587
 21
293.1540574416084
 31
0.0
 11
380.4664519583565
 21
293.1406755627268
 31
0.0
 11
380.7465270529542
 21
293.1540574416084
 31
0.0
 11
381.0248538066878
 21
293.1939952510723
 31
0.0
 11
381.2981278412367
 21
293.2601324702114
 31
0.0
 11
381.5661325120659
 21
293.3522862918772
 31
0.0
 11
381.8243541500835
 21
293.4690163431519
 31
0.0
 11
382.073740793434
 21
293.610615281314
 31
0.0
 11
382.3091871712901
 21
293.7742928818381
 31
0.0
 11
382.5322390201143
 21
293.9609813554145
 31
0.0
 11
382.7379070767095
 21
294.1666155656853
 31
0.0
 11
382.9277584814539
 21
294.3926097198117
 31
0.0
 11
383.0975314128254
 21
294.634012528934
 31
0.0
 11
383.2483930952588
 21
294.8923116441574
 31
0.0
 11
383.3771929621904
 21
295.1622610555755
 31
0.0
 11
383.484525194204
 21
295.4448946545699
 31
0.0
 11
383.5684532157664
 21
295.7353201686303
 31
0.0
 11
383.629087866462
 21
296.0336162072712
 31
0.0
 11
383.6655462173781
 21
296.3358117615134
 31
0.0
 11
383.6777601030227
 21
296.640675562727
 31
0.0
 11
383.6655462173781
 21
296.9455393639406
 31
0.0
 11
383.629087866462
 21
297.2477349181827
 31
0.0
 11
383.5684532157663
 21
297.5460309568236
 31
0.0
 11
383.484525194204
 21
297.8364564708841
 31
0.0
 11
383.3771929621903
 21
298.1190900698784
 31
0.0
 11
383.2483930952589
 21
298.3890394812965
 31
0.0
 11
383.0975314128254
 21
298.6473385965199
 31
0.0
 11
382.927758481454
 21
298.8887414056422
 31
0.0
 11
382.7379070767095
 21
299.1147355597686
 31
0.0
 11
382.5322390201142
 21
299.3203697700394
 31
0.0
 11
382.3091871712901
 21
299.5070582436159
 31
0.0
 11
382.073740793434
 21
299.67073584414
 31
0.0
 11
381.8243541500835
 21
299.812334782302
 31
0.0
 11
381.5661325120659
 21
299.9290648335767
 31
0.0
 11
381.2981278412367
 21
300.0212186552425
 31
0.0
 11
381.0248538066878
 21
300.0873558743816
 31
0.0
 11
380.7465270529541
 21
300.1272936838455
 31
0.0
 11
380.4664519583564
 21
300.140675562727
 31
0.0
 11
380.1863768637587
 21
300.1272936838456
 31
0.0
  0
ENDBLK
  5
48
330
46
100
AcDbEntity
  8
0
100
AcDbBlockEnd
  0
BLOCK
  5
4A
330
49
100
AcDbEntity
  8
0
100
AcDbBlockBegin
  2
R230F-S-3
 70
     0
 71
     0
 10
1009.757714161088
 20
98.08737606051159
 30
0.0
  3
R230F-S-3
  1

  0
LINE
  5
160
330
49
100
AcDbEntity
  8
1
  6
Continuous
 62
     2
100
AcDbLine
 10
285.0944237644408
 20
332.2285297181731
 30
0.0
 11
289.0065696089946
 21
329.1148317734552
 31
0.0
  0
LINE
  5
161
330
49
100
AcDbEntity
  8
1
  6
Continuous
 62
     2
100
AcDbLine
 10
291.3218196538766
 20
340.0528214072807
 30
0.0
 11
295.2339654984304
 21
336.939123462563
 31
0.0
  0
LINE
  5
162
330
49
100
AcDbEntity
  8
1
  6
Continuous
 62
     7
100
AcDbLine
 10
323.7081217091587
 20
321.140675562727
 30
0.0
 11
331.7081217091587
 21
330.640675562727
 31
0.0
  0
LINE
  5
163
330
49
100
AcDbEntity
  8
1
  6
Continuous
 62
     7
100
AcDbLine
 10
283.2262049976101
 20
329.8812422114408
 30
0.0
 11
294.2081217091587
 21
321.140675562727
 31
0.0
  0
LINE
  5
164
330
49
100
AcDbEntity
  8
1
  6
Continuous
 62
     7
100
AcDbLine
 10
315.622533327286
 20
343.8016115115319
 30
0.0
 11
331.7081217091587
 21
330.640675562727
 31
0.0
  0
LINE
  5
165
330
49
100
AcDbEntity
  8
1
  6
Continuous
 62
     7
100
AcDbLine
 10
288.2081217091587
 20
344.1406755627269
 30
0.0
 11
314.6726766419001
 21
344.1406755627269
 31
0.0
  0
LINE
  5
166
330
49
100
AcDbEntity
  8
1
  6
Continuous
 62
     7
100
AcDbLine
 10
323.7081217091587
 20
321.140675562727
 30
0.0
 11
294.2081217091587
 21
321.140675562727
 31
0.0
  0
ARC
  5
167
330
49
100
AcDbEntity
  8
1
  6
Continuous
 62
     7
100
AcDbCircle
 10
288.2081217091587
 20
336.140675562727
 30
0.0
 40
7.999999999999943
100
AcDbArc
 50
90.0
 51
179.7651907152278
  0
ARC
  5
168
330
49
100
AcDbEntity
  8
1
  6
Continuous
 62
     2
100
AcDbCircle
 10
292.1202675537123
 20
333.026977618009
 30
0.0
 40
4.999999999999924
100
AcDbArc
 50
-128.5164709396012
 51
51.48352906039661
  0
ARC
  5
169
330
49
100
AcDbEntity
  8
1
  6
Continuous
 62
     2
100
AcDbCircle
 10
288.2081217091587
 20
336.140675562727
 30
0.0
 40
4.999999999999941
100
AcDbArc
 50
51.48352906039652
 51
-128.5164709396023
  0
ARC
  5
16A
330
49
100
AcDbEntity
  8
1
  6
Continuous
 62
     7
100
AcDbCircle
 10
288.2081217091587
 20
336.140675562727
 30
0.0
 40
7.999999999999999
100
AcDbArc
 50
179.7651907152278
 51
-128.5164709396022
  0
ARC
  5
16B
330
49
100
AcDbEntity
  8
1
  6
Continuous
 62
     7
100
AcDbCircle
 10
314.6726766419001
 20
342.6406755627269
 30
0.0
 40
1.500000000000008
100
AcDbArc
 50
50.7105931374998
 51
90.0
  0
ENDBLK
  5
4B
330
49
100
AcDbEntity
  8
0
100
AcDbBlockEnd
  0
BLOCK
  5
4D
330
4C
100
AcDbEntity
  8
0
100
AcDbBlockBegin
  2
42-1
 70
     0
 71
     0
 10
936.0542987718426
 20
114.9521570517792
 30
0.0
  3
42-1
  1

  0
LINE
  5
16C
330
4C
100
AcDbEntity
  8
1
  6
Continuous
 62
     7
100
AcDbLine
 10
376.2081217091587
 20
326.640675562727
 30
0.0
 11
376.2081217091587
 21
324.140675562727
 31
0.0
  0
LINE
  5
16D
330
4C
100
AcDbEntity
  8
1
  6
Continuous
 62
     7
100
AcDbLine
 10
362.2081217091587
 20
326.640675562727
 30
0.0
 11
376.2081217091587
 21
326.640675562727
 31
0.0
  0
LINE
  5
16E
330
4C
100
AcDbEntity
  8
1
  6
Continuous
 62
     2
100
AcDbLine
 10
375.2081217091587
 20
324.140675562727
 30
0.0
 11
375.2081217091587
 21
326.640675562727
 31
0.0
  0
LINE
  5
16F
330
4C
100
AcDbEntity
  8
1
  6
Continuous
 62
     2
100
AcDbLine
 10
374.2081217091587
 20
324.140675562727
 30
0.0
 11
374.2081217091587
 21
326.640675562727
 31
0.0
  0
LINE
  5
170
330
4C
100
AcDbEntity
  8
1
  6
Continuous
 62
     2
100
AcDbLine
 10
373.2081217091587
 20
324.3067238751785
 30
0.0
 11
373.2081217091587
 21
326.4507491542747
 31
0.0
  0
LINE
  5
171
330
4C
100
AcDbEntity
  8
1
  6
Continuous
 62
     2
100
AcDbLine
 10
372.2081217091587
 20
324.5013760429647
 30
0.0
 11
372.2081217091587
 21
326.3372020563994
 31
0.0
  0
LINE
  5
172
330
4C
100
AcDbEntity
  8
1
  6
Continuous
 62
     2
100
AcDbLine
 10
371.2081217091587
 20
324.8582383505727
 30
0.0
 11
371.2081217091587
 21
326.1263288746309
 31
0.0
  0
LINE
  5
173
330
4C
100
AcDbEntity
  8
1
  6
Continuous
 62
     2
100
AcDbLine
 10
370.2081217091587
 20
325.1177745742877
 30
0.0
 11
370.2081217091587
 21
325.8830136648983
 31
0.0
  0
LINE
  5
174
330
4C
100
AcDbEntity
  8
1
  6
Continuous
 62
     2
100
AcDbLine
 10
368.2081217091587
 20
325.8830136648983
 30
0.0
 11
368.2081217091587
 21
325.1177745742877
 31
0.0
  0
LINE
  5
175
330
4C
100
AcDbEntity
  8
1
  6
Continuous
 62
     2
100
AcDbLine
 10
367.2081217091587
 20
326.1263288746309
 30
0.0
 11
367.2081217091587
 21
324.8582383505727
 31
0.0
  0
LINE
  5
176
330
4C
100
AcDbEntity
  8
1
  6
Continuous
 62
     2
100
AcDbLine
 10
366.2081217091587
 20
326.3372020563994
 30
0.0
 11
366.2081217091587
 21
324.5013760429647
 31
0.0
  0
LINE
  5
177
330
4C
100
AcDbEntity
  8
1
  6
Continuous
 62
     2
100
AcDbLine
 10
365.2081217091587
 20
326.4507491542747
 30
0.0
 11
365.2081217091587
 21
324.3067238751785
 31
0.0
  0
LINE
  5
178
330
4C
100
AcDbEntity
  8
1
  6
Continuous
 62
     2
100
AcDbLine
 10
364.2081217091587
 20
326.640675562727
 30
0.0
 11
364.2081217091587
 21
324.140675562727
 31
0.0
  0
LINE
  5
179
330
4C
100
AcDbEntity
  8
1
  6
Continuous
 62
     2
100
AcDbLine
 10
363.2081217091587
 20
326.640675562727
 30
0.0
 11
363.2081217091587
 21
324.140675562727
 31
0.0
  0
LINE
  5
17A
330
4C
100
AcDbEntity
  8
1
  6
Continuous
 62
     7
100
AcDbLine
 10
362.2081217091587
 20
324.140675562727
 30
0.0
 11
362.2081217091587
 21
326.640675562727
 31
0.0
  0
LINE
  5
17B
330
4C
100
AcDbEntity
  8
1
  6
Continuous
 62
     7
100
AcDbLine
 10
376.2081217091587
 20
324.140675562727
 30
0.0
 11
362.2081217091587
 21
324.140675562727
 31
0.0
  0
LINE
  5
17C
330
4C
100
AcDbEntity
  8
1
  6
Continuous
 62
     7
100
AcDbLine
 10
122.191766743864
 20
326.640675562727
 30
0.0
 11
122.191766743864
 21
324.140675562727
 31
0.0
  0
LINE
  5
17D
330
4C
100
AcDbEntity
  8
1
  6
Continuous
 62
     7
100
AcDbLine
 10
108.191766743864
 20
326.640675562727
 30
0.0
 11
111.4199858732319
 21
326.640675562727
 31
0.0
  0
LINE
  5
17E
330
4C
100
AcDbEntity
  8
1
  6
Continuous
 62
     2
100
AcDbLine
 10
121.191766743864
 20
324.140675562727
 30
0.0
 11
121.191766743864
 21
326.640675562727
 31
0.0
  0
LINE
  5
17F
330
4C
100
AcDbEntity
  8
1
  6
Continuous
 62
     2
100
AcDbLine
 10
120.191766743864
 20
324.140675562727
 30
0.0
 11
120.191766743864
 21
326.640675562727
 31
0.0
  0
LINE
  5
180
330
4C
100
AcDbEntity
  8
1
  6
Continuous
 62
     2
100
AcDbLine
 10
110.191766743864
 20
326.640675562727
 30
0.0
 11
110.191766743864
 21
324.140675562727
 31
0.0
  0
LINE
  5
181
330
4C
100
AcDbEntity
  8
1
  6
Continuous
 62
     2
100
AcDbLine
 10
109.191766743864
 20
326.640675562727
 30
0.0
 11
109.191766743864
 21
324.140675562727
 31
0.0
  0
LINE
  5
182
330
4C
100
AcDbEntity
  8
1
  6
Continuous
 62
     7
100
AcDbLine
 10
108.191766743864
 20
324.140675562727
 30
0.0
 11
108.191766743864
 21
326.640675562727
 31
0.0
  0
LINE
  5
183
330
4C
100
AcDbEntity
  8
1
  6
Continuous
 62
     7
100
AcDbLine
 10
118.9635476144962
 20
326.640675562727
 30
0.0
 11
122.191766743864
 21
326.640675562727
 31
0.0
  0
ARC
  5
184
330
4C
100
AcDbEntity
  8
1
  6
Continuous
 62
     7
100
AcDbCircle
 10
369.2081217091587
 20
277.8906755627214
 30
0.0
 40
49.25000000000557
100
AcDbArc
 50
90.0
 51
98.17123355994883
  0
ARC
  5
185
330
4C
100
AcDbEntity
  8
1
  6
Continuous
 62
     7
100
AcDbCircle
 10
369.2081217091587
 20
277.8906755627214
 30
0.0
 40
49.25000000000551
100
AcDbArc
 50
81.82876644005117
 51
90.0
  0
ARC
  5
186
330
4C
100
AcDbEntity
  8
1
  6
Continuous
 62
     7
100
AcDbCircle
 10
115.191766743864
 20
277.8906755627214
 30
0.0
 40
49.25000000000549
100
AcDbArc
 50
94.39226264783387
 51
98.17123355994883
  0
ARC
  5
187
330
4C
100
AcDbEntity
  8
1
  6
Continuous
 62
     7
100
AcDbCircle
 10
115.191766743864
 20
277.8906755627214
 30
0.0
 40
49.25000000000551
100
AcDbArc
 50
81.82876644005117
 51
85.60773735216601
  0
CIRCLE
  5
188
330
4C
100
AcDbEntity
  8
1
  6
Continuous
 62
     7
100
AcDbCircle
 10
115.191766743864
 20
602.689704361222
 30
0.0
 40
6.0
  0
CIRCLE
  5
189
330
4C
100
AcDbEntity
  8
1
  6
Continuous
 62
     7
100
AcDbCircle
 10
115.191766743864
 20
602.689704361222
 30
0.0
 40
4.5
  0
CIRCLE
  5
18A
330
4C
100
AcDbEntity
  8
1
  6
Continuous
 62
     7
100
AcDbCircle
 10
115.191766743864
 20
602.689704361222
 30
0.0
 40
7.0
  0
ENDBLK
  5
4E
330
4C
100
AcDbEntity
  8
0
100
AcDbBlockEnd
  0
BLOCK
  5
50
330
4F
100
AcDbEntity
  8
0
100
AcDbBlockBegin
  2
R230F-S-1
 70
     0
 71
     0
 10
882.7577141610889
 20
71.08737606051159
 30
0.0
  3
R230F-S-1
  1

  0
LINE
  5
18B
330
4F
100
AcDbEntity
  8
1
  6
Continuous
 62
     7
100
AcDbLine
 10
109.2874505887847
 20
560.1900607513659
 30
0.0
 11
108.5069070137256
 21
574.428617740182
 31
0.0
  0
LINE
  5
18C
330
4F
100
AcDbEntity
  8
1
  6
Continuous
 62
     7
100
AcDbLine
 10
121.0960828989433
 20
560.1900607513659
 30
0.0
 11
121.8766264740025
 21
574.428617740182
 31
0.0
  0
LINE
  5
18D
330
4F
100
AcDbEntity
  8
1
  6
Continuous
 62
     7
100
AcDbLine
 10
110.6985097847656
 20
534.4434486008533
 30
0.0
 11
109.2874505887847
 21
560.1900607513659
 31
0.0
  0
LINE
  5
18E
330
4F
100
AcDbEntity
  8
1
  6
Continuous
 62
     7
100
AcDbLine
 10
297.2081217091587
 20
321.140675562727
 30
0.0
 11
299.2081217091587
 21
321.140675562727
 31
0.0
  0
LINE
  5
18F
330
4F
100
AcDbEntity
  8
1
  6
Continuous
 62
     7
100
AcDbLine
 10
296.7081217091587
 20
320.640675562727
 30
0.0
 11
296.7081217091587
 21
319.7324863327944
 31
0.0
  0
LINE
  5
190
330
4F
100
AcDbEntity
  8
1
  6
Continuous
 62
     7
100
AcDbLine
 10
296.7081217091587
 20
319.7324863327944
 30
0.0
 11
298.7081217091587
 21
318.140675562727
 31
0.0
  0
LINE
  5
191
330
4F
100
AcDbEntity
  8
1
  6
Continuous
 62
     7
100
AcDbLine
 10
369.2081217091587
 20
310.140675562727
 30
0.0
 11
379.6717698715785
 21
310.140675562727
 31
0.0
  0
LINE
  5
192
330
4F
100
AcDbEntity
  8
1
  6
Continuous
 62
     7
100
AcDbLine
 10
380.2425612973545
 20
323.1763670932394
 30
0.0
 11
380.6711327259262
 21
311.1763670932394
 31
0.0
  0
LINE
  5
193
330
4F
100
AcDbEntity
  8
1
  6
Continuous
 62
     7
100
AcDbLine
 10
379.243198443007
 20
324.140675562727
 30
0.0
 11
374.2081217091587
 21
324.140675562727
 31
0.0
  0
LINE
  5
194
330
4F
100
AcDbEntity
  8
1
  6
Continuous
 62
     7
100
AcDbLine
 10
357.7451106923912
 20
311.1763670932394
 30
0.0
 11
357.8458800619426
 21
313.9979094406773
 31
0.0
  0
LINE
  5
195
330
4F
100
AcDbEntity
  8
1
  6
Continuous
 62
     7
100
AcDbLine
 10
358.7444735467387
 20
310.140675562727
 30
0.0
 11
369.2081217091587
 21
310.140675562727
 31
0.0
  0
LINE
  5
196
330
4F
100
AcDbEntity
  8
1
  6
Continuous
 62
     7
100
AcDbLine
 10
349.5718746985788
 20
324.140675562727
 30
0.0
 11
364.2081217091587
 21
324.140675562727
 31
0.0
  0
LINE
  5
197
330
4F
100
AcDbEntity
  8
1
  6
Continuous
 62
     7
100
AcDbLine
 10
111.4199858732319
 20
520.5272023843178
 30
0.0
 11
111.4199858732319
 21
548.1542592939634
 31
0.0
  0
LINE
  5
198
330
4F
100
AcDbEntity
  8
1
  6
Continuous
 62
     7
100
AcDbLine
 10
118.9635476144962
 20
520.7234202523804
 30
0.0
 11
118.9635476144962
 21
548.1542592939634
 31
0.0
  0
LINE
  5
199
330
4F
100
AcDbEntity
  8
1
  6
Continuous
 62
     7
100
AcDbLine
 10
353.8484286445524
 20
318.140675562727
 30
0.0
 11
298.7081217091587
 21
318.140675562727
 31
0.0
  0
LINE
  5
19A
330
4F
100
AcDbEntity
  8
1
  6
Continuous
 62
     7
100
AcDbLine
 10
121.0960828989433
 20
560.1900607513659
 30
0.0
 11
119.6850237029624
 21
534.4434486008533
 31
0.0
  0
LINE
  5
19B
330
4F
100
AcDbEntity
  8
1
  6
Continuous
 62
     7
100
AcDbLine
 10
119.0067060944042
 20
549.1041159793492
 30
0.0
 11
120.6496082594884
 21
564.8794108022295
 31
0.0
  0
LINE
  5
19C
330
4F
100
AcDbEntity
  8
1
  6
Continuous
 62
     7
100
AcDbLine
 10
109.7339252282397
 20
564.8794108022295
 30
0.0
 11
111.376827393324
 21
549.1041159793492
 31
0.0
  0
LINE
  5
19D
330
4F
100
AcDbEntity
  8
1
  6
Continuous
 62
     7
100
AcDbLine
 10
111.4199858732319
 20
517.3817349422367
 30
0.0
 11
110.6985097847656
 21
534.4434486008533
 31
0.0
  0
LINE
  5
19E
330
4F
100
AcDbEntity
  8
1
  6
Continuous
 62
     7
100
AcDbLine
 10
118.9601766516569
 20
517.3020559280383
 30
0.0
 11
119.6877449479812
 21
534.4994939826827
 31
0.0
  0
LINE
  5
19F
330
4F
100
AcDbEntity
  8
1
  6
Continuous
 62
     7
100
AcDbLine
 10
109.2874505887847
 20
560.1900607513659
 30
0.0
 11
109.7027907108031
 21
565.189704361222
 31
0.0
  0
LINE
  5
1A0
330
4F
100
AcDbEntity
  8
1
  6
Continuous
 62
     7
100
AcDbLine
 10
121.0960828989433
 20
560.1900607513659
 30
0.0
 11
120.6807427769249
 21
565.189704361222
 31
0.0
  0
LINE
  5
1A1
330
4F
100
AcDbEntity
  8
1
  6
Continuous
 62
     7
100
AcDbLine
 10
120.6807427769249
 20
565.189704361222
 30
0.0
 11
109.7027907108031
 21
565.189704361222
 31
0.0
  0
LINE
  5
1A2
330
4F
100
AcDbEntity
  8
1
  6
Continuous
 62
     7
100
AcDbLine
 10
115.191766743864
 20
310.140675562727
 30
0.0
 11
125.6554149062839
 21
310.140675562727
 31
0.0
  0
LINE
  5
1A3
330
4F
100
AcDbEntity
  8
1
  6
Continuous
 62
     7
100
AcDbLine
 10
126.22620633206
 20
323.1763670932394
 30
0.0
 11
126.6547777606315
 21
311.1763670932394
 31
0.0
  0
LINE
  5
1A4
330
4F
100
AcDbEntity
  8
1
  6
Continuous
 62
     7
100
AcDbLine
 10
125.2268434777125
 20
324.140675562727
 30
0.0
 11
118.9635476144962
 21
324.140675562727
 31
0.0
  0
LINE
  5
1A5
330
4F
100
AcDbEntity
  8
1
  6
Continuous
 62
     7
100
AcDbLine
 10
111.4199858732319
 20
318.6761267008889
 30
0.0
 11
111.4199858732319
 21
340.2882887768243
 31
0.0
  0
LINE
  5
1A6
330
4F
100
AcDbEntity
  8
1
  6
Continuous
 62
     7
100
AcDbLine
 10
118.9635476144962
 20
318.6761267008889
 30
0.0
 11
118.9635476144962
 21
340.3569893893281
 31
0.0
  0
LINE
  5
1A7
330
4F
100
AcDbEntity
  8
1
  6
Continuous
 62
     7
100
AcDbLine
 10
111.4199858732319
 20
321.140675562727
 30
0.0
 11
118.9635476144962
 21
321.140675562727
 31
0.0
  0
LINE
  5
1A8
330
4F
100
AcDbEntity
  8
1
  6
Continuous
 62
     7
100
AcDbLine
 10
104.7281185814443
 20
310.140675562727
 30
0.0
 11
115.191766743864
 21
310.140675562727
 31
0.0
  0
LINE
  5
1A9
330
4F
100
AcDbEntity
  8
1
  6
Continuous
 62
     7
100
AcDbLine
 10
103.7287557270966
 20
311.1763670932394
 30
0.0
 11
104.1573271556682
 21
323.1763670932394
 31
0.0
  0
LINE
  5
1AA
330
4F
100
AcDbEntity
  8
1
  6
Continuous
 62
     7
100
AcDbLine
 10
111.419985873232
 20
324.140675562727
 30
0.0
 11
105.1566900100157
 21
324.140675562727
 31
0.0
  0
LINE
  5
1AB
330
4F
100
AcDbEntity
  8
1
  6
Continuous
 62
     7
100
AcDbLine
 10
104.880441541432
 20
318.140675562727
 30
0.0
 11
124.880441541432
 21
318.140675562727
 31
0.0
  0
LINE
  5
1AC
330
4F
100
AcDbEntity
  8
1
  6
Continuous
 62
     7
100
AcDbLine
 10
354.3889017875429
 20
318.140675562727
 30
0.0
 11
369.2081217091587
 21
318.140675562727
 31
0.0
  0
ARC
  5
1AD
330
4F
100
AcDbEntity
  8
1
  6
Continuous
 62
     7
100
AcDbCircle
 10
251.6817659694933
 20
567.3134395585645
 30
0.0
 40
130.0
100
AcDbArc
 50
165.4694907133512
 51
173.0457331673428
  0
ARC
  5
1AE
330
4F
100
AcDbEntity
  8
1
  6
Continuous
 62
     7
100
AcDbCircle
 10
115.191766743864
 20
602.689704361222
 30
0.0
 40
11.50000000000001
100
AcDbArc
 50
-30.79260683673623
 51
-149.2073931632638
  0
ARC
  5
1AF
330
4F
100
AcDbEntity
  8
1
  6
Continuous
 62
     7
100
AcDbCircle
 10
7.15344386508025
 20
562.9919893683936
 30
0.0
 40
102.572893542466
100
AcDbArc
 50
1.22770671281611
 51
11.27875648836906
  0
ARC
  5
1B0
330
4F
100
AcDbEntity
  8
1
  6
Continuous
 62
     7
100
AcDbCircle
 10
251.6817659694933
 20
567.3134395585645
 30
0.0
 40
130.0
100
AcDbArc
 50
173.0457331673428
 51
176.8625116036978
  0
ARC
  5
1B1
330
4F
100
AcDbEntity
  8
1
  6
Continuous
 62
     7
100
AcDbCircle
 10
223.2300896226478
 20
562.9919893683936
 30
0.0
 40
102.572893542466
100
AcDbArc
 50
168.721243511631
 51
178.7722932871839
  0
ARC
  5
1B2
330
4F
100
AcDbEntity
  8
1
  6
Continuous
 62
     7
100
AcDbCircle
 10
115.191766743864
 20
602.689704361222
 30
0.0
 40
11.0
100
AcDbArc
 50
90.0
 51
-165.4694907133512
  0
ARC
  5
1B3
330
4F
100
AcDbEntity
  8
1
  6
Continuous
 62
     7
100
AcDbCircle
 10
-21.29823248176513
 20
567.3134395585645
 30
0.0
 40
129.9999999999999
100
AcDbArc
 50
3.13748839630225
 51
14.53050928664879
  0
ARC
  5
1B4
330
4F
100
AcDbEntity
  8
1
  6
Continuous
 62
     7
100
AcDbCircle
 10
115.191766743864
 20
602.689704361222
 30
0.0
 40
11.00000000000012
100
AcDbArc
 50
-14.53050928664871
 51
90.0
  0
ARC
  5
1B5
330
4F
100
AcDbEntity
  8
1
  6
Continuous
 62
     7
100
AcDbCircle
 10
349.5718746985788
 20
354.1406755627269
 30
0.0
 40
29.99999999999992
100
AcDbArc
 50
-127.2865430063117
 51
-90.0
  0
ARC
  5
1B6
330
4F
100
AcDbEntity
  8
1
  6
Continuous
 62
     7
100
AcDbCircle
 10
111.4133285864844
 20
549.1041207153513
 30
0.0
 40
0.0365011934676366
100
AcDbArc
 50
-179.9925659161546
 51
-167.6392986348502
  0
ARC
  5
1B7
330
4F
100
AcDbEntity
  8
1
  6
Continuous
 62
     7
100
AcDbCircle
 10
111.4238933329732
 20
549.106435930112
 30
0.0
 40
0.0473166494341653
100
AcDbArc
 50
-167.6392986347616
 51
-157.7706119950007
  0
ARC
  5
1B8
330
4F
100
AcDbEntity
  8
1
  6
Continuous
 62
     7
100
AcDbCircle
 10
111.4351712370994
 20
549.1110451069507
 30
0.0
 40
0.0595000657287651
100
AcDbArc
 50
-157.7706119950844
 51
-149.4902308548809
  0
ARC
  5
1B9
330
4F
100
AcDbEntity
  8
1
  6
Continuous
 62
     7
100
AcDbCircle
 10
111.4573879000006
 20
549.1241368243972
 30
0.0
 40
0.085287139548059
100
AcDbArc
 50
-149.4902308547788
 51
-143.3708675653568
  0
ARC
  5
1BA
330
4F
100
AcDbEntity
  8
1
  6
Continuous
 62
     7
100
AcDbCircle
 10
111.4734656430409
 20
549.1360898986204
 30
0.0
 40
0.1053213553966373
100
AcDbArc
 50
-143.3708675654515
 51
-138.1447701333175
  0
ARC
  5
1BB
330
4F
100
AcDbEntity
  8
1
  6
Continuous
 62
     7
100
AcDbCircle
 10
111.5090882992163
 20
549.1680020713841
 30
0.0
 40
0.1531477121831514
100
AcDbArc
 50
-138.1447701333188
 51
-134.3893287533954
  0
ARC
  5
1BC
330
4F
100
AcDbEntity
  8
1
  6
Continuous
 62
     7
100
AcDbCircle
 10
111.5233712287699
 20
549.1825927540147
 30
0.0
 40
0.173565598857684
100
AcDbArc
 50
-134.3893287533831
 51
-130.9657980699056
  0
ARC
  5
1BD
330
4F
100
AcDbEntity
  8
1
  6
Continuous
 62
     7
100
AcDbCircle
 10
111.5768814331164
 20
549.2442234663545
 30
0.0
 40
0.2551847551431377
100
AcDbArc
 50
-130.9657980698675
 51
-128.59017262715
  0
ARC
  5
1BE
330
4F
100
AcDbEntity
  8
1
  6
Continuous
 62
     7
100
AcDbCircle
 10
111.5795586528133
 20
549.2475783415671
 30
0.0
 40
0.2594769216122377
100
AcDbArc
 50
-128.5901726271695
 51
-126.2378318531869
  0
ARC
  5
1BF
330
4F
100
AcDbEntity
  8
1
  6
Continuous
 62
     7
100
AcDbCircle
 10
111.6489900464588
 20
549.3423129988952
 30
0.0
 40
0.3769306304621935
100
AcDbArc
 50
-126.2378318531797
 51
-121.4931424703779
  0
ARC
  5
1C0
330
4F
100
AcDbEntity
  8
1
  6
Continuous
 62
     7
100
AcDbCircle
 10
111.642378200367
 20
549.3315205474668
 30
0.0
 40
0.3642738727188313
100
AcDbArc
 50
-121.4931424703871
 51
-115.3421093694024
  0
ARC
  5
1C1
330
4F
100
AcDbEntity
  8
1
  6
Continuous
 62
     7
100
AcDbCircle
 10
111.6677594606875
 20
549.3851130396801
 30
0.0
 40
0.4235728069170981
100
AcDbArc
 50
-115.3421093694035
 51
-112.8046413957917
  0
ARC
  5
1C2
330
4F
100
AcDbEntity
  8
1
  6
Continuous
 62
     7
100
AcDbCircle
 10
111.663799367798
 20
549.3756944868092
 30
0.0
 40
0.4133555923322628
100
AcDbArc
 50
-112.8046413957948
 51
-110.254281405741
  0
ARC
  5
1C3
330
4F
100
AcDbEntity
  8
1
  6
Continuous
 62
     7
100
AcDbCircle
 10
111.7122775156167
 20
549.5070700238113
 30
0.0
 40
0.5533900971463361
100
AcDbArc
 50
-110.2542814057234
 51
-108.3753548984133
  0
ARC
  5
1C4
330
4F
100
AcDbEntity
  8
1
  6
Continuous
 62
     7
100
AcDbCircle
 10
111.7187734179782
 20
549.5266255069462
 30
0.0
 40
0.5739962532201113
100
AcDbArc
 50
-108.3753548984297
 51
-106.5795470735167
  0
ARC
  5
1C5
330
4F
100
AcDbEntity
  8
1
  6
Continuous
 62
     7
100
AcDbCircle
 10
111.8328945785765
 20
549.9099370575212
 30
0.0
 40
0.9739354787287556
100
AcDbArc
 50
-106.5795470735178
 51
-105.5256217699572
  0
ARC
  5
1C6
330
4F
100
AcDbEntity
  8
1
  6
Continuous
 62
     7
100
AcDbCircle
 10
111.8690671991924
 20
550.0401451779766
 30
0.0
 40
1.109074714758725
100
AcDbArc
 50
-105.5256217699474
 51
-104.6002952285226
  0
ARC
  5
1C7
330
4F
100
AcDbEntity
  8
1
  6
Continuous
 62
     7
100
AcDbCircle
 10
113.2032405732801
 20
555.1620074541758
 30
0.0
 40
6.401852035643947
100
AcDbArc
 50
-104.6002952285317
 51
-104.439443553341
  0
ARC
  5
1C8
330
4F
100
AcDbEntity
  8
1
  6
Continuous
 62
     7
100
AcDbCircle
 10
113.2723363860454
 20
555.4303508230223
 30
0.0
 40
6.678948399650303
100
AcDbArc
 50
-104.4394435533411
 51
-104.1980005891533
  0
ARC
  5
1C9
330
4F
100
AcDbEntity
  8
1
  6
Continuous
 62
     7
100
AcDbCircle
 10
115.0318605612784
 20
562.3849431601026
 30
0.0
 40
13.85266988143397
100
AcDbArc
 50
-104.1980005891522
 51
-104.0805291400259
  0
ARC
  5
1CA
330
4F
100
AcDbEntity
  8
1
  6
Continuous
 62
     7
100
AcDbCircle
 10
112.9702361573858
 20
554.165451435803
 30
0.0
 40
5.378571735403681
100
AcDbArc
 50
-104.0805291400248
 51
-103.7756381032299
  0
ARC
  5
1CB
330
4F
100
AcDbEntity
  8
1
  6
Continuous
 62
     7
100
AcDbCircle
 10
113.8594364536793
 20
557.7922829987861
 30
0.0
 40
9.11281655238871
100
AcDbArc
 50
-103.775638103231
 51
-103.5945365217038
  0
ARC
  5
1CC
330
4F
100
AcDbEntity
  8
1
  6
Continuous
 62
     7
100
AcDbCircle
 10
112.7735473747186
 20
553.3018820701853
 30
0.0
 40
4.492983699201851
100
AcDbArc
 50
-103.5945365217036
 51
-103.2253579494478
  0
ARC
  5
1CD
330
4F
100
AcDbEntity
  8
1
  6
Continuous
 62
     7
100
AcDbCircle
 10
113.2908798330695
 20
555.5031576077078
 30
0.0
 40
6.754232660408338
100
AcDbArc
 50
-103.2253579494469
 51
-102.9788475439154
  0
ARC
  5
1CE
330
4F
100
AcDbEntity
  8
1
  6
Continuous
 62
     7
100
AcDbCircle
 10
112.6334361216323
 20
552.6506518920577
 30
0.0
 40
3.826943625904893
100
AcDbArc
 50
-102.9788475439161
 51
-102.5426781764892
  0
ARC
  5
1CF
330
4F
100
AcDbEntity
  8
1
  6
Continuous
 62
     7
100
AcDbCircle
 10
112.9526036803073
 20
554.0852657949114
 30
0.0
 40
5.29663236192063
100
AcDbArc
 50
-102.5426781764877
 51
-102.2271298858977
  0
ARC
  5
1D0
330
4F
100
AcDbEntity
  8
1
  6
Continuous
 62
     7
100
AcDbCircle
 10
112.5768448634915
 20
552.3512878600609
 30
0.0
 40
3.522407413678912
100
AcDbArc
 50
-102.2271298858979
 51
-100.6461596502302
  0
ARC
  5
1D1
330
4F
100
AcDbEntity
  8
1
  6
Continuous
 62
     7
100
AcDbCircle
 10
112.6467123728731
 20
552.7229652768697
 30
0.0
 40
3.90059463058713
100
AcDbArc
 50
-100.6461596502301
 51
-100.0765332155888
  0
ARC
  5
1D2
330
4F
100
AcDbEntity
  8
1
  6
Continuous
 62
     7
100
AcDbCircle
 10
112.6683079269696
 20
552.8444902962673
 30
0.0
 40
4.024023550603243
100
AcDbArc
 50
-100.0765332155901
 51
-99.52560088298509
  0
ARC
  5
1D3
330
4F
100
AcDbEntity
  8
1
  6
Continuous
 62
     7
100
AcDbCircle
 10
112.774548985891
 20
553.4776238364455
 30
0.0
 40
4.666008941635897
100
AcDbArc
 50
-99.52560088298237
 51
-99.05132439331946
  0
ARC
  5
1D4
330
4F
100
AcDbEntity
  8
1
  6
Continuous
 62
     7
100
AcDbCircle
 10
112.8064511214241
 20
553.6778847934668
 30
0.0
 40
4.868795028827755
100
AcDbArc
 50
-99.05132439332104
 51
-98.59743894246219
  0
ARC
  5
1D5
330
4F
100
AcDbEntity
  8
1
  6
Continuous
 62
     7
100
AcDbCircle
 10
112.9567879599228
 20
554.6722414231552
 30
0.0
 40
5.87445216325057
100
AcDbArc
 50
-98.59743894246211
 51
-98.22164119029173
  0
ARC
  5
1D6
330
4F
100
AcDbEntity
  8
1
  6
Continuous
 62
     7
100
AcDbCircle
 10
113.0073483638398
 20
555.0221700152304
 30
0.0
 40
6.228014567920451
100
AcDbArc
 50
-98.22164119029158
 51
-97.86741413802045
  0
ARC
  5
1D7
330
4F
100
AcDbEntity
  8
1
  6
Continuous
 62
     7
100
AcDbCircle
 10
113.2518000342077
 20
556.7912279896797
 30
0.0
 40
8.013882070314676
100
AcDbArc
 50
-97.86741413802025
 51
-97.59221519979685
  0
ARC
  5
1D8
330
4F
100
AcDbEntity
  8
1
  6
Continuous
 62
     7
100
AcDbCircle
 10
113.3450952482474
 20
557.4911685224701
 30
0.0
 40
8.720012898423613
100
AcDbArc
 50
-97.59221519979745
 51
-97.3393007081274
  0
ARC
  5
1D9
330
4F
100
AcDbEntity
  8
1
  6
Continuous
 62
     7
100
AcDbCircle
 10
113.8565384965846
 20
561.4619950641227
 30
0.0
 40
12.7236409555941
100
AcDbArc
 50
-97.33930070812752
 51
-97.16591323835182
  0
ARC
  5
1DA
330
4F
100
AcDbEntity
  8
1
  6
Continuous
 62
     7
100
AcDbCircle
 10
113.9256081971646
 20
562.0113663020408
 30
0.0
 40
13.27733706411393
100
AcDbArc
 50
-97.16591323835145
 51
-96.96217708530294
  0
ARC
  5
1DB
330
4F
100
AcDbEntity
  8
1
  6
Continuous
 62
     7
100
AcDbCircle
 10
114.020225127489
 20
562.7861875414517
 30
0.0
 40
14.05791397675374
100
AcDbArc
 50
-96.96217708530342
 51
-96.1913767195831
  0
ARC
  5
1DC
330
4F
100
AcDbEntity
  8
1
  6
Continuous
 62
     7
100
AcDbCircle
 10
114.0720643365134
 20
563.2640454051756
 30
0.0
 40
14.53857543923531
100
AcDbArc
 50
-96.19137671958281
 51
-95.44520697851955
  0
ARC
  5
1DD
330
4F
100
AcDbEntity
  8
1
  6
Continuous
 62
     7
100
AcDbCircle
 10
114.1251359338102
 20
563.8207952716157
 30
0.0
 40
15.0978490826519
100
AcDbArc
 50
-95.44520697851974
 51
-95.05814175251878
  0
ARC
  5
1DE
330
4F
100
AcDbEntity
  8
1
  6
Continuous
 62
     7
100
AcDbCircle
 10
114.1881211765769
 20
564.532402174291
 30
0.0
 40
15.81223799965833
100
AcDbArc
 50
-95.05814175251878
 51
-94.86011756303539
  0
ARC
  5
1DF
330
4F
100
AcDbEntity
  8
1
  6
Continuous
 62
     7
100
AcDbCircle
 10
114.2451978991818
 20
565.2036633173142
 30
0.0
 40
16.48592136326194
100
AcDbArc
 50
-94.86011756303506
 51
-94.6702165261393
  0
ARC
  5
1E0
330
4F
100
AcDbEntity
  8
1
  6
Continuous
 62
     7
100
AcDbCircle
 10
114.3051190643802
 20
565.9371674354826
 30
0.0
 40
17.22186894115651
100
AcDbArc
 50
-94.67021652613947
 51
-94.48845472864028
  0
ARC
  5
1E1
330
4F
100
AcDbEntity
  8
1
  6
Continuous
 62
     7
100
AcDbCircle
 10
114.3683172086332
 20
566.7422500137525
 30
0.0
 40
18.02942820416494
100
AcDbArc
 50
-94.48845472864015
 51
-94.31485220949071
  0
ARC
  5
1E2
330
4F
100
AcDbEntity
  8
1
  6
Continuous
 62
     7
100
AcDbCircle
 10
114.4352139183269
 20
567.6288737717671
 30
0.0
 40
18.91857209468177
100
AcDbArc
 50
-94.31485220949092
 51
-94.14942120919109
  0
ARC
  5
1E3
330
4F
100
AcDbEntity
  8
1
  6
Continuous
 62
     7
100
AcDbCircle
 10
114.5064252493474
 20
568.6104499695716
 30
0.0
 40
19.9027280202151
100
AcDbArc
 50
-94.14942120919096
 51
-93.99217812495094
  0
ARC
  5
1E4
330
4F
100
AcDbEntity
  8
1
  6
Continuous
 62
     7
100
AcDbCircle
 10
114.5825937366459
 20
569.7018512166877
 30
0.0
 40
20.99678392402612
100
AcDbArc
 50
-93.9921781249511
 51
-93.84313175270202
  0
ARC
  5
1E5
330
4F
100
AcDbEntity
  8
1
  6
Continuous
 62
     7
100
AcDbCircle
 10
114.6646329711095
 20
570.9231079258524
 30
0.0
 40
22.22079306846554
100
AcDbArc
 50
-93.84313175270204
 51
-93.70229523501588
  0
ARC
  5
1E6
330
4F
100
AcDbEntity
  8
1
  6
Continuous
 62
     7
100
AcDbCircle
 10
113.8288962327228
 20
557.7461357607713
 30
0.0
 40
9.017371177081476
100
AcDbArc
 50
-93.80951543662192
 51
-93.46245409350784
  0
ARC
  5
1E7
330
4F
100
AcDbEntity
  8
1
  6
Continuous
 62
     7
100
AcDbCircle
 10
119.7137527823663
 20
655.0086219864779
 30
0.0
 40
106.4577260790196
100
AcDbArc
 50
-93.46245409350701
 51
-93.39750356373064
  0
ARC
  5
1E8
330
4F
100
AcDbEntity
  8
1
  6
Continuous
 62
     7
100
AcDbCircle
 10
114.251481847091
 20
563.0004275901868
 30
0.0
 40
14.28753436913945
100
AcDbArc
 50
-93.39750356372969
 51
-92.91351048922476
  0
ARC
  5
1E9
330
4F
100
AcDbEntity
  8
1
  6
Continuous
 62
     7
100
AcDbCircle
 10
121.144525711779
 20
698.4390524940669
 30
0.0
 40
149.9014538965039
100
AcDbArc
 50
-92.91351048922566
 51
-92.86737728977148
  0
ARC
  5
1EA
330
4F
100
AcDbEntity
  8
1
  6
Continuous
 62
     7
100
AcDbCircle
 10
114.3894199469067
 20
563.5715963376031
 30
0.0
 40
14.86493222917754
100
AcDbArc
 50
-92.86737728977114
 51
-92.40214491670008
  0
ARC
  5
1EB
330
4F
100
AcDbEntity
  8
1
  6
Continuous
 62
     7
100
AcDbCircle
 10
115.1977968418682
 20
582.8416426298879
 30
0.0
 40
34.15192674131192
100
AcDbArc
 50
-92.40214491669997
 51
-89.34324155070638
  0
ARC
  5
1EC
330
4F
100
AcDbEntity
  8
1
  6
Continuous
 62
     7
100
AcDbCircle
 10
115.1901831889481
 20
583.50583061819
 30
0.0
 40
34.81615836621053
100
AcDbArc
 50
-89.34324155070634
 51
-88.80139326697999
  0
ARC
  5
1ED
330
4F
100
AcDbEntity
  8
1
  6
Continuous
 62
     7
100
AcDbCircle
 10
115.2645132688929
 20
579.953223682819
 30
0.0
 40
31.2627739234531
100
AcDbArc
 50
-88.80139326698011
 51
-88.56585183766325
  0
ARC
  5
1EE
330
4F
100
AcDbEntity
  8
1
  6
Continuous
 62
     7
100
AcDbCircle
 10
115.205961411996
 20
582.2919455233853
 30
0.0
 40
33.60222859655299
100
AcDbArc
 50
-88.56585183766293
 51
-88.34670861786121
  0
ARC
  5
1EF
330
4F
100
AcDbEntity
  8
1
  6
Continuous
 62
     7
100
AcDbCircle
 10
115.3251133714072
 20
578.1638108247836
 30
0.0
 40
29.47237469123969
100
AcDbArc
 50
-88.34670861786142
 51
-88.09685501733684
  0
ARC
  5
1F0
330
4F
100
AcDbEntity
  8
1
  6
Continuous
 62
     7
100
AcDbCircle
 10
115.2770825198951
 20
579.6092881459058
 30
0.0
 40
30.91864978560299
100
AcDbArc
 50
-88.09685501733679
 51
-87.7395962819049
  0
ARC
  5
1F1
330
4F
100
AcDbEntity
  8
1
  6
Continuous
 62
     7
100
AcDbCircle
 10
115.4313057179502
 20
575.7021305641403
 30
0.0
 40
27.00844964193182
100
AcDbArc
 50
-87.73959628190514
 51
-87.48354221395344
  0
ARC
  5
1F2
330
4F
100
AcDbEntity
  8
1
  6
Continuous
 62
     7
100
AcDbCircle
 10
115.3338357418361
 20
577.9199412125686
 30
0.0
 40
29.22840109827611
100
AcDbArc
 50
-87.48354221395321
 51
-87.24693557957511
  0
ARC
  5
1F3
330
4F
100
AcDbEntity
  8
1
  6
Continuous
 62
     7
100
AcDbCircle
 10
115.5288094097631
 20
573.865343169844
 30
0.0
 40
25.16911790795182
100
AcDbArc
 50
-87.24693557957497
 51
-86.9721766414275
  0
ARC
  5
1F4
330
4F
100
AcDbEntity
  8
1
  6
Continuous
 62
     7
100
AcDbCircle
 10
115.4279358463303
 20
575.7724056406029
 30
0.0
 40
27.0788463554481
100
AcDbArc
 50
-86.97217664142765
 51
-86.71680930562987
  0
ARC
  5
1F5
330
4F
100
AcDbEntity
  8
1
  6
Continuous
 62
     7
100
AcDbCircle
 10
115.6298863169633
 20
572.2519758847707
 30
0.0
 40
23.55262888366075
100
AcDbArc
 50
-86.71680930562997
 51
-86.4232330371192
  0
ARC
  5
1F6
330
4F
100
AcDbEntity
  8
1
  6
Continuous
 62
     7
100
AcDbCircle
 10
115.4507353956085
 20
575.1180430491297
 30
0.0
 40
26.42428973467349
100
AcDbArc
 50
-86.42323303711925
 51
-86.30479743275228
  0
ARC
  5
1F7
330
4F
100
AcDbEntity
  8
1
  6
Continuous
 62
     7
100
AcDbCircle
 10
115.8526905283453
 20
568.8941912969689
 30
0.0
 40
20.18747175098914
100
AcDbArc
 50
-86.30479743275198
 51
-86.14977557953046
  0
ARC
  5
1F8
330
4F
100
AcDbEntity
  8
1
  6
Continuous
 62
     7
100
AcDbCircle
 10
115.6500460587799
 20
571.905234154789
 30
0.0
 40
23.20532593445709
100
AcDbArc
 50
-86.14977557953087
 51
-86.01491454281668
  0
ARC
  5
1F9
330
4F
100
AcDbEntity
  8
1
  6
Continuous
 62
     7
100
AcDbCircle
 10
115.994020810295
 20
566.9676961318658
 30
0.0
 40
18.25582087258538
100
AcDbArc
 50
-86.01491454281661
 51
-85.84348612304187
  0
ARC
  5
1FA
330
4F
100
AcDbEntity
  8
1
  6
Continuous
 62
     7
100
AcDbCircle
 10
115.8173750811305
 20
569.3984094501608
 30
0.0
 40
20.69294437158359
100
AcDbArc
 50
-85.84348612304149
 51
-85.6922404582766
  0
ARC
  5
1FB
330
4F
100
AcDbEntity
  8
1
  6
Continuous
 62
     7
100
AcDbCircle
 10
116.1197412855072
 20
565.384338623544
 30
0.0
 40
16.66750154840916
100
AcDbArc
 50
-85.69224045827619
 51
-85.50445260359186
  0
ARC
  5
1FC
330
4F
100
AcDbEntity
  8
1
  6
Continuous
 62
     7
100
AcDbCircle
 10
115.962022083152
 20
567.3903441505544
 30
0.0
 40
18.67969774192229
100
AcDbArc
 50
-85.50445260359257
 51
-85.33687614162759
  0
ARC
  5
1FD
330
4F
100
AcDbEntity
  8
1
  6
Continuous
 62
     7
100
AcDbCircle
 10
116.2335261261093
 20
564.0617442089372
 30
0.0
 40
15.34004326628022
100
AcDbArc
 50
-85.33687614162761
 51
-85.13278976919811
  0
ARC
  5
1FE
330
4F
100
AcDbEntity
  8
1
  6
Continuous
 62
     7
100
AcDbCircle
 10
116.0899405293169
 20
565.7479360162089
 30
0.0
 40
17.0323374589418
100
AcDbArc
 50
-85.13278976919743
 51
-84.94895091524826
  0
ARC
  5
1FF
330
4F
100
AcDbEntity
  8
1
  6
Continuous
 62
     7
100
AcDbCircle
 10
116.2966469167228
 20
563.4092720613413
 30
0.0
 40
14.68455624588306
100
AcDbArc
 50
-84.94895091524874
 51
-84.18158139772545
  0
ARC
  5
200
330
4F
100
AcDbEntity
  8
1
  6
Continuous
 62
     7
100
AcDbCircle
 10
116.3225974700888
 20
563.1546079183744
 30
0.0
 40
14.42857332275516
100
AcDbArc
 50
-84.18158139772521
 51
-83.43000798388505
  0
ARC
  5
201
330
4F
100
AcDbEntity
  8
1
  6
Continuous
 62
     7
100
AcDbCircle
 10
116.4139926999212
 20
562.3610621465389
 30
0.0
 40
13.62978174791599
100
AcDbArc
 50
-83.43000798388486
 51
-82.83422406919283
  0
ARC
  5
202
330
4F
100
AcDbEntity
  8
1
  6
Continuous
 62
     7
100
AcDbCircle
 10
116.5295350399884
 20
561.4420359030283
 30
0.0
 40
12.70352084049903
100
AcDbArc
 50
-82.83422406919311
 51
-82.66056198432716
  0
ARC
  5
203
330
4F
100
AcDbEntity
  8
1
  6
Continuous
 62
     7
100
AcDbCircle
 10
117.0372066625816
 20
557.5005666766996
 30
0.0
 40
8.729491381815567
100
AcDbArc
 50
-82.66056198432763
 51
-82.4079221077069
  0
ARC
  5
204
330
4F
100
AcDbEntity
  8
1
  6
Continuous
 62
     7
100
AcDbCircle
 10
117.1328079769221
 20
556.7833116698791
 30
0.0
 40
8.005893181076619
100
AcDbArc
 50
-82.4079221077066
 51
-82.13244855451842
  0
ARC
  5
205
330
4F
100
AcDbEntity
  8
1
  6
Continuous
 62
     7
100
AcDbCircle
 10
117.3755089169397
 20
555.026954495223
 30
0.0
 40
6.232846573891076
100
AcDbArc
 50
-82.13244855451841
 51
-81.77849611716846
  0
ARC
  5
206
330
4F
100
AcDbEntity
  8
1
  6
Continuous
 62
     7
100
AcDbCircle
 10
117.4273728780059
 20
554.6679979052483
 30
0.0
 40
5.870162546198086
100
AcDbArc
 50
-81.77849611716806
 51
-81.40242375007539
  0
ARC
  5
207
330
4F
100
AcDbEntity
  8
1
  6
Continuous
 62
     7
100
AcDbCircle
 10
117.576630191161
 20
553.6807974683451
 30
0.0
 40
4.871742570360143
100
AcDbArc
 50
-81.40242375007706
 51
-80.94881291414164
  0
ARC
  5
208
330
4F
100
AcDbEntity
  8
1
  6
Continuous
 62
     7
100
AcDbCircle
 10
117.6094203198783
 20
553.474959089795
 30
0.0
 40
4.663308814395577
100
AcDbArc
 50
-80.94881291414083
 51
-80.47426180955561
  0
ARC
  5
209
330
4F
100
AcDbEntity
  8
1
  6
Continuous
 62
     7
100
AcDbCircle
 10
117.714883947118
 20
552.846467808731
 30
0.0
 40
4.026030329709484
100
AcDbArc
 50
-80.4742618095564
 51
-79.92360409187533
  0
ARC
  5
20A
330
4F
100
AcDbEntity
  8
1
  6
Continuous
 62
     7
100
AcDbCircle
 10
117.7371591650117
 20
552.7211163621528
 30
0.0
 40
3.898715089099908
100
AcDbArc
 50
-79.92360409187302
 51
-79.35370304230489
  0
ARC
  5
20B
330
4F
100
AcDbEntity
  8
1
  6
Continuous
 62
     7
100
AcDbCircle
 10
117.818372443885
 20
552.2890880337039
 30
0.0
 40
3.459119737386919
100
AcDbArc
 50
-79.35370304230747
 51
-78.70966973033389
  0
ARC
  5
20C
330
4F
100
AcDbEntity
  8
1
  6
Continuous
 62
     7
100
AcDbCircle
 10
117.7971748483708
 20
552.3952648911948
 30
0.0
 40
3.567391908890979
100
AcDbArc
 50
-78.70966973033001
 51
-78.24166237304499
  0
ARC
  5
20D
330
4F
100
AcDbEntity
  8
1
  6
Continuous
 62
     7
100
AcDbCircle
 10
117.7317495635083
 20
552.7095796592911
 30
0.0
 40
3.888443682508237
100
AcDbArc
 50
-78.24166237304688
 51
-77.81180901155572
  0
ARC
  5
20E
330
4F
100
AcDbEntity
  8
1
  6
Continuous
 62
     7
100
AcDbCircle
 10
117.6558010282988
 20
553.0612063986778
 30
0.0
 40
4.248179062825812
100
AcDbArc
 50
-77.81180901155587
 51
-77.41838292611276
  0
ARC
  5
20F
330
4F
100
AcDbEntity
  8
1
  6
Continuous
 62
     7
100
AcDbCircle
 10
117.5663642434762
 20
553.4619274504591
 30
0.0
 40
4.658759505394865
100
AcDbArc
 50
-77.41838292611412
 51
-77.06009135348529
  0
ARC
  5
210
330
4F
100
AcDbEntity
  8
1
  6
Continuous
 62
     7
100
AcDbCircle
 10
117.4602336560314
 20
553.9238392199102
 30
0.0
 40
5.132706954326506
100
AcDbArc
 50
-77.06009135348434
 51
-76.73570315315376
  0
ARC
  5
211
330
4F
100
AcDbEntity
  8
1
  6
Continuous
 62
     7
100
AcDbCircle
 10
117.3314128302867
 20
554.4703104649125
 30
0.0
 40
5.694156530655324
100
AcDbArc
 50
-76.7357031531523
 51
-76.44440237569444
  0
ARC
  5
212
330
4F
100
AcDbEntity
  8
1
  6
Continuous
 62
     7
100
AcDbCircle
 10
117.1724165961215
 20
555.1297577727107
 30
0.0
 40
6.372500509946993
100
AcDbArc
 50
-76.44440237569526
 51
-76.18542299936972
  0
ARC
  5
213
330
4F
100
AcDbEntity
  8
1
  6
Continuous
 62
     7
100
AcDbCircle
 10
116.9691647443653
 20
555.9563431970296
 30
0.0
 40
7.223708345283792
100
AcDbArc
 50
-76.18542299936998
 51
-75.95840975737274
  0
ARC
  5
214
330
4F
100
AcDbEntity
  8
1
  6
Continuous
 62
     7
100
AcDbCircle
 10
116.7007065946723
 20
557.0297500673395
 30
0.0
 40
8.330176640069002
100
AcDbArc
 50
-75.95840975737296
 51
-75.76306051344751
  0
ARC
  5
215
330
4F
100
AcDbEntity
  8
1
  6
Continuous
 62
     7
100
AcDbCircle
 10
116.3247263140229
 20
558.5115916966292
 30
0.0
 40
9.858972174381224
100
AcDbArc
 50
-75.76306051344685
 51
-75.59949534405777
  0
ARC
  5
216
330
4F
100
AcDbEntity
  8
1
  6
Continuous
 62
     7
100
AcDbCircle
 10
118.4791759969461
 20
550.146774706899
 30
0.0
 40
1.221178379330228
100
AcDbArc
 50
-75.9017551633157
 51
-75.05850605472737
  0
ARC
  5
217
330
4F
100
AcDbEntity
  8
1
  6
Continuous
 62
     7
100
AcDbCircle
 10
117.7048304614376
 20
553.0485205110324
 30
0.0
 40
4.224466530701719
100
AcDbArc
 50
-75.05850605472357
 51
-74.8155769467955
  0
ARC
  5
218
330
4F
100
AcDbEntity
  8
1
  6
Continuous
 62
     7
100
AcDbCircle
 10
118.6564854983052
 20
549.5420806561713
 30
0.0
 40
0.5911804471467378
100
AcDbArc
 50
-74.81557694679616
 51
-73.07925420982961
  0
ARC
  5
219
330
4F
100
AcDbEntity
  8
1
  6
Continuous
 62
     7
100
AcDbCircle
 10
118.5591039186564
 20
549.8621844312218
 30
0.0
 40
0.9257691481759235
100
AcDbArc
 50
-73.07925420982541
 51
-71.96584381822925
  0
ARC
  5
21A
330
4F
100
AcDbEntity
  8
1
  6
Continuous
 62
     7
100
AcDbCircle
 10
118.7200255316168
 20
549.3679213998616
 30
0.0
 40
0.4059694659069558
100
AcDbArc
 50
-71.96584381822211
 51
-69.40451987761101
  0
ARC
  5
21B
330
4F
100
AcDbEntity
  8
1
  6
Continuous
 62
     7
100
AcDbCircle
 10
118.6643160211013
 20
549.5161696589568
 30
0.0
 40
0.5643395889938223
100
AcDbArc
 50
-69.40451987762035
 51
-67.53655732086583
  0
ARC
  5
21C
330
4F
100
AcDbEntity
  8
1
  6
Continuous
 62
     7
100
AcDbCircle
 10
118.7397866330677
 20
549.3336381626789
 30
0.0
 40
0.3668210825089971
100
AcDbArc
 50
-67.53655732084366
 51
-55.2737342417322
  0
ARC
  5
21D
330
4F
100
AcDbEntity
  8
1
  6
Continuous
 62
     7
100
AcDbCircle
 10
118.7181029510191
 20
549.3649227242594
 30
0.0
 40
0.4048855785711097
100
AcDbArc
 50
-55.27373424172216
 51
-53.77703631518539
  0
ARC
  5
21E
330
4F
100
AcDbEntity
  8
1
  6
Continuous
 62
     7
100
AcDbCircle
 10
118.805942983834
 20
549.245005413047
 30
0.0
 40
0.2562382345205576
100
AcDbArc
 50
-53.77703631522123
 51
-51.39495920456522
  0
ARC
  5
21F
330
4F
100
AcDbEntity
  8
1
  6
Continuous
 62
     7
100
AcDbCircle
 10
118.8045822989083
 20
549.2467096060854
 30
0.0
 40
0.258418999840184
100
AcDbArc
 50
-51.39495920455131
 51
-49.04907009825509
  0
ARC
  5
220
330
4F
100
AcDbEntity
  8
1
  6
Continuous
 62
     7
100
AcDbCircle
 10
118.8611755501479
 20
549.1814937977149
 30
0.0
 40
0.172071459358229
100
AcDbArc
 50
-49.04907009819777
 51
-45.59580307855764
  0
ARC
  5
221
330
4F
100
AcDbEntity
  8
1
  6
Continuous
 62
     7
100
AcDbCircle
 10
118.8735618121798
 20
549.1688472166381
 30
0.0
 40
0.1543696091707443
100
AcDbArc
 50
-45.59580307858613
 51
-41.87009803462232
  0
ARC
  5
222
330
4F
100
AcDbEntity
  8
1
  6
Continuous
 62
     7
100
AcDbCircle
 10
118.9105295067432
 20
549.1357128099443
 30
0.0
 40
0.1047258850126714
100
AcDbArc
 50
-41.87009803468756
 51
-36.61426426670791
  0
ARC
  5
223
330
4F
100
AcDbEntity
  8
1
  6
Continuous
 62
     7
100
AcDbCircle
 10
118.9257984175294
 20
549.1243672170035
 30
0.0
 40
0.0857032112844454
100
AcDbArc
 50
-36.61426426661274
 51
-30.52463731306744
  0
ARC
  5
224
330
4F
100
AcDbEntity
  8
1
  6
Continuous
 62
     7
100
AcDbCircle
 10
118.9485531748937
 20
549.1109504576413
 30
0.0
 40
0.0592875262752177
100
AcDbArc
 50
-30.524637313314
 51
-22.21451983724906
  0
ARC
  5
225
330
4F
100
AcDbEntity
  8
1
  6
Continuous
 62
     7
100
AcDbCircle
 10
118.9595034471476
 20
549.1064784968201
 30
0.0
 40
0.047459301724672
100
AcDbArc
 50
-22.21451983715623
 51
-12.37556953310426
  0
ARC
  5
226
330
4F
100
AcDbEntity
  8
1
  6
Continuous
 62
     7
100
AcDbCircle
 10
118.9702922143659
 20
549.1041112546757
 30
0.0
 40
0.0364138803447301
100
AcDbArc
 50
-12.3755695326742
 51
0.00743408425284
  0
ARC
  5
227
330
4F
100
AcDbEntity
  8
1
  6
Continuous
 62
     7
100
AcDbCircle
 10
118.9702049012438
 20
549.1041112433469
 30
0.0
 40
0.0365011934676366
100
AcDbArc
 50
0.00743408420226
 51
12.36070136539096
  0
ARC
  5
228
330
4F
100
AcDbEntity
  8
1
  6
Continuous
 62
     7
100
AcDbCircle
 10
118.9596401547548
 20
549.1017960285863
 30
0.0
 40
0.0473166494342035
100
AcDbArc
 50
12.36070136536917
 51
22.22938800507469
  0
ARC
  5
229
330
4F
100
AcDbEntity
  8
1
  6
Continuous
 62
     7
100
AcDbCircle
 10
111.4225933805376
 20
549.1022007953508
 30
0.0
 40
0.0459603334086633
100
AcDbArc
 50
157.6246193849604
 51
167.7852912452145
  0
ARC
  5
22A
330
4F
100
AcDbEntity
  8
1
  6
Continuous
 62
     7
100
AcDbCircle
 10
111.41420870593
 20
549.1040158793948
 30
0.0
 40
0.0373814466300745
100
AcDbArc
 50
167.7852912453172
 51
179.8465733059664
  0
ARC
  5
22B
330
4F
100
AcDbEntity
  8
1
  6
Continuous
 62
     7
100
AcDbCircle
 10
118.8268335002613
 20
548.1275869254667
 30
0.0
 40
0.141086161053353
100
AcDbArc
 50
37.20208820327661
 51
41.99861863920226
  0
ARC
  5
22C
330
4F
100
AcDbEntity
  8
1
  6
Continuous
 62
     7
100
AcDbCircle
 10
118.5645816023888
 20
547.8914657044501
 30
0.0
 40
0.4939732378244911
100
AcDbArc
 50
41.99861863920992
 51
43.38525748590315
  0
ARC
  5
22D
330
4F
100
AcDbEntity
  8
1
  6
Continuous
 62
     7
100
AcDbCircle
 10
118.7955608051899
 20
548.1097793258151
 30
0.0
 40
0.1761490263488882
100
AcDbArc
 50
43.38525748588561
 51
47.28728319818511
  0
ARC
  5
22E
330
4F
100
AcDbEntity
  8
1
  6
Continuous
 62
     7
100
AcDbCircle
 10
118.2165690886169
 20
547.4826113691303
 30
0.0
 40
1.029712763718326
100
AcDbArc
 50
47.28728319816664
 51
47.95023601102077
  0
ARC
  5
22F
330
4F
100
AcDbEntity
  8
1
  6
Continuous
 62
     7
100
AcDbCircle
 10
118.7158784417908
 20
548.0361829276357
 30
0.0
 40
0.2842254730467295
100
AcDbArc
 50
47.95023601103403
 51
56.14167353623261
  0
ARC
  5
230
330
4F
100
AcDbEntity
  8
1
  6
Continuous
 62
     7
100
AcDbCircle
 10
118.4716823382818
 20
547.6722092104023
 30
0.0
 40
0.7225274281022848
100
AcDbArc
 50
56.14167353622871
 51
57.70128239159178
  0
ARC
  5
231
330
4F
100
AcDbEntity
  8
1
  6
Continuous
 62
     7
100
AcDbCircle
 10
118.7190259459686
 20
548.0634874973654
 30
0.0
 40
0.2596261879741043
100
AcDbArc
 50
57.70128239161912
 51
61.97967035652243
  0
ARC
  5
232
330
4F
100
AcDbEntity
  8
1
  6
Continuous
 62
     7
100
AcDbCircle
 10
118.3035632894305
 20
547.2827842752377
 30
0.0
 40
1.143994177002573
100
AcDbArc
 50
61.9796703565102
 51
62.94053080917747
  0
ARC
  5
233
330
4F
100
AcDbEntity
  8
1
  6
Continuous
 62
     7
100
AcDbCircle
 10
118.6862268978361
 20
548.0318807598077
 30
0.0
 40
0.3028182260903278
100
AcDbArc
 50
62.94053080918415
 51
66.54711995795844
  0
ARC
  5
234
330
4F
100
AcDbEntity
  8
1
  6
Continuous
 62
     7
100
AcDbCircle
 10
116.9766764107205
 20
544.0913247634818
 30
0.0
 40
4.59822791879443
100
AcDbArc
 50
66.54711995797058
 51
66.78372312189315
  0
ARC
  5
235
330
4F
100
AcDbEntity
  8
1
  6
Continuous
 62
     7
100
AcDbCircle
 10
118.6389071372471
 20
547.9665588209912
 30
0.0
 40
0.3815408319111368
100
AcDbArc
 50
66.78372312187288
 51
69.63158524497165
  0
ARC
  5
236
330
4F
100
AcDbEntity
  8
1
  6
Continuous
 62
     7
100
AcDbCircle
 10
117.6983101567184
 20
545.4330958594449
 30
0.0
 40
3.083976262648887
100
AcDbArc
 50
69.63158524498549
 51
75.73497677952891
  0
ARC
  5
237
330
4F
100
AcDbEntity
  8
1
  6
Continuous
 62
     7
100
AcDbCircle
 10
117.6883892003879
 20
545.3940748883248
 30
0.0
 40
3.12423867143999
100
AcDbArc
 50
75.73497677953192
 51
76.44286073490663
  0
ARC
  5
238
330
4F
100
AcDbEntity
  8
1
  6
Continuous
 62
     7
100
AcDbCircle
 10
117.6009528022474
 20
545.0314695115842
 30
0.0
 40
3.497237040016801
100
AcDbArc
 50
76.44286073490429
 51
77.07451518534623
  0
ARC
  5
239
330
4F
100
AcDbEntity
  8
1
  6
Continuous
 62
     7
100
AcDbCircle
 10
117.5811936506204
 20
544.9453725204627
 30
0.0
 40
3.585572287529931
100
AcDbArc
 50
77.07451518534766
 51
77.69004299135902
  0
ARC
  5
23A
330
4F
100
AcDbEntity
  8
1
  6
Continuous
 62
     7
100
AcDbCircle
 10
117.4722218039545
 20
544.4459994599513
 30
0.0
 40
4.096696848601277
100
AcDbArc
 50
77.69004299135681
 51
78.22839314459371
  0
ARC
  5
23B
330
4F
100
AcDbEntity
  8
1
  6
Continuous
 62
     7
100
AcDbCircle
 10
117.4455892935804
 20
544.3182004756317
 30
0.0
 40
4.22724136591991
100
AcDbArc
 50
78.22839314459532
 51
78.74984623922904
  0
ARC
  5
23C
330
4F
100
AcDbEntity
  8
1
  6
Continuous
 62
     7
100
AcDbCircle
 10
117.3013338152383
 20
543.5929893837413
 30
0.0
 40
4.966660577755878
100
AcDbArc
 50
78.74984623922849
 51
79.19350798730537
  0
ARC
  5
23D
330
4F
100
AcDbEntity
  8
1
  6
Continuous
 62
     7
100
AcDbCircle
 10
117.2635896277225
 20
543.3952491533107
 30
0.0
 40
5.167970841830988
100
AcDbArc
 50
79.19350798730579
 51
79.61979561270287
  0
ARC
  5
23E
330
4F
100
AcDbEntity
  8
1
  6
Continuous
 62
     7
100
AcDbCircle
 10
117.0546660616044
 20
542.2546949178525
 30
0.0
 40
6.327502221527523
100
AcDbArc
 50
79.61979561270226
 51
79.96793257797539
  0
ARC
  5
23F
330
4F
100
AcDbEntity
  8
1
  6
Continuous
 62
     7
100
AcDbCircle
 10
116.9958421708575
 20
541.9221764303782
 30
0.0
 40
6.665183720332018
100
AcDbArc
 50
79.9679325779761
 51
80.29843642158308
  0
ARC
  5
240
330
4F
100
AcDbEntity
  8
1
  6
Continuous
 62
     7
100
AcDbCircle
 10
116.6468303364556
 20
539.8807085485493
 30
0.0
 40
8.736270481694614
100
AcDbArc
 50
80.29843642158214
 51
80.55061510951299
  0
ARC
  5
241
330
4F
100
AcDbEntity
  8
1
  6
Continuous
 62
     7
100
AcDbCircle
 10
116.5880717523387
 20
539.5276654760359
 30
0.0
 40
9.09416988412111
100
AcDbArc
 50
80.5506151095136
 51
81.14205057356649
  0
ARC
  5
242
330
4F
100
AcDbEntity
  8
1
  6
Continuous
 62
     7
100
AcDbCircle
 10
116.4509839284778
 20
538.648017664082
 30
0.0
 40
9.98443576829634
100
AcDbArc
 50
81.14205057356617
 51
81.68094282172216
  0
ARC
  5
243
330
4F
100
AcDbEntity
  8
1
  6
Continuous
 62
     7
100
AcDbCircle
 10
116.4389146275454
 20
538.5654778155754
 30
0.0
 40
10.06785336006503
100
AcDbArc
 50
81.6809428217219
 51
82.2155031180114
  0
ARC
  5
244
330
4F
100
AcDbEntity
  8
1
  6
Continuous
 62
     7
100
AcDbCircle
 10
116.2916684682914
 20
537.4883872351346
 30
0.0
 40
11.15496216321637
100
AcDbArc
 50
82.2155031180114
 51
82.69802847365294
  0
ARC
  5
245
330
4F
100
AcDbEntity
  8
1
  6
Continuous
 62
     7
100
AcDbCircle
 10
116.2803156594891
 20
537.3997888872523
 30
0.0
 40
11.24428491236334
100
AcDbArc
 50
82.69802847365295
 51
83.17671644179794
  0
ARC
  5
246
330
4F
100
AcDbEntity
  8
1
  6
Continuous
 62
     7
100
AcDbCircle
 10
116.0899063304515
 20
535.808468818176
 30
0.0
 40
12.84695620580718
100
AcDbArc
 50
83.17671644179866
 51
83.4181484392669
  0
ARC
  5
247
330
4F
100
AcDbEntity
  8
1
  6
Continuous
 62
     7
100
AcDbCircle
 10
116.2086923561944
 20
536.8379623979113
 30
0.0
 40
11.81063234203312
100
AcDbArc
 50
83.41814843926598
 51
83.68074603835235
  0
ARC
  5
248
330
4F
100
AcDbEntity
  8
1
  6
Continuous
 62
     7
100
AcDbCircle
 10
115.9809091639935
 20
534.7810655011432
 30
0.0
 40
13.88010329534043
100
AcDbArc
 50
83.68074603835343
 51
83.9041787828363
  0
ARC
  5
249
330
4F
100
AcDbEntity
  8
1
  6
Continuous
 62
     7
100
AcDbCircle
 10
116.1084202845302
 20
535.9750412248899
 30
0.0
 40
12.6793380748429
100
AcDbArc
 50
83.90417878283556
 51
84.14876095314182
  0
ARC
  5
24A
330
4F
100
AcDbEntity
  8
1
  6
Continuous
 62
     7
100
AcDbCircle
 10
115.8619222617344
 20
533.5697106754355
 30
0.0
 40
15.09726618117287
100
AcDbArc
 50
84.14876095314193
 51
84.35416548193324
  0
ARC
  5
24B
330
4F
100
AcDbEntity
  8
1
  6
Continuous
 62
     7
100
AcDbCircle
 10
116.0005430895995
 20
534.9719241711021
 30
0.0
 40
13.68821741645691
100
AcDbArc
 50
84.35416548193356
 51
84.58070969340795
  0
ARC
  5
24C
330
4F
100
AcDbEntity
  8
1
  6
Continuous
 62
     7
100
AcDbCircle
 10
115.7301903193575
 20
532.1221317194579
 30
0.0
 40
16.55080499377688
100
AcDbArc
 50
84.58070969340815
 51
84.76806923127107
  0
ARC
  5
24D
330
4F
100
AcDbEntity
  8
1
  6
Continuous
 62
     7
100
AcDbCircle
 10
115.8831861938353
 20
533.7929565244315
 30
0.0
 40
14.87298996627151
100
AcDbArc
 50
84.76806923127099
 51
84.9765638101246
  0
ARC
  5
24E
330
4F
100
AcDbEntity
  8
1
  6
Continuous
 62
     7
100
AcDbCircle
 10
115.5817538096659
 20
530.3637247083457
 30
0.0
 40
18.31544437129735
100
AcDbArc
 50
84.97656381012425
 51
85.14587115691792
  0
ARC
  5
24F
330
4F
100
AcDbEntity
  8
1
  6
Continuous
 62
     7
100
AcDbCircle
 10
115.7537413020004
 20
532.3889222612869
 30
0.0
 40
16.28295702177748
100
AcDbArc
 50
85.14587115691788
 51
85.33631277452469
  0
ARC
  5
250
330
4F
100
AcDbEntity
  8
1
  6
Continuous
 62
     7
100
AcDbCircle
 10
115.51388132638
 20
529.4486307668093
 30
0.0
 40
19.23301581448004
100
AcDbArc
 50
85.3363127745248
 51
85.69211436535528
  0
ARC
  5
251
330
4F
100
AcDbEntity
  8
1
  6
Continuous
 62
     7
100
AcDbCircle
 10
115.5709233635156
 20
530.2058716438818
 30
0.0
 40
18.47362952285371
100
AcDbArc
 50
85.69211436535545
 51
86.06254796549624
  0
ARC
  5
252
330
4F
100
AcDbEntity
  8
1
  6
Continuous
 62
     7
100
AcDbCircle
 10
115.4068804966944
 20
527.8225630484275
 30
0.0
 40
20.86257697378707
100
AcDbArc
 50
86.06254796549628
 51
86.39056851107361
  0
ARC
  5
253
330
4F
100
AcDbEntity
  8
1
  6
Continuous
 62
     7
100
AcDbCircle
 10
115.4630831721993
 20
528.7135385861228
 30
0.0
 40
19.96983056550216
100
AcDbArc
 50
86.39056851107344
 51
86.73325627625069
  0
ARC
  5
254
330
4F
100
AcDbEntity
  8
1
  6
Continuous
 62
     7
100
AcDbCircle
 10
115.302523196986
 20
525.9005115479951
 30
0.0
 40
22.78743604229961
100
AcDbArc
 50
86.7332562762506
 51
87.03357113137474
  0
ARC
  5
255
330
4F
100
AcDbEntity
  8
1
  6
Continuous
 62
     7
100
AcDbCircle
 10
115.3432179742728
 20
526.6858178423539
 30
0.0
 40
22.00107604785817
100
AcDbArc
 50
87.03357113137481
 51
87.53010176781832
  0
ARC
  5
256
330
4F
100
AcDbEntity
  8
1
  6
Continuous
 62
     7
100
AcDbCircle
 10
115.2365697256899
 20
524.2133641316665
 30
0.0
 40
24.4758288032699
100
AcDbArc
 50
87.53010176781815
 51
87.97642398100678
  0
ARC
  5
257
330
4F
100
AcDbEntity
  8
1
  6
Continuous
 62
     7
100
AcDbCircle
 10
115.2569940023146
 20
524.7914191356057
 30
0.0
 40
23.89741308887862
100
AcDbArc
 50
87.97642398100714
 51
88.43354868270801
  0
ARC
  5
258
330
4F
100
AcDbEntity
  8
1
  6
Continuous
 62
     7
100
AcDbCircle
 10
115.1931760571334
 20
522.4577444147848
 30
0.0
 40
26.23196024683563
100
AcDbArc
 50
88.43354868270794
 51
89.5738628648965
  0
ARC
  5
259
330
4F
100
AcDbEntity
  8
1
  6
Continuous
 62
     7
100
AcDbCircle
 10
115.1916242277971
 20
522.2490988293438
 30
0.0
 40
26.44061160316564
100
AcDbArc
 50
89.57386286489634
 51
90.85134714454341
  0
ARC
  5
25A
330
4F
100
AcDbEntity
  8
1
  6
Continuous
 62
     7
100
AcDbCircle
 10
115.1822974492559
 20
522.8767461078624
 30
0.0
 40
25.81289503095348
100
AcDbArc
 50
90.8513471445433
 51
91.5739914888764
  0
ARC
  5
25B
330
4F
100
AcDbEntity
  8
1
  6
Continuous
 62
     7
100
AcDbCircle
 10
115.1520765762078
 20
523.9765569322741
 30
0.0
 40
24.7126690765872
100
AcDbArc
 50
91.57399148887664
 51
92.01603584740879
  0
ARC
  5
25C
330
4F
100
AcDbEntity
  8
1
  6
Continuous
 62
     7
100
AcDbCircle
 10
115.1156028899159
 20
525.0127120049058
 30
0.0
 40
23.67587224772831
100
AcDbArc
 50
92.01603584740867
 51
92.47743840376648
  0
ARC
  5
25D
330
4F
100
AcDbEntity
  8
1
  6
Continuous
 62
     7
100
AcDbCircle
 10
115.0729964881461
 20
525.9974571480256
 30
0.0
 40
22.69020582222232
100
AcDbArc
 50
92.47743840376636
 51
92.95888869704069
  0
ARC
  5
25E
330
4F
100
AcDbEntity
  8
1
  6
Continuous
 62
     7
100
AcDbCircle
 10
115.021773094263
 20
526.9884625801919
 30
0.0
 40
21.69787744780978
100
AcDbArc
 50
92.95888869704091
 51
93.27428389533375
  0
ARC
  5
25F
330
4F
100
AcDbEntity
  8
1
  6
Continuous
 62
     7
100
AcDbCircle
 10
114.9755775377343
 20
527.7959455520502
 30
0.0
 40
20.88907414707211
100
AcDbArc
 50
93.27428389533344
 51
93.60189131734201
  0
ARC
  5
260
330
4F
100
AcDbEntity
  8
1
  6
Continuous
 62
     7
100
AcDbCircle
 10
114.9163055299939
 20
528.7375511441725
 30
0.0
 40
19.94560487782283
100
AcDbArc
 50
93.60189131734218
 51
93.94499220608849
  0
ARC
  5
261
330
4F
100
AcDbEntity
  8
1
  6
Continuous
 62
     7
100
AcDbCircle
 10
114.86897192349
 20
529.4239223009088
 30
0.0
 40
19.25760354417293
100
AcDbArc
 50
93.94499220608859
 51
94.30034546307402
  0
ARC
  5
262
330
4F
100
AcDbEntity
  8
1
  6
Continuous
 62
     7
100
AcDbCircle
 10
114.8084881606239
 20
530.2282657226679
 30
0.0
 40
18.45098924619799
100
AcDbArc
 50
94.30034546307422
 51
94.67122739703292
  0
ARC
  5
263
330
4F
100
AcDbEntity
  8
1
  6
Continuous
 62
     7
100
AcDbCircle
 10
114.7459627750364
 20
530.9934821319687
 30
0.0
 40
17.68322263002738
100
AcDbArc
 50
94.67122739703238
 51
94.84658867152486
  0
ARC
  5
264
330
4F
100
AcDbEntity
  8
1
  6
Continuous
 62
     7
100
AcDbCircle
 10
113.9510794814192
 20
540.2084086524517
 30
0.0
 40
8.434096795523695
100
AcDbArc
 50
94.75494875459168
 51
95.12261627836647
  0
LINE
  5
265
330
4F
100
AcDbEntity
  8
1
  6
Continuous
 62
     7
100
AcDbLine
 10
113.19802043701
 20
548.6088188110032
 30
0.0
 11
113.1441154872358
 21
548.6039816686754
 31
0.0
  0
ARC
  5
266
330
4F
100
AcDbEntity
  8
1
  6
Continuous
 62
     7
100
AcDbCircle
 10
113.8633494996199
 20
540.5968174576665
 30
0.0
 40
8.03940148684166
100
AcDbArc
 50
95.13275068023921
 51
95.51847039508277
  0
ARC
  5
267
330
4F
100
AcDbEntity
  8
1
  6
Continuous
 62
     7
100
AcDbCircle
 10
123.6710840471151
 20
439.0826240891392
 30
0.0
 40
110.0262786437432
100
AcDbArc
 50
95.51847039508309
 51
95.54665442957557
  0
ARC
  5
268
330
4F
100
AcDbEntity
  8
1
  6
Continuous
 62
     7
100
AcDbCircle
 10
113.7787102259115
 20
540.949357602073
 30
0.0
 40
7.680343421998588
100
AcDbArc
 50
95.54665442957671
 51
95.95041913534902
  0
ARC
  5
269
330
4F
100
AcDbEntity
  8
1
  6
Continuous
 62
     7
100
AcDbCircle
 10
119.9378132867596
 20
481.8575589828809
 30
0.0
 40
67.09225480822911
100
AcDbArc
 50
95.95041913534843
 51
95.99664112867326
  0
ARC
  5
26A
330
4F
100
AcDbEntity
  8
1
  6
Continuous
 62
     7
100
AcDbCircle
 10
113.6968019328603
 20
541.2703197379225
 30
0.0
 40
7.352599944350735
100
AcDbArc
 50
95.99664112867235
 51
96.41843405013741
  0
ARC
  5
26B
330
4F
100
AcDbEntity
  8
1
  6
Continuous
 62
     7
100
AcDbCircle
 10
118.2721226273443
 20
500.5985489377007
 30
0.0
 40
48.280909211692
100
AcDbArc
 50
96.41843405013735
 51
96.48267147224252
  0
ARC
  5
26C
330
4F
100
AcDbEntity
  8
1
  6
Continuous
 62
     7
100
AcDbCircle
 10
113.6173329580313
 20
541.563261367647
 30
0.0
 40
7.052584829858017
100
AcDbArc
 50
96.48267147224321
 51
96.922463646692
  0
ARC
  5
26D
330
4F
100
AcDbEntity
  8
1
  6
Continuous
 62
     7
100
AcDbCircle
 10
115.0814989809934
 20
529.5036905308031
 30
0.0
 40
19.20071352985334
100
AcDbArc
 50
96.92246364669187
 51
97.20279143783867
  0
ARC
  5
26E
330
4F
100
AcDbEntity
  8
1
  6
Continuous
 62
     7
100
AcDbCircle
 10
113.6652555792281
 20
540.7100206229741
 30
0.0
 40
7.90524631916497
100
AcDbArc
 50
97.20279143783904
 51
97.88367697051342
  0
ARC
  5
26F
330
4F
100
AcDbEntity
  8
1
  6
Continuous
 62
     7
100
AcDbCircle
 10
114.7766366635657
 20
532.6839338320515
 30
0.0
 40
16.00791483577385
100
AcDbArc
 50
97.88367697051275
 51
98.21987708975226
  0
ARC
  5
270
330
4F
100
AcDbEntity
  8
1
  6
Continuous
 62
     7
100
AcDbCircle
 10
113.531376430084
 20
541.3042560813948
 30
0.0
 40
7.298114107191537
100
AcDbArc
 50
98.21987708975186
 51
98.95712951495813
  0
ARC
  5
271
330
4F
100
AcDbEntity
  8
1
  6
Continuous
 62
     7
100
AcDbCircle
 10
114.5255340538023
 20
534.996850914716
 30
0.0
 40
13.68338695315854
100
AcDbArc
 50
98.95712951495844
 51
99.3502048019616
  0
ARC
  5
272
330
4F
100
AcDbEntity
  8
1
  6
Continuous
 62
     7
100
AcDbCircle
 10
113.0968750458998
 20
543.6734721266163
 30
0.0
 40
4.889933580582987
100
AcDbArc
 50
99.35020480196125
 51
99.80074366694305
  0
ARC
  5
273
330
4F
100
AcDbEntity
  8
1
  6
Continuous
 62
     7
100
AcDbCircle
 10
115.1021453040603
 20
532.0650938694637
 30
0.0
 40
16.67023725109133
100
AcDbArc
 50
99.80074366694257
 51
99.93288733345757
  0
ARC
  5
274
330
4F
100
AcDbEntity
  8
1
  6
Continuous
 62
     7
100
AcDbCircle
 10
112.9219185293497
 20
544.5150328825386
 30
0.0
 40
4.030839709339277
100
AcDbArc
 50
99.93288733345858
 51
100.4793844759051
  0
ARC
  5
275
330
4F
100
AcDbEntity
  8
1
  6
Continuous
 62
     7
100
AcDbCircle
 10
113.9467647907962
 20
538.9743320647368
 30
0.0
 40
9.665524741529538
100
AcDbArc
 50
100.4793844759049
 51
100.7073119240866
  0
ARC
  5
276
330
4F
100
AcDbEntity
  8
1
  6
Continuous
 62
     7
100
AcDbCircle
 10
112.7886558085033
 20
545.0991661899358
 30
0.0
 40
3.432162127653506
100
AcDbArc
 50
100.7073119240866
 51
101.3493338493805
  0
ARC
  5
277
330
4F
100
AcDbEntity
  8
1
  6
Continuous
 62
     7
100
AcDbCircle
 10
113.4558430193945
 20
541.7751184189905
 30
0.0
 40
6.822506115791378
100
AcDbArc
 50
101.3493338493811
 51
101.672426766796
  0
ARC
  5
278
330
4F
100
AcDbEntity
  8
1
  6
Continuous
 62
     7
100
AcDbCircle
 10
112.6812072406299
 20
545.5247795031477
 30
0.0
 40
2.993665712251039
100
AcDbArc
 50
101.6724267667938
 51
102.4091370972496
  0
ARC
  5
279
330
4F
100
AcDbEntity
  8
1
  6
Continuous
 62
     7
100
AcDbCircle
 10
113.1747704404532
 20
543.2816310471879
 30
0.0
 40
5.290472109772243
100
AcDbArc
 50
102.4091370972511
 51
102.8263047260429
  0
ARC
  5
27A
330
4F
100
AcDbEntity
  8
1
  6
Continuous
 62
     7
100
AcDbCircle
 10
112.6866020579184
 20
545.4257553394376
 30
0.0
 40
3.09147748714985
100
AcDbArc
 50
102.8263047260434
 51
108.0366963768774
  0
ARC
  5
27B
330
4F
100
AcDbEntity
  8
1
  6
Continuous
 62
     7
100
AcDbCircle
 10
112.7168165423391
 20
545.3329669715594
 30
0.0
 40
3.189061278233835
100
AcDbArc
 50
108.036696376877
 51
109.5921587599299
  0
ARC
  5
27C
330
4F
100
AcDbEntity
  8
1
  6
Continuous
 62
     7
100
AcDbCircle
 10
112.2805388284304
 20
546.5587079346954
 30
0.0
 40
1.887992812562928
100
AcDbArc
 50
109.5921587599297
 51
110.1688600112871
  0
ARC
  5
27D
330
4F
100
AcDbEntity
  8
1
  6
Continuous
 62
     7
100
AcDbCircle
 10
112.0277351755275
 20
547.2469622139128
 30
0.0
 40
1.154778219294307
100
AcDbArc
 50
110.1688600112909
 51
111.1100869094769
  0
ARC
  5
27E
330
4F
100
AcDbEntity
  8
1
  6
Continuous
 62
     7
100
AcDbCircle
 10
111.8986052177516
 20
547.5814349870658
 30
0.0
 40
0.7962442850903432
100
AcDbArc
 50
111.110086909462
 51
112.474604723708
  0
ARC
  5
27F
330
4F
100
AcDbEntity
  8
1
  6
Continuous
 62
     7
100
AcDbCircle
 10
111.8360386277999
 20
547.7326736622163
 30
0.0
 40
0.6325747551237145
100
AcDbArc
 50
112.4746047237138
 51
114.1945521964189
  0
ARC
  5
280
330
4F
100
AcDbEntity
  8
1
  6
Continuous
 62
     7
100
AcDbCircle
 10
111.7875727302942
 20
547.8405426047038
 30
0.0
 40
0.5143180344924847
100
AcDbArc
 50
114.194552196426
 51
116.3177970364473
  0
ARC
  5
281
330
4F
100
AcDbEntity
  8
1
  6
Continuous
 62
     7
100
AcDbCircle
 10
111.7589479929792
 20
547.8984150961246
 30
0.0
 40
0.4497533316774897
100
AcDbArc
 50
116.3177970364471
 51
118.7620017978806
  0
ARC
  5
282
330
4F
100
AcDbEntity
  8
1
  6
Continuous
 62
     7
100
AcDbCircle
 10
111.7337369213183
 20
547.9443459935733
 30
0.0
 40
0.3973582414997415
100
AcDbArc
 50
118.7620017978908
 51
121.5570454540419
  0
ARC
  5
283
330
4F
100
AcDbEntity
  8
1
  6
Continuous
 62
     7
100
AcDbCircle
 10
111.7196022545288
 20
547.9673602087865
 30
0.0
 40
0.3703500407612513
100
AcDbArc
 50
121.557045454022
 51
124.5999986182307
  0
ARC
  5
284
330
4F
100
AcDbEntity
  8
1
  6
Continuous
 62
     7
100
AcDbCircle
 10
111.70633069289
 20
547.9865984335816
 30
0.0
 40
0.3469781850027965
100
AcDbArc
 50
124.5999986182289
 51
131.3080918344921
  0
ARC
  5
285
330
4F
100
AcDbEntity
  8
1
  6
Continuous
 62
     7
100
AcDbCircle
 10
111.6872525904503
 20
548.0083083974496
 30
0.0
 40
0.3180766880891603
100
AcDbArc
 50
131.3080918344872
 51
133.4543889562943
  0
ARC
  5
286
330
4F
100
AcDbEntity
  8
1
  6
Continuous
 62
     7
100
AcDbCircle
 10
111.6639151613269
 20
548.0329401574784
 30
0.0
 40
0.2841450037777588
100
AcDbArc
 50
133.4543889563001
 51
135.8730703596267
  0
ARC
  5
287
330
4F
100
AcDbEntity
  8
1
  6
Continuous
 62
     7
100
AcDbCircle
 10
111.6312828715861
 20
548.0645928006487
 30
0.0
 40
0.2386834139091007
100
AcDbArc
 50
135.8730703596334
 51
138.7430535152845
  0
ARC
  5
288
330
4F
100
AcDbEntity
  8
1
  6
Continuous
 62
     7
100
AcDbCircle
 10
111.6053750844001
 20
548.0873188775763
 30
0.0
 40
0.2042205642096727
100
AcDbArc
 50
138.7430535152721
 51
142.0562396422968
  0
ARC
  5
289
330
4F
100
AcDbEntity
  8
1
  6
Continuous
 62
     7
100
AcDbCircle
 10
115.1913494445156
 20
517.4619061412699
 30
0.0
 40
3.772215609951288
100
AcDbArc
 50
-178.7821965403901
 51
-2.42867502651038
  0
ARC
  5
28A
330
4F
100
AcDbEntity
  8
1
  6
Continuous
 62
     7
100
AcDbCircle
 10
115.1913494445156
 20
340.3684599758577
 30
0.0
 40
3.772215609951321
100
AcDbArc
 50
-0.17422578067525
 51
-178.7821965403866
  0
SPLINE
  5
28B
330
4F
100
AcDbEntity
  8
1
  6
Continuous
 62
     7
100
AcDbSpline
210
0.0
220
0.0
230
1.0
 70
     8
 71
     3
 72
    17
 73
    13
 74
    11
 42
0.0000000001
 43
0.0000000001
 44
0.00000001
 40
0.0
 40
0.0
 40
0.0
 40
0.0
 40
0.1204198770614177
 40
0.2457744593694296
 40
0.3658804016789481
 40
0.4837855374459611
 40
0.8235592339804723
 40
1.165760766871264
 40
1.577729412245801
 40
1.988797274085289
 40
2.932548565602929
 40
3.876430766373508
 40
3.876430766373508
 40
3.876430766373508
 40
3.876430766373508
 10
111.4199858732319
 20
318.6761267008889
 30
0.0
 10
111.4383564405638
 20
318.6390115643808
 30
0.0
 10
111.4758503856207
 20
318.5632603442973
 30
0.0
 10
111.5934359670952
 20
318.5126368623122
 30
0.0
 10
111.7050995310205
 20
318.4695787916446
 30
0.0
 10
111.890862050861
 20
318.4161342677667
 30
0.0
 10
112.1506202772097
 20
318.356696534771
 30
0.0
 10
112.5106521735765
 20
318.2972073926173
 30
0.0
 10
112.8960797256797
 20
318.2487768923602
 30
0.0
 10
113.4825875835832
 20
318.1947343388204
 30
0.0
 10
114.2478792654533
 20
318.1500325341693
 30
0.0
 10
114.8771230381674
 20
318.1437946974078
 30
0.0
 10
115.191766743864
 20
318.140675562727
 30
0.0
 11
111.4199858732319
 21
318.6761267008889
 31
0.0
 11
111.4850582958635
 21
318.5748028310243
 31
0.0
 11
111.5942218074925
 21
318.5131822254248
 31
0.0
 11
111.7066367623413
 21
318.4708937482189
 31
0.0
 11
111.819627855369
 21
318.4372094204587
 31
0.0
 11
112.1505711576783
 21
318.3602503695725
 31
0.0
 11
112.4879482782464
 21
318.3029915918177
 31
0.0
 11
112.89662333765
 21
318.2510025488068
 31
0.0
 11
113.305876308548
 21
318.2124176703119
 31
0.0
 11
114.2480372144456
 21
318.1576515526885
 31
0.0
 11
115.191766743864
 21
318.140675562727
 31
0.0
  0
SPLINE
  5
28C
330
4F
100
AcDbEntity
  8
1
  6
Continuous
 62
     7
100
AcDbSpline
210
0.0
220
0.0
230
1.0
 70
     8
 71
     3
 72
    17
 73
    13
 74
    11
 42
0.0000000001
 43
0.0000000001
 44
0.00000001
 40
0.0
 40
0.0
 40
0.0
 40
0.0
 40
0.1204198770614791
 40
0.2457744593695529
 40
0.3658804016790846
 40
0.4837855374460841
 40
0.8235592339806506
 40
1.165760766871401
 40
1.577729412245895
 40
1.988797274085439
 40
2.93254856560308
 40
3.876430766373559
 40
3.876430766373559
 40
3.876430766373559
 40
3.876430766373559
 10
118.9635476144962
 20
318.6761267008889
 30
0.0
 10
118.9451770471643
 20
318.6390115643808
 30
0.0
 10
118.9076831021073
 20
318.5632603442973
 30
0.0
 10
118.7900975206327
 20
318.5126368623121
 30
0.0
 10
118.6784339567075
 20
318.4695787916446
 30
0.0
 10
118.4926714368669
 20
318.4161342677668
 30
0.0
 10
118.2329132105182
 20
318.356696534771
 30
0.0
 10
117.8728813141514
 20
318.2972073926173
 30
0.0
 10
117.4874537620483
 20
318.2487768923603
 30
0.0
 10
116.9009459041446
 20
318.1947343388205
 30
0.0
 10
116.1356542222747
 20
318.1500325341693
 30
0.0
 10
115.5064104495606
 20
318.1437946974078
 30
0.0
 10
115.191766743864
 20
318.140675562727
 30
0.0
 11
118.9635476144962
 21
318.6761267008889
 31
0.0
 11
118.8984751918645
 21
318.5748028310243
 31
0.0
 11
118.7893116802354
 21
318.5131822254248
 31
0.0
 11
118.6768967253866
 21
318.4708937482189
 31
0.0
 11
118.563905632359
 21
318.4372094204587
 31
0.0
 11
118.2329623300496
 21
318.3602503695725
 31
0.0
 11
117.8955852094815
 21
318.3029915918177
 31
0.0
 11
117.4869101500779
 21
318.2510025488068
 31
0.0
 11
117.0776571791799
 21
318.2124176703119
 31
0.0
 11
116.1354962732823
 21
318.1576515526885
 31
0.0
 11
115.191766743864
 21
318.140675562727
 31
0.0
  0
ARC
  5
28D
330
4F
100
AcDbEntity
  8
1
  6
Continuous
 62
     7
100
AcDbCircle
 10
379.243198443007
 20
323.140675562727
 30
0.0
 40
0.9999999999999596
100
AcDbArc
 50
2.0454084888863
 51
90.0
  0
ARC
  5
28E
330
4F
100
AcDbEntity
  8
1
  6
Continuous
 62
     7
100
AcDbCircle
 10
297.2081217091587
 20
320.640675562727
 30
0.0
 40
0.5
100
AcDbArc
 50
90.0
 51
180.0
  0
ARC
  5
28F
330
4F
100
AcDbEntity
  8
1
  6
Continuous
 62
     7
100
AcDbCircle
 10
379.6717698715785
 20
311.140675562727
 30
0.0
 40
1.0
100
AcDbArc
 50
-90.0
 51
2.04540848888583
  0
ARC
  5
290
330
4F
100
AcDbEntity
  8
1
  6
Continuous
 62
     7
100
AcDbCircle
 10
353.8484286445524
 20
314.140675562727
 30
0.0
 40
3.999999999999956
100
AcDbArc
 50
-2.04540848888787
 51
90.0
  0
ARC
  5
291
330
4F
100
AcDbEntity
  8
1
  6
Continuous
 62
     7
100
AcDbCircle
 10
358.7444735467387
 20
311.140675562727
 30
0.0
 40
0.9999999999999027
100
AcDbArc
 50
177.9545915111136
 51
-90.0
  0
ARC
  5
292
330
4F
100
AcDbEntity
  8
1
  6
Continuous
 62
     7
100
AcDbCircle
 10
125.2268434777125
 20
323.140675562727
 30
0.0
 40
0.9999999999999454
100
AcDbArc
 50
2.04540848888633
 51
90.0
  0
ARC
  5
293
330
4F
100
AcDbEntity
  8
1
  6
Continuous
 62
     7
100
AcDbCircle
 10
125.6554149062839
 20
311.140675562727
 30
0.0
 40
1.0
100
AcDbArc
 50
-90.0
 51
2.04540848888609
  0
ARC
  5
294
330
4F
100
AcDbEntity
  8
1
  6
Continuous
 62
     7
100
AcDbCircle
 10
104.7281185814443
 20
311.140675562727
 30
0.0
 40
1.000000000000158
100
AcDbArc
 50
177.9545915111141
 51
-90.0
  0
ARC
  5
295
330
4F
100
AcDbEntity
  8
1
  6
Continuous
 62
     7
100
AcDbCircle
 10
105.1566900100157
 20
323.140675562727
 30
0.0
 40
1.0
100
AcDbArc
 50
90.0
 51
177.9545915111137
  0
ENDBLK
  5
51
330
4F
100
AcDbEntity
  8
0
100
AcDbBlockEnd
  0
BLOCK
  5
56
330
52
100
AcDbEntity
  8
0
100
AcDbBlockBegin
  2
R230F-S
 70
     0
 71
     0
 10
899.9940757529016
 20
59.7577058463358
 30
0.0
  3
R230F-S
  1

  0
INSERT
  5
53
330
52
100
AcDbEntity
  8
1
100
AcDbBlockReference
  2
R230F-S-3
 10
1009.757714161088
 20
98.08737606051159
 30
0.0
  0
INSERT
  5
54
330
52
100
AcDbEntity
  8
1
100
AcDbBlockReference
  2
42-1
 10
936.0542987718426
 20
114.9521570517792
 30
0.0
  0
INSERT
  5
55
330
52
100
AcDbEntity
  8
1
100
AcDbBlockReference
  2
R230F-S-1
 10
882.7577141610889
 20
71.08737606051159
 30
0.0
  0
LINE
  5
296
330
52
100
AcDbEntity
  8
1
  6
DASH_CENTER
 62
     2
100
AcDbLine
 10
369.2081217091587
 20
324.140675562727
 30
0.0
 11
369.2081217091587
 21
332.3278253584559
 31
0.0
  0
LINE
  5
297
330
52
100
AcDbEntity
  8
1
  6
DASH_CENTER
 62
     2
100
AcDbLine
 10
115.191766743864
 20
648.3864949937533
 30
0.0
 11
115.191766743864
 21
617.2727540303857
 31
0.0
  0
ENDBLK
  5
57
330
52
100
AcDbEntity
  8
0
100
AcDbBlockEnd
  0
BLOCK
  5
5C
330
58
100
AcDbEntity
  8
0
100
AcDbBlockBegin
  2
R130A
 70
     0
 71
     0
 10
280.2081078792555
 20
275.6406755627269
 30
0.0
  3
R130A
  1

  0
INSERT
  5
59
330
58
100
AcDbEntity
  8
1
100
AcDbBlockReference
  2
36-1A-13
 10
545.4108488623657
 20
403.6173217486062
 30
0.0
  0
INSERT
  5
5A
330
58
100
AcDbEntity
  8
0
100
AcDbBlockReference
  2
37-1-13
 10
616.9364788059236
 20
-108.4725105843176
 30
0.0
  0
INSERT
  5
5B
330
58
100
AcDbEntity
  8
0
100
AcDbBlockReference
  2
R230F-S
 10
899.9940757529016
 20
59.7577058463358
 30
0.0
  0
LINE
  5
298
330
58
100
AcDbEntity
  8
1
  6
DASH_CENTER
 62
     2
100
AcDbLine
 10
369.2081217091587
 20
306.8150060102586
 30
0.0
 11
369.2081217091587
 21
324.140675562727
 31
0.0
  0
ENDBLK
  5
5D
330
58
100
AcDbEntity
  8
0
100
AcDbBlockEnd
  0
BLOCK
  5
5F
330
5E
100
AcDbEntity
  8
0
100
AcDbBlockBegin
  2
_J__A4
 70
     0
 71
     0
 10
0.0
 20
0.0
 30
0.0
  3
_J__A4
  1

  0
POINT
  5
299
330
5E
100
AcDbEntity
  8
1
 62
     4
100
AcDbPoint
 10
93.75
 20
17.0
 30
0.0
  0
POINT
  5
29A
330
5E
100
AcDbEntity
  8
1
 62
     4
100
AcDbPoint
 10
85.25
 20
17.0
 30
0.0
  0
POINT
  5
29B
330
5E
100
AcDbEntity
  8
1
 62
     4
100
AcDbPoint
 10
106.5
 20
19.00000000000001
 30
0.0
  0
POINT
  5
29C
330
5E
100
AcDbEntity
  8
1
 62
     4
100
AcDbPoint
 10
106.5
 20
12.5
 30
0.0
  0
POINT
  5
29D
330
5E
100
AcDbEntity
  8
1
 62
     4
100
AcDbPoint
 10
112.25
 20
12.5
 30
0.0
  0
POINT
  5
29E
330
5E
100
AcDbEntity
  8
1
 62
     4
100
AcDbPoint
 10
100.75
 20
12.5
 30
0.0
  0
POINT
  5
29F
330
5E
100
AcDbEntity
  8
1
 62
     4
100
AcDbPoint
 10
123.5
 20
19.00000000000001
 30
0.0
  0
POINT
  5
2A0
330
5E
100
AcDbEntity
  8
1
 62
     4
100
AcDbPoint
 10
123.5
 20
12.5
 30
0.0
  0
POINT
  5
2A1
330
5E
100
AcDbEntity
  8
1
 62
     4
100
AcDbPoint
 10
129.25
 20
12.5
 30
0.0
  0
POINT
  5
2A2
330
5E
100
AcDbEntity
  8
1
 62
     4
100
AcDbPoint
 10
117.75
 20
12.5
 30
0.0
  0
POINT
  5
2A3
330
5E
100
AcDbEntity
  8
1
 62
     4
100
AcDbPoint
 10
140.5
 20
19.00000000000001
 30
0.0
  0
POINT
  5
2A4
330
5E
100
AcDbEntity
  8
1
 62
     4
100
AcDbPoint
 10
140.5
 20
12.5
 30
0.0
  0
POINT
  5
2A5
330
5E
100
AcDbEntity
  8
1
 62
     4
100
AcDbPoint
 10
146.25
 20
12.5
 30
0.0
  0
POINT
  5
2A6
330
5E
100
AcDbEntity
  8
1
 62
     4
100
AcDbPoint
 10
134.75
 20
12.5
 30
0.0
  0
POINT
  5
2A7
330
5E
100
AcDbEntity
  8
1
 62
     4
100
AcDbPoint
 10
151.75
 20
12.5
 30
0.0
  0
POINT
  5
2A8
330
5E
100
AcDbEntity
  8
1
 62
     4
100
AcDbPoint
 10
163.25
 20
12.5
 30
0.0
  0
POINT
  5
2A9
330
5E
100
AcDbEntity
  8
1
 62
     4
100
AcDbPoint
 10
157.5
 20
12.5
 30
0.0
  0
POINT
  5
2AA
330
5E
100
AcDbEntity
  8
1
 62
     4
100
AcDbPoint
 10
57.0
 20
14.25
 30
0.0
  0
POINT
  5
2AB
330
5E
100
AcDbEntity
  8
1
 62
     4
100
AcDbPoint
 10
57.0
 20
22.75000000000001
 30
0.0
  0
POINT
  5
2AC
330
5E
100
AcDbEntity
  8
1
 62
     4
100
AcDbPoint
 10
47.5
 20
282.0000000000003
 30
0.0
  0
POINT
  5
2AD
330
5E
100
AcDbEntity
  8
1
 62
     4
100
AcDbPoint
 10
157.5
 20
19.00000000000001
 30
0.0
  0
POINT
  5
2AE
330
5E
100
AcDbEntity
  8
1
 62
     4
100
AcDbPoint
 10
57.0
 20
16.25
 30
0.0
  0
POINT
  5
2AF
330
5E
100
AcDbEntity
  8
1
 62
     4
100
AcDbPoint
 10
57.0
 20
24.75000000000001
 30
0.0
  0
POINT
  5
2B0
330
5E
100
AcDbEntity
  8
1
 62
     4
100
AcDbPoint
 10
57.0
 20
20.75000000000001
 30
0.0
  0
POINT
  5
2B1
330
5E
100
AcDbEntity
  8
1
 62
     4
100
AcDbPoint
 10
57.0
 20
12.25
 30
0.0
  0
POINT
  5
2B2
330
5E
100
AcDbEntity
  8
1
 62
     4
100
AcDbPoint
 10
34.0
 20
34.00000000000001
 30
0.0
  0
LINE
  5
2B3
330
5E
100
AcDbEntity
  8
1
  6
Continuous
 62
     7
100
AcDbLine
 10
105.0
 20
10.0
 30
0.0
 11
200.0
 21
10.0
 31
0.0
  0
LINE
  5
2B4
330
5E
100
AcDbEntity
  8
1
  6
Continuous
 62
     2
100
AcDbLine
 10
105.0
 20
10.0
 30
0.0
 11
105.0
 21
5.0
 31
0.0
  0
LINE
  5
2B5
330
5E
100
AcDbEntity
  8
1
  6
Continuous
 62
     7
100
AcDbLine
 10
200.0
 20
148.5
 30
0.0
 11
200.0
 21
287.0000000000003
 31
0.0
  0
LINE
  5
2B6
330
5E
100
AcDbEntity
  8
1
  6
Continuous
 62
     2
100
AcDbLine
 10
200.0
 20
148.5
 30
0.0
 11
205.0
 21
148.5
 31
0.0
  0
LINE
  5
2B7
330
5E
100
AcDbEntity
  8
1
  6
Continuous
 62
     7
100
AcDbLine
 10
25.0
 20
148.5
 30
0.0
 11
25.0
 21
287.0000000000003
 31
0.0
  0
LINE
  5
2B8
330
5E
100
AcDbEntity
  8
1
  6
Continuous
 62
     2
100
AcDbLine
 10
25.0
 20
148.5
 30
0.0
 11
20.0
 21
148.5
 31
0.0
  0
LINE
  5
2B9
330
5E
100
AcDbEntity
  8
1
  6
Continuous
 62
     7
100
AcDbLine
 10
105.0
 20
287.0000000000003
 30
0.0
 11
25.0
 21
287.0000000000003
 31
0.0
  0
LINE
  5
2BA
330
5E
100
AcDbEntity
  8
1
  6
Continuous
 62
     2
100
AcDbLine
 10
105.0
 20
287.0000000000003
 30
0.0
 11
105.0
 21
292.0000000000003
 31
0.0
  0
LINE
  5
2BB
330
5E
100
AcDbEntity
  8
1
  6
Continuous
 62
     2
100
AcDbLine
 10
166.0
 20
20.00000000000001
 30
0.0
 11
200.0
 21
20.00000000000001
 31
0.0
  0
LINE
  5
2BC
330
5E
100
AcDbEntity
  8
1
  6
Continuous
 62
     2
100
AcDbLine
 10
98.0
 20
27.00000000000001
 30
0.0
 11
98.0
 21
9.99999999999999
 31
0.0
  0
LINE
  5
2BD
330
5E
100
AcDbEntity
  8
1
  6
Continuous
 62
     2
100
AcDbLine
 10
115.0
 20
27.00000000000001
 30
0.0
 11
115.0
 21
9.99999999999999
 31
0.0
  0
LINE
  5
2BE
330
5E
100
AcDbEntity
  8
1
  6
Continuous
 62
     2
100
AcDbLine
 10
149.0
 20
27.00000000000001
 30
0.0
 11
149.0
 21
10.0
 31
0.0
  0
LINE
  5
2BF
330
5E
100
AcDbEntity
  8
1
  6
Continuous
 62
     2
100
AcDbLine
 10
132.0
 20
27.00000000000001
 30
0.0
 11
132.0
 21
9.99999999999999
 31
0.0
  0
LINE
  5
2C0
330
5E
100
AcDbEntity
  8
1
  6
Continuous
 62
     2
100
AcDbLine
 10
166.0
 20
27.00000000000001
 30
0.0
 11
166.0
 21
10.0
 31
0.0
  0
LINE
  5
2C1
330
5E
100
AcDbEntity
  8
1
  6
Continuous
 62
     2
100
AcDbLine
 10
55.0
 20
277.0000000000003
 30
0.0
 11
25.0
 21
277.0000000000003
 31
0.0
  0
LINE
  5
2C2
330
5E
100
AcDbEntity
  8
1
  6
Continuous
 62
     7
100
AcDbLine
 10
25.0
 20
10.0
 30
0.0
 11
25.0
 21
148.5
 31
0.0
  0
LINE
  5
2C3
330
5E
100
AcDbEntity
  8
1
  6
Continuous
 62
     2
100
AcDbLine
 10
40.0
 20
287.0000000000003
 30
0.0
 11
40.0
 21
277.0000000000003
 31
0.0
  0
LINE
  5
2C4
330
5E
100
AcDbEntity
  8
1
  6
Continuous
 62
     2
100
AcDbLine
 10
55.0
 20
287.0000000000003
 30
0.0
 11
55.0
 21
277.0000000000003
 31
0.0
  0
LINE
  5
2C5
330
5E
100
AcDbEntity
  8
1
  6
Continuous
 62
     2
100
AcDbLine
 10
33.0
 20
41.00000000000001
 30
0.0
 11
33.0
 21
27.0
 31
0.0
  0
LINE
  5
2C6
330
5E
100
AcDbEntity
  8
1
  6
Continuous
 62
     7
100
AcDbLine
 10
200.0
 20
27.00000000000001
 30
0.0
 11
25.0
 21
27.00000000000001
 31
0.0
  0
LINE
  5
2C7
330
5E
100
AcDbEntity
  8
1
  6
Continuous
 62
     7
100
AcDbLine
 10
25.0
 20
41.0
 30
0.0
 11
200.0
 21
41.0
 31
0.0
  0
LINE
  5
2C8
330
5E
100
AcDbEntity
  8
1
  6
PHANTOM
 62
     4
100
AcDbLine
 10
0.0
 20
0.0
 30
0.0
 11
210.0
 21
0.0
 31
0.0
  0
LINE
  5
2C9
330
5E
100
AcDbEntity
  8
1
  6
PHANTOM
 62
     4
100
AcDbLine
 10
210.0
 20
0.0
 30
0.0
 11
210.0
 21
297.0
 31
0.0
  0
LINE
  5
2CA
330
5E
100
AcDbEntity
  8
1
  6
PHANTOM
 62
     4
100
AcDbLine
 10
210.0
 20
297.0
 30
0.0
 11
0.0
 21
297.0
 31
0.0
  0
LINE
  5
2CB
330
5E
100
AcDbEntity
  8
1
  6
PHANTOM
 62
     4
100
AcDbLine
 10
0.0
 20
297.0
 30
0.0
 11
0.0
 21
0.0
 31
0.0
  0
LINE
  5
2CC
330
5E
100
AcDbEntity
  8
1
  6
Continuous
 62
     7
100
AcDbLine
 10
25.0
 20
10.0
 30
0.0
 11
105.0
 21
10.0
 31
0.0
  0
LINE
  5
2CD
330
5E
100
AcDbEntity
  8
1
  6
Continuous
 62
     7
100
AcDbLine
 10
200.0
 20
10.0
 30
0.0
 11
200.0
 21
148.5
 31
0.0
  0
LINE
  5
2CE
330
5E
100
AcDbEntity
  8
1
  6
Continuous
 62
     7
100
AcDbLine
 10
200.0
 20
287.0000000000003
 30
0.0
 11
105.0
 21
287.0000000000003
 31
0.0
  0
LINE
  5
2CF
330
5E
100
AcDbEntity
  8
1
  6
Continuous
 62
     2
100
AcDbLine
 10
25.0
 20
18.50000000000001
 30
0.0
 11
81.0
 21
18.50000000000001
 31
0.0
  0
LINE
  5
2D0
330
5E
100
AcDbEntity
  8
1
  6
Continuous
 62
     2
100
AcDbLine
 10
33.0
 20
27.0
 30
0.0
 11
33.0
 21
10.0
 31
0.0
  0
LINE
  5
2D1
330
5E
100
AcDbEntity
  8
1
  6
Continuous
 62
     7
100
AcDbLine
 10
191.0
 20
24.70000000000001
 30
0.0
 11
191.0
 21
22.30000000000001
 31
0.0
  0
LINE
  5
2D2
330
5E
100
AcDbEntity
  8
1
  6
Continuous
 62
     7
100
AcDbLine
 10
191.0
 20
24.70000000000001
 30
0.0
 11
196.0
 21
25.50000000000001
 31
0.0
  0
LINE
  5
2D3
330
5E
100
AcDbEntity
  8
1
  6
Continuous
 62
     7
100
AcDbLine
 10
196.0
 20
25.50000000000001
 30
0.0
 11
196.0
 21
21.50000000000001
 31
0.0
  0
LINE
  5
2D4
330
5E
100
AcDbEntity
  8
1
  6
Continuous
 62
     7
100
AcDbLine
 10
196.0
 20
21.50000000000001
 30
0.0
 11
191.0
 21
22.30000000000001
 31
0.0
  0
LINE
  5
2D5
330
5E
100
AcDbEntity
  8
1
  6
DOT_CENTER
 62
     2
100
AcDbLine
 10
184.0
 20
23.50000000000001
 30
0.0
 11
197.0
 21
23.50000000000001
 31
0.0
  0
LINE
  5
2D6
330
5E
100
AcDbEntity
  8
1
  6
DOT_CENTER
 62
     2
100
AcDbLine
 10
187.0
 20
26.50000000000001
 30
0.0
 11
187.0
 21
20.50000000000001
 31
0.0
  0
LINE
  5
2D7
330
5E
100
AcDbEntity
  8
1
  6
Continuous
 62
     2
100
AcDbLine
 10
81.0
 20
27.00000000000001
 30
0.0
 11
81.0
 21
10.0
 31
0.0
  0
CIRCLE
  5
2D8
330
5E
100
AcDbEntity
  8
1
  6
Continuous
 62
     7
100
AcDbCircle
 10
103.5
 20
12.5
 30
0.0
 40
0.2999999999999972
  0
CIRCLE
  5
2D9
330
5E
100
AcDbEntity
  8
1
  6
Continuous
 62
     7
100
AcDbCircle
 10
109.5
 20
12.5
 30
0.0
 40
0.2999999999999972
  0
CIRCLE
  5
2DA
330
5E
100
AcDbEntity
  8
1
  6
Continuous
 62
     7
100
AcDbCircle
 10
120.5
 20
12.5
 30
0.0
 40
0.2999999999999972
  0
CIRCLE
  5
2DB
330
5E
100
AcDbEntity
  8
1
  6
Continuous
 62
     7
100
AcDbCircle
 10
126.5
 20
12.5
 30
0.0
 40
0.2999999999999972
  0
CIRCLE
  5
2DC
330
5E
100
AcDbEntity
  8
1
  6
Continuous
 62
     7
100
AcDbCircle
 10
137.5
 20
12.5
 30
0.0
 40
0.3000000000000114
  0
CIRCLE
  5
2DD
330
5E
100
AcDbEntity
  8
1
  6
Continuous
 62
     7
100
AcDbCircle
 10
143.5
 20
12.5
 30
0.0
 40
0.3000000000000114
  0
CIRCLE
  5
2DE
330
5E
100
AcDbEntity
  8
1
  6
Continuous
 62
     7
100
AcDbCircle
 10
160.5
 20
12.5
 30
0.0
 40
0.3000000000000114
  0
CIRCLE
  5
2DF
330
5E
100
AcDbEntity
  8
1
  6
Continuous
 62
     7
100
AcDbCircle
 10
154.5
 20
12.5
 30
0.0
 40
0.3000000000000114
  0
CIRCLE
  5
2E0
330
5E
100
AcDbEntity
  8
1
  6
Continuous
 62
     7
100
AcDbCircle
 10
187.0
 20
23.50000000000001
 30
0.0
 40
1.200000000000102
  0
CIRCLE
  5
2E1
330
5E
100
AcDbEntity
  8
1
  6
Continuous
 62
     7
100
AcDbCircle
 10
187.0
 20
23.50000000000001
 30
0.0
 40
2.0
  0
CIRCLE
  5
2E2
330
5E
100
AcDbEntity
  8
1
  6
DOT_CENTER
 62
     7
100
AcDbCircle
 10
89.5
 20
16.0
 30
0.0
 40
0.1000000000000227
  0
CIRCLE
  5
2E3
330
5E
100
AcDbEntity
  8
1
  6
DOT_CENTER
 62
     7
100
AcDbCircle
 10
89.5
 20
18.0
 30
0.0
 40
0.1000000000000227
  0
MTEXT
  5
2E5
330
5E
100
AcDbEntity
  8
1
 62
     7
100
AcDbMText
 10
188.5
 20
15.0
 30
0.0
 40
3.0
 41
0.0
 71
     5
 72
     1
  1
三栄水栓製作所
  7
CONVERTER_1
 73
     1
 44
1.32052821128451
  0
MTEXT
  5
2E6
330
5E
100
AcDbEntity
  8
1
 62
     7
100
AcDbMText
 10
171.5
 20
15.0
 30
0.0
 40
2.5
 41
0.0
 71
     5
 72
     1
  1
株式会社
  7
CONVERTER_1
 73
     1
 44
1.32052821128451
  0
MTEXT
  5
2E7
330
5E
100
AcDbEntity
  8
1
 62
     2
100
AcDbMText
 10
32.5
 20
282.0000000000003
 30
0.0
 40
5.0
 41
0.0
 71
     5
 72
     1
  1
図番
  7
CONVERTER_1
 73
     1
 44
0.60024009603842
  0
MTEXT
  5
2E8
330
5E
100
AcDbEntity
  8
1
 62
     2
100
AcDbMText
 10
29.0
 20
34.00000000000001
 30
0.0
 40
3.5
 41
0.0
 71
     5
 72
     1
  1
備考
  7
CONVERTER_1
 73
     1
 44
0.60024009603842
  0
MTEXT
  5
2E9
330
5E
100
AcDbEntity
  8
1
 62
     2
100
AcDbMText
 10
29.0
 20
22.75
 30
0.0
 40
3.5
 41
0.0
 71
     5
 72
     1
  1
品名
  7
CONVERTER_1
 73
     1
 44
0.96038415366146
  0
MTEXT
  5
2EA
330
5E
100
AcDbEntity
  8
1
 62
     2
100
AcDbMText
 10
29.0
 20
14.25
 30
0.0
 40
3.5
 41
0.0
 71
     5
 72
     1
  1
品番
  7
CONVERTER_1
 73
     1
 44
0.96038415366146
  0
MTEXT
  5
2EB
330
5E
100
AcDbEntity
  8
1
 62
     2
100
AcDbMText
 10
101.5
 20
25.00000000000001
 30
0.0
 40
3.0
 41
0.0
 71
     5
 72
     1
  1
承認
  7
CONVERTER_1
 73
     1
 44
0.78031212484994
  0
MTEXT
  5
2EC
330
5E
100
AcDbEntity
  8
1
 62
     2
100
AcDbMText
 10
175.0
 20
23.50000000000001
 30
0.0
 40
3.5
 41
0.0
 71
     5
 72
     1
  1
第三角法
  7
CONVERTER_1
 73
     1
 44
0.7202881152461
  0
MTEXT
  5
2ED
330
5E
100
AcDbEntity
  8
1
 62
     2
100
AcDbMText
 10
118.5
 20
25.00000000000001
 30
0.0
 40
3.0
 41
0.0
 71
     5
 72
     1
  1
検図
  7
CONVERTER_1
 73
     1
 44
0.78031212484994
  0
MTEXT
  5
2EE
330
5E
100
AcDbEntity
  8
1
 62
     2
100
AcDbMText
 10
152.5
 20
25.00000000000001
 30
0.0
 40
3.0
 41
0.0
 71
     5
 72
     1
  1
設計
  7
CONVERTER_1
 73
     1
 44
0.78031212484994
  0
MTEXT
  5
2EF
330
5E
100
AcDbEntity
  8
1
 62
     2
100
AcDbMText
 10
135.5
 20
25.00000000000001
 30
0.0
 40
3.0
 41
0.0
 71
     5
 72
     1
  1
製図
  7
CONVERTER_1
 73
     1
 44
0.78031212484994
  0
MTEXT
  5
2F0
330
5E
100
AcDbEntity
  8
1
 62
     2
100
AcDbMText
 10
89.5
 20
24.00000000000001
 30
0.0
 40
3.5
 41
0.0
 71
     5
 72
     1
  1
尺度
  7
CONVERTER_1
 73
     1
 44
0.7202881152461
  0
MTEXT
  5
2F1
330
5E
100
AcDbEntity
  8
1
 62
   250
100
AcDbMText
 10
25.0
 20
5.0
 30
0.0
 40
3.5
 41
0.0
 71
     4
 72
     1
  1
備考欄の文字列 原点位置=4
  7
CONVERTER_1
 73
     1
 44
0.7202881152461
  0
ENDBLK
  5
60
330
5E
100
AcDbEntity
  8
0
100
AcDbBlockEnd
  0
BLOCK
  5
30E
330
307
100
AcDbEntity
  8
0
100
AcDbBlockBegin
  2
*D013
 70
     1
 71
     0
 10
0.0
 20
0.0
 30
0.0
  3
*D013
  1

  0
LINE
  5
308
330
307
100
AcDbEntity
  8
1
  6
Continuous
 62
     2
100
AcDbLine
 10
414.2081217091586
 20
148.140675562727
 30
0.0
 11
428.2081217091586
 21
148.140675562727
 31
0.0
  0
LINE
  5
309
330
307
100
AcDbEntity
  8
1
  6
Continuous
 62
     2
100
AcDbLine
 10
428.2081217091586
 20
148.140675562727
 30
0.0
 11
445.7081217091586
 21
148.140675562727
 31
0.0
  0
LINE
  5
30A
330
307
100
AcDbEntity
  8
1
  6
Continuous
 62
     2
100
AcDbLine
 10
428.2081217091587
 20
258.1406755627269
 30
0.0
 11
428.2081217091587
 21
145.640675562727
 31
0.0
  0
LINE
  5
30B
330
307
100
AcDbEntity
  8
1
  6
Continuous
 62
     2
100
AcDbLine
 10
414.2081217091587
 20
241.161339098
 30
0.0
 11
414.2081217091587
 21
145.640675562727
 31
0.0
  0
SOLID
  5
30C
330
307
100
AcDbEntity
  8
1
 62
     2
100
AcDbTrace
 10
436.9581217091586
 20
149.2926349166167
 30
0.0
 11
436.9581217091586
 21
146.9887162088373
 31
0.0
 12
428.2081217091586
 22
148.140675562727
 32
0.0
 13
428.2081217091586
 23
148.140675562727
 33
0.0
  0
MTEXT
  5
30D
330
307
100
AcDbEntity
  8
1
 62
     7
100
AcDbMText
 10
433.491624392494
 20
150.640675562727
 30
0.0
 40
8.75
 41
0.0
 71
     7
 72
     1
  1
14
  7
CONVERTER_2
 11
0.9999999999970621
 21
2.424068405545307E-6
 31
0.0
 73
     1
 44
0.60024009603842
  0
ENDBLK
  5
30F
330
307
100
AcDbEntity
  8
0
100
AcDbBlockEnd
  0
BLOCK
  5
311
330
310
100
AcDbEntity
  8
0
100
AcDbBlockBegin
  2
_None
 70
     0
 71
     0
 10
0.0
 20
0.0
 30
0.0
  3
_None
  1

  0
ENDBLK
  5
312
330
310
100
AcDbEntity
  8
0
100
AcDbBlockEnd
  0
BLOCK
  5
31C
330
315
100
AcDbEntity
  8
0
100
AcDbBlockBegin
  2
*D115
 70
     1
 71
     0
 10
0.0
 20
0.0
 30
0.0
  3
*D115
  1

  0
LINE
  5
316
330
315
100
AcDbEntity
  8
1
  6
Continuous
 62
     2
100
AcDbLine
 10
453.2081217091587
 20
244.6406755627269
 30
0.0
 11
453.2081217091587
 21
290.6406755627269
 31
0.0
  0
LINE
  5
317
330
315
100
AcDbEntity
  8
1
  6
Continuous
 62
     2
100
AcDbLine
 10
414.2081217091586
 20
290.640675562727
 30
0.0
 11
455.7081217091587
 21
290.640675562727
 31
0.0
  0
LINE
  5
318
330
315
100
AcDbEntity
  8
1
  6
Continuous
 62
     2
100
AcDbLine
 10
414.2081217091587
 20
244.6406755627269
 30
0.0
 11
455.7081217091587
 21
244.6406755627269
 31
0.0
  0
SOLID
  5
319
330
315
100
AcDbEntity
  8
1
 62
     2
100
AcDbTrace
 10
452.056162355269
 20
253.3906755627269
 30
0.0
 11
454.3600810630484
 21
253.3906755627269
 31
0.0
 12
453.2081217091587
 22
244.6406755627269
 32
0.0
 13
453.2081217091587
 23
244.6406755627269
 33
0.0
  0
SOLID
  5
31A
330
315
100
AcDbEntity
  8
1
 62
     2
100
AcDbTrace
 10
454.3600810630484
 20
281.8906755627269
 30
0.0
 11
452.056162355269
 21
281.8906755627269
 31
0.0
 12
453.2081217091587
 22
290.6406755627269
 32
0.0
 13
453.2081217091587
 23
290.6406755627269
 33
0.0
  0
MTEXT
  5
31B
330
315
100
AcDbEntity
  8
1
 62
     7
100
AcDbMText
 10
450.7081217091587
 20
251.978175562727
 30
0.0
 40
8.75
 41
0.0
 71
     7
 72
     1
  1
\C7;{\Fgdt;n}\C7;46
  7
CONVERTER_2
 11
0.0
 21
1.0
 31
0.0
 73
     1
 44
0.60024009603842
  0
ENDBLK
  5
31D
330
315
100
AcDbEntity
  8
0
100
AcDbBlockEnd
  0
BLOCK
  5
327
330
320
100
AcDbEntity
  8
0
100
AcDbBlockBegin
  2
*D216
 70
     1
 71
     0
 10
0.0
 20
0.0
 30
0.0
  3
*D216
  1

  0
LINE
  5
321
330
320
100
AcDbEntity
  8
0
  6
Continuous
 62
     2
100
AcDbLine
 10
473.2081217091587
 20
363.2101470071401
 30
0.0
 11
473.2081217091587
 21
344.1406755627269
 31
0.0
  0
LINE
  5
322
330
320
100
AcDbEntity
  8
0
  6
Continuous
 62
     2
100
AcDbLine
 10
473.2081217091587
 20
344.1406755627269
 30
0.0
 11
473.2081217091587
 21
327.140675562727
 31
0.0
  0
LINE
  5
323
330
320
100
AcDbEntity
  8
0
  6
Continuous
 62
     2
100
AcDbLine
 10
369.2081217091587
 20
327.140675562727
 30
0.0
 11
475.7081217091587
 21
327.140675562727
 31
0.0
  0
LINE
  5
324
330
320
100
AcDbEntity
  8
0
  6
Continuous
 62
     2
100
AcDbLine
 10
314.6726766419001
 20
344.1406755627269
 30
0.0
 11
475.7081217091587
 21
344.1406755627269
 31
0.0
  0
SOLID
  5
325
330
320
100
AcDbEntity
  8
0
 62
     2
100
AcDbTrace
 10
472.2207279772533
 20
351.6406755627269
 30
0.0
 11
474.1955154410642
 21
351.6406755627269
 31
0.0
 12
473.2081217091587
 22
344.1406755627269
 32
0.0
 13
473.2081217091587
 23
344.1406755627269
 33
0.0
  0
MTEXT
  5
326
330
320
100
AcDbEntity
  8
0
 62
     7
100
AcDbMText
 10
470.7081217091587
 20
352.7101470071401
 30
0.0
 40
8.75
 41
0.0
 71
     7
 72
     1
  1
17
  7
CONVERTER_2
 11
0.0
 21
1.0
 31
0.0
 73
     1
 44
0.60024009603842
  0
ENDBLK
  5
328
330
320
100
AcDbEntity
  8
0
100
AcDbBlockEnd
  0
BLOCK
  5
332
330
32B
100
AcDbEntity
  8
0
100
AcDbBlockBegin
  2
*D317
 70
     1
 71
     0
 10
0.0
 20
0.0
 30
0.0
  3
*D317
  1

  0
LINE
  5
32C
330
32B
100
AcDbEntity
  8
1
  6
Continuous
 62
     2
100
AcDbLine
 10
369.2081217091587
 20
369.1406755627269
 30
0.0
 11
280.2081888898781
 21
369.1406755627269
 31
0.0
  0
LINE
  5
32D
330
32B
100
AcDbEntity
  8
1
  6
Continuous
 62
     2
100
AcDbLine
 10
280.2081888898781
 20
336.1734610320219
 30
0.0
 11
280.2081888898781
 21
371.6406755627269
 31
0.0
  0
LINE
  5
32E
330
32B
100
AcDbEntity
  8
1
  6
Continuous
 62
     2
100
AcDbLine
 10
369.2081217091587
 20
332.3278253584559
 30
0.0
 11
369.2081217091587
 21
371.6406755627269
 31
0.0
  0
SOLID
  5
32F
330
32B
100
AcDbEntity
  8
1
 62
     2
100
AcDbTrace
 10
360.4581217091587
 20
367.9887162088372
 30
0.0
 11
360.4581217091587
 21
370.2926349166166
 31
0.0
 12
369.2081217091587
 22
369.1406755627269
 32
0.0
 13
369.2081217091587
 23
369.1406755627269
 33
0.0
  0
SOLID
  5
330
330
32B
100
AcDbEntity
  8
1
 62
     2
100
AcDbTrace
 10
288.9581888898781
 20
370.2926349166166
 30
0.0
 11
288.9581888898781
 21
367.9887162088372
 31
0.0
 12
280.2081888898781
 22
369.1406755627269
 32
0.0
 13
280.2081888898781
 23
369.1406755627269
 33
0.0
  0
MTEXT
  5
331
330
32B
100
AcDbEntity
  8
1
 62
     7
100
AcDbMText
 10
318.1456552995184
 20
371.6406755627269
 30
0.0
 40
8.75
 41
0.0
 71
     7
 72
     1
  1
89
  7
CONVERTER_2
 11
0.9999999999970621
 21
2.424068405545307E-6
 31
0.0
 73
     1
 44
0.60024009603842
  0
ENDBLK
  5
333
330
32B
100
AcDbEntity
  8
0
100
AcDbBlockEnd
  0
BLOCK
  5
33E
330
336
100
AcDbEntity
  8
0
100
AcDbBlockBegin
  2
*D418
 70
     1
 71
     0
 10
0.0
 20
0.0
 30
0.0
  3
*D418
  1

  0
LINE
  5
337
330
336
100
AcDbEntity
  8
1
  6
Continuous
 62
     2
100
AcDbLine
 10
473.2081217091587
 20
267.6406755627269
 30
0.0
 11
473.2081217091587
 21
327.140675562727
 31
0.0
  0
LINE
  5
338
330
336
100
AcDbEntity
  8
1
  6
Continuous
 62
     2
100
AcDbLine
 10
456.3405101988641
 20
267.6406755627269
 30
0.0
 11
475.7081217091587
 21
267.6406755627269
 31
0.0
  0
LINE
  5
339
330
336
100
AcDbEntity
  8
1
  6
Continuous
 62
     2
100
AcDbLine
 10
431.2459282409117
 20
267.6406755627269
 30
0.0
 11
439.813007781225
 21
267.6406755627269
 31
0.0
  0
LINE
  5
33A
330
336
100
AcDbEntity
  8
1
  6
Continuous
 62
     2
100
AcDbLine
 10
369.2081217091587
 20
327.140675562727
 30
0.0
 11
475.7081217091587
 21
327.140675562727
 31
0.0
  0
SOLID
  5
33B
330
336
100
AcDbEntity
  8
1
 62
     2
100
AcDbTrace
 10
472.056162355269
 20
276.3906755627269
 30
0.0
 11
474.3600810630484
 21
276.3906755627269
 31
0.0
 12
473.2081217091587
 22
267.6406755627269
 32
0.0
 13
473.2081217091587
 23
267.6406755627269
 33
0.0
  0
SOLID
  5
33C
330
336
100
AcDbEntity
  8
1
 62
     2
100
AcDbTrace
 10
474.3600810630484
 20
318.390675562727
 30
0.0
 11
472.056162355269
 21
318.390675562727
 31
0.0
 12
473.2081217091587
 22
327.140675562727
 32
0.0
 13
473.2081217091587
 23
327.140675562727
 33
0.0
  0
MTEXT
  5
33D
330
336
100
AcDbEntity
  8
1
 62
     7
100
AcDbMText
 10
470.7081217091587
 20
273.765675562727
 30
0.0
 40
8.75
 41
0.0
 71
     7
 72
     1
  1
60リフト5
  7
CONVERTER_1
 11
0.0
 21
1.0
 31
0.0
 73
     1
 44
0.60024009603842
  0
ENDBLK
  5
33F
330
336
100
AcDbEntity
  8
0
100
AcDbBlockEnd
  0
BLOCK
  5
34A
330
342
100
AcDbEntity
  8
0
100
AcDbBlockBegin
  2
*D519
 70
     1
 71
     0
 10
0.0
 20
0.0
 30
0.0
  3
*D519
  1

  0
LINE
  5
343
330
342
100
AcDbEntity
  8
1
  6
Continuous
 62
     2
100
AcDbLine
 10
473.2081217091587
 20
173.140675562727
 30
0.0
 11
473.2081217091587
 21
267.640675562727
 31
0.0
  0
LINE
  5
344
330
342
100
AcDbEntity
  8
1
  6
Continuous
 62
     2
100
AcDbLine
 10
431.2459282409117
 20
267.6406755627269
 30
0.0
 11
439.813007781225
 21
267.6406755627269
 31
0.0
  0
LINE
  5
345
330
342
100
AcDbEntity
  8
1
  6
Continuous
 62
     2
100
AcDbLine
 10
457.950792024796
 20
267.6406755627269
 30
0.0
 11
475.7081217091587
 21
267.6406755627269
 31
0.0
  0
LINE
  5
346
330
342
100
AcDbEntity
  8
1
  6
Continuous
 62
     2
100
AcDbLine
 10
171.5927293107341
 20
173.140675562727
 30
0.0
 11
475.7081217091587
 21
173.140675562727
 31
0.0
  0
SOLID
  5
347
330
342
100
AcDbEntity
  8
1
 62
     2
100
AcDbTrace
 10
472.056162355269
 20
181.890675562727
 30
0.0
 11
474.3600810630484
 21
181.890675562727
 31
0.0
 12
473.2081217091587
 22
173.140675562727
 32
0.0
 13
473.2081217091587
 23
173.140675562727
 33
0.0
  0
SOLID
  5
348
330
342
100
AcDbEntity
  8
1
 62
     2
100
AcDbTrace
 10
474.3600810630484
 20
258.890675562727
 30
0.0
 11
472.056162355269
 21
258.890675562727
 31
0.0
 12
473.2081217091587
 22
267.640675562727
 32
0.0
 13
473.2081217091587
 23
267.640675562727
 33
0.0
  0
MTEXT
  5
349
330
342
100
AcDbEntity
  8
1
 62
     7
100
AcDbMText
 10
470.7081217091587
 20
213.828175562727
 30
0.0
 40
8.75
 41
0.0
 71
     7
 72
     1
  1
95
  7
CONVERTER_2
 11
0.0
 21
1.0
 31
0.0
 73
     1
 44
0.60024009603842
  0
ENDBLK
  5
34B
330
342
100
AcDbEntity
  8
0
100
AcDbBlockEnd
  0
BLOCK
  5
355
330
34E
100
AcDbEntity
  8
0
100
AcDbBlockBegin
  2
*D620
 70
     1
 71
     0
 10
0.0
 20
0.0
 30
0.0
  3
*D620
  1

  0
LINE
  5
34F
330
34E
100
AcDbEntity
  8
0
  6
Continuous
 62
     2
100
AcDbLine
 10
164.206322304748
 20
148.140675562727
 30
0.0
 11
334.2081217091587
 21
148.140675562727
 31
0.0
  0
LINE
  5
350
330
34E
100
AcDbEntity
  8
0
  6
Continuous
 62
     2
100
AcDbLine
 10
334.2081217091587
 20
233.140675562727
 30
0.0
 11
334.2081217091587
 21
145.640675562727
 31
0.0
  0
LINE
  5
351
330
34E
100
AcDbEntity
  8
0
  6
Continuous
 62
     2
100
AcDbLine
 10
164.2063223047481
 20
169.992630643105
 30
0.0
 11
164.2063223047481
 21
145.640675562727
 31
0.0
  0
SOLID
  5
352
330
34E
100
AcDbEntity
  8
0
 62
     2
100
AcDbTrace
 10
172.956322304748
 20
149.2926349166167
 30
0.0
 11
172.956322304748
 21
146.9887162088373
 31
0.0
 12
164.206322304748
 22
148.140675562727
 32
0.0
 13
164.206322304748
 23
148.140675562727
 33
0.0
  0
SOLID
  5
353
330
34E
100
AcDbEntity
  8
0
 62
     2
100
AcDbTrace
 10
325.4581217091587
 20
146.9887162088373
 30
0.0
 11
325.4581217091587
 21
149.2926349166167
 31
0.0
 12
334.2081217091587
 22
148.140675562727
 32
0.0
 13
334.2081217091587
 23
148.140675562727
 33
0.0
  0
MTEXT
  5
354
330
34E
100
AcDbEntity
  8
0
 62
     7
100
AcDbMText
 10
240.0197220069534
 20
150.640675562727
 30
0.0
 40
8.75
 41
0.0
 71
     7
 72
     1
  1
170
  7
CONVERTER_2
 11
0.9999999999970621
 21
2.424068405545307E-6
 31
0.0
 73
     1
 44
0.60024009603842
  0
ENDBLK
  5
356
330
34E
100
AcDbEntity
  8
0
100
AcDbBlockEnd
  0
BLOCK
  5
360
330
359
100
AcDbEntity
  8
0
100
AcDbBlockBegin
  2
*D721
 70
     1
 71
     0
 10
0.0
 20
0.0
 30
0.0
  3
*D721
  1

  0
LINE
  5
35A
330
359
100
AcDbEntity
  8
0
  6
Continuous
 62
     2
100
AcDbLine
 10
334.2081217091586
 20
148.140675562727
 30
0.0
 11
369.2081217091586
 21
148.140675562727
 31
0.0
  0
LINE
  5
35B
330
359
100
AcDbEntity
  8
0
  6
Continuous
 62
     2
100
AcDbLine
 10
369.2081217091587
 20
251.989390612763
 30
0.0
 11
369.2081217091587
 21
145.640675562727
 31
0.0
  0
LINE
  5
35C
330
359
100
AcDbEntity
  8
0
  6
Continuous
 62
     2
100
AcDbLine
 10
334.2081217091587
 20
233.140675562727
 30
0.0
 11
334.2081217091587
 21
145.640675562727
 31
0.0
  0
SOLID
  5
35D
330
359
100
AcDbEntity
  8
0
 62
     2
100
AcDbTrace
 10
342.9581217091586
 20
149.2926349166167
 30
0.0
 11
342.9581217091586
 21
146.9887162088373
 31
0.0
 12
334.2081217091586
 22
148.140675562727
 32
0.0
 13
334.2081217091586
 23
148.140675562727
 33
0.0
  0
SOLID
  5
35E
330
359
100
AcDbEntity
  8
0
 62
     2
100
AcDbTrace
 10
360.4581217091586
 20
146.9887162088373
 30
0.0
 11
360.4581217091586
 21
149.2926349166167
 31
0.0
 12
369.2081217091586
 22
148.140675562727
 32
0.0
 13
369.2081217091586
 23
148.140675562727
 33
0.0
  0
MTEXT
  5
35F
330
359
100
AcDbEntity
  8
0
 62
     7
100
AcDbMText
 10
345.1456217091587
 20
150.640675562727
 30
0.0
 40
8.75
 41
0.0
 71
     7
 72
     1
  1
35
  7
CONVERTER_2
 11
0.9999999999970621
 21
2.424068405545307E-6
 31
0.0
 73
     1
 44
0.60024009603842
  0
ENDBLK
  5
361
330
359
100
AcDbEntity
  8
0
100
AcDbBlockEnd
  0
BLOCK
  5
36B
330
364
100
AcDbEntity
  8
0
100
AcDbBlockBegin
  2
*D822
 70
     1
 71
     0
 10
0.0
 20
0.0
 30
0.0
  3
*D822
  1

  0
LINE
  5
365
330
364
100
AcDbEntity
  8
0
  6
Continuous
 62
     2
100
AcDbLine
 10
369.2081217091587
 20
148.140675562727
 30
0.0
 11
414.2081217091587
 21
148.140675562727
 31
0.0
  0
LINE
  5
366
330
364
100
AcDbEntity
  8
0
  6
Continuous
 62
     2
100
AcDbLine
 10
414.2081217091587
 20
241.161339098
 30
0.0
 11
414.2081217091587
 21
145.640675562727
 31
0.0
  0
LINE
  5
367
330
364
100
AcDbEntity
  8
0
  6
Continuous
 62
     2
100
AcDbLine
 10
369.2081217091587
 20
251.989390612763
 30
0.0
 11
369.2081217091587
 21
145.640675562727
 31
0.0
  0
SOLID
  5
368
330
364
100
AcDbEntity
  8
0
 62
     2
100
AcDbTrace
 10
377.9581217091587
 20
149.2926349166167
 30
0.0
 11
377.9581217091587
 21
146.9887162088373
 31
0.0
 12
369.2081217091587
 22
148.140675562727
 32
0.0
 13
369.2081217091587
 23
148.140675562727
 33
0.0
  0
SOLID
  5
369
330
364
100
AcDbEntity
  8
0
 62
     2
100
AcDbTrace
 10
405.4581217091587
 20
146.9887162088373
 30
0.0
 11
405.4581217091587
 21
149.2926349166167
 31
0.0
 12
414.2081217091587
 22
148.140675562727
 32
0.0
 13
414.2081217091587
 23
148.140675562727
 33
0.0
  0
MTEXT
  5
36A
330
364
100
AcDbEntity
  8
0
 62
     7
100
AcDbMText
 10
385.1456217091587
 20
150.640675562727
 30
0.0
 40
8.75
 41
0.0
 71
     7
 72
     1
  1
45
  7
CONVERTER_2
 11
0.9999999999970621
 21
2.424068405545307E-6
 31
0.0
 73
     1
 44
0.60024009603842
  0
ENDBLK
  5
36C
330
364
100
AcDbEntity
  8
0
100
AcDbBlockEnd
  0
ENDSEC
  0
SECTION
  2
ENTITIES
  0
INSERT
  5
61
330
1F
100
AcDbEntity
  8
1
100
AcDbBlockReference
  2
32-1-16
 10
37.66238187348984
 20
448.1265076928361
 30
0.0
  0
INSERT
  5
62
330
1F
100
AcDbEntity
  8
1
100
AcDbBlockReference
  2
A10-0A-13
 10
369.2081217091587
 20
267.6406755627269
 30
0.0
  0
INSERT
  5
63
330
1F
100
AcDbEntity
  8
1
100
AcDbBlockReference
  2
A10J-60X-16
 10
155.5563223047478
 20
170.992630643105
 30
0.0
  0
INSERT
  5
64
330
1F
100
AcDbEntity
  8
1
100
AcDbBlockReference
  2
R130A
 10
280.2081078792555
 20
275.6406755627269
 30
0.0
  0
INSERT
  5
65
330
1F
100
AcDbEntity
  8
1
100
AcDbBlockReference
  2
_J__A4
 10
0.0
 20
0.0
 30
0.0
 41
2.5
 42
2.5
 43
2.5
  0
LINE
  5
2F2
330
1F
100
AcDbEntity
  8
0
  6
DASH_CENTER
 62
     2
100
AcDbLine
 10
115.191766743864
 20
347.3084886203858
 30
0.0
 11
115.191766743864
 21
170.6977030611431
 31
0.0
  0
LINE
  5
2F3
330
1F
100
AcDbEntity
  8
1
  6
DASH_CENTER
 62
     2
100
AcDbLine
 10
369.2081217091587
 20
251.989390612763
 30
0.0
 11
369.2081217091587
 21
306.8150060102586
 31
0.0
  0
LINE
  5
2F4
330
1F
100
AcDbEntity
  8
1
  6
DASH_CENTER
 62
     2
100
AcDbLine
 10
431.2459282409117
 20
267.6406755627269
 30
0.0
 11
319.4128554369693
 21
267.6406755627269
 31
0.0
  0
LINE
  5
2F5
330
1F
100
AcDbEntity
  8
1
  6
DASH_CENTER
 62
     2
100
AcDbLine
 10
115.191766743864
 20
664.727510892975
 30
0.0
 11
115.191766743864
 21
383.8944380890325
 31
0.0
  0
LINE
  5
2F6
330
1F
100
AcDbEntity
  8
1
  6
DASH_CENTER
 62
     2
100
AcDbLine
 10
99.49497611133279
 20
397.6897043612219
 30
0.0
 11
130.6087170747004
 21
397.6897043612219
 31
0.0
  0
LINE
  5
2F7
330
1F
100
AcDbEntity
  8
0
  6
DASH_CENTER
 62
     2
100
AcDbLine
 10
89.19176674386404
 20
267.6406755627269
 30
0.0
 11
141.191766743864
 21
267.6406755627269
 31
0.0
  0
LINE
  5
2F8
330
1F
100
AcDbEntity
  8
1
  6
DASH_CENTER
 62
     2
100
AcDbLine
 10
191.206322304748
 20
206.140675562727
 30
0.0
 11
307.2081217091587
 21
206.140675562727
 31
0.0
  0
LINE
  5
2F9
330
1F
100
AcDbEntity
  8
1
  6
DASH_CENTER
 62
     2
100
AcDbLine
 10
334.2081217091587
 20
233.140675562727
 30
0.0
 11
334.2081217091587
 21
275.2664142910148
 31
0.0
  0
LINE
  5
2FA
330
1F
100
AcDbEntity
  8
1
  6
DASH_CENTER
 62
     2
100
AcDbLine
 10
164.206322304748
 20
169.992630643105
 30
0.0
 11
164.206322304748
 21
179.140675562727
 31
0.0
  0
LINE
  5
2FB
330
1F
100
AcDbEntity
  8
1
  6
DASH_CENTER
 62
     2
100
AcDbLine
 10
131.191766743864
 20
567.6897043612219
 30
0.0
 11
99.19176674386409
 21
567.6897043612219
 31
0.0
  0
ARC
  5
2FC
330
1F
100
AcDbEntity
  8
1
  6
DASH_CENTER
 62
     2
100
AcDbCircle
 10
307.2081217091587
 20
233.140675562727
 30
0.0
 40
27.0
100
AcDbArc
 50
-90.0
 51
0.0
  0
ARC
  5
2FD
330
1F
100
AcDbEntity
  8
1
  6
DASH_CENTER
 62
     2
100
AcDbCircle
 10
191.206322304748
 20
179.140675562727
 30
0.0
 40
27.0
100
AcDbArc
 50
90.0
 51
180.0
  0
SOLID
  5
2FE
330
1F
100
AcDbEntity
  8
1
 62
     2
100
AcDbTrace
 10
129.0691406792685
 20
662.3434063212807
 30
0.0
 11
131.0643928084597
 21
661.1914469673909
 31
0.0
 12
125.691766743864
 22
654.189704361222
 32
0.0
 13
125.691766743864
 23
654.189704361222
 33
0.0
  0
LEADER
  5
2FF
330
1F
100
AcDbEntity
  8
1
  6
Continuous
 62
     2
100
AcDbLeader
  3
Standard
 71
     0
 76
     3
 10
125.691766743864
 20
654.189704361222
 30
0.0
 10
139.3699670064617
 20
677.8810421721431
 30
0.0
 10
177.749310023494
 20
677.8810421721431
 30
0.0
  0
MTEXT
  5
301
330
1F
100
AcDbEntity
  8
0
 62
     7
100
AcDbMText
 10
85.0
 20
85.00000000000003
 30
0.0
 40
8.75
 41
0.0
 71
     4
 72
     1
  1
JIS
  7
CONVERTER_2
 73
     1
 44
1.32052821128451
  0
MTEXT
  5
302
330
1F
100
AcDbEntity
  8
0
 62
     7
100
AcDbMText
 10
142.5
 20
35.625
 30
0.0
 40
8.75
 41
0.0
 71
     5
 72
     1
  1
A130-13
  7
CONVERTER_2
 73
     1
 44
1.32052821128451
  0
MTEXT
  5
303
330
1F
100
AcDbEntity
  8
0
 62
     7
100
AcDbMText
 10
142.5
 20
56.87500000000004
 30
0.0
 40
8.75
 41
0.0
 71
     5
 72
     1
  1
節水レバー自在水栓
  7
CONVERTER_1
 73
     1
 44
1.32052821128451
  0
MTEXT
  5
304
330
1F
100
AcDbEntity
  8
1
 62
     7
100
AcDbMText
 10
158.5596385149779
 20
685.381042172143
 30
0.0
 40
8.75
 41
0.0
 71
     5
 72
     1
  1
PJ1/2
  7
CONVERTER_2
 73
     1
 44
1.32052821128451
  0
MTEXT
  5
305
330
1F
100
AcDbEntity
  8
1
 62
     7
100
AcDbMText
 10
213.125
 20
42.5
 30
0.0
 40
8.75
 41
0.0
 71
     5
 72
     1
  1
1
  7
CONVERTER_2
 73
     1
 44
0.7202881152461
  0
MTEXT
  5
306
330
1F
100
AcDbEntity
  8
1
 62
     7
100
AcDbMText
 10
234.375
 20
42.5
 30
0.0
 40
8.75
 41
0.0
 71
     5
 72
     1
  1
2,5
  7
CONVERTER_2
 73
     1
 44
0.7202881152461
  0
DIMENSION
  5
314
330
1F
100
AcDbEntity
  8
1
100
AcDbDimension
  2
*D013
 10
414.2081217091586
 20
148.140675562727
 30
0.0
 11
438.741624392494
 21
155.015675562727
 31
0.0
  1
<>
 71
     5
 42
0.0
 53
0.00013888888889
  3
ME10_DIM_0
100
AcDbAlignedDimension
 13
428.2081217091587
 23
258.1406755627269
 33
0.0
 14
414.2081217091587
 24
241.161339098
 34
0.0
100
AcDbRotatedDimension
  0
DIMENSION
  5
31F
330
1F
100
AcDbEntity
  8
1
100
AcDbDimension
  2
*D115
 10
453.2081217091587
 20
244.6406755627269
 30
0.0
 11
446.3331217091587
 21
267.640675562727
 31
0.0
  1
<>
 71
     5
 42
0.0
 53
90.0
  3
ME10_DIM_1
100
AcDbAlignedDimension
 13
414.2081217091587
 23
290.640675562727
 33
0.0
 14
414.2081217091587
 24
244.6406755627269
 34
0.0
 50
90.0
100
AcDbRotatedDimension
  0
DIMENSION
  5
32A
330
1F
100
AcDbEntity
  8
0
100
AcDbDimension
  2
*D216
 10
473.2081217091587
 20
344.1406755627269
 30
0.0
 11
466.3331217091587
 21
357.9601470071401
 31
0.0
  1
<>
 71
     5
 42
0.0
 53
90.0
  3
ME10_DIM_2
100
AcDbAlignedDimension
 13
369.2081217091587
 23
327.140675562727
 33
0.0
 14
314.6726766419001
 24
344.1406755627269
 34
0.0
 50
90.0
100
AcDbRotatedDimension
  0
DIMENSION
  5
335
330
1F
100
AcDbEntity
  8
1
100
AcDbDimension
  2
*D317
 10
369.2081217091587
 20
369.1406755627269
 30
0.0
 11
324.7081552995184
 21
376.0156755627269
 31
0.0
  1
<>
 71
     5
 42
0.0
 53
0.00013888888889
  3
ME10_DIM_3
100
AcDbAlignedDimension
 13
280.2081888898781
 23
336.1734610320219
 33
0.0
 14
369.2081217091587
 24
332.3278253584559
 34
0.0
100
AcDbRotatedDimension
  0
DIMENSION
  5
341
330
1F
100
AcDbEntity
  8
1
100
AcDbDimension
  2
*D418
 10
473.2081217091587
 20
267.6406755627269
 30
0.0
 11
466.3331217091587
 21
297.390675562727
 31
0.0
  1
60リフト5
 71
     5
 42
0.0
 53
90.0
  3
ME10_DIM_4
100
AcDbAlignedDimension
 13
369.2081217091587
 23
327.140675562727
 33
0.0
 14
431.2459282409117
 24
267.6406755627269
 34
0.0
 50
90.0
100
AcDbRotatedDimension
  0
DIMENSION
  5
34D
330
1F
100
AcDbEntity
  8
1
100
AcDbDimension
  2
*D519
 10
473.2081217091587
 20
173.140675562727
 30
0.0
 11
466.3331217091587
 21
220.390675562727
 31
0.0
  1
95
 71
     5
 42
0.0
 53
90.0
  3
ME10_DIM_5
100
AcDbAlignedDimension
 13
431.2459282409117
 23
267.6406755627269
 33
0.0
 14
171.5927293107341
 24
173.140675562727
 34
0.0
 50
90.0
100
AcDbRotatedDimension
  0
DIMENSION
  5
358
330
1F
100
AcDbEntity
  8
0
100
AcDbDimension
  2
*D620
 10
164.206322304748
 20
148.140675562727
 30
0.0
 11
249.2072220069534
 21
155.015675562727
 31
0.0
  1
<>
 71
     5
 42
0.0
 53
0.00013888888889
  3
ME10_DIM_6
100
AcDbAlignedDimension
 13
334.2081217091587
 23
233.140675562727
 33
0.0
 14
164.206322304748
 24
169.992630643105
 34
0.0
100
AcDbRotatedDimension
  0
DIMENSION
  5
363
330
1F
100
AcDbEntity
  8
0
100
AcDbDimension
  2
*D721
 10
334.2081217091586
 20
148.140675562727
 30
0.0
 11
351.7081217091587
 21
155.015675562727
 31
0.0
  1
<>
 71
     5
 42
0.0
 53
0.00013888888889
  3
ME10_DIM_7
100
AcDbAlignedDimension
 13
369.2081217091587
 23
251.989390612763
 33
0.0
 14
334.2081217091587
 24
233.140675562727
 34
0.0
100
AcDbRotatedDimension
  0
DIMENSION
  5
36E
330
1F
100
AcDbEntity
  8
0
100
AcDbDimension
  2
*D822
 10
369.2081217091587
 20
148.140675562727
 30
0.0
 11
391.7081217091587
 21
155.015675562727
 31
0.0
  1
<>
 71
     5
 42
0.0
 53
0.00013888888889
  3
ME10_DIM_8
100
AcDbAlignedDimension
 13
414.2081217091587
 23
241.161339098
 33
0.0
 14
369.2081217091587
 24
251.989390612763
 34
0.0
100
AcDbRotatedDimension
  0
ENDSEC
  0
SECTION
  2
OBJECTS
  0
DICTIONARY
  5
C
330
0
100
AcDbDictionary
281
     1
  3
ACAD_GROUP
350
D
  3
ACAD_LAYOUT
350
1A
  3
ACAD_MLINESTYLE
350
17
  3
ACAD_PLOTSETTINGS
350
19
  3
ACAD_PLOTSTYLENAME
350
E
  3
ACAD_TABLESTYLE
350
2A
  3
AcDbVariableDictionary
350
2C
  0
DICTIONARY
  5
D
102
{ACAD_REACTORS
330
C
102
}
330
C
100
AcDbDictionary
281
     1
  0
DICTIONARY
  5
1A
102
{ACAD_REACTORS
330
C
102
}
330
C
100
AcDbDictionary
281
     1
  3
Layout1
350
1E
  3
Layout2
350
26
  3
Model
350
22
  0
DICTIONARY
  5
17
102
{ACAD_REACTORS
330
C
102
}
330
C
100
AcDbDictionary
281
     1
  3
Standard
350
18
  0
DICTIONARY
  5
19
102
{ACAD_REACTORS
330
C
102
}
330
C
100
AcDbDictionary
281
     1
  0
ACDBDICTIONARYWDFLT
  5
E
102
{ACAD_REACTORS
330
C
102
}
330
C
100
AcDbDictionary
281
     1
  3
Normal
350
F
100
AcDbDictionaryWithDefault
340
F
  0
DICTIONARY
  5
2A
102
{ACAD_REACTORS
330
C
102
}
330
C
100
AcDbDictionary
281
     1
  3
Standard
350
2B
  0
DICTIONARY
  5
2C
102
{ACAD_REACTORS
330
C
102
}
330
C
100
AcDbDictionary
281
     1
  3
CTABLESTYLE
350
2D
  0
LAYOUT
  5
1E
102
{ACAD_REACTORS
330
1A
102
}
330
1A
100
AcDbPlotSettings
  1

  2

  4

  6

 40
0.0
 41
0.0
 42
0.0
 43
0.0
 44
0.0
 45
0.0
 46
0.0
 47
0.0
 48
0.0
 49
0.0
140
0.0
141
0.0
142
1.0
143
1.0
 70
   688
 72
     0
 73
     0
 74
     5
  7

 75
    16
147
1.0
148
0.0
149
0.0
100
AcDbLayout
  1
Layout1
 70
     1
 71
     1
 10
0.0
 20
0.0
 11
12.0
 21
9.0
 12
0.0
 22
0.0
 32
0.0
 14
1.00000000000000E+20
 24
1.00000000000000E+20
 34
1.00000000000000E+20
 15
-1.00000000000000E+20
 25
-1.00000000000000E+20
 35
-1.00000000000000E+20
146
0.0
 13
0.0
 23
0.0
 33
0.0
 16
1.0
 26
0.0
 36
0.0
 17
0.0
 27
1.0
 37
0.0
 76
     0
330
1B
  0
LAYOUT
  5
26
102
{ACAD_REACTORS
330
1A
102
}
330
1A
100
AcDbPlotSettings
  1

  2

  4

  6

 40
0.0
 41
0.0
 42
0.0
 43
0.0
 44
0.0
 45
0.0
 46
0.0
 47
0.0
 48
0.0
 49
0.0
140
0.0
141
0.0
142
1.0
143
1.0
 70
   688
 72
     0
 73
     0
 74
     5
  7

 75
    16
147
1.0
148
0.0
149
0.0
100
AcDbLayout
  1
Layout2
 70
     1
 71
     2
 10
0.0
 20
0.0
 11
0.0
 21
0.0
 12
0.0
 22
0.0
 32
0.0
 14
0.0
 24
0.0
 34
0.0
 15
0.0
 25
0.0
 35
0.0
146
0.0
 13
0.0
 23
0.0
 33
0.0
 16
1.0
 26
0.0
 36
0.0
 17
0.0
 27
1.0
 37
0.0
 76
     0
330
23
  0
LAYOUT
  5
22
102
{ACAD_REACTORS
330
1A
102
}
330
1A
100
AcDbPlotSettings
  1

  2

  4

  6

 40
0.0
 41
0.0
 42
0.0
 43
0.0
 44
0.0
 45
0.0
 46
0.0
 47
0.0
 48
0.0
 49
0.0
140
0.0
141
0.0
142
1.0
143
1.0
 70
  1712
 72
     0
 73
     0
 74
     0
  7

 75
     0
147
1.0
148
0.0
149
0.0
100
AcDbLayout
  1
Model
 70
     1
 71
     0
 10
0.0
 20
0.0
 11
0.0
 21
0.0
 12
0.0
 22
0.0
 32
0.0
 14
0.0
 24
0.0
 34
0.0
 15
525.0
 25
742.5
 35
0.0
146
0.0
 13
0.0
 23
0.0
 33
0.0
 16
1.0
 26
0.0
 36
0.0
 17
0.0
 27
1.0
 37
0.0
 76
     0
330
1F
  0
MLINESTYLE
  5
18
102
{ACAD_REACTORS
330
17
102
}
330
17
100
AcDbMlineStyle
  2
Standard
 70
     0
  3

 62
   256
 51
90.0
 52
90.0
 71
     2
 49
0.5
 62
   256
  6
BYLAYER
 49
-0.5
 62
   256
  6
BYLAYER
  0
ACDBPLACEHOLDER
  5
F
102
{ACAD_REACTORS
330
E
102
}
330
E
  0
TABLESTYLE
  5
2B
102
{ACAD_REACTORS
330
2A
102
}
330
2A
100
AcDbTableStyle
  3
Standard
 70
     0
 71
     0
 40
0.06
 41
0.06
280
     0
281
     0
  7
Standard
140
0.18
170
     2
 62
     0
 63
     7
283
     0
274
    -2
284
     1
 64
     0
275
    -2
285
     1
 65
     0
276
    -2
286
     1
 66
     0
277
    -2
287
     1
 67
     0
278
    -2
288
     1
 68
     0
279
    -2
289
     1
 69
     0
  7
Standard
140
0.25
170
     5
 62
     0
 63
     7
283
     0
274
    -2
284
     1
 64
     0
275
    -2
285
     1
 65
     0
276
    -2
286
     1
 66
     0
277
    -2
287
     1
 67
     0
278
    -2
288
     1
 68
     0
279
    -2
289
     1
 69
     0
  7
Standard
140
0.18
170
     5
 62
     0
 63
     7
283
     0
274
    -2
284
     1
 64
     0
275
    -2
285
     1
 65
     0
276
    -2
286
     1
 66
     0
277
    -2
287
     1
 67
     0
278
    -2
288
     1
 68
     0
279
    -2
289
     1
 69
     0
  0
DICTIONARYVAR
  5
2D
102
{ACAD_REACTORS
330
2C
102
}
330
2C
100
DictionaryVariables
280
     0
  1
Standard
  0
ENDSEC
  0
EOF
