  0
SECTION
  2
HEADER
  9
$ACADVER
  1
AC1015
  9
$ACADMAINTVER
 70
     6
  9
$DWGCODEPAGE
  3
DOS932
  9
$INSBASE
 10
0.0
 20
0.0
 30
0.0
  9
$EXTMIN
 10
0.0
 20
0.0
 30
0.0
  9
$EXTMAX
 10
525.0
 20
742.5
 30
0.0
  9
$LIMMIN
 10
0.0
 20
0.0
  9
$LIMMAX
 10
12.0
 20
9.0
  9
$ORTHOMODE
 70
     0
  9
$REGENMODE
 70
     1
  9
$FILLMODE
 70
     1
  9
$QTEXTMODE
 70
     0
  9
$MIRRTEXT
 70
     1
  9
$LTSCALE
 40
1.0
  9
$ATTMODE
 70
     1
  9
$TEXTSIZE
 40
0.2
  9
$TRACEWID
 40
0.05
  9
$TEXTSTYLE
  7
Standard
  9
$CLAYER
  8
0
  9
$CELTYPE
  6
ByLayer
  9
$CECOLOR
 62
   256
  9
$CELTSCALE
 40
1.0
  9
$DISPSILH
 70
     0
  9
$DIMSCALE
 40
1.0
  9
$DIMASZ
 40
0.18
  9
$DIMEXO
 40
0.0625
  9
$DIMDLI
 40
0.38
  9
$DIMRND
 40
0.0
  9
$DIMDLE
 40
0.0
  9
$DIMEXE
 40
0.18
  9
$DIMTP
 40
0.0
  9
$DIMTM
 40
0.0
  9
$DIMTXT
 40
0.18
  9
$DIMCEN
 40
0.09
  9
$DIMTSZ
 40
0.0
  9
$DIMTOL
 70
     0
  9
$DIMLIM
 70
     0
  9
$DIMTIH
 70
     1
  9
$DIMTOH
 70
     1
  9
$DIMSE1
 70
     0
  9
$DIMSE2
 70
     0
  9
$DIMTAD
 70
     0
  9
$DIMZIN
 70
     0
  9
$DIMBLK
  1

  9
$DIMASO
 70
     1
  9
$DIMSHO
 70
     1
  9
$DIMPOST
  1

  9
$DIMAPOST
  1

  9
$DIMALT
 70
     0
  9
$DIMALTD
 70
     2
  9
$DIMALTF
 40
25.4
  9
$DIMLFAC
 40
1.0
  9
$DIMTOFL
 70
     0
  9
$DIMTVP
 40
0.0
  9
$DIMTIX
 70
     0
  9
$DIMSOXD
 70
     0
  9
$DIMSAH
 70
     0
  9
$DIMBLK1
  1

  9
$DIMBLK2
  1

  9
$DIMSTYLE
  2
Standard
  9
$DIMCLRD
 70
     0
  9
$DIMCLRE
 70
     0
  9
$DIMCLRT
 70
     0
  9
$DIMTFAC
 40
1.0
  9
$DIMGAP
 40
0.09
  9
$DIMJUST
 70
     0
  9
$DIMSD1
 70
     0
  9
$DIMSD2
 70
     0
  9
$DIMTOLJ
 70
     1
  9
$DIMTZIN
 70
     0
  9
$DIMALTZ
 70
     0
  9
$DIMALTTZ
 70
     0
  9
$DIMUPT
 70
     0
  9
$DIMDEC
 70
     4
  9
$DIMTDEC
 70
     4
  9
$DIMALTU
 70
     2
  9
$DIMALTTD
 70
     2
  9
$DIMTXSTY
  7
Standard
  9
$DIMAUNIT
 70
     0
  9
$DIMADEC
 70
     0
  9
$DIMALTRND
 40
0.0
  9
$DIMAZIN
 70
     0
  9
$DIMDSEP
 70
    46
  9
$DIMATFIT
 70
     3
  9
$DIMFRAC
 70
     0
  9
$DIMLDRBLK
  1

  9
$DIMLUNIT
 70
     2
  9
$DIMLWD
 70
    -2
  9
$DIMLWE
 70
    -2
  9
$DIMTMOVE
 70
     0
  9
$LUNITS
 70
     2
  9
$LUPREC
 70
     4
  9
$SKETCHINC
 40
0.1
  9
$FILLETRAD
 40
0.5
  9
$AUNITS
 70
     0
  9
$AUPREC
 70
     0
  9
$MENU
  1
.
  9
$ELEVATION
 40
0.0
  9
$PELEVATION
 40
0.0
  9
$THICKNESS
 40
0.0
  9
$LIMCHECK
 70
     0
  9
$CHAMFERA
 40
0.5
  9
$CHAMFERB
 40
0.5
  9
$CHAMFERC
 40
1.0
  9
$CHAMFERD
 40
0.0
  9
$SKPOLY
 70
     0
  9
$TDCREATE
 40
2456142.470905845
  9
$TDUCREATE
 40
2456142.095905845
  9
$TDUPDATE
 40
2456142.470905857
  9
$TDUUPDATE
 40
2456142.095905857
  9
$TDINDWG
 40
0.0000000116
  9
$TDUSRTIMER
 40
0.0000000116
  9
$USRTIMER
 70
     1
  9
$ANGBASE
 50
0.0
  9
$ANGDIR
 70
     0
  9
$PDMODE
 70
     0
  9
$PDSIZE
 40
0.0
  9
$PLINEWID
 40
0.0
  9
$SPLFRAME
 70
     0
  9
$SPLINETYPE
 70
     6
  9
$SPLINESEGS
 70
     8
  9
$HANDSEED
  5
300
  9
$SURFTAB1
 70
     6
  9
$SURFTAB2
 70
     6
  9
$SURFTYPE
 70
     6
  9
$SURFU
 70
     6
  9
$SURFV
 70
     6
  9
$UCSBASE
  2

  9
$UCSNAME
  2

  9
$UCSORG
 10
0.0
 20
0.0
 30
0.0
  9
$UCSXDIR
 10
1.0
 20
0.0
 30
0.0
  9
$UCSYDIR
 10
0.0
 20
1.0
 30
0.0
  9
$UCSORTHOREF
  2

  9
$UCSORTHOVIEW
 70
     0
  9
$UCSORGTOP
 10
0.0
 20
0.0
 30
0.0
  9
$UCSORGBOTTOM
 10
0.0
 20
0.0
 30
0.0
  9
$UCSORGLEFT
 10
0.0
 20
0.0
 30
0.0
  9
$UCSORGRIGHT
 10
0.0
 20
0.0
 30
0.0
  9
$UCSORGFRONT
 10
0.0
 20
0.0
 30
0.0
  9
$UCSORGBACK
 10
0.0
 20
0.0
 30
0.0
  9
$PUCSBASE
  2

  9
$PUCSNAME
  2

  9
$PUCSORG
 10
0.0
 20
0.0
 30
0.0
  9
$PUCSXDIR
 10
1.0
 20
0.0
 30
0.0
  9
$PUCSYDIR
 10
0.0
 20
1.0
 30
0.0
  9
$PUCSORTHOREF
  2

  9
$PUCSORTHOVIEW
 70
     0
  9
$PUCSORGTOP
 10
0.0
 20
0.0
 30
0.0
  9
$PUCSORGBOTTOM
 10
0.0
 20
0.0
 30
0.0
  9
$PUCSORGLEFT
 10
0.0
 20
0.0
 30
0.0
  9
$PUCSORGRIGHT
 10
0.0
 20
0.0
 30
0.0
  9
$PUCSORGFRONT
 10
0.0
 20
0.0
 30
0.0
  9
$PUCSORGBACK
 10
0.0
 20
0.0
 30
0.0
  9
$USERI1
 70
     0
  9
$USERI2
 70
     0
  9
$USERI3
 70
     0
  9
$USERI4
 70
     0
  9
$USERI5
 70
     0
  9
$USERR1
 40
13.2
  9
$USERR2
 40
0.0
  9
$USERR3
 40
0.0
  9
$USERR4
 40
0.0
  9
$USERR5
 40
0.0
  9
$WORLDVIEW
 70
     1
  9
$SHADEDGE
 70
     3
  9
$SHADEDIF
 70
    70
  9
$TILEMODE
 70
     1
  9
$MAXACTVP
 70
    64
  9
$PINSBASE
 10
0.0
 20
0.0
 30
0.0
  9
$PLIMCHECK
 70
     0
  9
$PEXTMIN
 10
1.00000000000000E+20
 20
1.00000000000000E+20
 30
1.00000000000000E+20
  9
$PEXTMAX
 10
-1.00000000000000E+20
 20
-1.00000000000000E+20
 30
-1.00000000000000E+20
  9
$PLIMMIN
 10
0.0
 20
0.0
  9
$PLIMMAX
 10
12.0
 20
9.0
  9
$UNITMODE
 70
     0
  9
$VISRETAIN
 70
     1
  9
$PLINEGEN
 70
     0
  9
$PSLTSCALE
 70
     1
  9
$TREEDEPTH
 70
  3020
  9
$CMLSTYLE
  2
Standard
  9
$CMLJUST
 70
     0
  9
$CMLSCALE
 40
1.0
  9
$PROXYGRAPHICS
 70
     1
  9
$MEASUREMENT
 70
     1
  9
$CELWEIGHT
370
    -1
  9
$ENDCAPS
280
     0
  9
$JOINSTYLE
280
     0
  9
$LWDISPLAY
290
     0
  9
$INSUNITS
 70
     1
  9
$HYPERLINKBASE
  1

  9
$STYLESHEET
  1

  9
$XEDIT
290
     1
  9
$CEPSNTYPE
380
     0
  9
$PSTYLEMODE
290
     0
  9
$FINGERPRINTGUID
  2
{FAEB1C30-E019-11D5-929B-00C0DF256EC4}
  9
$VERSIONGUID
  2
{FAEB1C32-E019-11D5-929B-00C0DF256EC4}
  9
$EXTNAMES
290
     1
  9
$PSVPSCALE
 40
0.0
  9
$OLESTARTUP
290
     0
  0
ENDSEC
  0
SECTION
  2
CLASSES
  0
CLASS
  1
ACDBDICTIONARYWDFLT
  2
AcDbDictionaryWithDefault
  3
ObjectDBX Classes
 90
        0
280
     0
281
     0
  0
CLASS
  1
TABLESTYLE
  2
AcDbTableStyle
  3
ObjectDBX Classes
 90
     2047
280
     0
281
     0
  0
CLASS
  1
DICTIONARYVAR
  2
AcDbDictionaryVar
  3
ObjectDBX Classes
 90
        0
280
     0
281
     0
  0
CLASS
  1

  2
exOdDbCircle
  3

 90
        0
280
     0
281
     1
  0
CLASS
  1

  2
exOdDbSpline
  3

 90
        0
280
     0
281
     1
  0
CLASS
  1
ACDBPLACEHOLDER
  2
AcDbPlaceHolder
  3
ObjectDBX Classes
 90
        0
280
     0
281
     0
  0
CLASS
  1
LAYOUT
  2
AcDbLayout
  3
ObjectDBX Classes
 90
        0
280
     0
281
     0
  0
ENDSEC
  0
SECTION
  2
TABLES
  0
TABLE
  2
VPORT
  5
8
330
0
100
AcDbSymbolTable
 70
     2
  0
VPORT
  5
29
330
8
100
AcDbSymbolTableRecord
100
AcDbViewportTableRecord
  2
*Active
 70
     0
 10
0.0
 20
0.0
 11
1.0
 21
1.0
 12
262.5
 22
371.25
 13
0.0
 23
0.0
 14
0.5
 24
0.5
 15
0.5
 25
0.5
 16
0.0
 26
0.0
 36
1.0
 17
0.0
 27
0.0
 37
0.0
 40
816.7500000000001
 41
1.60267857142857
 42
50.0
 43
0.0
 44
0.0
 50
0.0
 51
0.0
 71
     0
 72
   100
 73
     1
 74
     3
 75
     0
 76
     0
 77
     0
 78
     0
281
     0
 65
     1
110
0.0
120
0.0
130
0.0
111
1.0
121
0.0
131
0.0
112
0.0
122
1.0
132
0.0
 79
     0
146
0.0
  0
ENDTAB
  0
TABLE
  2
LTYPE
  5
5
330
0
100
AcDbSymbolTable
 70
     8
  0
LTYPE
  5
14
330
5
100
AcDbSymbolTableRecord
100
AcDbLinetypeTableRecord
  2
ByBlock
 70
     0
  3

 72
    65
 73
     0
 40
0.0
  0
LTYPE
  5
15
330
5
100
AcDbSymbolTableRecord
100
AcDbLinetypeTableRecord
  2
ByLayer
 70
     0
  3

 72
    65
 73
     0
 40
0.0
  0
LTYPE
  5
16
330
5
100
AcDbSymbolTableRecord
100
AcDbLinetypeTableRecord
  2
Continuous
 70
     0
  3
Solid line
 72
    65
 73
     0
 40
0.0
  0
LTYPE
  5
2E
330
5
100
AcDbSymbolTableRecord
100
AcDbLinetypeTableRecord
  2
DASHED
 70
     0
  3
Dashed
 72
    65
 73
     2
 40
15.0
 49
7.0
 74
     0
 49
-8.0
 74
     0
  0
LTYPE
  5
2F
330
5
100
AcDbSymbolTableRecord
100
AcDbLinetypeTableRecord
  2
DOTTED
 70
     0
  3
Dotted
 72
    65
 73
     2
 40
1.0
 49
0.0
 74
     0
 49
-1.0
 74
     0
  0
LTYPE
  5
30
330
5
100
AcDbSymbolTableRecord
100
AcDbLinetypeTableRecord
  2
DOT_CENTER
 70
     0
  3
Dot_Center
 72
    65
 73
     4
 40
14.0
 49
12.0
 74
     0
 49
-1.0
 74
     0
 49
0.0
 74
     0
 49
-1.0
 74
     0
  0
LTYPE
  5
31
330
5
100
AcDbSymbolTableRecord
100
AcDbLinetypeTableRecord
  2
LONG_DASHED
 70
     0
  3
Long_Dashed
 72
    65
 73
     2
 40
15.0
 49
10.0
 74
     0
 49
-5.0
 74
     0
  0
LTYPE
  5
32
330
5
100
AcDbSymbolTableRecord
100
AcDbLinetypeTableRecord
  2
DASH_CENTER
 70
     0
  3
Dash_Center
 72
    65
 73
     4
 40
14.0
 49
11.0
 74
     0
 49
-1.0
 74
     0
 49
1.0
 74
     0
 49
-1.0
 74
     0
  0
LTYPE
  5
33
330
5
100
AcDbSymbolTableRecord
100
AcDbLinetypeTableRecord
  2
PHANTOM
 70
     0
  3
Phantom
 72
    65
 73
     6
 40
13.0
 49
10.0
 74
     0
 49
-1.0
 74
     0
 49
0.0
 74
     0
 49
-1.0
 74
     0
 49
0.0
 74
     0
 49
-1.0
 74
     0
  0
LTYPE
  5
34
330
5
100
AcDbSymbolTableRecord
100
AcDbLinetypeTableRecord
  2
CENTER_DASH_DASH
 70
     0
  3
Center_Dash_Dash
 72
    65
 73
     6
 40
14.0
 49
9.0
 74
     0
 49
-1.0
 74
     0
 49
1.0
 74
     0
 49
-1.0
 74
     0
 49
1.0
 74
     0
 49
-1.0
 74
     0
  0
ENDTAB
  0
TABLE
  2
LAYER
  5
2
330
0
100
AcDbSymbolTable
 70
     2
  0
LAYER
  5
10
330
2
100
AcDbSymbolTableRecord
100
AcDbLayerTableRecord
  2
0
 70
     0
 62
     7
  6
Continuous
370
    -3
390
F
  0
LAYER
  5
35
330
2
100
AcDbSymbolTableRecord
100
AcDbLayerTableRecord
  2
1
 70
     0
 62
     7
  6
Continuous
370
    -3
390
F
  0
ENDTAB
  0
TABLE
  2
STYLE
  5
3
330
0
100
AcDbSymbolTable
 70
     3
  0
STYLE
  5
11
330
3
100
AcDbSymbolTableRecord
100
AcDbTextStyleTableRecord
  2
Standard
 70
     0
 40
0.0
 41
1.0
 50
0.0
 71
     0
 42
0.2
  3
txt
  4

  0
STYLE
  5
AD
330
3
100
AcDbSymbolTableRecord
100
AcDbTextStyleTableRecord
  2
CONVERTER_1
 70
     0
 40
0.0
 41
0.89
 50
0.0
 71
     0
 42
0.2
  3
msmincho.ttc
  4

1001
ACAD
1000
MS Mincho
1071
    32785
  0
STYLE
  5
29E
330
3
100
AcDbSymbolTableRecord
100
AcDbTextStyleTableRecord
  2
CONVERTER_2
 70
     0
 40
0.0
 41
0.9
 50
0.0
 71
     0
 42
0.2
  3
txt.shx
  4

  0
ENDTAB
  0
TABLE
  2
VIEW
  5
6
330
0
100
AcDbSymbolTable
 70
     0
  0
ENDTAB
  0
TABLE
  2
UCS
  5
7
330
0
100
AcDbSymbolTable
 70
     0
  0
ENDTAB
  0
TABLE
  2
APPID
  5
9
330
0
100
AcDbSymbolTable
 70
     1
  0
APPID
  5
12
330
9
100
AcDbSymbolTableRecord
100
AcDbRegAppTableRecord
  2
ACAD
 70
     0
  0
ENDTAB
  0
TABLE
  2
DIMSTYLE
  5
A
330
0
100
AcDbSymbolTable
 70
     9
100
AcDbDimStyleTable
  0
DIMSTYLE
105
27
330
A
100
AcDbSymbolTableRecord
100
AcDbDimStyleTableRecord
  2
Standard
 70
     0
340
11
  0
DIMSTYLE
105
2AE
102
{ACAD_REACTORS
330
2AF
102
}
330
A
100
AcDbSymbolTableRecord
100
AcDbDimStyleTableRecord
  2
ME10_DIM_0
 70
     0
 41
8.75
 42
0.0
 44
2.5
 73
     0
 74
     0
 77
     1
 78
     8
140
8.75
147
0.625
172
     1
173
     1
176
     2
177
     2
178
     7
271
     2
340
29E
  0
DIMSTYLE
105
2BC
102
{ACAD_REACTORS
330
2BD
102
}
330
A
100
AcDbSymbolTableRecord
100
AcDbDimStyleTableRecord
  2
ME10_DIM_1
 70
     0
 41
8.75
 42
0.0
 44
2.5
 73
     0
 74
     0
 77
     1
 78
     8
140
8.75
147
0.625
172
     1
173
     1
176
     2
177
     2
178
     7
271
     2
340
29E
344
2B9
  0
DIMSTYLE
105
2C7
102
{ACAD_REACTORS
330
2C8
102
}
330
A
100
AcDbSymbolTableRecord
100
AcDbDimStyleTableRecord
  2
ME10_DIM_2
 70
     0
 41
8.75
 42
0.0
 44
2.5
 73
     0
 74
     0
 77
     1
 78
     8
140
8.75
147
0.625
172
     1
173
     1
176
     2
177
     2
178
     7
271
     2
340
29E
  0
DIMSTYLE
105
2D2
102
{ACAD_REACTORS
330
2D3
102
}
330
A
100
AcDbSymbolTableRecord
100
AcDbDimStyleTableRecord
  2
ME10_DIM_3
 70
     0
 41
8.75
 42
0.0
 44
2.5
 73
     0
 74
     0
 77
     1
 78
     8
140
8.75
147
0.625
172
     1
173
     1
176
     2
177
     2
178
     7
271
     2
340
29E
  0
DIMSTYLE
105
2DD
102
{ACAD_REACTORS
330
2DE
102
}
330
A
100
AcDbSymbolTableRecord
100
AcDbDimStyleTableRecord
  2
ME10_DIM_4
 70
     0
  3
{\Fgdt;n}<>
 41
8.75
 42
0.0
 44
2.5
 73
     0
 74
     0
 77
     1
 78
     8
140
8.75
147
0.625
172
     1
173
     1
176
     2
177
     2
178
     7
271
     2
340
29E
  0
DIMSTYLE
105
2E8
102
{ACAD_REACTORS
330
2E9
102
}
330
A
100
AcDbSymbolTableRecord
100
AcDbDimStyleTableRecord
  2
ME10_DIM_5
 70
     0
 41
8.75
 42
0.0
 44
2.5
 73
     0
 74
     0
 77
     1
 78
     8
140
8.75
147
0.625
172
     1
173
     1
176
     2
177
     2
178
     7
271
     2
340
29E
  0
DIMSTYLE
105
2F3
102
{ACAD_REACTORS
330
2F4
102
}
330
A
100
AcDbSymbolTableRecord
100
AcDbDimStyleTableRecord
  2
ME10_DIM_6
 70
     0
 41
8.75
 42
0.0
 44
2.5
 73
     0
 74
     0
 77
     1
 78
     8
140
8.75
147
0.625
172
     1
173
     1
176
     2
177
     2
178
     7
271
     2
340
29E
  0
DIMSTYLE
105
2FE
102
{ACAD_REACTORS
330
2FF
102
}
330
A
100
AcDbSymbolTableRecord
100
AcDbDimStyleTableRecord
  2
ME10_DIM_7
 70
     0
 41
8.75
 42
0.0
 44
2.5
 73
     0
 74
     0
 77
     1
 78
     8
140
8.75
147
0.625
172
     1
173
     1
176
     2
177
     2
178
     7
271
     2
340
29E
  0
ENDTAB
  0
TABLE
  2
BLOCK_RECORD
  5
1
330
0
100
AcDbSymbolTable
 70
    21
  0
BLOCK_RECORD
  5
1F
330
1
100
AcDbSymbolTableRecord
100
AcDbBlockTableRecord
  2
*Model_Space
340
22
  0
BLOCK_RECORD
  5
1B
330
1
100
AcDbSymbolTableRecord
100
AcDbBlockTableRecord
  2
*Paper_Space
340
1E
  0
BLOCK_RECORD
  5
23
330
1
100
AcDbSymbolTableRecord
100
AcDbBlockTableRecord
  2
*Paper_Space0
340
26
  0
BLOCK_RECORD
  5
36
330
1
100
AcDbSymbolTableRecord
100
AcDbBlockTableRecord
  2
_J__A4
340
0
102
{BLKREFS
331
5D
102
}
  0
BLOCK_RECORD
  5
39
330
1
100
AcDbSymbolTableRecord
100
AcDbBlockTableRecord
  2
32-1-16__1
340
0
102
{BLKREFS
331
5E
102
}
  0
BLOCK_RECORD
  5
3C
330
1
100
AcDbSymbolTableRecord
100
AcDbBlockTableRecord
  2
84-26B
340
0
102
{BLKREFS
331
49
102
}
  0
BLOCK_RECORD
  5
3F
330
1
100
AcDbSymbolTableRecord
100
AcDbBlockTableRecord
  2
82-20-M21
340
0
102
{BLKREFS
331
4A
102
}
  0
BLOCK_RECORD
  5
42
330
1
100
AcDbSymbolTableRecord
100
AcDbBlockTableRecord
  2
32-1-16__2
340
0
102
{BLKREFS
331
4B
102
}
  0
BLOCK_RECORD
  5
45
330
1
100
AcDbSymbolTableRecord
100
AcDbBlockTableRecord
  2
61-7-170
340
0
102
{BLKREFS
331
4C
102
}
  0
BLOCK_RECORD
  5
48
330
1
100
AcDbSymbolTableRecord
100
AcDbBlockTableRecord
  2
A20JD-60X
340
0
102
{BLKREFS
331
5F
102
}
  0
BLOCK_RECORD
  5
4F
330
1
100
AcDbSymbolTableRecord
100
AcDbBlockTableRecord
  2
84-34-M21
340
0
102
{BLKREFS
331
56
102
}
  0
BLOCK_RECORD
  5
52
330
1
100
AcDbSymbolTableRecord
100
AcDbBlockTableRecord
  2
87-18
340
0
102
{BLKREFS
331
57
102
}
  0
BLOCK_RECORD
  5
55
330
1
100
AcDbSymbolTableRecord
100
AcDbBlockTableRecord
  2
R261F
340
0
102
{BLKREFS
331
60
102
}
  0
BLOCK_RECORD
  5
5A
330
1
100
AcDbSymbolTableRecord
100
AcDbBlockTableRecord
  2
A201-0
340
0
102
{BLKREFS
331
61
102
}
  0
BLOCK_RECORD
  5
2A5
330
1
100
AcDbSymbolTableRecord
100
AcDbBlockTableRecord
  2
*D012
340
0
  0
BLOCK_RECORD
  5
2B0
330
1
100
AcDbSymbolTableRecord
100
AcDbBlockTableRecord
  2
*D113
340
0
  0
BLOCK_RECORD
  5
2B9
330
1
100
AcDbSymbolTableRecord
100
AcDbBlockTableRecord
  2
_None
340
0
  0
BLOCK_RECORD
  5
2BE
330
1
100
AcDbSymbolTableRecord
100
AcDbBlockTableRecord
  2
*D215
340
0
  0
BLOCK_RECORD
  5
2C9
330
1
100
AcDbSymbolTableRecord
100
AcDbBlockTableRecord
  2
*D316
340
0
  0
BLOCK_RECORD
  5
2D4
330
1
100
AcDbSymbolTableRecord
100
AcDbBlockTableRecord
  2
*D417
340
0
  0
BLOCK_RECORD
  5
2DF
330
1
100
AcDbSymbolTableRecord
100
AcDbBlockTableRecord
  2
*D518
340
0
  0
BLOCK_RECORD
  5
2EA
330
1
100
AcDbSymbolTableRecord
100
AcDbBlockTableRecord
  2
*D619
340
0
  0
BLOCK_RECORD
  5
2F5
330
1
100
AcDbSymbolTableRecord
100
AcDbBlockTableRecord
  2
*D720
340
0
  0
ENDTAB
  0
ENDSEC
  0
SECTION
  2
BLOCKS
  0
BLOCK
  5
20
330
1F
100
AcDbEntity
  8
0
100
AcDbBlockBegin
  2
*Model_Space
 70
     0
 71
     0
 10
0.0
 20
0.0
 30
0.0
  3
*Model_Space
  1

  0
ENDBLK
  5
21
330
1F
100
AcDbEntity
  8
0
100
AcDbBlockEnd
  0
BLOCK
  5
1C
330
1B
100
AcDbEntity
 67
     1
  8
0
100
AcDbBlockBegin
  2
*Paper_Space
 70
     0
 71
     0
 10
0.0
 20
0.0
 30
0.0
  3
*Paper_Space
  1

  0
ENDBLK
  5
1D
330
1B
100
AcDbEntity
 67
     1
  8
0
100
AcDbBlockEnd
  0
BLOCK
  5
24
330
23
100
AcDbEntity
  8
0
100
AcDbBlockBegin
  2
*Paper_Space0
 70
     0
 71
     0
 10
0.0
 20
0.0
 30
0.0
  3
*Paper_Space0
  1

  0
ENDBLK
  5
25
330
23
100
AcDbEntity
  8
0
100
AcDbBlockEnd
  0
BLOCK
  5
37
330
36
100
AcDbEntity
  8
0
100
AcDbBlockBegin
  2
_J__A4
 70
     0
 71
     0
 10
0.0
 20
0.0
 30
0.0
  3
_J__A4
  1

  0
POINT
  5
62
330
36
100
AcDbEntity
  8
1
 62
     4
100
AcDbPoint
 10
34.0
 20
34.00000000000001
 30
0.0
  0
POINT
  5
63
330
36
100
AcDbEntity
  8
1
 62
     4
100
AcDbPoint
 10
57.0
 20
12.25
 30
0.0
  0
POINT
  5
64
330
36
100
AcDbEntity
  8
1
 62
     4
100
AcDbPoint
 10
57.0
 20
20.75000000000001
 30
0.0
  0
POINT
  5
65
330
36
100
AcDbEntity
  8
1
 62
     4
100
AcDbPoint
 10
57.0
 20
24.75000000000001
 30
0.0
  0
POINT
  5
66
330
36
100
AcDbEntity
  8
1
 62
     4
100
AcDbPoint
 10
57.0
 20
16.25
 30
0.0
  0
POINT
  5
67
330
36
100
AcDbEntity
  8
1
 62
     4
100
AcDbPoint
 10
157.5
 20
19.00000000000001
 30
0.0
  0
POINT
  5
68
330
36
100
AcDbEntity
  8
1
 62
     4
100
AcDbPoint
 10
47.5
 20
282.0000000000003
 30
0.0
  0
POINT
  5
69
330
36
100
AcDbEntity
  8
1
 62
     4
100
AcDbPoint
 10
57.0
 20
22.75000000000001
 30
0.0
  0
POINT
  5
6A
330
36
100
AcDbEntity
  8
1
 62
     4
100
AcDbPoint
 10
57.0
 20
14.25
 30
0.0
  0
POINT
  5
6B
330
36
100
AcDbEntity
  8
1
 62
     4
100
AcDbPoint
 10
157.5
 20
12.5
 30
0.0
  0
POINT
  5
6C
330
36
100
AcDbEntity
  8
1
 62
     4
100
AcDbPoint
 10
163.25
 20
12.5
 30
0.0
  0
POINT
  5
6D
330
36
100
AcDbEntity
  8
1
 62
     4
100
AcDbPoint
 10
151.75
 20
12.5
 30
0.0
  0
POINT
  5
6E
330
36
100
AcDbEntity
  8
1
 62
     4
100
AcDbPoint
 10
134.75
 20
12.5
 30
0.0
  0
POINT
  5
6F
330
36
100
AcDbEntity
  8
1
 62
     4
100
AcDbPoint
 10
146.25
 20
12.5
 30
0.0
  0
POINT
  5
70
330
36
100
AcDbEntity
  8
1
 62
     4
100
AcDbPoint
 10
140.5
 20
12.5
 30
0.0
  0
POINT
  5
71
330
36
100
AcDbEntity
  8
1
 62
     4
100
AcDbPoint
 10
140.5
 20
19.00000000000001
 30
0.0
  0
POINT
  5
72
330
36
100
AcDbEntity
  8
1
 62
     4
100
AcDbPoint
 10
117.75
 20
12.5
 30
0.0
  0
POINT
  5
73
330
36
100
AcDbEntity
  8
1
 62
     4
100
AcDbPoint
 10
129.25
 20
12.5
 30
0.0
  0
POINT
  5
74
330
36
100
AcDbEntity
  8
1
 62
     4
100
AcDbPoint
 10
123.5
 20
12.5
 30
0.0
  0
POINT
  5
75
330
36
100
AcDbEntity
  8
1
 62
     4
100
AcDbPoint
 10
123.5
 20
19.00000000000001
 30
0.0
  0
POINT
  5
76
330
36
100
AcDbEntity
  8
1
 62
     4
100
AcDbPoint
 10
100.75
 20
12.5
 30
0.0
  0
POINT
  5
77
330
36
100
AcDbEntity
  8
1
 62
     4
100
AcDbPoint
 10
112.25
 20
12.5
 30
0.0
  0
POINT
  5
78
330
36
100
AcDbEntity
  8
1
 62
     4
100
AcDbPoint
 10
106.5
 20
12.5
 30
0.0
  0
POINT
  5
79
330
36
100
AcDbEntity
  8
1
 62
     4
100
AcDbPoint
 10
106.5
 20
19.00000000000001
 30
0.0
  0
POINT
  5
7A
330
36
100
AcDbEntity
  8
1
 62
     4
100
AcDbPoint
 10
85.25
 20
17.0
 30
0.0
  0
POINT
  5
7B
330
36
100
AcDbEntity
  8
1
 62
     4
100
AcDbPoint
 10
93.75
 20
17.0
 30
0.0
  0
LINE
  5
7C
330
36
100
AcDbEntity
  8
1
  6
Continuous
 62
     2
100
AcDbLine
 10
81.0
 20
27.00000000000001
 30
0.0
 11
81.0
 21
10.0
 31
0.0
  0
LINE
  5
7D
330
36
100
AcDbEntity
  8
1
  6
DOT_CENTER
 62
     2
100
AcDbLine
 10
187.0
 20
26.50000000000001
 30
0.0
 11
187.0
 21
20.50000000000001
 31
0.0
  0
LINE
  5
7E
330
36
100
AcDbEntity
  8
1
  6
DOT_CENTER
 62
     2
100
AcDbLine
 10
184.0
 20
23.50000000000001
 30
0.0
 11
197.0
 21
23.50000000000001
 31
0.0
  0
LINE
  5
7F
330
36
100
AcDbEntity
  8
1
  6
Continuous
 62
     7
100
AcDbLine
 10
196.0
 20
21.50000000000001
 30
0.0
 11
191.0
 21
22.30000000000001
 31
0.0
  0
LINE
  5
80
330
36
100
AcDbEntity
  8
1
  6
Continuous
 62
     7
100
AcDbLine
 10
196.0
 20
25.50000000000001
 30
0.0
 11
196.0
 21
21.50000000000001
 31
0.0
  0
LINE
  5
81
330
36
100
AcDbEntity
  8
1
  6
Continuous
 62
     7
100
AcDbLine
 10
191.0
 20
24.70000000000001
 30
0.0
 11
196.0
 21
25.50000000000001
 31
0.0
  0
LINE
  5
82
330
36
100
AcDbEntity
  8
1
  6
Continuous
 62
     7
100
AcDbLine
 10
191.0
 20
24.70000000000001
 30
0.0
 11
191.0
 21
22.30000000000001
 31
0.0
  0
LINE
  5
83
330
36
100
AcDbEntity
  8
1
  6
Continuous
 62
     2
100
AcDbLine
 10
33.0
 20
27.0
 30
0.0
 11
33.0
 21
10.0
 31
0.0
  0
LINE
  5
84
330
36
100
AcDbEntity
  8
1
  6
Continuous
 62
     2
100
AcDbLine
 10
25.0
 20
18.50000000000001
 30
0.0
 11
81.0
 21
18.50000000000001
 31
0.0
  0
LINE
  5
85
330
36
100
AcDbEntity
  8
1
  6
Continuous
 62
     7
100
AcDbLine
 10
200.0
 20
287.0000000000003
 30
0.0
 11
105.0
 21
287.0000000000003
 31
0.0
  0
LINE
  5
86
330
36
100
AcDbEntity
  8
1
  6
Continuous
 62
     7
100
AcDbLine
 10
200.0
 20
10.0
 30
0.0
 11
200.0
 21
148.5
 31
0.0
  0
LINE
  5
87
330
36
100
AcDbEntity
  8
1
  6
Continuous
 62
     7
100
AcDbLine
 10
25.0
 20
10.0
 30
0.0
 11
105.0
 21
10.0
 31
0.0
  0
LINE
  5
88
330
36
100
AcDbEntity
  8
1
  6
PHANTOM
 62
     4
100
AcDbLine
 10
0.0
 20
297.0
 30
0.0
 11
0.0
 21
0.0
 31
0.0
  0
LINE
  5
89
330
36
100
AcDbEntity
  8
1
  6
PHANTOM
 62
     4
100
AcDbLine
 10
210.0
 20
297.0
 30
0.0
 11
0.0
 21
297.0
 31
0.0
  0
LINE
  5
8A
330
36
100
AcDbEntity
  8
1
  6
PHANTOM
 62
     4
100
AcDbLine
 10
210.0
 20
0.0
 30
0.0
 11
210.0
 21
297.0
 31
0.0
  0
LINE
  5
8B
330
36
100
AcDbEntity
  8
1
  6
PHANTOM
 62
     4
100
AcDbLine
 10
0.0
 20
0.0
 30
0.0
 11
210.0
 21
0.0
 31
0.0
  0
LINE
  5
8C
330
36
100
AcDbEntity
  8
1
  6
Continuous
 62
     7
100
AcDbLine
 10
25.0
 20
41.0
 30
0.0
 11
200.0
 21
41.0
 31
0.0
  0
LINE
  5
8D
330
36
100
AcDbEntity
  8
1
  6
Continuous
 62
     7
100
AcDbLine
 10
200.0
 20
27.00000000000001
 30
0.0
 11
25.0
 21
27.00000000000001
 31
0.0
  0
LINE
  5
8E
330
36
100
AcDbEntity
  8
1
  6
Continuous
 62
     2
100
AcDbLine
 10
33.0
 20
41.00000000000001
 30
0.0
 11
33.0
 21
27.0
 31
0.0
  0
LINE
  5
8F
330
36
100
AcDbEntity
  8
1
  6
Continuous
 62
     2
100
AcDbLine
 10
55.0
 20
287.0000000000003
 30
0.0
 11
55.0
 21
277.0000000000003
 31
0.0
  0
LINE
  5
90
330
36
100
AcDbEntity
  8
1
  6
Continuous
 62
     2
100
AcDbLine
 10
40.0
 20
287.0000000000003
 30
0.0
 11
40.0
 21
277.0000000000003
 31
0.0
  0
LINE
  5
91
330
36
100
AcDbEntity
  8
1
  6
Continuous
 62
     7
100
AcDbLine
 10
25.0
 20
10.0
 30
0.0
 11
25.0
 21
148.5
 31
0.0
  0
LINE
  5
92
330
36
100
AcDbEntity
  8
1
  6
Continuous
 62
     2
100
AcDbLine
 10
55.0
 20
277.0000000000003
 30
0.0
 11
25.0
 21
277.0000000000003
 31
0.0
  0
LINE
  5
93
330
36
100
AcDbEntity
  8
1
  6
Continuous
 62
     2
100
AcDbLine
 10
166.0
 20
27.00000000000001
 30
0.0
 11
166.0
 21
10.0
 31
0.0
  0
LINE
  5
94
330
36
100
AcDbEntity
  8
1
  6
Continuous
 62
     2
100
AcDbLine
 10
132.0
 20
27.00000000000001
 30
0.0
 11
132.0
 21
9.99999999999999
 31
0.0
  0
LINE
  5
95
330
36
100
AcDbEntity
  8
1
  6
Continuous
 62
     2
100
AcDbLine
 10
149.0
 20
27.00000000000001
 30
0.0
 11
149.0
 21
10.0
 31
0.0
  0
LINE
  5
96
330
36
100
AcDbEntity
  8
1
  6
Continuous
 62
     2
100
AcDbLine
 10
115.0
 20
27.00000000000001
 30
0.0
 11
115.0
 21
9.99999999999999
 31
0.0
  0
LINE
  5
97
330
36
100
AcDbEntity
  8
1
  6
Continuous
 62
     2
100
AcDbLine
 10
98.0
 20
27.00000000000001
 30
0.0
 11
98.0
 21
9.99999999999999
 31
0.0
  0
LINE
  5
98
330
36
100
AcDbEntity
  8
1
  6
Continuous
 62
     2
100
AcDbLine
 10
166.0
 20
20.00000000000001
 30
0.0
 11
200.0
 21
20.00000000000001
 31
0.0
  0
LINE
  5
99
330
36
100
AcDbEntity
  8
1
  6
Continuous
 62
     2
100
AcDbLine
 10
105.0
 20
287.0000000000003
 30
0.0
 11
105.0
 21
292.0000000000003
 31
0.0
  0
LINE
  5
9A
330
36
100
AcDbEntity
  8
1
  6
Continuous
 62
     7
100
AcDbLine
 10
105.0
 20
287.0000000000003
 30
0.0
 11
25.0
 21
287.0000000000003
 31
0.0
  0
LINE
  5
9B
330
36
100
AcDbEntity
  8
1
  6
Continuous
 62
     2
100
AcDbLine
 10
25.0
 20
148.5
 30
0.0
 11
20.0
 21
148.5
 31
0.0
  0
LINE
  5
9C
330
36
100
AcDbEntity
  8
1
  6
Continuous
 62
     7
100
AcDbLine
 10
25.0
 20
148.5
 30
0.0
 11
25.0
 21
287.0000000000003
 31
0.0
  0
LINE
  5
9D
330
36
100
AcDbEntity
  8
1
  6
Continuous
 62
     2
100
AcDbLine
 10
200.0
 20
148.5
 30
0.0
 11
205.0
 21
148.5
 31
0.0
  0
LINE
  5
9E
330
36
100
AcDbEntity
  8
1
  6
Continuous
 62
     7
100
AcDbLine
 10
200.0
 20
148.5
 30
0.0
 11
200.0
 21
287.0000000000003
 31
0.0
  0
LINE
  5
9F
330
36
100
AcDbEntity
  8
1
  6
Continuous
 62
     2
100
AcDbLine
 10
105.0
 20
10.0
 30
0.0
 11
105.0
 21
5.0
 31
0.0
  0
LINE
  5
A0
330
36
100
AcDbEntity
  8
1
  6
Continuous
 62
     7
100
AcDbLine
 10
105.0
 20
10.0
 30
0.0
 11
200.0
 21
10.0
 31
0.0
  0
CIRCLE
  5
A1
330
36
100
AcDbEntity
  8
1
  6
DOT_CENTER
 62
     7
100
AcDbCircle
 10
89.5
 20
18.0
 30
0.0
 40
0.1000000000000227
  0
CIRCLE
  5
A2
330
36
100
AcDbEntity
  8
1
  6
DOT_CENTER
 62
     7
100
AcDbCircle
 10
89.5
 20
16.0
 30
0.0
 40
0.1000000000000227
  0
CIRCLE
  5
A3
330
36
100
AcDbEntity
  8
1
  6
Continuous
 62
     7
100
AcDbCircle
 10
187.0
 20
23.50000000000001
 30
0.0
 40
2.0
  0
CIRCLE
  5
A4
330
36
100
AcDbEntity
  8
1
  6
Continuous
 62
     7
100
AcDbCircle
 10
187.0
 20
23.50000000000001
 30
0.0
 40
1.200000000000102
  0
CIRCLE
  5
A5
330
36
100
AcDbEntity
  8
1
  6
Continuous
 62
     7
100
AcDbCircle
 10
154.5
 20
12.5
 30
0.0
 40
0.3000000000000114
  0
CIRCLE
  5
A6
330
36
100
AcDbEntity
  8
1
  6
Continuous
 62
     7
100
AcDbCircle
 10
160.5
 20
12.5
 30
0.0
 40
0.3000000000000114
  0
CIRCLE
  5
A7
330
36
100
AcDbEntity
  8
1
  6
Continuous
 62
     7
100
AcDbCircle
 10
143.5
 20
12.5
 30
0.0
 40
0.3000000000000114
  0
CIRCLE
  5
A8
330
36
100
AcDbEntity
  8
1
  6
Continuous
 62
     7
100
AcDbCircle
 10
137.5
 20
12.5
 30
0.0
 40
0.3000000000000114
  0
CIRCLE
  5
A9
330
36
100
AcDbEntity
  8
1
  6
Continuous
 62
     7
100
AcDbCircle
 10
126.5
 20
12.5
 30
0.0
 40
0.2999999999999972
  0
CIRCLE
  5
AA
330
36
100
AcDbEntity
  8
1
  6
Continuous
 62
     7
100
AcDbCircle
 10
120.5
 20
12.5
 30
0.0
 40
0.2999999999999972
  0
CIRCLE
  5
AB
330
36
100
AcDbEntity
  8
1
  6
Continuous
 62
     7
100
AcDbCircle
 10
109.5
 20
12.5
 30
0.0
 40
0.2999999999999972
  0
CIRCLE
  5
AC
330
36
100
AcDbEntity
  8
1
  6
Continuous
 62
     7
100
AcDbCircle
 10
103.5
 20
12.5
 30
0.0
 40
0.2999999999999972
  0
MTEXT
  5
AE
330
36
100
AcDbEntity
  8
1
 62
   250
100
AcDbMText
 10
25.0
 20
5.0
 30
0.0
 40
3.5
 41
0.0
 71
     4
 72
     1
  1
備考欄の文字列 原点位置=4
  7
CONVERTER_1
 73
     1
 44
0.7202881152461
  0
MTEXT
  5
AF
330
36
100
AcDbEntity
  8
1
 62
     2
100
AcDbMText
 10
89.5
 20
24.00000000000001
 30
0.0
 40
3.5
 41
0.0
 71
     5
 72
     1
  1
尺度
  7
CONVERTER_1
 73
     1
 44
0.7202881152461
  0
MTEXT
  5
B0
330
36
100
AcDbEntity
  8
1
 62
     2
100
AcDbMText
 10
135.5
 20
25.00000000000001
 30
0.0
 40
3.0
 41
0.0
 71
     5
 72
     1
  1
製図
  7
CONVERTER_1
 73
     1
 44
0.78031212484994
  0
MTEXT
  5
B1
330
36
100
AcDbEntity
  8
1
 62
     2
100
AcDbMText
 10
152.5
 20
25.00000000000001
 30
0.0
 40
3.0
 41
0.0
 71
     5
 72
     1
  1
設計
  7
CONVERTER_1
 73
     1
 44
0.78031212484994
  0
MTEXT
  5
B2
330
36
100
AcDbEntity
  8
1
 62
     2
100
AcDbMText
 10
118.5
 20
25.00000000000001
 30
0.0
 40
3.0
 41
0.0
 71
     5
 72
     1
  1
検図
  7
CONVERTER_1
 73
     1
 44
0.78031212484994
  0
MTEXT
  5
B3
330
36
100
AcDbEntity
  8
1
 62
     2
100
AcDbMText
 10
175.0
 20
23.50000000000001
 30
0.0
 40
3.5
 41
0.0
 71
     5
 72
     1
  1
第三角法
  7
CONVERTER_1
 73
     1
 44
0.7202881152461
  0
MTEXT
  5
B4
330
36
100
AcDbEntity
  8
1
 62
     2
100
AcDbMText
 10
101.5
 20
25.00000000000001
 30
0.0
 40
3.0
 41
0.0
 71
     5
 72
     1
  1
承認
  7
CONVERTER_1
 73
     1
 44
0.78031212484994
  0
MTEXT
  5
B5
330
36
100
AcDbEntity
  8
1
 62
     2
100
AcDbMText
 10
29.0
 20
14.25
 30
0.0
 40
3.5
 41
0.0
 71
     5
 72
     1
  1
品番
  7
CONVERTER_1
 73
     1
 44
0.96038415366146
  0
MTEXT
  5
B6
330
36
100
AcDbEntity
  8
1
 62
     2
100
AcDbMText
 10
29.0
 20
22.75
 30
0.0
 40
3.5
 41
0.0
 71
     5
 72
     1
  1
品名
  7
CONVERTER_1
 73
     1
 44
0.96038415366146
  0
MTEXT
  5
B7
330
36
100
AcDbEntity
  8
1
 62
     2
100
AcDbMText
 10
29.0
 20
34.00000000000001
 30
0.0
 40
3.5
 41
0.0
 71
     5
 72
     1
  1
備考
  7
CONVERTER_1
 73
     1
 44
0.60024009603842
  0
MTEXT
  5
B8
330
36
100
AcDbEntity
  8
1
 62
     2
100
AcDbMText
 10
32.5
 20
282.0000000000003
 30
0.0
 40
5.0
 41
0.0
 71
     5
 72
     1
  1
図番
  7
CONVERTER_1
 73
     1
 44
0.60024009603842
  0
MTEXT
  5
B9
330
36
100
AcDbEntity
  8
1
 62
     7
100
AcDbMText
 10
171.5
 20
15.0
 30
0.0
 40
2.5
 41
0.0
 71
     5
 72
     1
  1
株式会社
  7
CONVERTER_1
 73
     1
 44
1.32052821128451
  0
MTEXT
  5
BA
330
36
100
AcDbEntity
  8
1
 62
     7
100
AcDbMText
 10
188.5
 20
15.0
 30
0.0
 40
3.0
 41
0.0
 71
     5
 72
     1
  1
三栄水栓製作所
  7
CONVERTER_1
 73
     1
 44
1.32052821128451
  0
ENDBLK
  5
38
330
36
100
AcDbEntity
  8
0
100
AcDbBlockEnd
  0
BLOCK
  5
3A
330
39
100
AcDbEntity
  8
0
100
AcDbBlockBegin
  2
32-1-16__1
 70
     0
 71
     0
 10
176.6809859984293
 20
480.1484552014283
 30
0.0
  3
32-1-16__1
  1

  0
LINE
  5
BB
330
39
100
AcDbEntity
  8
1
  6
Continuous
 62
     7
100
AcDbLine
 10
372.6222185577698
 20
237.9856596906958
 30
0.0
 11
371.0542693653387
 21
237.9856596906958
 31
0.0
  0
LINE
  5
BC
330
39
100
AcDbEntity
  8
1
  6
Continuous
 62
     7
100
AcDbLine
 10
362.8542693653386
 20
227.9856596906958
 30
0.0
 11
376.1542693653386
 21
227.9856596906958
 31
0.0
  0
LINE
  5
BD
330
39
100
AcDbEntity
  8
1
  6
Continuous
 62
     7
100
AcDbLine
 10
376.1542693653386
 20
227.9856596906958
 30
0.0
 11
376.0412693653386
 21
227.9856596906958
 31
0.0
  0
LINE
  5
BE
330
39
100
AcDbEntity
  8
1
  6
Continuous
 62
     7
100
AcDbLine
 10
374.3542693653386
 20
236.9856596906958
 30
0.0
 11
374.4122904270693
 21
236.9856596906958
 31
0.0
  0
LINE
  5
BF
330
39
100
AcDbEntity
  8
1
  6
Continuous
 62
     7
100
AcDbLine
 10
371.0542693653387
 20
237.9856596906958
 30
0.0
 11
362.8542693653386
 21
237.9856596906958
 31
0.0
  0
LINE
  5
C0
330
39
100
AcDbEntity
  8
1
  6
Continuous
 62
     7
100
AcDbLine
 10
362.8542693653386
 20
236.9856596906958
 30
0.0
 11
371.6525913444082
 21
236.9856596906958
 31
0.0
  0
LINE
  5
C1
330
39
100
AcDbEntity
  8
1
  6
Continuous
 62
     7
100
AcDbLine
 10
354.6542693653386
 20
237.9856596906958
 30
0.0
 11
353.0863201729075
 21
237.9856596906958
 31
0.0
  0
LINE
  5
C2
330
39
100
AcDbEntity
  8
1
  6
Continuous
 62
     7
100
AcDbLine
 10
349.5542693653387
 20
227.9856596906958
 30
0.0
 11
362.8542693653386
 21
227.9856596906958
 31
0.0
  0
LINE
  5
C3
330
39
100
AcDbEntity
  8
1
  6
Continuous
 62
     7
100
AcDbLine
 10
349.6672693653386
 20
227.9856596906958
 30
0.0
 11
349.5542693653387
 21
227.9856596906958
 31
0.0
  0
LINE
  5
C4
330
39
100
AcDbEntity
  8
1
  6
Continuous
 62
     7
100
AcDbLine
 10
351.296248303608
 20
236.9856596906958
 30
0.0
 11
351.3542693653386
 21
236.9856596906958
 31
0.0
  0
LINE
  5
C5
330
39
100
AcDbEntity
  8
1
  6
Continuous
 62
     7
100
AcDbLine
 10
362.8542693653386
 20
237.9856596906958
 30
0.0
 11
354.6542693653386
 21
237.9856596906958
 31
0.0
  0
LINE
  5
C6
330
39
100
AcDbEntity
  8
1
  6
Continuous
 62
     7
100
AcDbLine
 10
354.0559473862691
 20
236.9856596906958
 30
0.0
 11
362.8542693653386
 21
236.9856596906958
 31
0.0
  0
ARC
  5
C7
330
39
100
AcDbEntity
  8
1
  6
Continuous
 62
     7
100
AcDbCircle
 10
373.3542693653386
 20
232.1281227261374
 30
0.0
 40
5.000000000000017
100
AcDbArc
 50
-55.94420225743207
 51
74.66244233044463
  0
ARC
  5
C8
330
39
100
AcDbEntity
  8
1
  6
Continuous
 62
     7
100
AcDbCircle
 10
367.6210979451848
 20
232.1282919684644
 30
0.0
 40
1.885238775575519
100
AcDbArc
 50
-3.83791798967163
 51
-0.00514357713737
  0
ARC
  5
C9
330
39
100
AcDbEntity
  8
1
  6
Continuous
 62
     7
100
AcDbCircle
 10
367.5472809650049
 20
232.1332439561737
 30
0.0
 40
1.959221670525283
100
AcDbArc
 50
-9.37260108639817
 51
-3.83791798967069
  0
ARC
  5
CA
330
39
100
AcDbEntity
  8
1
  6
Continuous
 62
     7
100
AcDbCircle
 10
367.4630475275913
 20
232.1471473301018
 30
0.0
 40
2.044594826640673
100
AcDbArc
 50
-14.6780715712927
 51
-9.37260108640193
  0
ARC
  5
CB
330
39
100
AcDbEntity
  8
1
  6
Continuous
 62
     7
100
AcDbCircle
 10
367.4203414197854
 20
232.1583335999639
 30
0.0
 40
2.088741675648938
100
AcDbArc
 50
-19.98794307345777
 51
-14.67807157128962
  0
ARC
  5
CC
330
39
100
AcDbEntity
  8
1
  6
Continuous
 62
     7
100
AcDbCircle
 10
367.2860486438727
 20
232.2071801722061
 30
0.0
 40
2.23164212100217
100
AcDbArc
 50
-23.4483999653057
 51
-19.98794307345822
  0
ARC
  5
CD
330
39
100
AcDbEntity
  8
1
  6
Continuous
 62
     7
100
AcDbCircle
 10
367.1881120061418
 20
232.2496593990687
 30
0.0
 40
2.338394496736226
100
AcDbArc
 50
-26.75137744777269
 51
-23.44839996530484
  0
ARC
  5
CE
330
39
100
AcDbEntity
  8
1
  6
Continuous
 62
     7
100
AcDbCircle
 10
367.0276525329215
 20
232.3305424694489
 30
0.0
 40
2.518086771529177
100
AcDbArc
 50
-29.81983142576479
 51
-26.75137744777307
  0
ARC
  5
CF
330
39
100
AcDbEntity
  8
1
  6
Continuous
 62
     7
100
AcDbCircle
 10
366.9256508822631
 20
232.3890062598678
 30
0.0
 40
2.635655268700729
100
AcDbArc
 50
-32.75164132976576
 51
-29.81983142576493
  0
ARC
  5
D0
330
39
100
AcDbEntity
  8
1
  6
Continuous
 62
     7
100
AcDbCircle
 10
366.7581143969923
 20
232.4967761334625
 30
0.0
 40
2.834860739387482
100
AcDbArc
 50
-35.62806700316967
 51
-32.75164132976646
  0
ARC
  5
D1
330
39
100
AcDbEntity
  8
1
  6
Continuous
 62
     7
100
AcDbCircle
 10
366.6492074564923
 20
232.5748265669869
 30
0.0
 40
2.968848021852583
100
AcDbArc
 50
-38.5181052840488
 51
-35.62806700316943
  0
ARC
  5
D2
330
39
100
AcDbEntity
  8
1
  6
Continuous
 62
     7
100
AcDbCircle
 10
366.445750166413
 20
232.7367687999092
 30
0.0
 40
3.228886779906695
100
AcDbArc
 50
-41.17514053461989
 51
-38.51810528404866
  0
ARC
  5
D3
330
39
100
AcDbEntity
  8
1
  6
Continuous
 62
     7
100
AcDbCircle
 10
366.3124609785637
 20
232.8533525493942
 30
0.0
 40
3.405968055713924
100
AcDbArc
 50
-43.69457626015177
 51
-41.17514053462158
  0
ARC
  5
D4
330
39
100
AcDbEntity
  8
1
  6
Continuous
 62
     7
100
AcDbCircle
 10
366.0723761771515
 20
233.0827390915116
 30
0.0
 40
3.738020608141624
100
AcDbArc
 50
-45.99039746615589
 51
-43.69457626015189
  0
ARC
  5
D5
330
39
100
AcDbEntity
  8
1
  6
Continuous
 62
     7
100
AcDbCircle
 10
365.9245070481472
 20
233.2358107091533
 30
0.0
 40
3.950849646197855
100
AcDbArc
 50
-48.29355234313988
 51
-45.9903974661536
  0
ARC
  5
D6
330
39
100
AcDbEntity
  8
1
  6
Continuous
 62
     7
100
AcDbCircle
 10
365.7065001296955
 20
233.4804408797037
 30
0.0
 40
4.278524693823201
100
AcDbArc
 50
-50.54097616601101
 51
-48.2935523431403
  0
ARC
  5
D7
330
39
100
AcDbEntity
  8
1
  6
Continuous
 62
     7
100
AcDbCircle
 10
365.5859339244784
 20
233.6269126817489
 30
0.0
 40
4.468235522809927
100
AcDbArc
 50
-52.69280232873026
 51
-50.54097616601111
  0
ARC
  5
D8
330
39
100
AcDbEntity
  8
1
  6
Continuous
 62
     7
100
AcDbCircle
 10
365.3332535028687
 20
233.9585167218978
 30
0.0
 40
4.88513915065203
100
AcDbArc
 50
-54.66121156762851
 51
-52.69280232872914
  0
ARC
  5
D9
330
39
100
AcDbEntity
  8
1
  6
Continuous
 62
     7
100
AcDbCircle
 10
365.1960308445947
 20
234.1520452936678
 30
0.0
 40
5.122380306514844
100
AcDbArc
 50
-56.53856255234531
 51
-54.66121156762943
  0
ARC
  5
DA
330
39
100
AcDbEntity
  8
1
  6
Continuous
 62
     7
100
AcDbCircle
 10
364.9074578026771
 20
234.5886698086846
 30
0.0
 40
5.645749552492497
100
AcDbArc
 50
-58.33550607212184
 51
-56.53856255234479
  0
ARC
  5
DB
330
39
100
AcDbEntity
  8
1
  6
Continuous
 62
     7
100
AcDbCircle
 10
364.8238861806699
 20
234.7241715446231
 30
0.0
 40
5.804950483542758
100
AcDbArc
 50
-60.17408304738409
 51
-58.33550607212193
  0
ARC
  5
DC
330
39
100
AcDbEntity
  8
1
  6
Continuous
 62
     7
100
AcDbCircle
 10
364.5820931121092
 20
235.1459235607423
 30
0.0
 40
6.291097221785917
100
AcDbArc
 50
-61.87048981911987
 51
-60.17408304738441
  0
ARC
  5
DD
330
39
100
AcDbEntity
  8
1
  6
Continuous
 62
     7
100
AcDbCircle
 10
364.4900613202997
 20
235.3180703363337
 30
0.0
 40
6.486300610717157
100
AcDbArc
 50
-63.51594912179284
 51
-61.87048981911971
  0
ARC
  5
DE
330
39
100
AcDbEntity
  8
1
  6
Continuous
 62
     7
100
AcDbCircle
 10
364.2215635265497
 20
235.8569692126134
 30
0.0
 40
7.088382884251334
100
AcDbArc
 50
-65.02168814021323
 51
-63.51594912179302
  0
ARC
  5
DF
330
39
100
AcDbEntity
  8
1
  6
Continuous
 62
     7
100
AcDbCircle
 10
364.1245431843422
 20
236.0652357952552
 30
0.0
 40
7.318139094716712
100
AcDbArc
 50
-66.54589314600464
 51
-65.02168814021337
  0
ARC
  5
E0
330
39
100
AcDbEntity
  8
1
  6
Continuous
 62
     7
100
AcDbCircle
 10
363.9050009092068
 20
236.5712564735324
 30
0.0
 40
7.86973291032345
100
AcDbArc
 50
-68.02432798591595
 51
-66.54589314600497
  0
ARC
  5
E1
330
39
100
AcDbEntity
  8
1
  6
Continuous
 62
     7
100
AcDbCircle
 10
363.8662870832841
 20
236.6671938166235
 30
0.0
 40
7.973186929660296
100
AcDbArc
 50
-69.48353928739056
 51
-68.02432798591573
  0
ARC
  5
E2
330
39
100
AcDbEntity
  8
1
  6
Continuous
 62
     7
100
AcDbCircle
 10
363.6414195848286
 20
237.2681029186733
 30
0.0
 40
8.61479205805936
100
AcDbArc
 50
-70.83411753653041
 51
-69.48353928739071
  0
ARC
  5
E3
330
39
100
AcDbEntity
  8
1
  6
Continuous
 62
     7
100
AcDbCircle
 10
363.6037620451571
 20
237.3764483301434
 30
0.0
 40
8.729495233607066
100
AcDbArc
 50
-72.16697488157656
 51
-70.83411753653088
  0
ARC
  5
E4
330
39
100
AcDbEntity
  8
1
  6
Continuous
 62
     7
100
AcDbCircle
 10
363.3750708792516
 20
238.0873298729349
 30
0.0
 40
9.476256385010208
100
AcDbArc
 50
-73.43621096269274
 51
-72.16697488157557
  0
ARC
  5
E5
330
39
100
AcDbEntity
  8
1
  6
Continuous
 62
     7
100
AcDbCircle
 10
363.3840852719306
 20
238.0570217434546
 30
0.0
 40
9.444636106896889
100
AcDbArc
 50
-74.75122090077798
 51
-73.43621096269307
  0
ARC
  5
E6
330
39
100
AcDbEntity
  8
1
  6
Continuous
 62
     7
100
AcDbCircle
 10
363.2116035327118
 20
238.6897305653003
 30
0.0
 40
10.10043363937573
100
AcDbArc
 50
-75.98082797866584
 51
-74.75122090077831
  0
ARC
  5
E7
330
39
100
AcDbEntity
  8
1
  6
Continuous
 62
     7
100
AcDbCircle
 10
363.2218013678958
 20
238.6488875088511
 30
0.0
 40
10.0583367142795
100
AcDbArc
 50
-77.21560695564169
 51
-75.98082797866607
  0
ARC
  5
E8
330
39
100
AcDbEntity
  8
1
  6
Continuous
 62
     7
100
AcDbCircle
 10
363.0585666267604
 20
239.368274872521
 30
0.0
 40
10.79601127648259
100
AcDbArc
 50
-78.36602601395396
 51
-77.21560695564163
  0
ARC
  5
E9
330
39
100
AcDbEntity
  8
1
  6
Continuous
 62
     7
100
AcDbCircle
 10
363.0521829071103
 20
239.3992805793019
 30
0.0
 40
10.82766733008302
100
AcDbArc
 50
-80.13759125310078
 51
-78.36602601395411
  0
ARC
  5
EA
330
39
100
AcDbEntity
  8
1
  6
Continuous
 62
     7
100
AcDbCircle
 10
362.9396386734969
 20
240.0466373661759
 30
0.0
 40
11.48473430842811
100
AcDbArc
 50
-82.39653416241482
 51
-80.13759125309996
  0
ARC
  5
EB
330
39
100
AcDbEntity
  8
1
  6
Continuous
 62
     7
100
AcDbCircle
 10
362.9090193890843
 20
240.2760123887836
 30
0.0
 40
11.71614399183443
100
AcDbArc
 50
-84.61089107510179
 51
-82.39653416241454
  0
ARC
  5
EC
330
39
100
AcDbEntity
  8
1
  6
Continuous
 62
     7
100
AcDbCircle
 10
362.8571660955415
 20
240.825678110377
 30
0.0
 40
12.26825011346869
100
AcDbArc
 50
-89.47326155791741
 51
-84.61089107510202
  0
ARC
  5
ED
330
39
100
AcDbEntity
  8
1
  6
Continuous
 62
     7
100
AcDbCircle
 10
362.8635417088331
 20
223.5817600390071
 30
0.0
 40
12.11718326375004
100
AcDbArc
 50
83.50322681730793
 51
90.04384403443567
  0
ARC
  5
EE
330
39
100
AcDbEntity
  8
1
  6
Continuous
 62
     7
100
AcDbCircle
 10
362.9087308223636
 20
223.978578491318
 30
0.0
 40
11.71780006420847
100
AcDbArc
 50
81.28919856903052
 51
83.50322681730843
  0
ARC
  5
EF
330
39
100
AcDbEntity
  8
1
  6
Continuous
 62
     7
100
AcDbCircle
 10
363.0090386667679
 20
224.6332677110644
 30
0.0
 40
11.05547111413812
100
AcDbArc
 50
78.94250833563274
 51
81.28919856902985
  0
ARC
  5
F0
330
39
100
AcDbEntity
  8
1
  6
Continuous
 62
     7
100
AcDbCircle
 10
363.0400768384548
 20
224.7920942321736
 30
0.0
 40
10.89364023973737
100
AcDbArc
 50
77.80241211342666
 51
78.94250833563322
  0
ARC
  5
F1
330
39
100
AcDbEntity
  8
1
  6
Continuous
 62
     7
100
AcDbCircle
 10
363.1657683595687
 20
225.3735590542755
 30
0.0
 40
10.29874554500398
100
AcDbArc
 50
76.59644657029051
 51
77.80241211342607
  0
ARC
  5
F2
330
39
100
AcDbEntity
  8
1
  6
Continuous
 62
     7
100
AcDbCircle
 10
363.1907299154659
 20
225.4783078816138
 30
0.0
 40
10.1910636240443
100
AcDbArc
 50
75.37776435552156
 51
76.59644657029067
  0
ARC
  5
F3
330
39
100
AcDbEntity
  8
1
  6
Continuous
 62
     7
100
AcDbCircle
 10
363.3248540516
 20
225.9924003818075
 30
0.0
 40
9.659762972201033
100
AcDbArc
 50
74.0920608747212
 51
75.37776435552169
  0
ARC
  5
F4
330
39
100
AcDbEntity
  8
1
  6
Continuous
 62
     7
100
AcDbCircle
 10
363.3703975846364
 20
226.152198155265
 30
0.0
 40
9.493601779970684
100
AcDbArc
 50
72.17102362415899
 51
74.09206087472096
  0
ARC
  5
F5
330
39
100
AcDbEntity
  8
1
  6
Continuous
 62
     7
100
AcDbCircle
 10
363.6204883160941
 20
226.9297882603438
 30
0.0
 40
8.676783718541204
100
AcDbArc
 50
70.83006879394735
 51
72.17102362415982
  0
ARC
  5
F6
330
39
100
AcDbEntity
  8
1
  6
Continuous
 62
     7
100
AcDbCircle
 10
363.6237825129072
 20
226.9392639138174
 30
0.0
 40
8.666751782467031
100
AcDbArc
 50
69.48758802997475
 51
70.83006879394763
  0
ARC
  5
F7
330
39
100
AcDbEntity
  8
1
  6
Continuous
 62
     7
100
AcDbCircle
 10
363.8822322677191
 20
227.6300629444937
 30
0.0
 40
7.929188512946666
100
AcDbArc
 50
68.02027924333247
 51
69.48758802997403
  0
ARC
  5
F8
330
39
100
AcDbEntity
  8
1
  6
Continuous
 62
     7
100
AcDbCircle
 10
363.8882647283425
 20
227.6450090368463
 30
0.0
 40
7.913070936894878
100
AcDbArc
 50
66.54994188858797
 51
68.02027924333261
  0
ARC
  5
F9
330
39
100
AcDbEntity
  8
1
  6
Continuous
 62
     7
100
AcDbCircle
 10
364.1404065326846
 20
228.2262805171656
 30
0.0
 40
7.279468519499323
100
AcDbArc
 50
65.01763939763103
 51
66.54994188858848
  0
ARC
  5
FA
330
39
100
AcDbEntity
  8
1
  6
Continuous
 62
     7
100
AcDbCircle
 10
364.2049239977213
 20
228.3647499504072
 30
0.0
 40
7.126706327720592
100
AcDbArc
 50
63.51999786437582
 51
65.01763939762991
  0
ARC
  5
FB
330
39
100
AcDbEntity
  8
1
  6
Continuous
 62
     7
100
AcDbCircle
 10
364.5046334735257
 20
228.9663999495737
 30
0.0
 40
6.454539316194513
100
AcDbArc
 50
61.8664410765376
 51
63.51999786437619
  0
ARC
  5
FC
330
39
100
AcDbEntity
  8
1
  6
Continuous
 62
     7
100
AcDbCircle
 10
364.5674744847757
 20
229.0839249801429
 30
0.0
 40
6.321268443513274
100
AcDbArc
 50
60.17813178996784
 51
61.86644107653798
  0
ARC
  5
FD
330
39
100
AcDbEntity
  8
1
  6
Continuous
 62
     7
100
AcDbCircle
 10
364.8368994363871
 20
229.5539513900946
 30
0.0
 40
5.779498537923294
100
AcDbArc
 50
58.33145732953864
 51
60.17813178996715
  0
ARC
  5
FE
330
39
100
AcDbEntity
  8
1
  6
Continuous
 62
     7
100
AcDbCircle
 10
364.8937021491283
 20
229.6460358660595
 30
0.0
 40
5.671303811210499
100
AcDbArc
 50
56.54261129492892
 51
58.33145732953894
  0
ARC
  5
FF
330
39
100
AcDbEntity
  8
1
  6
Continuous
 62
     7
100
AcDbCircle
 10
365.2528173463134
 20
230.1894774427657
 30
0.0
 40
5.019926445820543
100
AcDbArc
 50
55.58479018327579
 51
56.54261129492925
  0
ARC
  5
100
330
39
100
AcDbEntity
  8
1
  6
Continuous
 62
     7
100
AcDbCircle
 10
365.1659546810372
 20
230.0626899334315
 30
0.0
 40
5.173615076311119
100
AcDbArc
 50
53.72604720347578
 51
55.58479018327532
  0
ARC
  5
101
330
39
100
AcDbEntity
  8
1
  6
Continuous
 62
     7
100
AcDbCircle
 10
365.5479535855858
 20
230.5832142262526
 30
0.0
 40
4.527961374630934
100
AcDbArc
 50
51.60249499566555
 51
53.72604720347588
  0
ARC
  5
102
330
39
100
AcDbEntity
  8
1
  6
Continuous
 62
     7
100
AcDbCircle
 10
365.5641989222454
 20
230.6037125736779
 30
0.0
 40
4.501806199037008
100
AcDbArc
 50
49.46672482297274
 51
51.60249499566514
  0
ARC
  5
103
330
39
100
AcDbEntity
  8
1
  6
Continuous
 62
     7
100
AcDbCircle
 10
365.8897471127532
 20
230.984432581808
 30
0.0
 40
4.000877712191445
100
AcDbArc
 50
47.06283292397094
 51
49.46672482297222
  0
ARC
  5
104
330
39
100
AcDbEntity
  8
1
  6
Continuous
 62
     7
100
AcDbCircle
 10
365.9146603653057
 20
231.0112075827441
 30
0.0
 40
3.964304896769671
100
AcDbArc
 50
44.89834186822105
 51
47.06283292397207
  0
ARC
  5
105
330
39
100
AcDbEntity
  8
1
  6
Continuous
 62
     7
100
AcDbCircle
 10
366.2665771777974
 20
231.3618778154357
 30
0.0
 40
3.4675000507684
100
AcDbArc
 50
42.42339965240878
 51
44.89834186822102
  0
ARC
  5
106
330
39
100
AcDbEntity
  8
1
  6
Continuous
 62
     7
100
AcDbCircle
 10
366.3123411112965
 20
231.4037003157321
 30
0.0
 40
3.405504412693122
100
AcDbArc
 50
39.90392927687776
 51
42.4233996524091
  0
ARC
  5
107
330
39
100
AcDbEntity
  8
1
  6
Continuous
 62
     7
100
AcDbCircle
 10
366.6086053055486
 20
231.651450155671
 30
0.0
 40
3.019301802674034
100
AcDbArc
 50
37.06249637678913
 51
39.90392927687714
  0
ARC
  5
108
330
39
100
AcDbEntity
  8
1
  6
Continuous
 62
     7
100
AcDbCircle
 10
366.6504171043262
 20
231.6830291694064
 30
0.0
 40
2.966904659378586
100
AcDbArc
 50
34.16969710193795
 51
37.06249637679001
  0
ARC
  5
109
330
39
100
AcDbEntity
  8
1
  6
Continuous
 62
     7
100
AcDbCircle
 10
366.9001848719681
 20
231.8525781294841
 30
0.0
 40
2.665025896269667
100
AcDbArc
 50
31.2708698046888
 51
34.16969710193769
  0
ARC
  5
10A
330
39
100
AcDbEntity
  8
1
  6
Continuous
 62
     7
100
AcDbCircle
 10
366.9204136842697
 20
231.864863357813
 30
0.0
 40
2.641358795005847
100
AcDbArc
 50
28.34531312310962
 51
31.27086980468805
  0
ARC
  5
10B
330
39
100
AcDbEntity
  8
1
  6
Continuous
 62
     7
100
AcDbCircle
 10
367.1577499431641
 20
231.9928979889497
 30
0.0
 40
2.371689800577006
100
AcDbArc
 50
25.08804044719669
 51
28.34531312311156
  0
ARC
  5
10C
330
39
100
AcDbEntity
  8
1
  6
Continuous
 62
     7
100
AcDbCircle
 10
367.1914392280745
 20
232.0086706288723
 30
0.0
 40
2.334491089740371
100
AcDbArc
 50
21.78003181772722
 51
25.08804044719578
  0
ARC
  5
10D
330
39
100
AcDbEntity
  8
1
  6
Continuous
 62
     7
100
AcDbCircle
 10
367.3977755291136
 20
232.0911158585223
 30
0.0
 40
2.112293238674033
100
AcDbArc
 50
18.12326386993676
 51
21.78003181772451
  0
ARC
  5
10E
330
39
100
AcDbEntity
  8
1
  6
Continuous
 62
     7
100
AcDbCircle
 10
367.4196341301503
 20
232.0982701753457
 30
0.0
 40
2.089293615014331
100
AcDbArc
 50
11.20237824740703
 51
18.12326386993636
  0
ARC
  5
10F
330
39
100
AcDbEntity
  8
1
  6
Continuous
 62
     7
100
AcDbCircle
 10
367.5470571324535
 20
232.1235061057381
 30
0.0
 40
1.959395679315699
100
AcDbArc
 50
5.66707811642425
 51
11.20237824740977
  0
ARC
  5
110
330
39
100
AcDbEntity
  8
1
  6
Continuous
 62
     7
100
AcDbCircle
 10
367.5520523619313
 20
232.1240017972595
 30
0.0
 40
1.954375915614112
100
AcDbArc
 50
1.96932947907259
 51
5.66707811642452
  0
ARC
  5
111
330
39
100
AcDbEntity
  8
1
  6
Continuous
 62
     7
100
AcDbCircle
 10
367.7063292239279
 20
232.1293065801773
 30
0.0
 40
1.800007878542447
100
AcDbArc
 50
-0.03768308224921
 51
1.96932947907048
  0
ARC
  5
112
330
39
100
AcDbEntity
  8
1
  6
Continuous
 62
     7
100
AcDbCircle
 10
362.8565050907803
 20
240.8975766335528
 30
0.0
 40
12.34015167508005
100
AcDbArc
 50
-90.01038055576876
 51
-89.47326155791748
  0
ARC
  5
113
330
39
100
AcDbEntity
  8
1
  6
Continuous
 62
     7
100
AcDbCircle
 10
352.3542693653386
 20
232.1281227261374
 30
0.0
 40
4.999999999999985
100
AcDbArc
 50
105.3375576695541
 51
-124.0557977425669
  0
ARC
  5
114
330
39
100
AcDbEntity
  8
1
  6
Continuous
 62
     7
100
AcDbCircle
 10
358.0874407854925
 20
232.1282919684644
 30
0.0
 40
1.885238775575518
100
AcDbArc
 50
-179.9948564228627
 51
-176.1620820103286
  0
ARC
  5
115
330
39
100
AcDbEntity
  8
1
  6
Continuous
 62
     7
100
AcDbCircle
 10
358.1612577656724
 20
232.1332439561737
 30
0.0
 40
1.959221670525443
100
AcDbArc
 50
-176.1620820103296
 51
-170.6273989136021
  0
ARC
  5
116
330
39
100
AcDbEntity
  8
1
  6
Continuous
 62
     7
100
AcDbCircle
 10
358.2454912030859
 20
232.1471473301018
 30
0.0
 40
2.044594826640592
100
AcDbArc
 50
-170.6273989135978
 51
-165.3219284287077
  0
ARC
  5
117
330
39
100
AcDbEntity
  8
1
  6
Continuous
 62
     7
100
AcDbCircle
 10
358.2881973108918
 20
232.1583335999639
 30
0.0
 40
2.088741675648957
100
AcDbArc
 50
-165.3219284287108
 51
-160.0120569265412
  0
ARC
  5
118
330
39
100
AcDbEntity
  8
1
  6
Continuous
 62
     7
100
AcDbCircle
 10
358.4224900868045
 20
232.2071801722061
 30
0.0
 40
2.231642121002049
100
AcDbArc
 50
-160.0120569265403
 51
-156.5516000346931
  0
ARC
  5
119
330
39
100
AcDbEntity
  8
1
  6
Continuous
 62
     7
100
AcDbCircle
 10
358.5204267245354
 20
232.2496593990687
 30
0.0
 40
2.338394496736197
100
AcDbArc
 50
-156.5516000346946
 51
-153.2486225522273
  0
ARC
  5
11A
330
39
100
AcDbEntity
  8
1
  6
Continuous
 62
     7
100
AcDbCircle
 10
358.6808861977557
 20
232.3305424694489
 30
0.0
 40
2.518086771529147
100
AcDbArc
 50
-153.2486225522264
 51
-150.1801685742339
  0
ARC
  5
11B
330
39
100
AcDbEntity
  8
1
  6
Continuous
 62
     7
100
AcDbCircle
 10
358.7828878484141
 20
232.3890062598678
 30
0.0
 40
2.635655268700665
100
AcDbArc
 50
-150.1801685742339
 51
-147.2483586702342
  0
ARC
  5
11C
330
39
100
AcDbEntity
  8
1
  6
Continuous
 62
     7
100
AcDbCircle
 10
358.9504243336849
 20
232.4967761334625
 30
0.0
 40
2.834860739387451
100
AcDbArc
 50
-147.2483586702342
 51
-144.3719329968303
  0
ARC
  5
11D
330
39
100
AcDbEntity
  8
1
  6
Continuous
 62
     7
100
AcDbCircle
 10
359.059331274185
 20
232.5748265669869
 30
0.0
 40
2.968848021852795
100
AcDbArc
 50
-144.3719329968318
 51
-141.4818947159533
  0
ARC
  5
11E
330
39
100
AcDbEntity
  8
1
  6
Continuous
 62
     7
100
AcDbCircle
 10
359.2627885642642
 20
232.7367687999092
 30
0.0
 40
3.228886779906659
100
AcDbArc
 50
-141.481894715952
 51
-138.8248594653801
  0
ARC
  5
11F
330
39
100
AcDbEntity
  8
1
  6
Continuous
 62
     7
100
AcDbCircle
 10
359.3960777521136
 20
232.8533525493942
 30
0.0
 40
3.405968055713977
100
AcDbArc
 50
-138.8248594653797
 51
-136.3054237398489
  0
ARC
  5
120
330
39
100
AcDbEntity
  8
1
  6
Continuous
 62
     7
100
AcDbCircle
 10
359.6361625535259
 20
233.0827390915116
 30
0.0
 40
3.738020608141644
100
AcDbArc
 50
-136.3054237398493
 51
-134.0096025338447
  0
ARC
  5
121
330
39
100
AcDbEntity
  8
1
  6
Continuous
 62
     7
100
AcDbCircle
 10
359.78403168253
 20
233.2358107091533
 30
0.0
 40
3.950849646197753
100
AcDbArc
 50
-134.0096025338446
 51
-131.7064476568595
  0
ARC
  5
122
330
39
100
AcDbEntity
  8
1
  6
Continuous
 62
     7
100
AcDbCircle
 10
360.0020386009817
 20
233.4804408797037
 30
0.0
 40
4.278524693823242
100
AcDbArc
 50
-131.7064476568592
 51
-129.4590238339878
  0
ARC
  5
123
330
39
100
AcDbEntity
  8
1
  6
Continuous
 62
     7
100
AcDbCircle
 10
360.1226048061989
 20
233.6269126817489
 30
0.0
 40
4.468235522809917
100
AcDbArc
 50
-129.4590238339895
 51
-127.3071976712698
  0
ARC
  5
124
330
39
100
AcDbEntity
  8
1
  6
Continuous
 62
     7
100
AcDbCircle
 10
360.3752852278085
 20
233.9585167218978
 30
0.0
 40
4.88513915065198
100
AcDbArc
 50
-127.3071976712693
 51
-125.338788432371
  0
ARC
  5
125
330
39
100
AcDbEntity
  8
1
  6
Continuous
 62
     7
100
AcDbCircle
 10
360.5125078860826
 20
234.1520452936678
 30
0.0
 40
5.122380306514851
100
AcDbArc
 50
-125.3387884323711
 51
-123.4614374476552
  0
ARC
  5
126
330
39
100
AcDbEntity
  8
1
  6
Continuous
 62
     7
100
AcDbCircle
 10
360.8010809280002
 20
234.5886698086846
 30
0.0
 40
5.645749552492562
100
AcDbArc
 50
-123.4614374476557
 51
-121.6644939278791
  0
ARC
  5
127
330
39
100
AcDbEntity
  8
1
  6
Continuous
 62
     7
100
AcDbCircle
 10
360.8846525500073
 20
234.7241715446231
 30
0.0
 40
5.804950483542703
100
AcDbArc
 50
-121.6644939278781
 51
-119.8259169526154
  0
ARC
  5
128
330
39
100
AcDbEntity
  8
1
  6
Continuous
 62
     7
100
AcDbCircle
 10
361.1264456185681
 20
235.1459235607423
 30
0.0
 40
6.291097221786094
100
AcDbArc
 50
-119.825916952616
 51
-118.129510180881
  0
ARC
  5
129
330
39
100
AcDbEntity
  8
1
  6
Continuous
 62
     7
100
AcDbCircle
 10
361.2184774103776
 20
235.3180703363337
 30
0.0
 40
6.486300610717084
100
AcDbArc
 50
-118.1295101808812
 51
-116.4840508782076
  0
ARC
  5
12A
330
39
100
AcDbEntity
  8
1
  6
Continuous
 62
     7
100
AcDbCircle
 10
361.4869752041276
 20
235.8569692126134
 30
0.0
 40
7.08838288425139
100
AcDbArc
 50
-116.4840508782074
 51
-114.9783118597864
  0
ARC
  5
12B
330
39
100
AcDbEntity
  8
1
  6
Continuous
 62
     7
100
AcDbCircle
 10
361.583995546335
 20
236.0652357952552
 30
0.0
 40
7.318139094716545
100
AcDbArc
 50
-114.9783118597858
 51
-113.4541068539945
  0
ARC
  5
12C
330
39
100
AcDbEntity
  8
1
  6
Continuous
 62
     7
100
AcDbCircle
 10
361.8035378214704
 20
236.5712564735324
 30
0.0
 40
7.869732910323526
100
AcDbArc
 50
-113.4541068539943
 51
-111.9756720140833
  0
ARC
  5
12D
330
39
100
AcDbEntity
  8
1
  6
Continuous
 62
     7
100
AcDbCircle
 10
361.8422516473933
 20
236.6671938166235
 30
0.0
 40
7.973186929660346
100
AcDbArc
 50
-111.9756720140847
 51
-110.5164607126106
  0
ARC
  5
12E
330
39
100
AcDbEntity
  8
1
  6
Continuous
 62
     7
100
AcDbCircle
 10
362.0671191458487
 20
237.2681029186733
 30
0.0
 40
8.614792058059347
100
AcDbArc
 50
-110.51646071261
 51
-109.1658824634696
  0
ARC
  5
12F
330
39
100
AcDbEntity
  8
1
  6
Continuous
 62
     7
100
AcDbCircle
 10
362.1047766855202
 20
237.3764483301434
 30
0.0
 40
8.729495233607112
100
AcDbArc
 50
-109.1658824634691
 51
-107.8330251184242
  0
ARC
  5
130
330
39
100
AcDbEntity
  8
1
  6
Continuous
 62
     7
100
AcDbCircle
 10
362.3334678514256
 20
238.0873298729349
 30
0.0
 40
9.476256385010137
100
AcDbArc
 50
-107.8330251184244
 51
-106.5637890373066
  0
ARC
  5
131
330
39
100
AcDbEntity
  8
1
  6
Continuous
 62
     7
100
AcDbCircle
 10
362.3244534587467
 20
238.0570217434546
 30
0.0
 40
9.444636106896853
100
AcDbArc
 50
-106.5637890373066
 51
-105.2487790992227
  0
ARC
  5
132
330
39
100
AcDbEntity
  8
1
  6
Continuous
 62
     7
100
AcDbCircle
 10
362.4969351979655
 20
238.6897305653003
 30
0.0
 40
10.10043363937573
100
AcDbArc
 50
-105.2487790992226
 51
-104.0191720213339
  0
ARC
  5
133
330
39
100
AcDbEntity
  8
1
  6
Continuous
 62
     7
100
AcDbCircle
 10
362.4867373627816
 20
238.6488875088511
 30
0.0
 40
10.05833671427955
100
AcDbArc
 50
-104.0191720213339
 51
-102.7843930443596
  0
ARC
  5
134
330
39
100
AcDbEntity
  8
1
  6
Continuous
 62
     7
100
AcDbCircle
 10
362.649972103917
 20
239.368274872521
 30
0.0
 40
10.79601127648261
100
AcDbArc
 50
-102.7843930443596
 51
-101.6339739860469
  0
ARC
  5
135
330
39
100
AcDbEntity
  8
1
  6
Continuous
 62
     7
100
AcDbCircle
 10
362.6563558235671
 20
239.3992805793019
 30
0.0
 40
10.82766733008306
100
AcDbArc
 50
-101.6339739860468
 51
-99.86240874690012
  0
ARC
  5
136
330
39
100
AcDbEntity
  8
1
  6
Continuous
 62
     7
100
AcDbCircle
 10
362.7689000571803
 20
240.0466373661759
 30
0.0
 40
11.48473430842805
100
AcDbArc
 50
-99.86240874690004
 51
-97.60346583758518
  0
ARC
  5
137
330
39
100
AcDbEntity
  8
1
  6
Continuous
 62
     7
100
AcDbCircle
 10
362.7995193415929
 20
240.2760123887836
 30
0.0
 40
11.71614399183446
100
AcDbArc
 50
-97.60346583758519
 51
-95.38910892489793
  0
ARC
  5
138
330
39
100
AcDbEntity
  8
1
  6
Continuous
 62
     7
100
AcDbCircle
 10
362.8513726351357
 20
240.825678110377
 30
0.0
 40
12.26825011346868
100
AcDbArc
 50
-95.38910892489798
 51
-90.52673844208286
  0
ARC
  5
139
330
39
100
AcDbEntity
  8
1
  6
Continuous
 62
     7
100
AcDbCircle
 10
362.8449970218441
 20
223.5817600390071
 30
0.0
 40
12.1171832637501
100
AcDbArc
 50
89.95615596556435
 51
96.49677318269208
  0
ARC
  5
13A
330
39
100
AcDbEntity
  8
1
  6
Continuous
 62
     7
100
AcDbCircle
 10
362.7998079083137
 20
223.978578491318
 30
0.0
 40
11.71780006420845
100
AcDbArc
 50
96.49677318269214
 51
98.71080143097031
  0
ARC
  5
13B
330
39
100
AcDbEntity
  8
1
  6
Continuous
 62
     7
100
AcDbCircle
 10
362.6995000639093
 20
224.6332677110644
 30
0.0
 40
11.05547111413819
100
AcDbArc
 50
98.71080143097016
 51
101.057491664367
  0
ARC
  5
13C
330
39
100
AcDbEntity
  8
1
  6
Continuous
 62
     7
100
AcDbCircle
 10
362.6684618922225
 20
224.7920942321736
 30
0.0
 40
10.89364023973736
100
AcDbArc
 50
101.0574916643674
 51
102.1975878865731
  0
ARC
  5
13D
330
39
100
AcDbEntity
  8
1
  6
Continuous
 62
     7
100
AcDbCircle
 10
362.5427703711085
 20
225.3735590542755
 30
0.0
 40
10.29874554500397
100
AcDbArc
 50
102.1975878865727
 51
103.4035534297092
  0
ARC
  5
13E
330
39
100
AcDbEntity
  8
1
  6
Continuous
 62
     7
100
AcDbCircle
 10
362.5178088152113
 20
225.4783078816138
 30
0.0
 40
10.19106362404432
100
AcDbArc
 50
103.4035534297093
 51
104.6222356444781
  0
ARC
  5
13F
330
39
100
AcDbEntity
  8
1
  6
Continuous
 62
     7
100
AcDbCircle
 10
362.3836846790772
 20
225.9924003818075
 30
0.0
 40
9.659762972200975
100
AcDbArc
 50
104.622235644478
 51
105.9079391252785
  0
ARC
  5
140
330
39
100
AcDbEntity
  8
1
  6
Continuous
 62
     7
100
AcDbCircle
 10
362.3381411460408
 20
226.152198155265
 30
0.0
 40
9.493601779970659
100
AcDbArc
 50
105.9079391252787
 51
107.828976375841
  0
ARC
  5
141
330
39
100
AcDbEntity
  8
1
  6
Continuous
 62
     7
100
AcDbCircle
 10
362.0880504145832
 20
226.9297882603438
 30
0.0
 40
8.676783718541193
100
AcDbArc
 50
107.8289763758409
 51
109.1699312060527
  0
ARC
  5
142
330
39
100
AcDbEntity
  8
1
  6
Continuous
 62
     7
100
AcDbCircle
 10
362.0847562177701
 20
226.9392639138174
 30
0.0
 40
8.666751782467085
100
AcDbArc
 50
109.1699312060524
 51
110.512411970026
  0
ARC
  5
143
330
39
100
AcDbEntity
  8
1
  6
Continuous
 62
     7
100
AcDbCircle
 10
361.8263064629581
 20
227.6300629444937
 30
0.0
 40
7.929188512946617
100
AcDbArc
 50
110.5124119700256
 51
111.9797207566664
  0
ARC
  5
144
330
39
100
AcDbEntity
  8
1
  6
Continuous
 62
     7
100
AcDbCircle
 10
361.8202740023347
 20
227.6450090368463
 30
0.0
 40
7.913070936894817
100
AcDbArc
 50
111.9797207566666
 51
113.4500581114113
  0
ARC
  5
145
330
39
100
AcDbEntity
  8
1
  6
Continuous
 62
     7
100
AcDbCircle
 10
361.5681321979927
 20
228.2262805171656
 30
0.0
 40
7.279468519499316
100
AcDbArc
 50
113.4500581114115
 51
114.982360602369
  0
ARC
  5
146
330
39
100
AcDbEntity
  8
1
  6
Continuous
 62
     7
100
AcDbCircle
 10
361.503614732956
 20
228.3647499504072
 30
0.0
 40
7.126706327720688
100
AcDbArc
 50
114.9823606023701
 51
116.480002135625
  0
ARC
  5
147
330
39
100
AcDbEntity
  8
1
  6
Continuous
 62
     7
100
AcDbCircle
 10
361.2039052571515
 20
228.9663999495737
 30
0.0
 40
6.454539316194439
100
AcDbArc
 50
116.4800021356238
 51
118.1335589234629
  0
ARC
  5
148
330
39
100
AcDbEntity
  8
1
  6
Continuous
 62
     7
100
AcDbCircle
 10
361.1410642459016
 20
229.0839249801429
 30
0.0
 40
6.321268443513355
100
AcDbArc
 50
118.1335589234629
 51
119.8218682100326
  0
ARC
  5
149
330
39
100
AcDbEntity
  8
1
  6
Continuous
 62
     7
100
AcDbCircle
 10
360.8716392942901
 20
229.5539513900946
 30
0.0
 40
5.779498537923374
100
AcDbArc
 50
119.8218682100329
 51
121.6685426704619
  0
ARC
  5
14A
330
39
100
AcDbEntity
  8
1
  6
Continuous
 62
     7
100
AcDbCircle
 10
360.8148365815489
 20
229.6460358660595
 30
0.0
 40
5.671303811210371
100
AcDbArc
 50
121.6685426704611
 51
123.4573887050706
  0
ARC
  5
14B
330
39
100
AcDbEntity
  8
1
  6
Continuous
 62
     7
100
AcDbCircle
 10
360.4557213843638
 20
230.1894774427657
 30
0.0
 40
5.019926445820624
100
AcDbArc
 50
123.4573887050708
 51
124.4152098167247
  0
ARC
  5
14C
330
39
100
AcDbEntity
  8
1
  6
Continuous
 62
     7
100
AcDbCircle
 10
360.54258404964
 20
230.0626899334315
 30
0.0
 40
5.17361507631112
100
AcDbArc
 50
124.4152098167252
 51
126.2739527965232
  0
ARC
  5
14D
330
39
100
AcDbEntity
  8
1
  6
Continuous
 62
     7
100
AcDbCircle
 10
360.1605851450914
 20
230.5832142262526
 30
0.0
 40
4.527961374630899
100
AcDbArc
 50
126.2739527965224
 51
128.3975050043333
  0
ARC
  5
14E
330
39
100
AcDbEntity
  8
1
  6
Continuous
 62
     7
100
AcDbCircle
 10
360.1443398084319
 20
230.6037125736779
 30
0.0
 40
4.501806199036944
100
AcDbArc
 50
128.3975050043349
 51
130.5332751770278
  0
ARC
  5
14F
330
39
100
AcDbEntity
  8
1
  6
Continuous
 62
     7
100
AcDbCircle
 10
359.818791617924
 20
230.984432581808
 30
0.0
 40
4.000877712191328
100
AcDbArc
 50
130.5332751770272
 51
132.9371670760267
  0
ARC
  5
150
330
39
100
AcDbEntity
  8
1
  6
Continuous
 62
     7
100
AcDbCircle
 10
359.7938783653716
 20
231.0112075827441
 30
0.0
 40
3.96430489676962
100
AcDbArc
 50
132.9371670760267
 51
135.1016581317795
  0
ARC
  5
151
330
39
100
AcDbEntity
  8
1
  6
Continuous
 62
     7
100
AcDbCircle
 10
359.4419615528798
 20
231.3618778154357
 30
0.0
 40
3.467500050768412
100
AcDbArc
 50
135.1016581317783
 51
137.57660034759
  0
ARC
  5
152
330
39
100
AcDbEntity
  8
1
  6
Continuous
 62
     7
100
AcDbCircle
 10
359.3961976193808
 20
231.4037003157321
 30
0.0
 40
3.405504412693205
100
AcDbArc
 50
137.5766003475916
 51
140.0960707231241
  0
ARC
  5
153
330
39
100
AcDbEntity
  8
1
  6
Continuous
 62
     7
100
AcDbCircle
 10
359.0999334251286
 20
231.651450155671
 30
0.0
 40
3.019301802674019
100
AcDbArc
 50
140.0960707231236
 51
142.9375036232109
  0
ARC
  5
154
330
39
100
AcDbEntity
  8
1
  6
Continuous
 62
     7
100
AcDbCircle
 10
359.0581216263511
 20
231.6830291694064
 30
0.0
 40
2.966904659378725
100
AcDbArc
 50
142.9375036232113
 51
145.8303028980627
  0
ARC
  5
155
330
39
100
AcDbEntity
  8
1
  6
Continuous
 62
     7
100
AcDbCircle
 10
358.8083538587091
 20
231.8525781294841
 30
0.0
 40
2.665025896269486
100
AcDbArc
 50
145.8303028980616
 51
148.7291301953112
  0
ARC
  5
156
330
39
100
AcDbEntity
  8
1
  6
Continuous
 62
     7
100
AcDbCircle
 10
358.7881250464075
 20
231.864863357813
 30
0.0
 40
2.641358795005979
100
AcDbArc
 50
148.729130195312
 51
151.6546868768904
  0
ARC
  5
157
330
39
100
AcDbEntity
  8
1
  6
Continuous
 62
     7
100
AcDbCircle
 10
358.5507887875131
 20
231.9928979889497
 30
0.0
 40
2.371689800576933
100
AcDbArc
 50
151.6546868768885
 51
154.9119595528033
  0
ARC
  5
158
330
39
100
AcDbEntity
  8
1
  6
Continuous
 62
     7
100
AcDbCircle
 10
358.5170995026027
 20
232.0086706288723
 30
0.0
 40
2.334491089740448
100
AcDbArc
 50
154.9119595528042
 51
158.2199681822733
  0
ARC
  5
159
330
39
100
AcDbEntity
  8
1
  6
Continuous
 62
     7
100
AcDbCircle
 10
358.3107632015637
 20
232.0911158585223
 30
0.0
 40
2.112293238674069
100
AcDbArc
 50
158.2199681822767
 51
161.8767361300623
  0
ARC
  5
15A
330
39
100
AcDbEntity
  8
1
  6
Continuous
 62
     7
100
AcDbCircle
 10
358.2889046005269
 20
232.0982701753457
 30
0.0
 40
2.089293615014058
100
AcDbArc
 50
161.8767361300622
 51
168.7976217525921
  0
ARC
  5
15B
330
39
100
AcDbEntity
  8
1
  6
Continuous
 62
     7
100
AcDbCircle
 10
358.1614815982237
 20
232.1235061057381
 30
0.0
 40
1.959395679315662
100
AcDbArc
 50
168.7976217525893
 51
174.3329218835758
  0
ARC
  5
15C
330
39
100
AcDbEntity
  8
1
  6
Continuous
 62
     7
100
AcDbCircle
 10
358.156486368746
 20
232.1240017972595
 30
0.0
 40
1.954375915614177
100
AcDbArc
 50
174.3329218835758
 51
178.0306705209274
  0
ARC
  5
15D
330
39
100
AcDbEntity
  8
1
  6
Continuous
 62
     7
100
AcDbCircle
 10
358.0022095067494
 20
232.1293065801773
 30
0.0
 40
1.800007878542556
100
AcDbArc
 50
178.0306705209295
 51
-179.9623169177508
  0
ARC
  5
15E
330
39
100
AcDbEntity
  8
1
  6
Continuous
 62
     7
100
AcDbCircle
 10
362.8520336398969
 20
240.8975766335528
 30
0.0
 40
12.34015167508007
100
AcDbArc
 50
-90.52673844208253
 51
-89.98961944423097
  0
SPLINE
  5
15F
330
39
100
AcDbEntity
  8
0
  6
Continuous
 62
     7
100
AcDbSpline
210
0.0
220
0.0
230
1.0
 70
    11
 71
     3
 72
    79
 73
    75
 74
    73
 42
0.0000000001
 43
0.0000000001
 44
0.00000001
 40
0.0
 40
0.0
 40
0.0
 40
0.0
 40
0.2910229153818411
 40
0.5820342278737848
 40
0.8749339334364372
 40
1.167812547519333
 40
1.463561188767276
 40
1.759282806464804
 40
2.058487811140663
 40
2.357663885605908
 40
2.660503341347579
 40
2.963315625194693
 40
3.269530826276579
 40
3.575723468843873
 40
3.884662744191451
 40
4.19358602791908
 40
4.504289085610763
 40
4.814983882015363
 40
5.126294430971124
 40
5.437604979926943
 40
5.748299776331577
 40
6.059002834023244
 40
6.367926117750862
 40
6.676865393098447
 40
6.983058035665716
 40
7.289273236747548
 40
7.592085520594619
 40
7.894924976336364
 40
8.19410105080155
 40
8.493306055477408
 40
8.789027673174982
 40
9.084776314422875
 40
9.377654928505834
 40
9.670554634068441
 40
9.961565946560446
 40
10.25258886194223
 40
10.54295309984928
 40
10.83331733775632
 40
11.12434025313816
 40
11.41535156563012
 40
11.70825127119287
 40
12.00112988527571
 40
12.29687852652359
 40
12.59260014422113
 40
12.89180514889702
 40
13.19098122336228
 40
13.49382067910397
 40
13.79663296295101
 40
14.10284816403276
 40
14.4090408066001
 40
14.71798008194771
 40
15.02690336567536
 40
15.33760642336696
 40
15.64830121977161
 40
15.95961176872743
 40
16.27092231768322
 40
16.58161711408791
 40
16.89232017177951
 40
17.20124345550711
 40
17.51018273085474
 40
17.81637537342206
 40
18.1225905745039
 40
18.42540285835091
 40
18.7282423140926
 40
19.02741838855778
 40
19.32662339323377
 40
19.62234501093133
 40
19.91809365217927
 40
20.21097226626226
 40
20.50387197182481
 40
20.79488328431675
 40
21.08590619969865
 40
21.37627043760564
 40
21.66663467551268
 40
21.66663467551268
 40
21.66663467551268
 40
21.66663467551268
 10
374.6885815635703
 20
235.6851919775386
 30
0.0
 10
374.5922065048534
 20
235.6735163097373
 30
0.0
 10
374.399460229829
 20
235.6501654396357
 30
0.0
 10
374.1155237205638
 20
235.580809446185
 30
0.0
 10
373.8382594547055
 20
235.4873666886097
 30
0.0
 10
373.569507070855
 20
235.3674597026325
 30
0.0
 10
373.3118616873355
 20
235.2234141974453
 30
0.0
 10
373.0666347401007
 20
235.0553475965999
 30
0.0
 10
372.8363713840437
 20
234.8655128635258
 30
0.0
 10
372.6221391755274
 20
234.6543767348585
 30
0.0
 10
372.4261847467649
 20
234.4245971312246
 30
0.0
 10
372.2494274031441
 20
234.1768685990003
 30
0.0
 10
372.0936565691769
 20
233.9141363591664
 30
0.0
 10
371.9596881518079
 20
233.6373853475246
 30
0.0
 10
371.8487651205224
 20
233.349653369761
 30
0.0
 10
371.7615883281509
 20
233.0522999233382
 30
0.0
 10
371.6988403180581
 20
232.7482539271951
 30
0.0
 10
371.6610399388458
 20
232.4393123314411
 30
0.0
 10
371.6483628653577
 20
232.1281227261384
 30
0.0
 10
371.6610399388455
 20
231.8169331208301
 30
0.0
 10
371.6988403180594
 20
231.5079915250929
 30
0.0
 10
371.7615883281464
 20
231.203945528888
 30
0.0
 10
371.8487651205396
 20
230.9065920826943
 30
0.0
 10
371.9596881517448
 20
230.6188601040794
 30
0.0
 10
372.0936565694101
 20
230.3421090955874
 30
0.0
 10
372.2494274022776
 20
230.0793768440632
 30
0.0
 10
372.4261847499588
 20
229.8316483550048
 30
0.0
 10
372.622139163662
 20
229.6018685912841
 30
0.0
 10
372.8363714277332
 20
229.3907330531763
 30
0.0
 10
373.0666345777675
 20
229.2008961300486
 30
0.0
 10
373.3118622853627
 20
229.0328376119539
 30
0.0
 10
373.5695048470421
 20
228.8887621101609
 30
0.0
 10
373.8382676649334
 20
228.7689660396813
 30
0.0
 10
374.1154931506258
 20
228.6751110428399
 30
0.0
 10
374.3995735041283
 20
228.6072841362503
 30
0.0
 10
374.6879409846414
 20
228.5665891746264
 30
0.0
 10
374.9786250183208
 20
228.5528233810615
 30
0.0
 10
375.2693090520004
 20
228.5665891746264
 30
0.0
 10
375.5576765325134
 20
228.6072841362502
 30
0.0
 10
375.8417568860161
 20
228.6751110428399
 30
0.0
 10
376.1189823717084
 20
228.7689660396814
 30
0.0
 10
376.3877451895994
 20
228.8887621101609
 30
0.0
 10
376.645387751279
 20
229.0328376119539
 30
0.0
 10
376.8906154588741
 20
229.2008961300488
 30
0.0
 10
377.1208786089085
 20
229.3907330531763
 30
0.0
 10
377.3351108729796
 20
229.6018685912842
 30
0.0
 10
377.5310652866829
 20
229.8316483550049
 30
0.0
 10
377.7078226343642
 20
230.0793768440631
 30
0.0
 10
377.8635934672315
 20
230.3421090955874
 30
0.0
 10
377.997561884897
 20
230.6188601040794
 30
0.0
 10
378.1084849161023
 20
230.9065920826944
 30
0.0
 10
378.1956617084952
 20
231.203945528888
 30
0.0
 10
378.2584097185824
 20
231.5079915250928
 30
0.0
 10
378.2962100977961
 20
231.8169331208303
 30
0.0
 10
378.308887171284
 20
232.1281227261375
 30
0.0
 10
378.2962100977961
 20
232.4393123314442
 30
0.0
 10
378.2584097185822
 20
232.7482539271831
 30
0.0
 10
378.1956617084957
 20
233.0522999233833
 30
0.0
 10
378.108484916101
 20
233.3496533695935
 30
0.0
 10
377.9975618849015
 20
233.6373853481474
 30
0.0
 10
377.8635934672147
 20
233.9141363568653
 30
0.0
 10
377.7078226344264
 20
234.1768686075512
 30
0.0
 10
377.5310652864537
 20
234.424597099705
 30
0.0
 10
377.3351108738307
 20
234.6543768519451
 30
0.0
 10
377.1208786057753
 20
234.8655124324049
 30
0.0
 10
376.8906154705159
 20
235.0553491984732
 30
0.0
 10
376.6453877083916
 20
235.2234082962207
 30
0.0
 10
376.3877453490796
 20
235.3674816468145
 30
0.0
 10
376.1189817829139
 20
235.4872856715714
 30
0.0
 10
375.8417590783313
 20
235.5811111047766
 30
0.0
 10
375.5576684090753
 20
235.6490476694487
 30
0.0
 10
375.2693393480041
 20
235.6893342263653
 30
0.0
 10
374.9785122353383
 20
235.7046209720494
 30
0.0
 10
374.7852251208263
 20
235.6916683090422
 30
0.0
 10
374.6885815635703
 20
235.6851919775386
 30
0.0
 11
374.6885815635703
 21
235.6851919775386
 31
0.0
 11
374.4004220672954
 21
235.6444680044521
 31
0.0
 11
374.1173398609129
 21
235.5769991343868
 31
0.0
 11
373.8399158183691
 21
235.483051605748
 31
0.0
 11
373.5723540662517
 21
235.3639357319486
 31
0.0
 11
373.3142216975365
 21
235.2195926024914
 31
0.0
 11
373.0702090449254
 21
235.0525324320757
 31
0.0
 11
372.8393295393947
 21
234.8622214004749
 31
0.0
 11
372.6261542444434
 21
234.6523104261194
 31
0.0
 11
372.4296199204352
 21
234.4219064429929
 31
0.0
 11
372.2536463846355
 21
234.1754747203052
 31
0.0
 11
372.0974492441627
 21
233.9120924834673
 31
0.0
 11
371.9639535561984
 21
233.6365333506894
 31
0.0
 11
371.8528036306412
 21
233.3482814297922
 31
0.0
 11
371.7658269766149
 21
233.0518549517518
 31
0.0
 11
371.7030219022934
 21
232.7475657592089
 31
0.0
 11
371.6652465406218
 21
232.4391759432884
 31
0.0
 11
371.6525913444082
 21
232.1281227261375
 31
0.0
 11
371.6652465406218
 21
231.8170695089865
 31
0.0
 11
371.7030219022935
 21
231.508679693066
 31
0.0
 11
371.765826976615
 21
231.2043905005231
 31
0.0
 11
371.8528036306414
 21
230.9079640224827
 31
0.0
 11
371.9639535561985
 21
230.6197121015854
 31
0.0
 11
372.0974492441627
 21
230.3441529688076
 31
0.0
 11
372.2536463846355
 21
230.0807707319697
 31
0.0
 11
372.4296199204351
 21
229.8343390092819
 31
0.0
 11
372.6261542444434
 21
229.6039350261555
 31
0.0
 11
372.8393295393946
 21
229.3940240518
 31
0.0
 11
373.0702090449254
 21
229.2037130201992
 31
0.0
 11
373.3142216975366
 21
229.0366528497836
 31
0.0
 11
373.5723540662517
 21
228.8923097203264
 31
0.0
 11
373.8399158183692
 21
228.7731938465269
 31
0.0
 11
374.1173398609129
 21
228.6792463178882
 31
0.0
 11
374.4004220672955
 21
228.6117774478228
 31
0.0
 11
374.6885815635703
 21
228.5710534747363
 31
0.0
 11
374.9786250183208
 21
228.557408511866
 31
0.0
 11
375.2686684730713
 21
228.5710534747363
 31
0.0
 11
375.5568279693462
 21
228.6117774478228
 31
0.0
 11
375.8399101757287
 21
228.6792463178881
 31
0.0
 11
376.1173342182726
 21
228.773193846527
 31
0.0
 11
376.38489597039
 21
228.8923097203264
 31
0.0
 11
376.6430283391051
 21
229.0366528497836
 31
0.0
 11
376.8870409917162
 21
229.2037130201993
 31
0.0
 11
377.117920497247
 21
229.3940240518
 31
0.0
 11
377.3310957921983
 21
229.6039350261555
 31
0.0
 11
377.5276301162066
 21
229.834339009282
 31
0.0
 11
377.7036036520062
 21
230.0807707319697
 31
0.0
 11
377.859800792479
 21
230.3441529688075
 31
0.0
 11
377.9932964804433
 21
230.6197121015854
 31
0.0
 11
378.1044464060004
 21
230.9079640224826
 31
0.0
 11
378.1914230600268
 21
231.2043905005231
 31
0.0
 11
378.2542281343482
 21
231.5086796930659
 31
0.0
 11
378.2920034960198
 21
231.8170695089865
 31
0.0
 11
378.3046586922334
 21
232.1281227261374
 31
0.0
 11
378.2920034960199
 21
232.4391759432884
 31
0.0
 11
378.2542281343482
 21
232.747565759209
 31
0.0
 11
378.1914230600268
 21
233.0518549517518
 31
0.0
 11
378.1044464060004
 21
233.3482814297922
 31
0.0
 11
377.9932964804433
 21
233.6365333506895
 31
0.0
 11
377.8598007924791
 21
233.9120924834674
 31
0.0
 11
377.7036036520062
 21
234.1754747203052
 31
0.0
 11
377.5276301162066
 21
234.4219064429929
 31
0.0
 11
377.3310957921983
 21
234.6523104261193
 31
0.0
 11
377.1179204972471
 21
234.8622214004748
 31
0.0
 11
376.8870409917162
 21
235.0525324320756
 31
0.0
 11
376.6430283391051
 21
235.2195926024914
 31
0.0
 11
376.38489597039
 21
235.3639357319486
 31
0.0
 11
376.1173342182725
 21
235.483051605748
 31
0.0
 11
375.8399101757287
 21
235.5769991343868
 31
0.0
 11
375.5568279693462
 21
235.6444680044521
 31
0.0
 11
375.2686684730713
 21
235.6851919775386
 31
0.0
 11
374.9786250183208
 21
235.6988369404089
 31
0.0
 11
374.6885815635703
 21
235.6851919775386
 31
0.0
  0
SPLINE
  5
160
330
39
100
AcDbEntity
  8
0
  6
Continuous
 62
     7
100
AcDbSpline
210
0.0
220
0.0
230
1.0
 70
    11
 71
     3
 72
    79
 73
    75
 74
    73
 42
0.0000000001
 43
0.0000000001
 44
0.00000001
 40
0.0
 40
0.0
 40
0.0
 40
0.0
 40
0.2910226481322063
 40
0.582033693196188
 40
0.8749331567806247
 40
1.167811528571259
 40
1.463559965877722
 40
1.759281379250673
 40
2.058486225631697
 40
2.357662141416074
 40
2.66050148629356
 40
2.963313658936963
 40
3.269528792707408
 40
3.575721367698436
 40
3.884660610540099
 40
4.193583861583594
 40
4.504286909150215
 40
4.814981695340896
 40
5.12629224185758
 40
5.437602788374322
 40
5.748297574564884
 40
6.059000622131394
 40
6.367923873174846
 40
6.676863116016529
 40
6.983055691007658
 40
7.289270824778089
 40
7.592082997421495
 40
7.894922342298959
 40
8.194098258083276
 40
8.493303104464344
 40
8.789024517837389
 40
9.084772955143915
 40
9.377651326934526
 40
9.670550790518854
 40
9.961561835582899
 40
10.25258448371512
 40
10.5429484454544
 40
10.83331240719369
 40
11.12433505532584
 40
11.4153461003899
 40
11.70824556397419
 40
12.00112393576483
 40
12.29687237307123
 40
12.59259378644431
 40
12.89179863282539
 40
13.19097454860979
 40
13.49381389348733
 40
13.79662606613069
 40
14.10284119990111
 40
14.40903377489216
 40
14.71797301773389
 40
15.02689626877741
 40
15.33759931634396
 40
15.64829410253461
 40
15.95960464905137
 40
16.27091519556796
 40
16.58160998175859
 40
16.89231302932522
 40
17.20123628036876
 40
17.51017552321047
 40
17.81636809820149
 40
18.12258323197196
 40
18.42539540461531
 40
18.72823474949281
 40
19.02741066527713
 40
19.32661551165818
 40
19.62233692503125
 40
19.91808536233773
 40
20.21096373412827
 40
20.50386319771266
 40
20.79487424277653
 40
21.0858968909088
 40
21.37626085264815
 40
21.66662481438743
 40
21.66662481438743
 40
21.66662481438743
 40
21.66662481438743
 10
351.0199568906123
 20
235.6851919770817
 30
0.0
 10
351.1163318596199
 20
235.6735163088529
 30
0.0
 10
351.3090779551666
 20
235.650165437904
 30
0.0
 10
351.5930141976495
 20
235.5808094409313
 30
0.0
 10
351.8702781986781
 20
235.4873666814318
 30
0.0
 10
352.1390303293048
 20
235.3674596903686
 30
0.0
 10
352.3966754636057
 20
235.2234141835187
 30
0.0
 10
352.641902178142
 20
235.0553475772097
 30
0.0
 10
352.8721653087855
 20
234.8655128439627
 30
0.0
 10
353.0863973122279
 20
234.6543767106812
 30
0.0
 10
353.2823515472725
 20
234.4245971089642
 30
0.0
 10
353.4591087201925
 20
234.1768685739145
 30
0.0
 10
353.6148793990966
 20
233.9141363379866
 30
0.0
 10
353.7488476860784
 20
233.6373853258032
 30
0.0
 10
353.8597706064728
 20
233.3496533532988
 30
0.0
 10
353.9469473135228
 20
233.0522999086689
 30
0.0
 10
354.0096952606791
 20
232.7482539182239
 30
0.0
 10
354.047495602926
 20
232.4393123262678
 30
0.0
 10
354.0601726633739
 20
232.1281227261384
 30
0.0
 10
354.0474956029262
 20
231.8169331260032
 30
0.0
 10
354.0096952606779
 20
231.5079915340642
 30
0.0
 10
353.9469473135274
 20
231.2039455435574
 30
0.0
 10
353.8597706064559
 20
230.9065920991566
 30
0.0
 10
353.7488476861416
 20
230.618860125801
 30
0.0
 10
353.6148793988633
 20
230.3421091167674
 30
0.0
 10
353.4591087210589
 20
230.079376869149
 30
0.0
 10
353.2823515440787
 20
229.8316483772652
 30
0.0
 10
353.0863973240935
 20
229.6018686154613
 30
0.0
 10
352.8721652650962
 20
229.3907330727396
 30
0.0
 10
352.6419023404754
 20
229.2008961494379
 30
0.0
 10
352.3966748655776
 20
229.0328376258826
 30
0.0
 10
352.1390325531206
 20
228.8887621224178
 30
0.0
 10
351.8702699884407
 20
228.7689660468716
 30
0.0
 10
351.5930447676211
 20
228.6751110480585
 30
0.0
 10
351.308964680755
 20
228.607284137989
 30
0.0
 10
351.0205974729063
 20
228.5665891754852
 30
0.0
 10
350.7299137123565
 20
228.5528233807079
 30
0.0
 10
350.4392299518067
 20
228.5665891754851
 30
0.0
 10
350.1508627439582
 20
228.6072841379889
 30
0.0
 10
349.8667826570919
 20
228.6751110480585
 30
0.0
 10
349.5895574362725
 20
228.7689660468716
 30
0.0
 10
349.3207948715925
 20
228.8887621224178
 30
0.0
 10
349.0631525591356
 20
229.0328376258825
 30
0.0
 10
348.8179250842377
 20
229.2008961494377
 30
0.0
 10
348.5876621596171
 20
229.3907330727396
 30
0.0
 10
348.3734301006196
 20
229.6018686154613
 30
0.0
 10
348.1774758806344
 20
229.8316483772651
 30
0.0
 10
348.0007187036539
 20
230.079376869149
 30
0.0
 10
347.8449480258497
 20
230.3421091167673
 30
0.0
 10
347.7109797385716
 20
230.618860125801
 30
0.0
 10
347.6000568182568
 20
230.9065920991563
 30
0.0
 10
347.5128801111858
 20
231.2039455435574
 30
0.0
 10
347.4501321640351
 20
231.5079915340641
 30
0.0
 10
347.4123318217865
 20
231.8169331260035
 30
0.0
 10
347.3996547613394
 20
232.1281227261375
 30
0.0
 10
347.4123318217863
 20
232.4393123262712
 30
0.0
 10
347.4501321640352
 20
232.7482539182118
 30
0.0
 10
347.5128801111852
 20
233.052299908714
 30
0.0
 10
347.6000568182583
 20
233.3496533531315
 30
0.0
 10
347.710979738567
 20
233.6373853264259
 30
0.0
 10
347.8449480258663
 20
233.9141363356855
 30
0.0
 10
348.0007187035919
 20
234.1768685824653
 30
0.0
 10
348.1774758808635
 20
234.4245970774448
 30
0.0
 10
348.3734300997686
 20
234.654376827768
 30
0.0
 10
348.5876621627503
 20
234.8655124128417
 30
0.0
 10
348.8179250725959
 20
235.0553491790841
 30
0.0
 10
349.0631526020231
 20
235.223408282292
 30
0.0
 10
349.3207947121119
 20
235.3674816345571
 30
0.0
 10
349.5895580250675
 20
235.4872856643819
 30
0.0
 10
349.8667804647739
 20
235.5811110995559
 30
0.0
 10
350.150870867404
 20
235.6490476677089
 30
0.0
 10
350.4391996557737
 20
235.6893342255132
 30
0.0
 10
350.7300264954438
 20
235.7046209723347
 30
0.0
 10
350.9233134255561
 20
235.6916683088326
 30
0.0
 10
351.0199568906123
 20
235.6851919770817
 30
0.0
 11
351.0199568906123
 21
235.6851919770817
 31
0.0
 11
351.3081161167978
 21
235.6444680026923
 31
0.0
 11
351.5911980481918
 21
235.5769991323337
 31
0.0
 11
351.8686218338048
 21
235.4830515994007
 31
0.0
 11
352.1361833214658
 21
235.3639357273123
 31
0.0
 11
352.39431545239
 21
235.2195925904691
 31
0.0
 11
352.6383278606365
 21
235.052532424813
 31
0.0
 11
352.8692071531914
 21
234.8622213837059
 31
0.0
 11
353.0823822330645
 21
234.6523104170879
 31
0.0
 11
353.2789163745181
 21
234.4219064239608
 31
0.0
 11
353.4548897324959
 21
234.1754747109387
 31
0.0
 11
353.611086726297
 21
233.9120924653761
 31
0.0
 11
353.7445822798633
 21
233.6365333425773
 31
0.0
 11
353.8557320996535
 21
233.3482814157352
 31
0.0
 11
353.942708666823
 21
233.0518549462715
 31
0.0
 11
354.0055136804942
 21
232.7475657515489
 31
0.0
 11
354.0432890049115
 21
232.4391759413553
 31
0.0
 11
354.0559441886376
 21
232.1281227261374
 31
0.0
 11
354.0432890049114
 21
231.8170695109195
 31
0.0
 11
354.0055136804942
 21
231.508679700726
 31
0.0
 11
353.942708666823
 21
231.2043905060035
 31
0.0
 11
353.8557320996536
 21
230.9079640365399
 31
0.0
 11
353.7445822798633
 21
230.6197121096978
 31
0.0
 11
353.6110867262969
 21
230.3441529868989
 31
0.0
 11
353.454889732496
 21
230.0807707413363
 31
0.0
 11
353.2789163745183
 21
229.834339028314
 31
0.0
 11
353.0823822330647
 21
229.603935035187
 31
0.0
 11
352.8692071531916
 21
229.394024068569
 31
0.0
 11
352.6383278606367
 21
229.2037130274619
 31
0.0
 11
352.39431545239
 21
229.0366528618059
 31
0.0
 11
352.1361833214658
 21
228.8923097249626
 31
0.0
 11
351.8686218338048
 21
228.7731938528743
 31
0.0
 11
351.5911980481919
 21
228.6792463199413
 31
0.0
 11
351.3081161167978
 21
228.6117774495826
 31
0.0
 11
351.0199568906123
 21
228.5710534751932
 31
0.0
 11
350.7299137123565
 21
228.557408511866
 31
0.0
 11
350.4398705341007
 21
228.5710534751931
 31
0.0
 11
350.1517113079153
 21
228.6117774495825
 31
0.0
 11
349.8686293765212
 21
228.6792463199412
 31
0.0
 11
349.5912055909084
 21
228.7731938528743
 31
0.0
 11
349.3236441032473
 21
228.8923097249626
 31
0.0
 11
349.0655119723232
 21
229.0366528618058
 31
0.0
 11
348.8214995640765
 21
229.2037130274618
 31
0.0
 11
348.5906202715216
 21
229.3940240685689
 31
0.0
 11
348.3774451916484
 21
229.6039350351869
 31
0.0
 11
348.1809110501947
 21
229.834339028314
 31
0.0
 11
348.004937692217
 21
230.0807707413362
 31
0.0
 11
347.848740698416
 21
230.3441529868987
 31
0.0
 11
347.7152451448498
 21
230.6197121096976
 31
0.0
 11
347.6040953250594
 21
230.9079640365397
 31
0.0
 11
347.51711875789
 21
231.2043905060035
 31
0.0
 11
347.4543137442187
 21
231.508679700726
 31
0.0
 11
347.4165384198016
 21
231.8170695109196
 31
0.0
 11
347.4038832360754
 21
232.1281227261375
 31
0.0
 11
347.4165384198014
 21
232.4391759413553
 31
0.0
 11
347.4543137442187
 21
232.7475657515489
 31
0.0
 11
347.5171187578899
 21
233.0518549462715
 31
0.0
 11
347.6040953250595
 21
233.3482814157352
 31
0.0
 11
347.7152451448498
 21
233.6365333425773
 31
0.0
 11
347.8487406984161
 21
233.9120924653761
 31
0.0
 11
348.0049376922171
 21
234.1754747109387
 31
0.0
 11
348.1809110501947
 21
234.4219064239609
 31
0.0
 11
348.3774451916484
 21
234.652310417088
 31
0.0
 11
348.5906202715215
 21
234.8622213837059
 31
0.0
 11
348.8214995640764
 21
235.052532424813
 31
0.0
 11
349.0655119723231
 21
235.219592590469
 31
0.0
 11
349.3236441032473
 21
235.3639357273123
 31
0.0
 11
349.5912055909083
 21
235.4830515994005
 31
0.0
 11
349.8686293765212
 21
235.5769991323336
 31
0.0
 11
350.1517113079151
 21
235.6444680026922
 31
0.0
 11
350.4398705341006
 21
235.6851919770816
 31
0.0
 11
350.7299137123565
 21
235.6988369404088
 31
0.0
 11
351.0199568906123
 21
235.6851919770817
 31
0.0
  0
ARC
  5
161
330
39
100
AcDbEntity
  8
1
  6
Continuous
 62
     7
100
AcDbCircle
 10
372.6222185577698
 20
236.9856596906958
 30
0.0
 40
0.9999999999999277
100
AcDbArc
 50
42.94140286488343
 51
90.0
  0
ARC
  5
162
330
39
100
AcDbEntity
  8
1
  6
Continuous
 62
     7
100
AcDbCircle
 10
374.4122904270693
 20
235.9856596906958
 30
0.0
 40
0.9999999999999989
100
AcDbArc
 50
74.66244233044795
 51
90.0
  0
ARC
  5
163
330
39
100
AcDbEntity
  8
1
  6
Continuous
 62
     7
100
AcDbCircle
 10
372.6222185577698
 20
236.9856596906958
 30
0.0
 40
0.9999999999999344
100
AcDbArc
 50
30.00000000000217
 51
42.94140286488343
  0
ARC
  5
164
330
39
100
AcDbEntity
  8
1
  6
Continuous
 62
     7
100
AcDbCircle
 10
374.3542693653386
 20
237.9856596906958
 30
0.0
 40
0.9999999999999836
100
AcDbArc
 50
-149.9999999999995
 51
-90.0
  0
ARC
  5
165
330
39
100
AcDbEntity
  8
1
  6
Continuous
 62
     7
100
AcDbCircle
 10
353.0863201729075
 20
236.9856596906958
 30
0.0
 40
1.0
100
AcDbArc
 50
90.0
 51
137.058597135121
  0
ARC
  5
166
330
39
100
AcDbEntity
  8
1
  6
Continuous
 62
     7
100
AcDbCircle
 10
351.296248303608
 20
235.9856596906958
 30
0.0
 40
1.0
100
AcDbArc
 50
90.0
 51
105.3375576695521
  0
ARC
  5
167
330
39
100
AcDbEntity
  8
1
  6
Continuous
 62
     7
100
AcDbCircle
 10
353.0863201729075
 20
236.9856596906958
 30
0.0
 40
1.000000000000011
100
AcDbArc
 50
137.058597135121
 51
149.9999999999995
  0
ARC
  5
168
330
39
100
AcDbEntity
  8
1
  6
Continuous
 62
     7
100
AcDbCircle
 10
351.3542693653386
 20
237.9856596906958
 30
0.0
 40
1.0
100
AcDbArc
 50
-90.0
 51
-29.99999999999892
  0
ENDBLK
  5
3B
330
39
100
AcDbEntity
  8
0
100
AcDbBlockEnd
  0
BLOCK
  5
3D
330
3C
100
AcDbEntity
  8
0
100
AcDbBlockBegin
  2
84-26B
 70
     0
 71
     0
 10
-74.00966296962059
 20
52.67962237123318
 30
0.0
  3
84-26B
  1

  0
LINE
  5
169
330
3C
100
AcDbEntity
  8
1
  6
Continuous
 62
     7
100
AcDbLine
 10
217.8542693653386
 20
282.4856596906959
 30
0.0
 11
217.8542693653386
 21
258.4856596906959
 31
0.0
  0
LINE
  5
16A
330
3C
100
AcDbEntity
  8
1
  6
Continuous
 62
     7
100
AcDbLine
 10
217.8542693653386
 20
282.4856596906959
 30
0.0
 11
184.0072379173581
 21
282.4856596906959
 31
0.0
  0
LINE
  5
16B
330
3C
100
AcDbEntity
  8
1
  6
Continuous
 62
     7
100
AcDbLine
 10
109.6042693653386
 20
256.9856596906963
 30
0.0
 11
109.6042693653386
 21
264.8459842643376
 31
0.0
  0
LINE
  5
16C
330
3C
100
AcDbEntity
  8
1
  6
Continuous
 62
     7
100
AcDbLine
 10
85.1042693653386
 20
256.9856596906963
 30
0.0
 11
109.6042693653386
 21
256.9856596906963
 31
0.0
  0
LINE
  5
16D
330
3C
100
AcDbEntity
  8
1
  6
Continuous
 62
     7
100
AcDbLine
 10
109.8542693653349
 20
414.8010218303581
 30
0.0
 11
84.8542693653349
 21
414.8010218303581
 31
0.0
  0
LINE
  5
16E
330
3C
100
AcDbEntity
  8
1
  6
Continuous
 62
     7
100
AcDbLine
 10
85.3542693653349
 20
417.8010218303581
 30
0.0
 11
109.3542693653349
 21
417.8010218303581
 31
0.0
  0
LINE
  5
16F
330
3C
100
AcDbEntity
  8
1
  6
Continuous
 62
     7
100
AcDbLine
 10
109.8542693653349
 20
374.947450759001
 30
0.0
 11
109.8542693653349
 21
414.8010218303581
 31
0.0
  0
LINE
  5
170
330
3C
100
AcDbEntity
  8
1
  6
Continuous
 62
     7
100
AcDbLine
 10
109.8542693653349
 20
414.8010218303581
 30
0.0
 11
109.3542693653349
 21
417.8010218303581
 31
0.0
  0
LINE
  5
171
330
3C
100
AcDbEntity
  8
1
  6
Continuous
 62
     7
100
AcDbLine
 10
84.8542693653349
 20
374.947450759001
 30
0.0
 11
84.8542693653349
 21
414.8010218303581
 31
0.0
  0
LINE
  5
172
330
3C
100
AcDbEntity
  8
1
  6
Continuous
 62
     7
100
AcDbLine
 10
84.8542693653349
 20
414.8010218303581
 30
0.0
 11
85.3542693653349
 21
417.8010218303581
 31
0.0
  0
LINE
  5
173
330
3C
100
AcDbEntity
  8
1
  6
Continuous
 62
     7
100
AcDbLine
 10
175.3542693653386
 20
258.4856596906959
 30
0.0
 11
179.3542693653386
 21
258.4856596906959
 31
0.0
  0
LINE
  5
174
330
3C
100
AcDbEntity
  8
1
  6
Continuous
 62
     7
100
AcDbLine
 10
220.8542693653386
 20
281.9856596906959
 30
0.0
 11
217.8542693653386
 21
282.4856596906959
 31
0.0
  0
LINE
  5
175
330
3C
100
AcDbEntity
  8
1
  6
Continuous
 62
     7
100
AcDbLine
 10
220.8542693653386
 20
258.9856596906959
 30
0.0
 11
217.8542693653386
 21
258.4856596906959
 31
0.0
  0
LINE
  5
176
330
3C
100
AcDbEntity
  8
1
  6
Continuous
 62
     7
100
AcDbLine
 10
181.8542693653386
 20
256.9856596906959
 30
0.0
 11
181.8542693653386
 21
256.9031279359654
 31
0.0
  0
LINE
  5
177
330
3C
100
AcDbEntity
  8
1
  6
Continuous
 62
     7
100
AcDbLine
 10
205.3542693653386
 20
257.4856596906959
 30
0.0
 11
205.3542693653386
 21
256.9856596906963
 31
0.0
  0
LINE
  5
178
330
3C
100
AcDbEntity
  8
1
  6
Continuous
 62
     7
100
AcDbLine
 10
217.8542693653386
 20
258.4856596906959
 30
0.0
 11
206.3542693653386
 21
258.4856596906959
 31
0.0
  0
LINE
  5
179
330
3C
100
AcDbEntity
  8
1
  6
Continuous
 62
     7
100
AcDbLine
 10
205.3542693653386
 20
256.9856596906963
 30
0.0
 11
180.3542693653386
 21
256.9856596906963
 31
0.0
  0
LINE
  5
17A
330
3C
100
AcDbEntity
  8
1
  6
Continuous
 62
     7
100
AcDbLine
 10
180.3542693653386
 20
257.4856596906959
 30
0.0
 11
180.3542693653386
 21
256.9856596906963
 31
0.0
  0
LINE
  5
17B
330
3C
100
AcDbEntity
  8
1
  6
Continuous
 62
     7
100
AcDbLine
 10
203.8542693653386
 20
256.9856596906959
 30
0.0
 11
203.8542693653386
 21
256.9031279359654
 31
0.0
  0
LINE
  5
17C
330
3C
100
AcDbEntity
  8
1
  6
Continuous
 62
     7
100
AcDbLine
 10
171.3182430814828
 20
265.0225848422869
 30
0.0
 11
181.4712116335022
 21
281.0883357925927
 31
0.0
  0
LINE
  5
17D
330
3C
100
AcDbEntity
  8
1
  6
Continuous
 62
     7
100
AcDbLine
 10
170.8542693653386
 20
263.4199087403902
 30
0.0
 11
170.8542693653386
 21
262.9856596906959
 31
0.0
  0
LINE
  5
17E
330
3C
100
AcDbEntity
  8
1
  6
Continuous
 62
     7
100
AcDbLine
 10
85.1042693653386
 20
264.8459842643376
 30
0.0
 11
85.1042693653386
 21
256.9856596906963
 31
0.0
  0
LINE
  5
17F
330
3C
100
AcDbEntity
  8
1
  6
Continuous
 62
     7
100
AcDbLine
 10
109.571441293946
 20
265.4180009001564
 30
0.0
 11
108.7787648011359
 21
272.3012979530793
 31
0.0
  0
LINE
  5
180
330
3C
100
AcDbEntity
  8
1
  6
Continuous
 62
     7
100
AcDbLine
 10
85.9297739295411
 20
272.3012979530793
 30
0.0
 11
85.1370974367312
 21
265.4180009001564
 31
0.0
  0
LINE
  5
181
330
3C
100
AcDbEntity
  8
1
  6
Continuous
 62
     7
100
AcDbLine
 10
220.8542693653386
 20
258.9856596906959
 30
0.0
 11
220.8542693653386
 21
281.9856596906959
 31
0.0
  0
LINE
  5
182
330
3C
100
AcDbEntity
  8
1
  6
Continuous
 62
     7
100
AcDbLine
 10
86.3542693653386
 20
256.9856596906963
 30
0.0
 11
86.3542693653386
 21
256.9031279359658
 31
0.0
  0
LINE
  5
183
330
3C
100
AcDbEntity
  8
1
  6
Continuous
 62
     7
100
AcDbLine
 10
108.3542693653386
 20
256.9856596906963
 30
0.0
 11
108.3542693653386
 21
256.9031279359658
 31
0.0
  0
LINE
  5
184
330
3C
100
AcDbEntity
  8
1
  6
Continuous
 62
     2
100
AcDbLine
 10
107.6772693653382
 20
256.4856596906961
 30
0.0
 11
107.6772693653382
 21
256.9856596906959
 31
0.0
  0
LINE
  5
185
330
3C
100
AcDbEntity
  8
1
  6
Continuous
 62
     2
100
AcDbLine
 10
108.3542693653386
 20
256.9031279359658
 30
0.0
 11
108.3542693653381
 21
256.4856596906957
 31
0.0
  0
LINE
  5
186
330
3C
100
AcDbEntity
  8
1
  6
Continuous
 62
     2
100
AcDbLine
 10
86.3542693653386
 20
256.9031279359658
 30
0.0
 11
86.3542693653381
 21
256.4856596906957
 31
0.0
  0
LINE
  5
187
330
3C
100
AcDbEntity
  8
1
  6
Continuous
 62
     2
100
AcDbLine
 10
87.03126936533811
 20
256.4856596906961
 30
0.0
 11
87.03126936533811
 21
256.9856596906959
 31
0.0
  0
LINE
  5
188
330
3C
100
AcDbEntity
  8
1
  6
Continuous
 62
     2
100
AcDbLine
 10
203.1772693653387
 20
256.4856596906961
 30
0.0
 11
203.1772693653387
 21
256.9856596906959
 31
0.0
  0
LINE
  5
189
330
3C
100
AcDbEntity
  8
1
  6
Continuous
 62
     2
100
AcDbLine
 10
203.8542693653386
 20
256.9031279359654
 30
0.0
 11
203.8542693653386
 21
256.4856596906957
 31
0.0
  0
LINE
  5
18A
330
3C
100
AcDbEntity
  8
1
  6
Continuous
 62
     2
100
AcDbLine
 10
181.8542693653386
 20
256.9031279359654
 30
0.0
 11
181.8542693653386
 21
256.4856596906957
 31
0.0
  0
LINE
  5
18B
330
3C
100
AcDbEntity
  8
1
  6
Continuous
 62
     2
100
AcDbLine
 10
182.5312693653387
 20
256.4856596906961
 30
0.0
 11
182.5312693653387
 21
256.9856596906959
 31
0.0
  0
ARC
  5
18C
330
3C
100
AcDbEntity
  8
1
  6
Continuous
 62
     7
100
AcDbCircle
 10
192.8542693653386
 20
249.382659690696
 30
0.0
 40
15.46300000000002
100
AcDbArc
 50
34.49652110519749
 51
145.5034788948023
  0
ARC
  5
18D
330
3C
100
AcDbEntity
  8
1
  6
Continuous
 62
     7
100
AcDbCircle
 10
97.35426936533492
 20
392.8010218303581
 30
0.0
 40
25.00000000000002
100
AcDbArc
 50
-110.0051900881601
 51
-69.99480991184086
  0
ARC
  5
18E
330
3C
100
AcDbEntity
  8
1
  6
Continuous
 62
     7
100
AcDbCircle
 10
175.3542693653386
 20
262.9856596906959
 30
0.0
 40
4.5
100
AcDbArc
 50
180.0
 51
-90.0
  0
ARC
  5
18F
330
3C
100
AcDbEntity
  8
1
  6
Continuous
 62
     7
100
AcDbCircle
 10
97.35426936533861
 20
283.4856596906963
 30
0.0
 40
24.99999999999995
100
AcDbArc
 50
-111.2538091853597
 51
-68.7461908146403
  0
ARC
  5
190
330
3C
100
AcDbEntity
  8
1
  6
Continuous
 62
     7
100
AcDbCircle
 10
104.6042693653386
 20
264.8459842643376
 30
0.0
 40
4.999999999999905
100
AcDbArc
 50
-68.74619081463989
 51
6.56921108019321
  0
ARC
  5
191
330
3C
100
AcDbEntity
  8
1
  6
Continuous
 62
     7
100
AcDbCircle
 10
97.35426936533861
 20
270.9856596906963
 30
0.0
 40
11.49999999999998
100
AcDbArc
 50
6.56921108019142
 51
90.0
  0
ARC
  5
192
330
3C
100
AcDbEntity
  8
1
  6
Continuous
 62
     7
100
AcDbCircle
 10
90.10426936533861
 20
264.8459842643376
 30
0.0
 40
4.9999999999999
100
AcDbArc
 50
173.4307889198068
 51
-111.2538091853601
  0
ARC
  5
193
330
3C
100
AcDbEntity
  8
1
  6
Continuous
 62
     7
100
AcDbCircle
 10
97.35426936533861
 20
270.9856596906963
 30
0.0
 40
11.5
100
AcDbArc
 50
90.0
 51
173.4307889198087
  0
ARC
  5
194
330
3C
100
AcDbEntity
  8
1
  6
Continuous
 62
     7
100
AcDbCircle
 10
97.35426936533492
 20
354.5062383845705
 30
0.0
 40
24.99999999999987
100
AcDbArc
 50
69.99480991184086
 51
110.0051900881601
  0
ARC
  5
195
330
3C
100
AcDbEntity
  8
1
  6
Continuous
 62
     7
100
AcDbCircle
 10
179.3542693653386
 20
257.4856596906959
 30
0.0
 40
1.0
100
AcDbArc
 50
0.0
 51
40.88673978439511
  0
ARC
  5
196
330
3C
100
AcDbEntity
  8
1
  6
Continuous
 62
     7
100
AcDbCircle
 10
206.3542693653386
 20
257.4856596906959
 30
0.0
 40
1.0
100
AcDbArc
 50
90.0
 51
139.1132602156017
  0
ARC
  5
197
330
3C
100
AcDbEntity
  8
1
  6
Continuous
 62
     7
100
AcDbCircle
 10
179.3542693653386
 20
257.4856596906959
 30
0.0
 40
1.000000000000007
100
AcDbArc
 50
40.88673978439511
 51
90.0
  0
ARC
  5
198
330
3C
100
AcDbEntity
  8
1
  6
Continuous
 62
     7
100
AcDbCircle
 10
206.3542693653386
 20
257.4856596906959
 30
0.0
 40
0.9999999999999428
100
AcDbArc
 50
139.1132602156017
 51
180.0
  0
ARC
  5
199
330
3C
100
AcDbEntity
  8
1
  6
Continuous
 62
     7
100
AcDbCircle
 10
173.8542693653386
 20
263.4199087403902
 30
0.0
 40
2.999999999999721
100
AcDbArc
 50
147.7086070282313
 51
180.0
  0
ARC
  5
19A
330
3C
100
AcDbEntity
  8
1
  6
Continuous
 62
     7
100
AcDbCircle
 10
184.0072379173581
 20
279.4856596906959
 30
0.0
 40
3.0
100
AcDbArc
 50
90.0
 51
147.7086070282304
  0
ARC
  5
19B
330
3C
100
AcDbEntity
  8
1
  6
Continuous
 62
     7
100
AcDbCircle
 10
90.85426936533492
 20
374.947450759001
 30
0.0
 40
6.000000000000014
100
AcDbArc
 50
180.0
 51
-110.0051900881618
  0
ARC
  5
19C
330
3C
100
AcDbEntity
  8
1
  6
Continuous
 62
     7
100
AcDbCircle
 10
103.8542693653349
 20
374.947450759001
 30
0.0
 40
5.999999999999928
100
AcDbArc
 50
-69.994809911842
 51
0.0
  0
ARC
  5
19D
330
3C
100
AcDbEntity
  8
1
  6
Continuous
 62
     7
100
AcDbCircle
 10
103.8542693653349
 20
372.3598094559278
 30
0.0
 40
5.999999999999711
100
AcDbArc
 50
12.45288818069689
 51
69.99480991184126
  0
ARC
  5
19E
330
3C
100
AcDbEntity
  8
1
  6
Continuous
 62
     7
100
AcDbCircle
 10
90.85426936533492
 20
372.3598094559278
 30
0.0
 40
5.99999999999986
100
AcDbArc
 50
110.0051900881626
 51
167.5471118193042
  0
ENDBLK
  5
3E
330
3C
100
AcDbEntity
  8
0
100
AcDbBlockEnd
  0
BLOCK
  5
40
330
3F
100
AcDbEntity
  8
0
100
AcDbBlockBegin
  2
82-20-M21
 70
     0
 71
     0
 10
774.2481122082638
 20
488.068100400469
 30
0.0
  3
82-20-M21
  1

  0
LINE
  5
19F
330
3F
100
AcDbEntity
  8
1
  6
Continuous
 62
     7
100
AcDbLine
 10
204.0971908751608
 20
256.4856596906957
 30
0.0
 11
205.1542693653387
 21
256.4856596906957
 31
0.0
  0
LINE
  5
1A0
330
3F
100
AcDbEntity
  8
1
  6
Continuous
 62
     7
100
AcDbLine
 10
205.3542693653387
 20
246.4856596906957
 30
0.0
 11
205.3542693653385
 21
256.2856596906958
 31
0.0
  0
LINE
  5
1A1
330
3F
100
AcDbEntity
  8
1
  6
Continuous
 62
     7
100
AcDbLine
 10
204.5614919002251
 20
243.7109385627985
 30
0.0
 11
205.3542693653387
 21
246.4856596906957
 31
0.0
  0
LINE
  5
1A2
330
3F
100
AcDbEntity
  8
1
  6
Continuous
 62
     7
100
AcDbLine
 10
181.1470468304524
 20
243.7109385627982
 30
0.0
 11
180.3542693653387
 21
246.4856596906955
 31
0.0
  0
LINE
  5
1A3
330
3F
100
AcDbEntity
  8
1
  6
Continuous
 62
     7
100
AcDbLine
 10
180.3542693653387
 20
246.4856596906955
 30
0.0
 11
180.3542693653385
 21
256.2856596906958
 31
0.0
  0
LINE
  5
1A4
330
3F
100
AcDbEntity
  8
1
  6
Continuous
 62
     7
100
AcDbLine
 10
192.8542693653415
 20
242.9856596906956
 30
0.0
 11
203.5999679525844
 21
242.985659690696
 31
0.0
  0
LINE
  5
1A5
330
3F
100
AcDbEntity
  8
1
  6
Continuous
 62
     7
100
AcDbLine
 10
180.5542693653392
 20
256.4856596906982
 30
0.0
 11
204.0971908751608
 21
256.4856596906957
 31
0.0
  0
LINE
  5
1A6
330
3F
100
AcDbEntity
  8
1
  6
Continuous
 62
     7
100
AcDbLine
 10
182.1085707780931
 20
242.9856596906956
 30
0.0
 11
192.8542693653415
 21
242.9856596906956
 31
0.0
  0
LINE
  5
1A7
330
3F
100
AcDbEntity
  8
0
  6
Continuous
 62
     7
100
AcDbLine
 10
180.3542693653387
 20
246.4856596906955
 30
0.0
 11
205.3542693653387
 21
246.4856596906957
 31
0.0
  0
LINE
  5
1A8
330
3F
100
AcDbEntity
  8
1
  6
Continuous
 62
     7
100
AcDbLine
 10
108.5971908751602
 20
256.4856596906957
 30
0.0
 11
109.6542693653381
 21
256.4856596906957
 31
0.0
  0
LINE
  5
1A9
330
3F
100
AcDbEntity
  8
1
  6
Continuous
 62
     7
100
AcDbLine
 10
109.8542693653381
 20
246.4856596906957
 30
0.0
 11
109.8542693653381
 21
256.2856596906959
 31
0.0
  0
LINE
  5
1AA
330
3F
100
AcDbEntity
  8
1
  6
Continuous
 62
     7
100
AcDbLine
 10
109.0614919002245
 20
243.7109385627985
 30
0.0
 11
109.8542693653381
 21
246.4856596906957
 31
0.0
  0
LINE
  5
1AB
330
3F
100
AcDbEntity
  8
1
  6
Continuous
 62
     7
100
AcDbLine
 10
85.6470468304518
 20
243.7109385627982
 30
0.0
 11
84.8542693653381
 21
246.4856596906955
 31
0.0
  0
LINE
  5
1AC
330
3F
100
AcDbEntity
  8
1
  6
Continuous
 62
     7
100
AcDbLine
 10
84.8542693653381
 20
246.4856596906955
 30
0.0
 11
84.8542693653379
 21
256.2856596906958
 31
0.0
  0
LINE
  5
1AD
330
3F
100
AcDbEntity
  8
1
  6
Continuous
 62
     7
100
AcDbLine
 10
97.35426936534088
 20
242.9856596906956
 30
0.0
 11
108.0999679525838
 21
242.985659690696
 31
0.0
  0
LINE
  5
1AE
330
3F
100
AcDbEntity
  8
1
  6
Continuous
 62
     7
100
AcDbLine
 10
85.0542693653386
 20
256.4856596906982
 30
0.0
 11
108.5971908751602
 21
256.4856596906957
 31
0.0
  0
LINE
  5
1AF
330
3F
100
AcDbEntity
  8
1
  6
Continuous
 62
     7
100
AcDbLine
 10
86.6085707780925
 20
242.9856596906956
 30
0.0
 11
97.35426936534088
 21
242.9856596906956
 31
0.0
  0
LINE
  5
1B0
330
3F
100
AcDbEntity
  8
0
  6
Continuous
 62
     7
100
AcDbLine
 10
84.8542693653381
 20
246.4856596906955
 30
0.0
 11
109.8542693653381
 21
246.4856596906957
 31
0.0
  0
ARC
  5
1B1
330
3F
100
AcDbEntity
  8
1
  6
Continuous
 62
     7
100
AcDbCircle
 10
182.1085707780931
 20
243.9856596906956
 30
0.0
 40
0.9999999999998895
100
AcDbArc
 50
-164.0546040990736
 51
-90.0
  0
ARC
  5
1B2
330
3F
100
AcDbEntity
  8
1
  6
Continuous
 62
     7
100
AcDbCircle
 10
203.5999679525844
 20
243.9856596906959
 30
0.0
 40
0.9999999999999147
100
AcDbArc
 50
-90.0
 51
-15.94539590092644
  0
ARC
  5
1B3
330
3F
100
AcDbEntity
  8
1
  6
Continuous
 62
     7
100
AcDbCircle
 10
180.5542693653387
 20
256.2856596906955
 30
0.0
 40
0.1999999999999886
100
AcDbArc
 50
89.99999999997557
 51
179.9999999999186
  0
ARC
  5
1B4
330
3F
100
AcDbEntity
  8
1
  6
Continuous
 62
     7
100
AcDbCircle
 10
205.1542693653387
 20
256.2856596906958
 30
0.0
 40
0.1999999999997897
100
AcDbArc
 50
0.0
 51
90.0
  0
ARC
  5
1B5
330
3F
100
AcDbEntity
  8
1
  6
Continuous
 62
     7
100
AcDbCircle
 10
86.6085707780925
 20
243.9856596906956
 30
0.0
 40
0.9999999999998895
100
AcDbArc
 50
-164.0546040990736
 51
-90.0
  0
ARC
  5
1B6
330
3F
100
AcDbEntity
  8
1
  6
Continuous
 62
     7
100
AcDbCircle
 10
108.0999679525838
 20
243.9856596906959
 30
0.0
 40
0.9999999999999147
100
AcDbArc
 50
-90.0
 51
-15.94539590092644
  0
ARC
  5
1B7
330
3F
100
AcDbEntity
  8
1
  6
Continuous
 62
     7
100
AcDbCircle
 10
85.0542693653381
 20
256.2856596906955
 30
0.0
 40
0.1999999999999886
100
AcDbArc
 50
89.99999999997151
 51
179.9999999999186
  0
ARC
  5
1B8
330
3F
100
AcDbEntity
  8
1
  6
Continuous
 62
     7
100
AcDbCircle
 10
109.6542693653381
 20
256.2856596906958
 30
0.0
 40
0.2000000000000028
100
AcDbArc
 50
0.00000000003257
 51
90.0
  0
ENDBLK
  5
41
330
3F
100
AcDbEntity
  8
0
100
AcDbBlockEnd
  0
BLOCK
  5
43
330
42
100
AcDbEntity
  8
0
100
AcDbBlockBegin
  2
32-1-16__2
 70
     0
 71
     0
 10
348.3439179342533
 20
229.1319617207065
 30
0.0
  3
32-1-16__2
  1

  0
LINE
  5
1B9
330
42
100
AcDbEntity
  8
1
  6
Continuous
 62
     7
100
AcDbLine
 10
98.59341005443321
 20
575.0014111572529
 30
0.0
 11
110.1151286762363
 21
568.3493438094279
 31
0.0
  0
LINE
  5
1BA
330
42
100
AcDbEntity
  8
1
  6
Continuous
 62
     7
100
AcDbLine
 10
83.3542693653346
 20
552.898954482533
 30
0.0
 11
83.3542693653346
 21
566.2030891781831
 31
0.0
  0
LINE
  5
1BB
330
42
100
AcDbEntity
  8
1
  6
Continuous
 62
     7
100
AcDbLine
 10
85.796248303608
 20
236.9856596906962
 30
0.0
 11
85.8542693653386
 21
236.9856596906962
 31
0.0
  0
LINE
  5
1BC
330
42
100
AcDbEntity
  8
1
  6
Continuous
 62
     7
100
AcDbLine
 10
108.8542693653386
 20
236.9856596906962
 30
0.0
 11
108.9122904270693
 21
236.9856596906962
 31
0.0
  0
LINE
  5
1BD
330
42
100
AcDbEntity
  8
1
  6
Continuous
 62
     7
100
AcDbLine
 10
83.3542693653386
 20
235.6988369404093
 30
0.0
 11
83.3542693653386
 21
228.5574085118664
 31
0.0
  0
LINE
  5
1BE
330
42
100
AcDbEntity
  8
1
  6
Continuous
 62
     7
100
AcDbLine
 10
111.3542693653386
 20
235.6988369404093
 30
0.0
 11
111.3542693653386
 21
228.5574085118664
 31
0.0
  0
LINE
  5
1BF
330
42
100
AcDbEntity
  8
1
  6
Continuous
 62
     7
100
AcDbLine
 10
110.6542693653386
 20
227.9856596906961
 30
0.0
 11
84.0542693653387
 21
227.9856596906961
 31
0.0
  0
LINE
  5
1C0
330
42
100
AcDbEntity
  8
1
  6
Continuous
 62
     7
100
AcDbLine
 10
87.58632017290761
 20
237.9856596906962
 30
0.0
 11
107.1222185577697
 21
237.9856596906962
 31
0.0
  0
LINE
  5
1C1
330
42
100
AcDbEntity
  8
1
  6
Continuous
 62
     7
100
AcDbLine
 10
87.5321598891927
 20
236.9856596906962
 30
0.0
 11
107.2446228986976
 21
236.9856596906962
 31
0.0
  0
LINE
  5
1C2
330
42
100
AcDbEntity
  8
1
  6
Continuous
 62
     7
100
AcDbLine
 10
84.59341005443321
 20
568.3493438094276
 30
0.0
 11
96.1151286762362
 21
575.0014111572529
 31
0.0
  0
LINE
  5
1C3
330
42
100
AcDbEntity
  8
1
  6
Continuous
 62
     7
100
AcDbLine
 10
111.3542693653346
 20
552.898954482533
 30
0.0
 11
111.3542693653349
 21
566.2030891781833
 31
0.0
  0
LINE
  5
1C4
330
42
100
AcDbEntity
  8
1
  6
Continuous
 62
     7
100
AcDbLine
 10
84.59341005443321
 20
550.7526998512884
 30
0.0
 11
89.35426936533492
 21
548.0040164465655
 31
0.0
  0
LINE
  5
1C5
330
42
100
AcDbEntity
  8
1
  6
Continuous
 62
     7
100
AcDbLine
 10
105.3542693653349
 20
548.0040164465655
 30
0.0
 11
110.1151286762362
 21
550.7526998512884
 31
0.0
  0
ARC
  5
1C6
330
42
100
AcDbEntity
  8
1
  6
Continuous
 62
     7
100
AcDbCircle
 10
97.35426936533492
 20
559.551021830358
 30
0.0
 40
15.50000000000011
100
AcDbArc
 50
25.41462091516196
 51
34.58537908484001
  0
ARC
  5
1C7
330
42
100
AcDbEntity
  8
1
  6
Continuous
 62
     7
100
AcDbCircle
 10
97.35426936533492
 20
559.551021830358
 30
0.0
 40
15.5000000000002
100
AcDbArc
 50
85.41462091516196
 51
94.5853790848396
  0
ARC
  5
1C8
330
42
100
AcDbEntity
  8
1
  6
Continuous
 62
     7
100
AcDbCircle
 10
86.8542693653386
 20
232.1281227261378
 30
0.0
 40
5.000000000000011
100
AcDbArc
 50
105.3375576695552
 51
134.4270040008051
  0
ARC
  5
1C9
330
42
100
AcDbEntity
  8
1
  6
Continuous
 62
     7
100
AcDbCircle
 10
107.8542693653386
 20
232.1281227261378
 30
0.0
 40
5.000000000000087
100
AcDbArc
 50
-55.94420225743262
 51
-45.57299599919402
  0
ARC
  5
1CA
330
42
100
AcDbEntity
  8
1
  6
Continuous
 62
     7
100
AcDbCircle
 10
86.8542693653386
 20
232.1281227261378
 30
0.0
 40
4.999999999999975
100
AcDbArc
 50
-134.427004000806
 51
-124.0557977425663
  0
ARC
  5
1CB
330
42
100
AcDbEntity
  8
1
  6
Continuous
 62
     7
100
AcDbCircle
 10
107.8542693653386
 20
232.1281227261378
 30
0.0
 40
5.000000000000057
100
AcDbArc
 50
45.57299599919494
 51
74.66244233044463
  0
ARC
  5
1CC
330
42
100
AcDbEntity
  8
1
  6
Continuous
 62
     7
100
AcDbCircle
 10
97.35426936533492
 20
559.551021830358
 30
0.0
 40
15.50000000000023
100
AcDbArc
 50
145.4146209151614
 51
154.5853790848393
  0
ARC
  5
1CD
330
42
100
AcDbEntity
  8
1
  6
Continuous
 62
     7
100
AcDbCircle
 10
97.35426936533492
 20
559.551021830358
 30
0.0
 40
15.49999999999982
100
AcDbArc
 50
-34.58537908483919
 51
-25.41462091516129
  0
ARC
  5
1CE
330
42
100
AcDbEntity
  8
1
  6
Continuous
 62
     7
100
AcDbCircle
 10
97.35426936533492
 20
559.551021830358
 30
0.0
 40
15.50000000000026
100
AcDbArc
 50
-154.5853790848397
 51
-145.4146209151617
  0
ARC
  5
1CF
330
42
100
AcDbEntity
  8
1
  6
Continuous
 62
     7
100
AcDbCircle
 10
97.35426936533492
 20
559.551021830358
 30
0.0
 40
10.49999999999993
100
AcDbArc
 50
-40.36759354418521
 51
97.58627747671253
  0
ARC
  5
1D0
330
42
100
AcDbEntity
  8
1
  6
Continuous
 62
     7
100
AcDbCircle
 10
97.35426936533492
 20
559.551021830358
 30
0.0
 40
8.200000000000046
100
AcDbArc
 50
90.0
 51
-167.3196165081797
  0
ARC
  5
1D1
330
42
100
AcDbEntity
  8
1
  6
Continuous
 62
     7
100
AcDbCircle
 10
97.35426936533492
 20
559.551021830358
 30
0.0
 40
8.200000000000001
100
AcDbArc
 50
-12.68038349182031
 51
90.0
  0
ARC
  5
1D2
330
42
100
AcDbEntity
  8
1
  6
Continuous
 62
     7
100
AcDbCircle
 10
97.35426936533492
 20
559.551021830358
 30
0.0
 40
10.5000000000001
100
AcDbArc
 50
97.58627747671253
 51
-139.6324064558149
  0
SPLINE
  5
1D3
330
42
100
AcDbEntity
  8
0
  6
Continuous
 62
     7
100
AcDbSpline
210
0.0
220
0.0
230
1.0
 70
    11
 71
     3
 72
    79
 73
    75
 74
    73
 42
0.0000000001
 43
0.0000000001
 44
0.00000001
 40
0.0
 40
0.0
 40
0.0
 40
0.0
 40
0.3172897010522364
 40
0.6344527337452031
 40
0.9639951214197433
 40
1.293341433534204
 40
1.640804573045614
 40
1.988067407882346
 40
2.356350230160816
 40
2.724465171366032
 40
3.113717605428433
 40
3.502844193081861
 40
3.91084685299449
 40
4.318762697990885
 40
4.741448997649203
 40
5.164081544476004
 40
5.596084837541985
 40
6.02806254400666
 40
6.463247851975956
 40
6.898433159945223
 40
7.330410866409897
 40
7.76241415947593
 40
8.185046706302734
 40
8.607733005961025
 40
9.015648850957451
 40
9.423651510870007
 40
9.812778098523408
 40
10.20203053258583
 40
10.57014547379106
 40
10.93842829606955
 40
11.2856911309063
 40
11.63315427041782
 40
11.96250058253231
 40
12.29204297020681
 40
12.60920600289968
 40
12.92649570395194
 40
13.23937159641171
 40
13.55224748887146
 40
13.86953718992369
 40
14.18670022261659
 40
14.51624261029109
 40
14.84558892240556
 40
15.193052061917
 40
15.54031489675378
 40
15.90859771903228
 40
16.27671266023751
 40
16.6659650942999
 40
17.05509168195323
 40
17.46309434186581
 40
17.87101018686229
 40
18.29369648652064
 40
18.71632903334747
 40
19.14833232641344
 40
19.5803100328781
 40
20.01549534084738
 40
20.45068064881666
 40
20.88265835528131
 40
21.3146616483473
 40
21.73729419517411
 40
22.15998049483241
 40
22.56789633982884
 40
22.97589899974141
 40
23.36502558739475
 40
23.75427802145716
 40
24.12239296266239
 40
24.49067578494096
 40
24.83793861977771
 40
25.18540175928915
 40
25.51474807140362
 40
25.84429045907812
 40
26.16145349177108
 40
26.47874319282334
 40
26.79161908528308
 40
27.10449497774282
 40
27.10449497774282
 40
27.10449497774282
 40
27.10449497774282
 10
109.3349304286379
 20
232.440400374409
 30
0.0
 10
109.3183651041009
 20
232.5449952700404
 30
0.0
 10
109.2852410682339
 20
232.7541433049406
 30
0.0
 10
109.186484559666
 20
233.061114515491
 30
0.0
 10
109.0547710659555
 20
233.3591876434205
 30
0.0
 10
108.8848066992119
 20
233.6491999562536
 30
0.0
 10
108.6825575612645
 20
233.9249088850262
 30
0.0
 10
108.4453349909869
 20
234.1888317707435
 30
0.0
 10
108.1797521488841
 20
234.4344087725821
 30
0.0
 10
107.8827601836429
 20
234.664426566941
 30
0.0
 10
107.5620393071817
 20
234.8730189103118
 30
0.0
 10
107.2144850057785
 20
235.0624505799806
 30
0.0
 10
106.8481746474178
 20
235.2281468887351
 30
0.0
 10
106.4606609393611
 20
235.3715283483364
 30
0.0
 10
106.0595902497473
 20
235.4895099284654
 30
0.0
 10
105.6438464610424
 20
235.5827326166853
 30
0.0
 10
105.2199033511214
 20
235.6494693037905
 30
0.0
 10
104.7884584417072
 20
235.6899060110505
 30
0.0
 10
104.3542693653405
 20
235.7033189226648
 30
0.0
 10
103.9200802889624
 20
235.6899060110513
 30
0.0
 10
103.4886353795823
 20
235.6494693037872
 30
0.0
 10
103.0646922695372
 20
235.5827326166974
 30
0.0
 10
102.6489484812852
 20
235.4895099284215
 30
0.0
 10
102.2478777900082
 20
235.3715283484985
 30
0.0
 10
101.8603640879517
 20
235.2281468881536
 30
0.0
 10
101.494053707705
 20
235.0624505821112
 30
0.0
 10
101.1464994843804
 20
234.8730189027678
 30
0.0
 10
100.8257783245899
 20
234.6644265945031
 30
0.0
 10
100.5287873621715
 20
234.4344086758894
 30
0.0
 10
100.2632008907445
 20
234.1888321237417
 30
0.0
 10
100.0259911321159
 20
233.9249076505994
 30
0.0
 10
99.82369557415071
 20
233.6492044734906
 30
0.0
 10
99.65389589948877
 20
233.3591717545146
 30
0.0
 10
99.5215820292733
 20
233.0611730161284
 30
0.0
 10
99.42498665912122
 20
232.7539340301103
 30
0.0
 10
99.36756152663061
 20
232.4426331684427
 30
0.0
 10
99.34766983519957
 20
232.1281227261378
 30
0.0
 10
99.3675615266306
 20
231.8136122838328
 30
0.0
 10
99.42498665912122
 20
231.5023114221653
 30
0.0
 10
99.52158202927329
 20
231.1950724361474
 30
0.0
 10
99.65389589948877
 20
230.8970736977609
 30
0.0
 10
99.82369557415073
 20
230.6070409787852
 30
0.0
 10
100.0259911321159
 20
230.3313378016763
 30
0.0
 10
100.2632008907445
 20
230.0674133285339
 30
0.0
 10
100.5287873621715
 20
229.8218367763862
 30
0.0
 10
100.8257783245898
 20
229.5918188577726
 30
0.0
 10
101.1464994843804
 20
229.3832265495078
 30
0.0
 10
101.4940537077049
 20
229.1937948701646
 30
0.0
 10
101.8603640879516
 20
229.0280985641222
 30
0.0
 10
102.2478777900082
 20
228.8847171037771
 30
0.0
 10
102.6489484812853
 20
228.7667355238543
 30
0.0
 10
103.0646922695372
 20
228.6735128355782
 30
0.0
 10
103.4886353795822
 20
228.6067761484883
 30
0.0
 10
103.9200802889629
 20
228.5663394412242
 30
0.0
 10
104.3542693653388
 20
228.5529265296111
 30
0.0
 10
104.7884584417137
 20
228.5663394412242
 30
0.0
 10
105.2199033510969
 20
228.6067761484887
 30
0.0
 10
105.643846461133
 20
228.6735128355774
 30
0.0
 10
106.0595902494173
 20
228.7667355238573
 30
0.0
 10
106.4606609405758
 20
228.8847171037656
 30
0.0
 10
106.84817464306
 20
229.0280985641634
 30
0.0
 10
107.2144850217464
 20
229.1937948700128
 30
0.0
 10
107.5620392506373
 20
229.3832265500455
 30
0.0
 10
107.8827603902291
 20
229.5918188558077
 30
0.0
 10
108.1797514241391
 20
229.8218367832793
 30
0.0
 10
108.4453376368302
 20
230.0674133033685
 30
0.0
 10
108.6825483088063
 20
230.3313378896792
 30
0.0
 10
108.88484055747
 20
230.6070406567494
 30
0.0
 10
109.0546519730959
 20
230.8970748304873
 30
0.0
 10
109.1869230422319
 20
231.1950682656136
 30
0.0
 10
109.2836724808001
 20
231.5023263414511
 30
0.0
 10
109.3405296988816
 20
231.8135568357857
 30
0.0
 10
109.3625132931406
 20
232.1283264749351
 30
0.0
 10
109.3441247168055
 20
232.336375741251
 30
0.0
 10
109.3349304286379
 20
232.440400374409
 30
0.0
 11
109.3349304286379
 21
232.440400374409
 31
0.0
 11
109.2772631497652
 21
232.7524055656178
 31
0.0
 11
109.1826974945356
 21
233.0551426234055
 31
0.0
 11
109.0491495536174
 21
233.3564118265292
 31
0.0
 11
108.8832823518026
 21
233.6409413762521
 31
0.0
 11
108.6780576430114
 21
233.9213222818443
 31
0.0
 11
108.4463319971955
 21
234.1799623822348
 31
0.0
 11
108.1762555375114
 21
234.4303439772251
 31
0.0
 11
107.885492234411
 21
234.6560989583632
 31
0.0
 11
107.559432164604
 21
234.868707256181
 31
0.0
 11
107.2179200845569
 21
235.055225352892
 31
0.0
 11
106.8463360325744
 21
235.2237230169947
 31
0.0
 11
106.4638466332864
 21
235.3654875966028
 31
0.0
 11
106.0584206531922
 21
235.4850429502407
 31
0.0
 11
105.6460558007127
 21
235.5776361361502
 31
0.0
 11
105.21933532883
 21
235.6449895629083
 31
0.0
 11
104.7892448464026
 21
235.6853246073212
 31
0.0
 11
104.3542693653386
 21
235.6988369404093
 31
0.0
 11
103.9192938842746
 21
235.6853246073212
 31
0.0
 11
103.4892034018472
 21
235.6449895629083
 31
0.0
 11
103.0624829299644
 21
235.5776361361502
 31
0.0
 11
102.6501180774849
 21
235.4850429502408
 31
0.0
 11
102.2446920973907
 21
235.3654875966028
 31
0.0
 11
101.8622026981027
 21
235.2237230169947
 31
0.0
 11
101.4906186461203
 21
235.0552253528921
 31
0.0
 11
101.1491065660732
 21
234.8687072561812
 31
0.0
 11
100.8230464962662
 21
234.6560989583633
 31
0.0
 11
100.5322831931658
 21
234.4303439772252
 31
0.0
 11
100.2622067334816
 21
234.1799623822349
 31
0.0
 11
100.0304810876657
 21
233.9213222818444
 31
0.0
 11
99.82525637887449
 21
233.640941376252
 31
0.0
 11
99.65938917705972
 21
233.3564118265291
 31
0.0
 11
99.52584123614159
 21
233.0551426234055
 31
0.0
 11
99.43127558091203
 21
232.7524055656178
 31
0.0
 11
99.37360830203929
 21
232.440400374409
 31
0.0
 11
99.3542693653386
 21
232.1281227261378
 31
0.0
 11
99.37360830203929
 21
231.8158450778666
 31
0.0
 11
99.43127558091202
 21
231.5038398866578
 31
0.0
 11
99.52584123614159
 21
231.2011028288701
 31
0.0
 11
99.65938917705972
 21
230.8998336257465
 31
0.0
 11
99.82525637887449
 21
230.6153040760236
 31
0.0
 11
100.0304810876657
 21
230.3349231704313
 31
0.0
 11
100.2622067334816
 21
230.0762830700407
 31
0.0
 11
100.5322831931658
 21
229.8259014750505
 31
0.0
 11
100.8230464962662
 21
229.6001464939124
 31
0.0
 11
101.1491065660732
 21
229.3875381960945
 31
0.0
 11
101.4906186461202
 21
229.2010200993837
 31
0.0
 11
101.8622026981027
 21
229.032522435281
 31
0.0
 11
102.2446920973907
 21
228.8907578556729
 31
0.0
 11
102.650118077485
 21
228.771202502035
 31
0.0
 11
103.0624829299645
 21
228.6786093161254
 31
0.0
 11
103.4892034018472
 21
228.6112558893674
 31
0.0
 11
103.9192938842746
 21
228.5709208449545
 31
0.0
 11
104.3542693653386
 21
228.5574085118663
 31
0.0
 11
104.7892448464026
 21
228.5709208449545
 31
0.0
 11
105.21933532883
 21
228.6112558893674
 31
0.0
 11
105.6460558007127
 21
228.6786093161254
 31
0.0
 11
106.0584206531922
 21
228.7712025020349
 31
0.0
 11
106.4638466332864
 21
228.8907578556729
 31
0.0
 11
106.8463360325744
 21
229.032522435281
 31
0.0
 11
107.2179200845569
 21
229.2010200993836
 31
0.0
 11
107.559432164604
 21
229.3875381960945
 31
0.0
 11
107.8854922344109
 21
229.6001464939123
 31
0.0
 11
108.1762555375113
 21
229.8259014750504
 31
0.0
 11
108.4463319971955
 21
230.0762830700407
 31
0.0
 11
108.6780576430114
 21
230.3349231704313
 31
0.0
 11
108.8832823518027
 21
230.6153040760235
 31
0.0
 11
109.0491495536175
 21
230.8998336257465
 31
0.0
 11
109.1826974945356
 21
231.2011028288701
 31
0.0
 11
109.2772631497652
 21
231.5038398866578
 31
0.0
 11
109.3349304286379
 21
231.8158450778666
 31
0.0
 11
109.3542693653386
 21
232.1281227261378
 31
0.0
 11
109.3349304286379
 21
232.440400374409
 31
0.0
  0
SPLINE
  5
1D4
330
42
100
AcDbEntity
  8
0
  6
Continuous
 62
     7
100
AcDbSpline
210
0.0
220
0.0
230
1.0
 70
    11
 71
     3
 72
    79
 73
    75
 74
    73
 42
0.0000000001
 43
0.0000000001
 44
0.00000001
 40
0.0
 40
0.0
 40
0.0
 40
0.0
 40
0.3172901887051405
 40
0.634453710060175
 40
0.9639965260533306
 40
1.29334326781724
 40
1.640806753673245
 40
1.988069935892439
 40
2.356353015249413
 40
2.724468214135514
 40
3.113720820879725
 40
3.502847581500086
 40
3.910850342678558
 40
4.318766289051395
 40
4.741452636397963
 40
5.164085230945105
 40
5.596088538664148
 40
6.028066259787063
 40
6.46325157126206
 40
6.898436882737087
 40
7.33041460386004
 40
7.76241791157906
 40
8.185050506126174
 40
8.607736853472826
 40
9.015652799845668
 40
9.423655561024106
 40
9.812782321644404
 40
10.2020349283886
 40
10.57015012727474
 40
10.93843320663171
 40
11.28569638885094
 40
11.63315987470696
 40
11.96250661647085
 40
12.29204943246402
 40
12.60921295381901
 40
12.92650314252415
 40
13.23937954490899
 40
13.55225594729382
 40
13.86954613599897
 40
14.18670965735394
 40
14.5162524733471
 40
14.84559921511105
 40
15.19306270096709
 40
15.54032588318624
 40
15.90860896254316
 40
16.27672416142925
 40
16.66597676817353
 40
17.05510352879384
 40
17.46310628997228
 40
17.87102223634514
 40
18.29370858369176
 40
18.71634117823889
 40
19.1483444859579
 40
19.58032220708086
 40
20.01550751855588
 40
20.45069283003089
 40
20.88267055115382
 40
21.31467385887279
 40
21.73730645341992
 40
22.1599928007665
 40
22.56790874713937
 40
22.97591150831782
 40
23.36503826893815
 40
23.75429087568237
 40
24.12240607456852
 40
24.4906891539255
 40
24.83795233614469
 40
25.18541582200075
 40
25.51476256376467
 40
25.84430537975779
 40
26.16146890111269
 40
26.47875908981786
 40
26.79163549220275
 40
27.10451189458759
 40
27.10451189458759
 40
27.10451189458759
 40
27.10451189458759
 10
95.33493043049327
 20
232.4404008854258
 30
0.0
 10
95.31836510767664
 20
232.5449959456575
 30
0.0
 10
95.28524107518689
 20
232.7541443100893
 30
0.0
 10
95.18648457861021
 20
233.0611160146371
 30
0.0
 10
95.05477109103173
 20
233.3591896356423
 30
0.0
 10
94.88480673730714
 20
233.6492024210239
 30
0.0
 10
94.68255760180176
 20
233.9249118160381
 30
0.0
 10
94.445335041394
 20
234.1888351372892
 30
0.0
 10
94.17975219576059
 20
234.4344125592843
 30
0.0
 10
93.88276023618894
 20
234.6644307363986
 30
0.0
 10
93.56203935176768
 20
234.8730234377264
 30
0.0
 10
93.21448505231095
 20
235.0624554241047
 30
0.0
 10
92.84817468401437
 20
235.2281520167695
 30
0.0
 10
92.46066097491827
 20
235.3715337167215
 30
0.0
 10
92.05959027527416
 20
235.4895154984248
 30
0.0
 10
91.64384648309164
 20
235.5827383431259
 30
0.0
 10
91.21990336414972
 20
235.649475144039
 30
0.0
 10
90.78845844915503
 20
235.6899119190668
 30
0.0
 10
90.35426936534047
 20
235.7033248538646
 30
0.0
 10
89.9200802815145
 20
235.6899119190675
 30
0.0
 10
89.48863536655396
 20
235.6494751440358
 30
0.0
 10
89.06469224748791
 20
235.582738343138
 30
0.0
 10
88.64894845575836
 20
235.4895154983807
 30
0.0
 10
88.24787775445098
 20
235.3715337168836
 30
0.0
 10
87.86036405135496
 20
235.228152016188
 30
0.0
 10
87.49405366117256
 20
235.062455426235
 30
0.0
 10
87.1464994397943
 20
234.8730234301825
 30
0.0
 10
86.82577827204412
 20
234.6644307639605
 30
0.0
 10
86.52878731529401
 20
234.4344124625919
 30
0.0
 10
86.26320084034067
 20
234.1888354902863
 30
0.0
 10
86.02599109157058
 20
233.9249105816141
 30
0.0
 10
85.8236955360811
 20
233.6492069382496
 30
0.0
 10
85.65389587436636
 20
233.3591737467699
 30
0.0
 10
85.5215820104597
 20
233.0611745151561
 30
0.0
 10
85.4249866521503
 20
232.7539350356266
 30
0.0
 10
85.36756152313348
 20
232.4426336708257
 30
0.0
 10
85.34766983662721
 20
232.1281227261378
 30
0.0
 10
85.36756152313345
 20
231.8136117814499
 30
0.0
 10
85.42498665215032
 20
231.502310416649
 30
0.0
 10
85.52158201045961
 20
231.1950709371195
 30
0.0
 10
85.6538958743663
 20
230.8970717055057
 30
0.0
 10
85.82369553608108
 20
230.607038514026
 30
0.0
 10
86.0259910915705
 20
230.3313348706614
 30
0.0
 10
86.26320084034063
 20
230.0674099619894
 30
0.0
 10
86.52878731529391
 20
229.8218329896837
 30
0.0
 10
86.8257782720441
 20
229.5918146883153
 30
0.0
 10
87.14649943979423
 20
229.3832220220931
 30
0.0
 10
87.49405366117256
 20
229.1937900260407
 30
0.0
 10
87.86036405135498
 20
229.0280934360877
 30
0.0
 10
88.24787775445097
 20
228.8847117353921
 30
0.0
 10
88.64894845575836
 20
228.7667299538951
 30
0.0
 10
89.06469224748791
 20
228.6735071091376
 30
0.0
 10
89.48863536655384
 20
228.60677030824
 30
0.0
 10
89.92008028151497
 20
228.5663335332081
 30
0.0
 10
90.35426936533872
 20
228.5529205984112
 30
0.0
 10
90.78845844916164
 20
228.5663335332081
 30
0.0
 10
91.21990336412517
 20
228.6067703082403
 30
0.0
 10
91.64384648318222
 20
228.6735071091368
 30
0.0
 10
92.05959027494404
 20
228.7667299538981
 30
0.0
 10
92.46066097613289
 20
228.8847117353806
 30
0.0
 10
92.84817467965658
 20
229.0280934361291
 30
0.0
 10
93.21448506827881
 20
229.1937900258889
 30
0.0
 10
93.56203929522332
 20
229.383222022631
 30
0.0
 10
93.88276044277495
 20
229.5918146863503
 30
0.0
 10
94.1797514710166
 20
229.8218329965769
 30
0.0
 10
94.44533768723429
 20
230.0674099368241
 30
0.0
 10
94.68254834935125
 20
230.3313349586639
 30
0.0
 10
94.88484059554136
 20
230.6070381919911
 30
0.0
 10
95.05465199821541
 20
230.8970728382298
 30
0.0
 10
95.18692306105318
 20
231.195066766594
 30
0.0
 10
95.28367248777538
 20
231.5023253359092
 30
0.0
 10
95.34052970235045
 20
231.8135563334961
 30
0.0
 10
95.36251329198582
 20
232.1283264746132
 30
0.0
 10
95.34412471765745
 20
232.3363760818216
 30
0.0
 10
95.33493043049327
 20
232.4404008854258
 30
0.0
 11
95.33493043049327
 21
232.4404008854258
 31
0.0
 11
95.27726315661248
 21
232.7524065734697
 31
0.0
 11
95.18269750166962
 21
233.0551441432947
 31
0.0
 11
95.04914957537542
 21
233.3564138214158
 31
0.0
 11
94.88328236586553
 21
233.6409438639771
 31
0.0
 11
94.67805767759742
 21
233.9213252137999
 31
0.0
 11
94.44633201589619
 21
234.1799657663707
 31
0.0
 11
94.17625557745174
 21
234.4303477624044
 31
0.0
 11
93.88549225401854
 21
234.6561031375276
 31
0.0
 11
93.55943220264457
 21
234.8687117797677
 31
0.0
 11
93.21792010198614
 21
235.0552301995947
 31
0.0
 11
92.84633606384323
 21
235.2237281394238
 31
0.0
 11
92.46384664663353
 21
235.3654929623801
 31
0.0
 11
92.05842067502447
 21
235.4850485133932
 31
0.0
 11
91.64605580899874
 21
235.5776418567891
 31
0.0
 11
91.21933533997871
 21
235.6449953956681
 31
0.0
 11
90.78924484920279
 21
235.6853305080476
 31
0.0
 11
90.3542693653386
 21
235.6988428639008
 31
0.0
 11
89.91929388147437
 21
235.6853305080476
 31
0.0
 11
89.48920339069841
 21
235.6449953956681
 31
0.0
 11
89.06248292167841
 21
235.5776418567891
 31
0.0
 11
88.65011805565271
 21
235.4850485133932
 31
0.0
 11
88.24469208404358
 21
235.3654929623801
 31
0.0
 11
87.8622026668339
 21
235.2237281394237
 31
0.0
 11
87.49061862869098
 21
235.0552301995947
 31
0.0
 11
87.1491065280326
 21
234.8687117797677
 31
0.0
 11
86.82304647665862
 21
234.6561031375277
 31
0.0
 11
86.53228315322539
 21
234.4303477624044
 31
0.0
 11
86.26220671478097
 21
234.1799657663707
 31
0.0
 11
86.03048105307975
 21
233.9213252137998
 31
0.0
 11
85.82525636481165
 21
233.640943863977
 31
0.0
 11
85.65938915530174
 21
233.3564138214158
 31
0.0
 11
85.52584122900751
 21
233.0551441432946
 31
0.0
 11
85.43127557406464
 21
232.7524065734697
 31
0.0
 11
85.37360830018383
 21
232.4404008854258
 31
0.0
 11
85.35426936533852
 21
232.1281227261378
 31
0.0
 11
85.37360830018383
 21
231.8158445668498
 31
0.0
 11
85.43127557406463
 21
231.5038388788059
 31
0.0
 11
85.52584122900747
 21
231.201101308981
 31
0.0
 11
85.65938915530167
 21
230.8998316308598
 31
0.0
 11
85.82525636481161
 21
230.6153015882986
 31
0.0
 11
86.03048105307973
 21
230.3349202384757
 31
0.0
 11
86.26220671478093
 21
230.076279685905
 31
0.0
 11
86.53228315322532
 21
229.8258976898713
 31
0.0
 11
86.82304647665856
 21
229.6001423147481
 31
0.0
 11
87.14910652803258
 21
229.387533672508
 31
0.0
 11
87.49061862869098
 21
229.201015252681
 31
0.0
 11
87.86220266683388
 21
229.032517312852
 31
0.0
 11
88.24469208404359
 21
228.8907524898956
 31
0.0
 11
88.6501180556527
 21
228.7711969388826
 31
0.0
 11
89.06248292167841
 21
228.6786035954866
 31
0.0
 11
89.48920339069841
 21
228.6112500566076
 31
0.0
 11
89.91929388147437
 21
228.5709149442281
 31
0.0
 11
90.35426936533858
 21
228.5574025883749
 31
0.0
 11
90.78924484920279
 21
228.5709149442281
 31
0.0
 11
91.21933533997873
 21
228.6112500566076
 31
0.0
 11
91.64605580899868
 21
228.6786035954866
 31
0.0
 11
92.05842067502439
 21
228.7711969388826
 31
0.0
 11
92.46384664663347
 21
228.8907524898956
 31
0.0
 11
92.84633606384318
 21
229.032517312852
 31
0.0
 11
93.2179201019861
 21
229.201015252681
 31
0.0
 11
93.55943220264452
 21
229.387533672508
 31
0.0
 11
93.88549225401854
 21
229.600142314748
 31
0.0
 11
94.17625557745181
 21
229.8258976898712
 31
0.0
 11
94.44633201589626
 21
230.0762796859049
 31
0.0
 11
94.67805767759749
 21
230.3349202384757
 31
0.0
 11
94.88328236586557
 21
230.6153015882986
 31
0.0
 11
95.04914957537544
 21
230.8998316308599
 31
0.0
 11
95.18269750166968
 21
231.201101308981
 31
0.0
 11
95.27726315661253
 21
231.5038388788059
 31
0.0
 11
95.33493043049332
 21
231.8158445668497
 31
0.0
 11
95.35426936533858
 21
232.1281227261378
 31
0.0
 11
95.33493043049327
 21
232.4404008854258
 31
0.0
  0
ARC
  5
1D5
330
42
100
AcDbEntity
  8
1
  6
Continuous
 62
     7
100
AcDbCircle
 10
87.58632017290761
 20
236.9856596906962
 30
0.0
 40
1.0
100
AcDbArc
 50
90.0
 51
137.0585971351255
  0
ARC
  5
1D6
330
42
100
AcDbEntity
  8
1
  6
Continuous
 62
     7
100
AcDbCircle
 10
87.58632017290761
 20
236.9856596906962
 30
0.0
 40
1.000000000000094
100
AcDbArc
 50
137.0585971351255
 51
150.000000000009
  0
ARC
  5
1D7
330
42
100
AcDbEntity
  8
1
  6
Continuous
 62
     7
100
AcDbCircle
 10
85.8542693653386
 20
237.9856596906962
 30
0.0
 40
1.0
100
AcDbArc
 50
-90.0
 51
-30.00000000000518
  0
ARC
  5
1D8
330
42
100
AcDbEntity
  8
1
  6
Continuous
 62
     7
100
AcDbCircle
 10
85.796248303608
 20
235.9856596906962
 30
0.0
 40
1.0
100
AcDbArc
 50
90.0
 51
105.3375576695568
  0
ARC
  5
1D9
330
42
100
AcDbEntity
  8
1
  6
Continuous
 62
     7
100
AcDbCircle
 10
107.1222185577697
 20
236.9856596906962
 30
0.0
 40
1.000000000000011
100
AcDbArc
 50
42.94140286487899
 51
90.0
  0
ARC
  5
1DA
330
42
100
AcDbEntity
  8
1
  6
Continuous
 62
     7
100
AcDbCircle
 10
107.1222185577697
 20
236.9856596906962
 30
0.0
 40
1.000000000000101
100
AcDbArc
 50
29.99999999999102
 51
42.94140286487899
  0
ARC
  5
1DB
330
42
100
AcDbEntity
  8
1
  6
Continuous
 62
     7
100
AcDbCircle
 10
108.8542693653386
 20
237.9856596906962
 30
0.0
 40
0.9999999999999154
100
AcDbArc
 50
-149.9999999999916
 51
-90.0
  0
ARC
  5
1DC
330
42
100
AcDbEntity
  8
1
  6
Continuous
 62
     7
100
AcDbCircle
 10
108.9122904270693
 20
235.9856596906962
 30
0.0
 40
0.9999999999999989
100
AcDbArc
 50
74.66244233044795
 51
90.0
  0
ENDBLK
  5
44
330
42
100
AcDbEntity
  8
0
100
AcDbBlockEnd
  0
BLOCK
  5
46
330
45
100
AcDbEntity
  8
0
100
AcDbBlockBegin
  2
61-7-170
 70
     0
 71
     0
 10
213.9542693653386
 20
136.854491569328
 30
0.0
  3
61-7-170
  1

  0
LINE
  5
1DD
330
45
100
AcDbEntity
  8
1
  6
Continuous
 62
     7
100
AcDbLine
 10
105.3542693653349
 20
559.551021830358
 30
0.0
 11
105.3542693653349
 21
417.8010218303581
 31
0.0
  0
LINE
  5
1DE
330
45
100
AcDbEntity
  8
1
  6
Continuous
 62
     7
100
AcDbLine
 10
89.35426936533492
 20
559.551021830358
 30
0.0
 11
89.35426936533492
 21
417.8010218303581
 31
0.0
  0
LINE
  5
1DF
330
45
100
AcDbEntity
  8
1
  6
Continuous
 62
     7
100
AcDbLine
 10
220.8542693653386
 20
278.4856596906963
 30
0.0
 11
335.8542693653386
 21
278.4856596906963
 31
0.0
  0
LINE
  5
1E0
330
45
100
AcDbEntity
  8
1
  6
Continuous
 62
     7
100
AcDbLine
 10
335.8542693653386
 20
262.4856596906963
 30
0.0
 11
220.8542693653386
 21
262.4856596906963
 31
0.0
  0
LINE
  5
1E1
330
45
100
AcDbEntity
  8
1
  6
Continuous
 62
     7
100
AcDbLine
 10
370.8542693653386
 20
237.9856596906962
 30
0.0
 11
370.8542693653386
 21
243.4856596906963
 31
0.0
  0
LINE
  5
1E2
330
45
100
AcDbEntity
  8
1
  6
Continuous
 62
     7
100
AcDbLine
 10
354.8542693653386
 20
237.9856596906962
 30
0.0
 11
354.8542693653386
 21
243.4856596906963
 31
0.0
  0
LINE
  5
1E3
330
45
100
AcDbEntity
  8
1
  6
Continuous
 62
     7
100
AcDbLine
 10
105.3542693653386
 20
242.9856596906962
 30
0.0
 11
105.3542693653386
 21
237.9856596906962
 31
0.0
  0
LINE
  5
1E4
330
45
100
AcDbEntity
  8
1
  6
Continuous
 62
     7
100
AcDbLine
 10
89.3542693653387
 20
237.9856596906962
 30
0.0
 11
89.3542693653387
 21
242.9856596906962
 31
0.0
  0
ARC
  5
1E5
330
45
100
AcDbEntity
  8
1
  6
Continuous
 62
     7
100
AcDbCircle
 10
335.8542693653386
 20
243.4856596906963
 30
0.0
 40
19.0
100
AcDbArc
 50
0.0
 51
90.0
  0
ARC
  5
1E6
330
45
100
AcDbEntity
  8
1
  6
Continuous
 62
     7
100
AcDbCircle
 10
335.8542693653386
 20
243.4856596906963
 30
0.0
 40
35.0
100
AcDbArc
 50
0.0
 51
90.0
  0
ARC
  5
1E7
330
45
100
AcDbEntity
  8
0
  6
Continuous
 62
     7
100
AcDbCircle
 10
97.35426936533492
 20
559.551021830358
 30
0.0
 40
7.999999999999986
100
AcDbArc
 50
0.0
 51
180.0
  0
ENDBLK
  5
47
330
45
100
AcDbEntity
  8
0
100
AcDbBlockEnd
  0
BLOCK
  5
4D
330
48
100
AcDbEntity
  8
0
100
AcDbBlockBegin
  2
A20JD-60X
 70
     0
 71
     0
 10
333.3382801567055
 20
106.6020212876988
 30
0.0
  3
A20JD-60X
  1

  0
INSERT
  5
49
330
48
100
AcDbEntity
  8
0
100
AcDbBlockReference
  2
84-26B
 10
-74.00966296962059
 20
52.67962237123318
 30
0.0
  0
INSERT
  5
4A
330
48
100
AcDbEntity
  8
0
100
AcDbBlockReference
  2
82-20-M21
 10
774.2481122082638
 20
488.068100400469
 30
0.0
  0
INSERT
  5
4B
330
48
100
AcDbEntity
  8
0
100
AcDbBlockReference
  2
32-1-16__2
 10
348.3439179342533
 20
229.1319617207065
 30
0.0
  0
INSERT
  5
4C
330
48
100
AcDbEntity
  8
1
100
AcDbBlockReference
  2
61-7-170
 10
213.9542693653386
 20
136.854491569328
 30
0.0
  0
ENDBLK
  5
4E
330
48
100
AcDbEntity
  8
0
100
AcDbBlockEnd
  0
BLOCK
  5
50
330
4F
100
AcDbEntity
  8
0
100
AcDbBlockBegin
  2
84-34-M21
 70
     0
 71
     0
 10
399.8542693653386
 20
283.4847327072782
 30
0.0
  3
84-34-M21
  1

  0
LINE
  5
1E8
330
4F
100
AcDbEntity
  8
1
  6
Continuous
 62
     7
100
AcDbLine
 10
162.8542693653323
 20
574.0510218303581
 30
0.0
 11
162.8542693653323
 21
594.051021830358
 31
0.0
  0
LINE
  5
1E9
330
4F
100
AcDbEntity
  8
1
  6
Continuous
 62
     7
100
AcDbLine
 10
162.7839286956751
 20
571.5510218303581
 30
0.0
 11
161.3542693653323
 21
571.5510218303581
 31
0.0
  0
LINE
  5
1EA
330
4F
100
AcDbEntity
  8
1
  6
Continuous
 62
     7
100
AcDbLine
 10
161.3542693653323
 20
596.551021830358
 30
0.0
 11
162.7839286956751
 21
596.551021830358
 31
0.0
  0
LINE
  5
1EB
330
4F
100
AcDbEntity
  8
1
  6
Continuous
 62
     7
100
AcDbLine
 10
162.5934692763767
 20
191.9856596906962
 30
0.0
 11
161.1638099460338
 21
191.9856596906962
 31
0.0
  0
LINE
  5
1EC
330
4F
100
AcDbEntity
  8
1
  6
Continuous
 62
     7
100
AcDbLine
 10
161.1638099460338
 20
216.9856596906961
 30
0.0
 11
162.5934692763767
 21
216.9856596906961
 31
0.0
  0
LINE
  5
1ED
330
4F
100
AcDbEntity
  8
0
  6
Continuous
 62
     7
100
AcDbLine
 10
162.6638099460338
 20
214.4856596906961
 30
0.0
 11
162.6638099460338
 21
194.4856596906962
 31
0.0
  0
ARC
  5
1EE
330
4F
100
AcDbEntity
  8
1
  6
Continuous
 62
     7
100
AcDbCircle
 10
-237.0207110973119
 20
584.0510218303581
 30
0.0
 40
400.0000000000001
100
AcDbArc
 50
-1.79078465932895
 51
-1.43254373756651
  0
ARC
  5
1EF
330
4F
100
AcDbEntity
  8
1
  6
Continuous
 62
     7
100
AcDbCircle
 10
-237.0207110973119
 20
584.0510218303581
 30
0.0
 40
400.0000000000001
100
AcDbArc
 50
1.43254373756649
 51
1.79078465932893
  0
ARC
  5
1F0
330
4F
100
AcDbEntity
  8
1
  6
Continuous
 62
     7
100
AcDbCircle
 10
-237.2111705166103
 20
204.4856596906961
 30
0.0
 40
400.0000000000001
100
AcDbArc
 50
-1.79078465932894
 51
-1.4325437375665
  0
ARC
  5
1F1
330
4F
100
AcDbEntity
  8
1
  6
Continuous
 62
     7
100
AcDbCircle
 10
-237.2111705166103
 20
204.4856596906961
 30
0.0
 40
400.0
100
AcDbArc
 50
1.43254373756651
 51
1.79078465932895
  0
CIRCLE
  5
1F2
330
4F
100
AcDbEntity
  8
1
  6
Continuous
 62
     7
100
AcDbCircle
 10
387.3542693653386
 20
204.4856596906961
 30
0.0
 40
12.5
  0
CIRCLE
  5
1F3
330
4F
100
AcDbEntity
  8
1
  6
Continuous
 62
     7
100
AcDbCircle
 10
387.3542693653386
 20
204.4856596906961
 30
0.0
 40
10.00000000000011
  0
ENDBLK
  5
51
330
4F
100
AcDbEntity
  8
0
100
AcDbBlockEnd
  0
BLOCK
  5
53
330
52
100
AcDbEntity
  8
0
100
AcDbBlockBegin
  2
87-18
 70
     0
 71
     0
 10
300.8835559176912
 20
375.8046517238873
 30
0.0
  3
87-18
  1

  0
LINE
  5
1F4
330
52
100
AcDbEntity
  8
1
  6
Continuous
 62
     7
100
AcDbLine
 10
159.0811974242204
 20
200.1613533697259
 30
0.0
 11
138.0811974242204
 21
200.1613533697259
 31
0.0
  0
LINE
  5
1F5
330
52
100
AcDbEntity
  8
1
  6
Continuous
 62
     7
100
AcDbLine
 10
138.0811974242204
 20
208.8099660116664
 30
0.0
 11
159.0811974242204
 21
208.8099660116664
 31
0.0
  0
LINE
  5
1F6
330
52
100
AcDbEntity
  8
1
  6
Continuous
 62
     7
100
AcDbLine
 10
136.0811974242204
 20
206.8099660116664
 30
0.0
 11
136.0811974242204
 21
202.1613533697259
 31
0.0
  0
LINE
  5
1F7
330
52
100
AcDbEntity
  8
1
  6
Continuous
 62
     7
100
AcDbLine
 10
161.0811974242204
 20
219.9856596907011
 30
0.0
 11
161.0811974242204
 21
188.9856596906912
 31
0.0
  0
LINE
  5
1F8
330
52
100
AcDbEntity
  8
1
  6
Continuous
 62
     7
100
AcDbLine
 10
117.0811974242204
 20
221.9856596907011
 30
0.0
 11
117.0811974242204
 21
186.9856596906912
 31
0.0
  0
LINE
  5
1F9
330
52
100
AcDbEntity
  8
1
  6
Continuous
 62
     7
100
AcDbLine
 10
158.0811974242204
 20
185.9856596906912
 30
0.0
 11
118.0811974242204
 21
185.9856596906912
 31
0.0
  0
LINE
  5
1FA
330
52
100
AcDbEntity
  8
1
  6
Continuous
 62
     7
100
AcDbLine
 10
118.0811974242204
 20
222.9856596907011
 30
0.0
 11
158.0811974242204
 21
222.9856596907011
 31
0.0
  0
LINE
  5
1FB
330
52
100
AcDbEntity
  8
1
  6
Continuous
 62
     7
100
AcDbLine
 10
329.3423805640396
 20
200.2238413523877
 30
0.0
 11
365.8805064112826
 21
200.0066402558392
 31
0.0
  0
LINE
  5
1FC
330
52
100
AcDbEntity
  8
1
  6
Continuous
 62
     7
100
AcDbLine
 10
327.3542693653385
 20
206.7475133652157
 30
0.0
 11
327.3542693653385
 21
202.2238060161764
 31
0.0
  0
LINE
  5
1FD
330
52
100
AcDbEntity
  8
1
  6
Continuous
 62
     7
100
AcDbLine
 10
329.3423805640396
 20
208.7474780290045
 30
0.0
 11
365.8805064112826
 21
208.964679125553
 31
0.0
  0
LINE
  5
1FE
330
52
100
AcDbEntity
  8
1
  6
Continuous
 62
     7
100
AcDbLine
 10
161.3542693653321
 20
568.551021830353
 30
0.0
 11
161.3542693653321
 21
536.5510218303581
 31
0.0
  0
LINE
  5
1FF
330
52
100
AcDbEntity
  8
1
  6
Continuous
 62
     7
100
AcDbLine
 10
136.3542693653321
 20
536.5510218303581
 30
0.0
 11
136.3542693653321
 21
564.0638465604529
 31
0.0
  0
LINE
  5
200
330
52
100
AcDbEntity
  8
1
  6
Continuous
 62
     7
100
AcDbLine
 10
118.3542693653349
 20
602.551021830363
 30
0.0
 11
158.3542693653321
 21
602.551021830363
 31
0.0
  0
LINE
  5
201
330
52
100
AcDbEntity
  8
1
  6
Continuous
 62
     7
100
AcDbLine
 10
158.3542693653321
 20
565.551021830353
 30
0.0
 11
118.3542693653349
 21
565.551021830353
 31
0.0
  0
LINE
  5
202
330
52
100
AcDbEntity
  8
1
  6
Continuous
 62
     7
100
AcDbLine
 10
117.3542693653349
 20
601.551021830363
 30
0.0
 11
117.3542693653349
 21
566.551021830353
 31
0.0
  0
LINE
  5
203
330
52
100
AcDbEntity
  8
1
  6
Continuous
 62
     7
100
AcDbLine
 10
161.3542693653321
 20
599.551021830363
 30
0.0
 11
161.3542693653321
 21
568.551021830353
 31
0.0
  0
LINE
  5
204
330
52
100
AcDbEntity
  8
1
  6
PHANTOM
 62
     5
100
AcDbLine
 10
391.6160877036471
 20
146.4737708893971
 30
0.0
 11
391.8332888001955
 21
183.0118967366401
 31
0.0
  0
LINE
  5
205
330
52
100
AcDbEntity
  8
1
  6
PHANTOM
 62
     5
100
AcDbLine
 10
385.0924156908191
 20
144.485659690696
 30
0.0
 11
389.6161230398583
 21
144.485659690696
 31
0.0
  0
LINE
  5
206
330
52
100
AcDbEntity
  8
1
  6
PHANTOM
 62
     5
100
AcDbLine
 10
383.0924510270302
 20
146.4737708893971
 30
0.0
 11
382.8752499304817
 21
183.0118967366401
 31
0.0
  0
ARC
  5
207
330
52
100
AcDbEntity
  8
1
  6
Continuous
 62
     7
100
AcDbCircle
 10
387.3542693653386
 20
204.4856596906961
 30
0.0
 40
18.50000000000017
100
AcDbArc
 50
-165.9219613962409
 51
153.5089827722607
  0
ARC
  5
208
330
52
100
AcDbEntity
  8
1
  6
Continuous
 62
     7
100
AcDbCircle
 10
387.3542693653386
 20
204.4856596906961
 30
0.0
 40
18.5000000000001
100
AcDbArc
 50
153.5089827722607
 51
165.9219613962409
  0
ARC
  5
209
330
52
100
AcDbEntity
  8
1
  6
Continuous
 62
     7
100
AcDbCircle
 10
148.8542693653321
 20
536.5510218303581
 30
0.0
 40
12.5
100
AcDbArc
 50
-90.0
 51
0.0
  0
ARC
  5
20A
330
52
100
AcDbEntity
  8
1
  6
Continuous
 62
     7
100
AcDbCircle
 10
148.8542693653321
 20
536.5510218303581
 30
0.0
 40
12.5
100
AcDbArc
 50
180.0
 51
-90.0
  0
CIRCLE
  5
20B
330
52
100
AcDbEntity
  8
1
  6
Continuous
 62
     7
100
AcDbCircle
 10
148.8542693653321
 20
536.5510218303581
 30
0.0
 40
8.5
  0
ARC
  5
20C
330
52
100
AcDbEntity
  8
1
  6
Continuous
 62
     7
100
AcDbCircle
 10
329.3542693653385
 20
202.2238060161764
 30
0.0
 40
2.0
100
AcDbArc
 50
180.0
 51
-90.34059107481649
  0
ARC
  5
20D
330
52
100
AcDbEntity
  8
1
  6
Continuous
 62
     7
100
AcDbCircle
 10
329.3542693653385
 20
206.7475133652157
 30
0.0
 40
2.000000000000045
100
AcDbArc
 50
90.34059107481647
 51
180.0
  0
ARC
  5
20E
330
52
100
AcDbEntity
  8
1
  6
Continuous
 62
     7
100
AcDbCircle
 10
365.8507844080353
 20
195.0067285963673
 30
0.0
 40
4.999999999999935
100
AcDbArc
 50
23.78832003811298
 51
89.65940892518191
  0
ARC
  5
20F
330
52
100
AcDbEntity
  8
1
  6
Continuous
 62
     7
100
AcDbCircle
 10
365.8507844080353
 20
213.9645907850249
 30
0.0
 40
5.000000000000014
100
AcDbArc
 50
-89.65940892518191
 51
-23.78832003811327
  0
ARC
  5
210
330
52
100
AcDbEntity
  8
1
  6
Continuous
 62
     7
100
AcDbCircle
 10
138.0811974242204
 20
202.1613533697259
 30
0.0
 40
2.0
100
AcDbArc
 50
180.0
 51
-90.0
  0
ARC
  5
211
330
52
100
AcDbEntity
  8
1
  6
Continuous
 62
     7
100
AcDbCircle
 10
138.0811974242204
 20
206.8099660116664
 30
0.0
 40
2.0
100
AcDbArc
 50
90.0
 51
180.0
  0
ARC
  5
212
330
52
100
AcDbEntity
  8
1
  6
Continuous
 62
     7
100
AcDbCircle
 10
159.0811974242204
 20
202.1613533697259
 30
0.0
 40
2.0
100
AcDbArc
 50
-90.0
 51
0.0
  0
ARC
  5
213
330
52
100
AcDbEntity
  8
1
  6
Continuous
 62
     7
100
AcDbCircle
 10
159.0811974242204
 20
206.8099660116664
 30
0.0
 40
2.0
100
AcDbArc
 50
0.0
 51
90.0
  0
ARC
  5
214
330
52
100
AcDbEntity
  8
1
  6
Continuous
 62
     7
100
AcDbCircle
 10
158.0811974242204
 20
219.9856596907011
 30
0.0
 40
3.0
100
AcDbArc
 50
0.0
 51
90.0
  0
ARC
  5
215
330
52
100
AcDbEntity
  8
1
  6
Continuous
 62
     7
100
AcDbCircle
 10
158.0811974242204
 20
188.9856596906912
 30
0.0
 40
3.0
100
AcDbArc
 50
-90.0
 51
0.0
  0
ARC
  5
216
330
52
100
AcDbEntity
  8
1
  6
Continuous
 62
     7
100
AcDbCircle
 10
118.0811974242204
 20
186.9856596906912
 30
0.0
 40
1.0
100
AcDbArc
 50
180.0
 51
-90.0
  0
ARC
  5
217
330
52
100
AcDbEntity
  8
1
  6
Continuous
 62
     7
100
AcDbCircle
 10
118.0811974242204
 20
221.9856596907011
 30
0.0
 40
1.0
100
AcDbArc
 50
90.0
 51
180.0
  0
ARC
  5
218
330
52
100
AcDbEntity
  8
1
  6
Continuous
 62
     7
100
AcDbCircle
 10
134.3542693653321
 20
563.5510218303581
 30
0.0
 40
2.0
100
AcDbArc
 50
0.0
 51
90.0
  0
ARC
  5
219
330
52
100
AcDbEntity
  8
1
  6
Continuous
 62
     7
100
AcDbCircle
 10
118.3542693653349
 20
601.551021830363
 30
0.0
 40
1.0
100
AcDbArc
 50
90.0
 51
180.0
  0
ARC
  5
21A
330
52
100
AcDbEntity
  8
1
  6
Continuous
 62
     7
100
AcDbCircle
 10
118.3542693653349
 20
566.5510218303532
 30
0.0
 40
1.0
100
AcDbArc
 50
-179.999999999987
 51
-90.0
  0
ARC
  5
21B
330
52
100
AcDbEntity
  8
1
  6
Continuous
 62
     7
100
AcDbCircle
 10
158.3542693653321
 20
568.551021830353
 30
0.0
 40
3.0
100
AcDbArc
 50
-90.0
 51
0.0
  0
ARC
  5
21C
330
52
100
AcDbEntity
  8
1
  6
Continuous
 62
     7
100
AcDbCircle
 10
158.3542693653321
 20
599.551021830363
 30
0.0
 40
3.0
100
AcDbArc
 50
0.0
 51
90.0
  0
ARC
  5
21D
330
52
100
AcDbEntity
  8
1
  6
PHANTOM
 62
     5
100
AcDbCircle
 10
389.6161230398583
 20
146.485659690696
 30
0.0
 40
2.0
100
AcDbArc
 50
-90.0
 51
-0.34059107481728
  0
ARC
  5
21E
330
52
100
AcDbEntity
  8
1
  6
PHANTOM
 62
     5
100
AcDbCircle
 10
385.0924156908191
 20
146.485659690696
 30
0.0
 40
2.000000000000131
100
AcDbArc
 50
-179.6594089251827
 51
-90.0
  0
ARC
  5
21F
330
52
100
AcDbEntity
  8
1
  6
PHANTOM
 62
     5
100
AcDbCircle
 10
396.8332004596674
 20
182.9821747333928
 30
0.0
 40
4.999999999999947
100
AcDbArc
 50
113.7883200381133
 51
179.6594089251826
  0
ARC
  5
220
330
52
100
AcDbEntity
  8
1
  6
PHANTOM
 62
     5
100
AcDbCircle
 10
377.8753382710098
 20
182.9821747333928
 30
0.0
 40
4.999999999999985
100
AcDbArc
 50
0.34059107481745
 51
66.21167996188673
  0
ENDBLK
  5
54
330
52
100
AcDbEntity
  8
0
100
AcDbBlockEnd
  0
BLOCK
  5
58
330
55
100
AcDbEntity
  8
0
100
AcDbBlockBegin
  2
R261F
 70
     0
 71
     0
 10
513.3125126667563
 20
597.7898885845032
 30
0.0
  3
R261F
  1

  0
INSERT
  5
56
330
55
100
AcDbEntity
  8
1
100
AcDbBlockReference
  2
84-34-M21
 10
399.8542693653386
 20
283.4847327072782
 30
0.0
  0
INSERT
  5
57
330
55
100
AcDbEntity
  8
0
100
AcDbBlockReference
  2
87-18
 10
300.8835559176912
 20
375.8046517238873
 30
0.0
  0
ENDBLK
  5
59
330
55
100
AcDbEntity
  8
0
100
AcDbBlockEnd
  0
BLOCK
  5
5B
330
5A
100
AcDbEntity
  8
0
100
AcDbBlockBegin
  2
A201-0
 70
     0
 71
     0
 10
308.4212516138594
 20
287.1826732563931
 30
0.0
  3
A201-0
  1

  0
LINE
  5
221
330
5A
100
AcDbEntity
  8
1
  6
Continuous
 62
     7
100
AcDbLine
 10
375.8542693653386
 20
226.4856596906961
 30
0.0
 11
375.8542693653387
 21
227.9856596906957
 31
0.0
  0
LINE
  5
222
330
5A
100
AcDbEntity
  8
1
  6
Continuous
 62
     7
100
AcDbLine
 10
349.3542693653387
 20
224.4856596906961
 30
0.0
 11
348.4542693653387
 21
223.2856596906962
 31
0.0
  0
LINE
  5
223
330
5A
100
AcDbEntity
  8
1
  6
Continuous
 62
     7
100
AcDbLine
 10
429.8542693653386
 20
227.4856596906961
 30
0.0
 11
429.8542693653386
 21
181.4856596906961
 31
0.0
  0
LINE
  5
224
330
5A
100
AcDbEntity
  8
1
  6
Continuous
 62
     7
100
AcDbLine
 10
434.0863201729076
 20
214.9856596906961
 30
0.0
 11
445.3542693653386
 21
214.9856596906961
 31
0.0
  0
LINE
  5
225
330
5A
100
AcDbEntity
  8
1
  6
Continuous
 62
     7
100
AcDbLine
 10
115.354269365335
 20
598.051021830358
 30
0.0
 11
117.3542693653349
 21
598.051021830358
 31
0.0
  0
LINE
  5
226
330
5A
100
AcDbEntity
  8
1
  6
Continuous
 62
     7
100
AcDbLine
 10
110.3542693653386
 20
224.1468624808737
 30
0.0
 11
110.3542693653386
 21
227.9856596906961
 31
0.0
  0
LINE
  5
227
330
5A
100
AcDbEntity
  8
1
  6
Continuous
 62
     2
100
AcDbLine
 10
109.3542693653386
 20
226.4856596906961
 30
0.0
 11
110.3542693653386
 21
224.7536088831275
 31
0.0
  0
LINE
  5
228
330
5A
100
AcDbEntity
  8
1
  6
Continuous
 62
     2
100
AcDbLine
 10
84.3542693653386
 20
224.7536088831275
 30
0.0
 11
85.3542693653386
 21
226.4856596906961
 31
0.0
  0
LINE
  5
229
330
5A
100
AcDbEntity
  8
1
  6
Continuous
 62
     7
100
AcDbLine
 10
108.3679673528904
 20
224.4856596906961
 30
0.0
 11
86.3405713777867
 21
224.4856596906961
 31
0.0
  0
LINE
  5
22A
330
5A
100
AcDbEntity
  8
1
  6
Continuous
 62
     2
100
AcDbLine
 10
374.8542693653386
 20
227.9856596906958
 30
0.0
 11
374.8542693653386
 21
226.4856596906961
 31
0.0
  0
LINE
  5
22B
330
5A
100
AcDbEntity
  8
1
  6
Continuous
 62
     7
100
AcDbLine
 10
114.4068918353242
 20
218.4856596906961
 30
0.0
 11
117.0811974242205
 21
218.4856596906961
 31
0.0
  0
LINE
  5
22C
330
5A
100
AcDbEntity
  8
1
  6
Continuous
 62
     7
100
AcDbLine
 10
110.3542693653386
 20
226.4856596906961
 30
0.0
 11
84.3542693653386
 21
226.4856596906961
 31
0.0
  0
LINE
  5
22D
330
5A
100
AcDbEntity
  8
1
  6
Continuous
 62
     2
100
AcDbLine
 10
349.8542693653387
 20
225.4856596906961
 30
0.0
 11
350.8542693653387
 21
226.4856596906961
 31
0.0
  0
LINE
  5
22E
330
5A
100
AcDbEntity
  8
1
  6
Continuous
 62
     2
100
AcDbLine
 10
374.8542693653386
 20
226.4856596906961
 30
0.0
 11
375.8542693653386
 21
225.4856596906961
 31
0.0
  0
LINE
  5
22F
330
5A
100
AcDbEntity
  8
1
  6
Continuous
 62
     7
100
AcDbLine
 10
432.3542693653387
 20
193.9856596906961
 30
0.0
 11
445.3542693653386
 21
193.9856596906961
 31
0.0
  0
LINE
  5
230
330
5A
100
AcDbEntity
  8
1
  6
Continuous
 62
     2
100
AcDbLine
 10
446.3542693653386
 20
213.9856596906961
 30
0.0
 11
434.0863201729076
 21
213.9856596906961
 31
0.0
  0
LINE
  5
231
330
5A
100
AcDbEntity
  8
1
  6
Continuous
 62
     7
100
AcDbLine
 10
445.3542693653386
 20
214.9856596906961
 30
0.0
 11
445.3542693653386
 21
193.9856596906961
 31
0.0
  0
LINE
  5
232
330
5A
100
AcDbEntity
  8
1
  6
Continuous
 62
     7
100
AcDbLine
 10
432.3542693653387
 20
181.4856596906961
 30
0.0
 11
429.8542693653386
 21
181.4856596906961
 31
0.0
  0
LINE
  5
233
330
5A
100
AcDbEntity
  8
1
  6
Continuous
 62
     2
100
AcDbLine
 10
434.0863201729076
 20
194.9856596906961
 30
0.0
 11
432.3542693653387
 21
193.9856596906961
 31
0.0
  0
LINE
  5
234
330
5A
100
AcDbEntity
  8
1
  6
Continuous
 62
     2
100
AcDbLine
 10
446.3542693653386
 20
194.9856596906961
 30
0.0
 11
434.0863201729076
 21
194.9856596906961
 31
0.0
  0
LINE
  5
235
330
5A
100
AcDbEntity
  8
1
  6
Continuous
 62
     7
100
AcDbLine
 10
446.3542693653386
 20
213.9856596906961
 30
0.0
 11
446.3542693653386
 21
194.9856596906961
 31
0.0
  0
LINE
  5
236
330
5A
100
AcDbEntity
  8
1
  6
Continuous
 62
     7
100
AcDbLine
 10
445.3542693653386
 20
193.9856596906961
 30
0.0
 11
446.3542693653386
 21
194.9856596906961
 31
0.0
  0
LINE
  5
237
330
5A
100
AcDbEntity
  8
1
  6
Continuous
 62
     7
100
AcDbLine
 10
446.3542693653386
 20
213.9856596906961
 30
0.0
 11
445.3542693653386
 21
214.9856596906961
 31
0.0
  0
LINE
  5
238
330
5A
100
AcDbEntity
  8
1
  6
Continuous
 62
     2
100
AcDbLine
 10
432.3542693653387
 20
214.9856596906961
 30
0.0
 11
434.0863201729076
 21
213.9856596906961
 31
0.0
  0
LINE
  5
239
330
5A
100
AcDbEntity
  8
1
  6
Continuous
 62
     7
100
AcDbLine
 10
432.3542693653387
 20
214.9856596906961
 30
0.0
 11
434.0863201729076
 21
214.9856596906961
 31
0.0
  0
LINE
  5
23A
330
5A
100
AcDbEntity
  8
1
  6
Continuous
 62
     7
100
AcDbLine
 10
429.8542693653386
 20
227.4856596906961
 30
0.0
 11
432.3542693653387
 21
227.4856596906961
 31
0.0
  0
LINE
  5
23B
330
5A
100
AcDbEntity
  8
1
  6
Continuous
 62
     7
100
AcDbLine
 10
375.8542693653386
 20
225.4856596906961
 30
0.0
 11
375.8542693653386
 21
226.4856596906961
 31
0.0
  0
LINE
  5
23C
330
5A
100
AcDbEntity
  8
1
  6
Continuous
 62
     7
100
AcDbLine
 10
349.8542693653387
 20
225.4856596906961
 30
0.0
 11
349.8542693653387
 21
227.9856596906958
 31
0.0
  0
LINE
  5
23D
330
5A
100
AcDbEntity
  8
1
  6
Continuous
 62
     2
100
AcDbLine
 10
350.8542693653387
 20
227.9856596906957
 30
0.0
 11
350.8542693653387
 21
226.4856596906961
 31
0.0
  0
LINE
  5
23E
330
5A
100
AcDbEntity
  8
1
  6
Continuous
 62
     7
100
AcDbLine
 10
349.6542693653387
 20
224.8856596906961
 30
0.0
 11
349.3542693653387
 21
224.4856596906961
 31
0.0
  0
LINE
  5
23F
330
5A
100
AcDbEntity
  8
1
  6
Continuous
 62
     7
100
AcDbLine
 10
82.3542693653349
 20
559.5510218303581
 30
0.0
 11
82.3542693653349
 21
618.5510218303581
 31
0.0
  0
LINE
  5
240
330
5A
100
AcDbEntity
  8
1
  6
Continuous
 62
     7
100
AcDbLine
 10
86.8542693653349
 20
629.0510218303581
 30
0.0
 11
86.8542693653349
 21
642.051021830358
 31
0.0
  0
LINE
  5
241
330
5A
100
AcDbEntity
  8
1
  6
Continuous
 62
     7
100
AcDbLine
 10
107.8542693653349
 20
629.0510218303581
 30
0.0
 11
107.8542693653349
 21
642.051021830358
 31
0.0
  0
LINE
  5
242
330
5A
100
AcDbEntity
  8
1
  6
Continuous
 62
     7
100
AcDbLine
 10
107.8542693653349
 20
642.051021830358
 30
0.0
 11
106.8542693653349
 21
643.051021830358
 31
0.0
  0
LINE
  5
243
330
5A
100
AcDbEntity
  8
1
  6
Continuous
 62
     7
100
AcDbLine
 10
87.8542693653349
 20
643.051021830358
 30
0.0
 11
86.8542693653349
 21
642.051021830358
 31
0.0
  0
LINE
  5
244
330
5A
100
AcDbEntity
  8
1
  6
Continuous
 62
     7
100
AcDbLine
 10
74.35426936533492
 20
626.551021830358
 30
0.0
 11
74.35426936533463
 21
629.0510218303581
 31
0.0
  0
LINE
  5
245
330
5A
100
AcDbEntity
  8
1
  6
Continuous
 62
     2
100
AcDbLine
 10
86.8542693653349
 20
629.0510218303581
 30
0.0
 11
87.8542693653349
 21
630.7830726379269
 31
0.0
  0
LINE
  5
246
330
5A
100
AcDbEntity
  8
1
  6
Continuous
 62
     2
100
AcDbLine
 10
87.8542693653349
 20
630.7830726379269
 30
0.0
 11
87.8542693653349
 21
643.051021830358
 31
0.0
  0
LINE
  5
247
330
5A
100
AcDbEntity
  8
1
  6
Continuous
 62
     7
100
AcDbLine
 10
106.8542693653349
 20
643.051021830358
 30
0.0
 11
87.8542693653349
 21
643.051021830358
 31
0.0
  0
LINE
  5
248
330
5A
100
AcDbEntity
  8
1
  6
Continuous
 62
     2
100
AcDbLine
 10
106.8542693653349
 20
630.7830726379269
 30
0.0
 11
106.8542693653349
 21
643.051021830358
 31
0.0
  0
LINE
  5
249
330
5A
100
AcDbEntity
  8
1
  6
Continuous
 62
     2
100
AcDbLine
 10
106.8542693653349
 20
630.7830726379269
 30
0.0
 11
107.8542693653349
 21
629.0510218303581
 31
0.0
  0
LINE
  5
24A
330
5A
100
AcDbEntity
  8
1
  6
Continuous
 62
     7
100
AcDbLine
 10
120.3542693653348
 20
629.0510218303581
 30
0.0
 11
120.3542693653348
 21
626.551021830358
 31
0.0
  0
LINE
  5
24B
330
5A
100
AcDbEntity
  8
1
  6
Continuous
 62
     7
100
AcDbLine
 10
117.3542693653349
 20
570.051021830358
 30
0.0
 11
115.354269365335
 21
570.051021830358
 31
0.0
  0
LINE
  5
24C
330
5A
100
AcDbEntity
  8
1
  6
Continuous
 62
     7
100
AcDbLine
 10
112.3542693653349
 20
559.551021830358
 30
0.0
 11
112.3542693653349
 21
567.051021830358
 31
0.0
  0
LINE
  5
24D
330
5A
100
AcDbEntity
  8
1
  6
Continuous
 62
     7
100
AcDbLine
 10
112.3542693653349
 20
601.051021830358
 30
0.0
 11
112.3542693653349
 21
618.5510218303581
 31
0.0
  0
LINE
  5
24E
330
5A
100
AcDbEntity
  8
1
  6
Continuous
 62
     7
100
AcDbLine
 10
74.35426936533463
 20
629.0510218303581
 30
0.0
 11
120.3542693653348
 21
629.0510218303581
 31
0.0
  0
LINE
  5
24F
330
5A
100
AcDbEntity
  8
1
  6
Continuous
 62
     7
100
AcDbLine
 10
107.8542693653349
 20
630.7830726379269
 30
0.0
 11
86.8542693653349
 21
630.7830726379269
 31
0.0
  0
LINE
  5
250
330
5A
100
AcDbEntity
  8
1
  6
Continuous
 62
     7
100
AcDbLine
 10
86.8542693653349
 20
642.051021830358
 30
0.0
 11
107.8542693653349
 21
642.051021830358
 31
0.0
  0
LINE
  5
251
330
5A
100
AcDbEntity
  8
1
  6
Continuous
 62
     7
100
AcDbLine
 10
111.1402953920034
 20
618.5510218303581
 30
0.0
 11
111.1402953920034
 21
566.6358991328959
 31
0.0
  0
LINE
  5
252
330
5A
100
AcDbEntity
  8
1
  6
Continuous
 62
     7
100
AcDbLine
 10
103.1402953920034
 20
626.551021830358
 30
0.0
 11
91.56824333866621
 21
626.551021830358
 31
0.0
  0
LINE
  5
253
330
5A
100
AcDbEntity
  8
1
  6
Continuous
 62
     7
100
AcDbLine
 10
349.8542693653387
 20
226.4856596906961
 30
0.0
 11
375.8542693653386
 21
226.4856596906961
 31
0.0
  0
LINE
  5
254
330
5A
100
AcDbEntity
  8
1
  6
Continuous
 62
     7
100
AcDbLine
 10
432.3542693653387
 20
214.9856596906961
 30
0.0
 11
432.3542693653387
 21
227.4856596906961
 31
0.0
  0
LINE
  5
255
330
5A
100
AcDbEntity
  8
1
  6
Continuous
 62
     7
100
AcDbLine
 10
432.3542693653387
 20
181.4856596906961
 30
0.0
 11
432.3542693653387
 21
214.9856596906961
 31
0.0
  0
LINE
  5
256
330
5A
100
AcDbEntity
  8
1
  6
Continuous
 62
     7
100
AcDbLine
 10
434.0863201729076
 20
193.9856596906961
 30
0.0
 11
434.0863201729076
 21
214.9856596906961
 31
0.0
  0
LINE
  5
257
330
5A
100
AcDbEntity
  8
1
  6
Continuous
 62
     2
100
AcDbLine
 10
368.3542693653386
 20
184.4856596906961
 30
0.0
 11
369.8470781153994
 21
184.4856596906961
 31
0.0
  0
LINE
  5
258
330
5A
100
AcDbEntity
  8
1
  6
Continuous
 62
     7
100
AcDbLine
 10
84.3542693653386
 20
227.9856596906961
 30
0.0
 11
84.3542693653386
 21
224.1468624808737
 31
0.0
  0
LINE
  5
259
330
5A
100
AcDbEntity
  8
1
  6
Continuous
 62
     2
100
AcDbLine
 10
85.3542693653386
 20
227.9856596906961
 30
0.0
 11
85.3542693653386
 21
226.4856596906961
 31
0.0
  0
LINE
  5
25A
330
5A
100
AcDbEntity
  8
1
  6
Continuous
 62
     2
100
AcDbLine
 10
109.3542693653386
 20
227.9856596906961
 30
0.0
 11
109.3542693653386
 21
226.4856596906961
 31
0.0
  0
LINE
  5
25B
330
5A
100
AcDbEntity
  8
1
  6
Continuous
 62
     7
100
AcDbLine
 10
117.0811974242204
 20
190.4856596906961
 30
0.0
 11
114.4068918353242
 21
190.4856596906961
 31
0.0
  0
LINE
  5
25C
330
5A
100
AcDbEntity
  8
1
  6
Continuous
 62
     7
100
AcDbLine
 10
83.56824333866621
 20
566.635899132896
 30
0.0
 11
83.56824333866621
 21
618.5510218303581
 31
0.0
  0
LINE
  5
25D
330
5A
100
AcDbEntity
  8
1
  6
Continuous
 62
     7
100
AcDbLine
 10
423.6092713669403
 20
184.4856596906961
 30
0.0
 11
369.8470781153994
 21
184.4856596906961
 31
0.0
  0
LINE
  5
25E
330
5A
100
AcDbEntity
  8
1
  6
Continuous
 62
     7
100
AcDbLine
 10
350.8542693653387
 20
224.4856596906961
 30
0.0
 11
423.6092713669403
 21
224.4856596906961
 31
0.0
  0
ARC
  5
25F
330
5A
100
AcDbEntity
  8
1
  6
Continuous
 62
     7
100
AcDbCircle
 10
97.3542693653321
 20
204.4856596906897
 30
0.0
 40
23.00000000000118
100
AcDbArc
 50
126.1565237321305
 51
-37.49524976453616
  0
ARC
  5
260
330
5A
100
AcDbEntity
  8
1
  6
Continuous
 62
     7
100
AcDbCircle
 10
97.3542693653321
 20
204.4856596906897
 30
0.0
 40
23.00000000000116
100
AcDbArc
 50
37.49524976457658
 51
53.33758561917622
  0
ARC
  5
261
330
5A
100
AcDbEntity
  8
1
  6
Continuous
 62
     7
100
AcDbCircle
 10
487.5539735538758
 20
275.5429522123015
 30
0.0
 40
149.9999999999999
100
AcDbArc
 50
-158.4238997382049
 51
-153.6176899270682
  0
ARC
  5
262
330
5A
100
AcDbEntity
  8
1
  6
Continuous
 62
     7
100
AcDbCircle
 10
423.6092713669403
 20
232.4856596906961
 30
0.0
 40
8.0
100
AcDbArc
 50
-90.0
 51
-38.68218745348973
  0
ARC
  5
263
330
5A
100
AcDbEntity
  8
1
  6
Continuous
 62
     7
100
AcDbCircle
 10
423.6092713669403
 20
176.4856596906961
 30
0.0
 40
7.999999999999949
100
AcDbArc
 50
38.68218745348973
 51
90.0
  0
ARC
  5
264
330
5A
100
AcDbEntity
  8
1
  6
Continuous
 62
     7
100
AcDbCircle
 10
111.3542693653386
 20
224.1468624808737
 30
0.0
 40
1.0
100
AcDbArc
 50
180.0
 51
-138.2946017763588
  0
ARC
  5
265
330
5A
100
AcDbEntity
  8
1
  6
Continuous
 62
     7
100
AcDbCircle
 10
83.3542693653386
 20
224.1468624808737
 30
0.0
 40
1.000000000000004
100
AcDbArc
 50
-41.70539822364115
 51
0.0
  0
ARC
  5
266
330
5A
100
AcDbEntity
  8
1
  6
Continuous
 62
     7
100
AcDbCircle
 10
97.35426936533861
 20
284.4856596907011
 30
0.0
 40
100.000000000005
100
AcDbArc
 50
-96.56277608254274
 51
-90.0
  0
LINE
  5
267
330
5A
100
AcDbEntity
  8
1
  6
Continuous
 62
     7
100
AcDbLine
 10
111.4219223637489
 20
187.7873115824095
 30
0.0
 11
111.4254678653247
 21
187.8189930240296
 31
0.0
  0
ARC
  5
268
330
5A
100
AcDbEntity
  8
1
  6
Continuous
 62
     7
100
AcDbCircle
 10
-37.64573063466139
 20
204.4856596906963
 30
0.0
 40
150.0000000000001
100
AcDbArc
 50
-6.37937020844282
 51
6.64090164243485
  0
ARC
  5
269
330
5A
100
AcDbEntity
  8
1
  6
Continuous
 62
     7
100
AcDbCircle
 10
97.35426936533492
 20
559.551021830358
 30
0.0
 40
14.99999999999995
100
AcDbArc
 50
-21.03946978131689
 51
0.0
  0
ARC
  5
26A
330
5A
100
AcDbEntity
  8
1
  6
Continuous
 62
     2
100
AcDbCircle
 10
111.1042693653349
 20
536.1931242869528
 30
0.0
 40
23.39132056229865
100
AcDbArc
 50
86.93673320720853
 51
93.06326679279147
  0
ARC
  5
26B
330
5A
100
AcDbEntity
  8
1
  6
Continuous
 62
     7
100
AcDbCircle
 10
103.1402953920034
 20
618.5510218303581
 30
0.0
 40
8.0
100
AcDbArc
 50
0.0
 51
90.0
  0
ARC
  5
26C
330
5A
100
AcDbEntity
  8
1
  6
Continuous
 62
     7
100
AcDbCircle
 10
91.56824333866621
 20
618.5510218303581
 30
0.0
 40
7.999999999999886
100
AcDbArc
 50
90.0
 51
180.0
  0
ARC
  5
26D
330
5A
100
AcDbEntity
  8
1
  6
Continuous
 62
     7
100
AcDbCircle
 10
350.8542693653387
 20
221.4856596906961
 30
0.0
 40
3.0
100
AcDbArc
 50
90.0
 51
-158.4238997382075
  0
ARC
  5
26E
330
5A
100
AcDbEntity
  8
1
  6
Continuous
 62
     7
100
AcDbCircle
 10
488.128999251097
 20
275.9399359369828
 30
0.0
 40
150.698245892562
100
AcDbArc
 50
-149.7639992522932
 51
-143.2097054795306
  0
ARC
  5
26F
330
5A
100
AcDbEntity
  8
1
  6
Continuous
 62
     2
100
AcDbCircle
 10
487.5539735538758
 20
275.5429522123015
 30
0.0
 40
149.9999999999999
100
AcDbArc
 50
-143.1995991294142
 51
-142.6235966718685
  0
ARC
  5
270
330
5A
100
AcDbEntity
  8
1
  6
Continuous
 62
     7
100
AcDbCircle
 10
232.3542693653387
 20
204.4856596906961
 30
0.0
 40
150.0000000000002
100
AcDbArc
 50
173.3590983575651
 51
-173.608452828523
  0
ARC
  5
271
330
5A
100
AcDbEntity
  8
1
  6
Continuous
 62
     7
100
AcDbCircle
 10
97.35426936533861
 20
284.4856596907011
 30
0.0
 40
100.000000000005
100
AcDbArc
 50
-90.0
 51
-83.43722391745739
  0
ARC
  5
272
330
5A
100
AcDbEntity
  8
1
  6
Continuous
 62
     7
100
AcDbCircle
 10
97.35426936533492
 20
559.551021830358
 30
0.0
 40
15.00000000000001
100
AcDbArc
 50
179.9999999999996
 51
-158.9605302186828
  0
ARC
  5
273
330
5A
100
AcDbEntity
  8
1
  6
Continuous
 62
     7
100
AcDbCircle
 10
97.35426936533492
 20
559.551021830358
 30
0.0
 40
14.99999999999988
100
AcDbArc
 50
-57.76904736449767
 51
-38.96053021868316
  0
ARC
  5
274
330
5A
100
AcDbEntity
  8
1
  6
Continuous
 62
     7
100
AcDbCircle
 10
97.35426936533492
 20
559.551021830358
 30
0.0
 40
15.00000000000021
100
AcDbArc
 50
-141.0394697813181
 51
-122.2309526355024
  0
ARC
  5
275
330
5A
100
AcDbEntity
  8
1
  6
Continuous
 62
     7
100
AcDbCircle
 10
108.3679673528904
 20
221.4856596906961
 30
0.0
 40
2.999999999999945
100
AcDbArc
 50
6.64090164243677
 51
90.0
  0
ARC
  5
276
330
5A
100
AcDbEntity
  8
1
  6
Continuous
 62
     7
100
AcDbCircle
 10
86.3405713777867
 20
221.4856596906961
 30
0.0
 40
3.0
100
AcDbArc
 50
90.0
 51
173.3590983575635
  0
ARC
  5
277
330
5A
100
AcDbEntity
  8
1
  6
Continuous
 62
     7
100
AcDbCircle
 10
108.4405693037808
 20
188.121278544575
 30
0.0
 40
2.999999999999997
100
AcDbArc
 50
-83.43722391746111
 51
-6.39154717147294
  0
ARC
  5
278
330
5A
100
AcDbEntity
  8
1
  6
Continuous
 62
     7
100
AcDbCircle
 10
86.2679694268963
 20
188.121278544575
 30
0.0
 40
2.999999999999868
100
AcDbArc
 50
-173.6084528285271
 51
-96.56277608254105
  0
ARC
  5
279
330
5A
100
AcDbEntity
  8
1
  6
Continuous
 62
     7
100
AcDbCircle
 10
114.4068918353242
 20
187.4856596906961
 30
0.0
 40
3.0
100
AcDbArc
 50
90.0
 51
173.6206297915539
  0
ARC
  5
27A
330
5A
100
AcDbEntity
  8
1
  6
Continuous
 62
     7
100
AcDbCircle
 10
114.4068918353242
 20
221.4856596906961
 30
0.0
 40
2.999999999999777
100
AcDbArc
 50
-173.6206297915571
 51
-90.0
  0
ARC
  5
27B
330
5A
100
AcDbEntity
  8
1
  6
Continuous
 62
     7
100
AcDbCircle
 10
376.8542693653386
 20
225.4856596906961
 30
0.0
 40
1.0
100
AcDbArc
 50
180.0
 51
-90.0
  0
ARC
  5
27C
330
5A
100
AcDbEntity
  8
1
  6
Continuous
 62
     7
100
AcDbCircle
 10
376.8542693653386
 20
225.4856596906961
 30
0.0
 40
1.0
100
AcDbArc
 50
180.0
 51
-90.0
  0
ARC
  5
27D
330
5A
100
AcDbEntity
  8
1
  6
Continuous
 62
     7
100
AcDbCircle
 10
348.8542693653387
 20
225.4856596906961
 30
0.0
 40
0.9999999999999772
100
AcDbArc
 50
-36.86989764584663
 51
0.0
  0
ARC
  5
27E
330
5A
100
AcDbEntity
  8
1
  6
Continuous
 62
     7
100
AcDbCircle
 10
74.35426936533492
 20
618.5510218303581
 30
0.0
 40
7.999999999999986
100
AcDbArc
 50
0.0
 51
90.0
  0
ARC
  5
27F
330
5A
100
AcDbEntity
  8
1
  6
Continuous
 62
     7
100
AcDbCircle
 10
120.3542693653348
 20
618.5510218303581
 30
0.0
 40
7.999999999999886
100
AcDbArc
 50
90.0
 51
180.0
  0
ARC
  5
280
330
5A
100
AcDbEntity
  8
1
  6
Continuous
 62
     7
100
AcDbCircle
 10
115.354269365335
 20
601.051021830358
 30
0.0
 40
3.0000000000001
100
AcDbArc
 50
180.0
 51
-90.0
  0
ARC
  5
281
330
5A
100
AcDbEntity
  8
1
  6
Continuous
 62
     7
100
AcDbCircle
 10
115.354269365335
 20
567.051021830358
 30
0.0
 40
3.0
100
AcDbArc
 50
90.0
 51
180.0
  0
ARC
  5
282
330
5A
100
AcDbEntity
  8
1
  6
Continuous
 62
     7
100
AcDbCircle
 10
369.8470781153994
 20
187.4856596906961
 30
0.0
 40
2.999999999999961
100
AcDbArc
 50
-143.1995991294147
 51
-90.0
  0
ENDBLK
  5
5C
330
5A
100
AcDbEntity
  8
0
100
AcDbBlockEnd
  0
BLOCK
  5
2AC
330
2A5
100
AcDbEntity
  8
0
100
AcDbBlockBegin
  2
*D012
 70
     1
 71
     0
 10
0.0
 20
0.0
 30
0.0
  3
*D012
  1

  0
LINE
  5
2A6
330
2A5
100
AcDbEntity
  8
1
  6
Continuous
 62
     2
100
AcDbLine
 10
97.35426936533207
 20
156.4856596906885
 30
0.0
 11
162.6638099460338
 21
156.4856596906885
 31
0.0
  0
LINE
  5
2A7
330
2A5
100
AcDbEntity
  8
1
  6
Continuous
 62
     2
100
AcDbLine
 10
97.35426936533207
 20
178.4856596906885
 30
0.0
 11
97.35426936533207
 21
153.9856596906885
 31
0.0
  0
LINE
  5
2A8
330
2A5
100
AcDbEntity
  8
1
  6
Continuous
 62
     2
100
AcDbLine
 10
162.6638099460338
 20
194.4856596906962
 30
0.0
 11
162.6638099460338
 21
153.9856596906885
 31
0.0
  0
SOLID
  5
2A9
330
2A5
100
AcDbEntity
  8
1
 62
     2
100
AcDbTrace
 10
106.1042693653321
 20
157.6376190445782
 30
0.0
 11
106.1042693653321
 21
155.3337003367988
 31
0.0
 12
97.35426936533207
 22
156.4856596906885
 32
0.0
 13
97.35426936533207
 23
156.4856596906885
 33
0.0
  0
SOLID
  5
2AA
330
2A5
100
AcDbEntity
  8
1
 62
     2
100
AcDbTrace
 10
153.9138099460338
 20
155.3337003367988
 30
0.0
 11
153.9138099460338
 21
157.6376190445782
 31
0.0
 12
162.6638099460338
 22
156.4856596906885
 32
0.0
 13
162.6638099460338
 23
156.4856596906885
 33
0.0
  0
MTEXT
  5
2AB
330
2A5
100
AcDbEntity
  8
1
 62
     7
100
AcDbMText
 10
125.0775490813494
 20
158.9856596906885
 30
0.0
 40
8.75
 41
0.0
 71
     7
 72
     1
  1
66
  7
CONVERTER_2
 11
0.9999999999970621
 21
2.424068405545307E-6
 31
0.0
 73
     1
 44
0.60024009603842
  0
ENDBLK
  5
2AD
330
2A5
100
AcDbEntity
  8
0
100
AcDbBlockEnd
  0
BLOCK
  5
2B7
330
2B0
100
AcDbEntity
  8
0
100
AcDbBlockBegin
  2
*D113
 70
     1
 71
     0
 10
0.0
 20
0.0
 30
0.0
  3
*D113
  1

  0
LINE
  5
2B1
330
2B0
100
AcDbEntity
  8
0
  6
Continuous
 62
     2
100
AcDbLine
 10
187.8542693653323
 20
643.051021830358
 30
0.0
 11
187.8542693653323
 21
666.9042494326582
 31
0.0
  0
LINE
  5
2B2
330
2B0
100
AcDbEntity
  8
0
  6
Continuous
 62
     2
100
AcDbLine
 10
187.8542693653323
 20
629.0510218303581
 30
0.0
 11
187.8542693653323
 21
643.051021830358
 31
0.0
  0
LINE
  5
2B3
330
2B0
100
AcDbEntity
  8
0
  6
Continuous
 62
     2
100
AcDbLine
 10
120.3542693653348
 20
629.0510218303581
 30
0.0
 11
190.3542693653323
 21
629.0510218303581
 31
0.0
  0
LINE
  5
2B4
330
2B0
100
AcDbEntity
  8
0
  6
Continuous
 62
     2
100
AcDbLine
 10
106.8542693653349
 20
643.051021830358
 30
0.0
 11
190.3542693653323
 21
643.051021830358
 31
0.0
  0
SOLID
  5
2B5
330
2B0
100
AcDbEntity
  8
0
 62
     2
100
AcDbTrace
 10
186.7023100114426
 20
651.801021830358
 30
0.0
 11
189.006228719222
 21
651.801021830358
 31
0.0
 12
187.8542693653323
 22
643.051021830358
 32
0.0
 13
187.8542693653323
 23
643.051021830358
 33
0.0
  0
MTEXT
  5
2B6
330
2B0
100
AcDbEntity
  8
0
 62
     7
100
AcDbMText
 10
185.3542693653323
 20
656.4042494326582
 30
0.0
 40
8.75
 41
0.0
 71
     7
 72
     1
  1
14
  7
CONVERTER_2
 11
0.0
 21
1.0
 31
0.0
 73
     1
 44
0.60024009603842
  0
ENDBLK
  5
2B8
330
2B0
100
AcDbEntity
  8
0
100
AcDbBlockEnd
  0
BLOCK
  5
2BA
330
2B9
100
AcDbEntity
  8
0
100
AcDbBlockBegin
  2
_None
 70
     0
 71
     0
 10
0.0
 20
0.0
 30
0.0
  3
_None
  1

  0
ENDBLK
  5
2BB
330
2B9
100
AcDbEntity
  8
0
100
AcDbBlockEnd
  0
BLOCK
  5
2C5
330
2BE
100
AcDbEntity
  8
0
100
AcDbBlockBegin
  2
*D215
 70
     1
 71
     0
 10
0.0
 20
0.0
 30
0.0
  3
*D215
  1

  0
LINE
  5
2BF
330
2BE
100
AcDbEntity
  8
0
  6
Continuous
 62
     2
100
AcDbLine
 10
187.8542693653323
 20
559.5510218303583
 30
0.0
 11
187.8542693653323
 21
629.0510218303581
 31
0.0
  0
LINE
  5
2C0
330
2BE
100
AcDbEntity
  8
0
  6
Continuous
 62
     2
100
AcDbLine
 10
122.3542693653345
 20
559.5510218303583
 30
0.0
 11
190.3542693653323
 21
559.5510218303583
 31
0.0
  0
LINE
  5
2C1
330
2BE
100
AcDbEntity
  8
0
  6
Continuous
 62
     2
100
AcDbLine
 10
120.3542693653348
 20
629.0510218303581
 30
0.0
 11
190.3542693653323
 21
629.0510218303581
 31
0.0
  0
SOLID
  5
2C2
330
2BE
100
AcDbEntity
  8
0
 62
     2
100
AcDbTrace
 10
186.7023100114426
 20
568.3010218303583
 30
0.0
 11
189.006228719222
 21
568.3010218303583
 31
0.0
 12
187.8542693653323
 22
559.5510218303583
 32
0.0
 13
187.8542693653323
 23
559.5510218303583
 33
0.0
  0
SOLID
  5
2C3
330
2BE
100
AcDbEntity
  8
0
 62
     2
100
AcDbTrace
 10
189.006228719222
 20
620.3010218303581
 30
0.0
 11
186.7023100114426
 21
620.3010218303581
 31
0.0
 12
187.8542693653323
 22
629.0510218303581
 32
0.0
 13
187.8542693653323
 23
629.0510218303581
 33
0.0
  0
MTEXT
  5
2C4
330
2BE
100
AcDbEntity
  8
0
 62
     7
100
AcDbMText
 10
185.3542693653323
 20
587.7385218303582
 30
0.0
 40
8.75
 41
0.0
 71
     7
 72
     1
  1
70
  7
CONVERTER_2
 11
0.0
 21
1.0
 31
0.0
 73
     1
 44
0.60024009603842
  0
ENDBLK
  5
2C6
330
2BE
100
AcDbEntity
  8
0
100
AcDbBlockEnd
  0
BLOCK
  5
2D0
330
2C9
100
AcDbEntity
  8
0
100
AcDbBlockBegin
  2
*D316
 70
     1
 71
     0
 10
0.0
 20
0.0
 30
0.0
  3
*D316
  1

  0
LINE
  5
2CA
330
2C9
100
AcDbEntity
  8
0
  6
Continuous
 62
     2
100
AcDbLine
 10
187.8542693653323
 20
389.5510218303584
 30
0.0
 11
187.8542693653323
 21
559.5510218303584
 31
0.0
  0
LINE
  5
2CB
330
2C9
100
AcDbEntity
  8
0
  6
Continuous
 62
     2
100
AcDbLine
 10
114.8542693653345
 20
389.5510218303584
 30
0.0
 11
190.3542693653323
 21
389.5510218303584
 31
0.0
  0
LINE
  5
2CC
330
2C9
100
AcDbEntity
  8
0
  6
Continuous
 62
     2
100
AcDbLine
 10
122.3542693653345
 20
559.5510218303584
 30
0.0
 11
190.3542693653323
 21
559.5510218303584
 31
0.0
  0
SOLID
  5
2CD
330
2C9
100
AcDbEntity
  8
0
 62
     2
100
AcDbTrace
 10
186.7023100114426
 20
398.3010218303584
 30
0.0
 11
189.006228719222
 21
398.3010218303584
 31
0.0
 12
187.8542693653323
 22
389.5510218303584
 32
0.0
 13
187.8542693653323
 23
389.5510218303584
 33
0.0
  0
SOLID
  5
2CE
330
2C9
100
AcDbEntity
  8
0
 62
     2
100
AcDbTrace
 10
189.006228719222
 20
550.8010218303584
 30
0.0
 11
186.7023100114426
 21
550.8010218303584
 31
0.0
 12
187.8542693653323
 22
559.5510218303584
 32
0.0
 13
187.8542693653323
 23
559.5510218303584
 33
0.0
  0
MTEXT
  5
2CF
330
2C9
100
AcDbEntity
  8
0
 62
     7
100
AcDbMText
 10
185.3542693653323
 20
465.3635218303584
 30
0.0
 40
8.75
 41
0.0
 71
     7
 72
     1
  1
170
  7
CONVERTER_2
 11
0.0
 21
1.0
 31
0.0
 73
     1
 44
0.60024009603842
  0
ENDBLK
  5
2D1
330
2C9
100
AcDbEntity
  8
0
100
AcDbBlockEnd
  0
BLOCK
  5
2DB
330
2D4
100
AcDbEntity
  8
0
100
AcDbBlockBegin
  2
*D417
 70
     1
 71
     0
 10
0.0
 20
0.0
 30
0.0
  3
*D417
  1

  0
LINE
  5
2D5
330
2D4
100
AcDbEntity
  8
0
  6
Continuous
 62
     2
100
AcDbLine
 10
471.3542693653386
 20
181.4856596906961
 30
0.0
 11
471.3542693653386
 21
227.4856596906961
 31
0.0
  0
LINE
  5
2D6
330
2D4
100
AcDbEntity
  8
0
  6
Continuous
 62
     2
100
AcDbLine
 10
432.3542693653387
 20
181.4856596906961
 30
0.0
 11
473.8542693653386
 21
181.4856596906961
 31
0.0
  0
LINE
  5
2D7
330
2D4
100
AcDbEntity
  8
0
  6
Continuous
 62
     2
100
AcDbLine
 10
432.3542693653387
 20
227.4856596906961
 30
0.0
 11
473.8542693653386
 21
227.4856596906961
 31
0.0
  0
SOLID
  5
2D8
330
2D4
100
AcDbEntity
  8
0
 62
     2
100
AcDbTrace
 10
470.2023100114489
 20
190.2356596906961
 30
0.0
 11
472.5062287192283
 21
190.2356596906961
 31
0.0
 12
471.3542693653386
 22
181.4856596906961
 32
0.0
 13
471.3542693653386
 23
181.4856596906961
 33
0.0
  0
SOLID
  5
2D9
330
2D4
100
AcDbEntity
  8
0
 62
     2
100
AcDbTrace
 10
472.5062287192283
 20
218.7356596906961
 30
0.0
 11
470.2023100114489
 21
218.7356596906961
 31
0.0
 12
471.3542693653386
 22
227.4856596906961
 32
0.0
 13
471.3542693653386
 23
227.4856596906961
 33
0.0
  0
MTEXT
  5
2DA
330
2D4
100
AcDbEntity
  8
0
 62
     7
100
AcDbMText
 10
468.8542693653386
 20
188.8231596906961
 30
0.0
 40
8.75
 41
0.0
 71
     7
 72
     1
  1
\C7;{\Fgdt;n}\C7;46
  7
CONVERTER_2
 11
0.0
 21
1.0
 31
0.0
 73
     1
 44
0.60024009603842
  0
ENDBLK
  5
2DC
330
2D4
100
AcDbEntity
  8
0
100
AcDbBlockEnd
  0
BLOCK
  5
2E6
330
2DF
100
AcDbEntity
  8
0
100
AcDbBlockBegin
  2
*D518
 70
     1
 71
     0
 10
0.0
 20
0.0
 30
0.0
  3
*D518
  1

  0
LINE
  5
2E0
330
2DF
100
AcDbEntity
  8
0
  6
Continuous
 62
     2
100
AcDbLine
 10
268.4634252499541
 20
204.4856596906961
 30
0.0
 11
268.4634252499541
 21
242.985659690696
 31
0.0
  0
LINE
  5
2E1
330
2DF
100
AcDbEntity
  8
0
  6
Continuous
 62
     2
100
AcDbLine
 10
322.8608443177543
 20
204.4856596906961
 30
0.0
 11
265.9634252499541
 21
204.4856596906961
 31
0.0
  0
LINE
  5
2E2
330
2DF
100
AcDbEntity
  8
0
  6
Continuous
 62
     2
100
AcDbLine
 10
203.5999679525844
 20
242.985659690696
 30
0.0
 11
270.9634252499541
 21
242.985659690696
 31
0.0
  0
SOLID
  5
2E3
330
2DF
100
AcDbEntity
  8
0
 62
     2
100
AcDbTrace
 10
267.3114658960644
 20
213.2356596906961
 30
0.0
 11
269.6153846038438
 21
213.2356596906961
 31
0.0
 12
268.4634252499541
 22
204.4856596906961
 32
0.0
 13
268.4634252499541
 23
204.4856596906961
 33
0.0
  0
SOLID
  5
2E4
330
2DF
100
AcDbEntity
  8
0
 62
     2
100
AcDbTrace
 10
269.6153846038438
 20
234.235659690696
 30
0.0
 11
267.3114658960644
 21
234.235659690696
 31
0.0
 12
268.4634252499541
 22
242.985659690696
 32
0.0
 13
268.4634252499541
 23
242.985659690696
 33
0.0
  0
MTEXT
  5
2E5
330
2DF
100
AcDbEntity
  8
0
 62
     7
100
AcDbMText
 10
265.9634252499541
 20
218.1551094499171
 30
0.0
 40
8.75
 41
0.0
 71
     7
 72
     1
  1
39
  7
CONVERTER_2
 11
0.0
 21
1.0
 31
0.0
 73
     1
 44
0.60024009603842
  0
ENDBLK
  5
2E7
330
2DF
100
AcDbEntity
  8
0
100
AcDbBlockEnd
  0
BLOCK
  5
2F1
330
2EA
100
AcDbEntity
  8
0
100
AcDbBlockBegin
  2
*D619
 70
     1
 71
     0
 10
0.0
 20
0.0
 30
0.0
  3
*D619
  1

  0
LINE
  5
2EB
330
2EA
100
AcDbEntity
  8
1
  6
Continuous
 62
     2
100
AcDbLine
 10
293.0956694784364
 20
282.4856596906958
 30
0.0
 11
293.0956694784364
 21
204.4856596906961
 31
0.0
  0
LINE
  5
2EC
330
2EA
100
AcDbEntity
  8
1
  6
Continuous
 62
     2
100
AcDbLine
 10
217.8542693653386
 20
282.4856596906958
 30
0.0
 11
295.5956694784364
 21
282.4856596906958
 31
0.0
  0
LINE
  5
2ED
330
2EA
100
AcDbEntity
  8
1
  6
Continuous
 62
     2
100
AcDbLine
 10
322.8608443177543
 20
204.4856596906961
 30
0.0
 11
290.5956694784364
 21
204.4856596906961
 31
0.0
  0
SOLID
  5
2EE
330
2EA
100
AcDbEntity
  8
1
 62
     2
100
AcDbTrace
 10
294.2476288323261
 20
273.7356596906958
 30
0.0
 11
291.9437101245467
 21
273.7356596906958
 31
0.0
 12
293.0956694784364
 22
282.4856596906958
 32
0.0
 13
293.0956694784364
 23
282.4856596906958
 33
0.0
  0
SOLID
  5
2EF
330
2EA
100
AcDbEntity
  8
1
 62
     2
100
AcDbTrace
 10
291.9437101245467
 20
213.2356596906961
 30
0.0
 11
294.2476288323261
 21
213.2356596906961
 31
0.0
 12
293.0956694784364
 22
204.4856596906961
 32
0.0
 13
293.0956694784364
 23
204.4856596906961
 33
0.0
  0
MTEXT
  5
2F0
330
2EA
100
AcDbEntity
  8
1
 62
     7
100
AcDbMText
 10
290.5956694784364
 20
235.0826600926691
 30
0.0
 40
8.75
 41
0.0
 71
     7
 72
     1
  1
78
  7
CONVERTER_2
 11
0.0
 21
1.0
 31
0.0
 73
     1
 44
0.60024009603842
  0
ENDBLK
  5
2F2
330
2EA
100
AcDbEntity
  8
0
100
AcDbBlockEnd
  0
BLOCK
  5
2FC
330
2F5
100
AcDbEntity
  8
0
100
AcDbBlockBegin
  2
*D720
 70
     1
 71
     0
 10
0.0
 20
0.0
 30
0.0
  3
*D720
  1

  0
LINE
  5
2F6
330
2F5
100
AcDbEntity
  8
0
  6
Continuous
 62
     2
100
AcDbLine
 10
387.3542693653386
 20
119.485659690696
 30
0.0
 11
432.3542693653387
 21
119.485659690696
 31
0.0
  0
LINE
  5
2F7
330
2F5
100
AcDbEntity
  8
0
  6
Continuous
 62
     2
100
AcDbLine
 10
387.3542693653386
 20
141.6765619604459
 30
0.0
 11
387.3542693653386
 21
116.985659690696
 31
0.0
  0
LINE
  5
2F8
330
2F5
100
AcDbEntity
  8
0
  6
Continuous
 62
     2
100
AcDbLine
 10
432.3542693653387
 20
181.4856596906961
 30
0.0
 11
432.3542693653387
 21
116.985659690696
 31
0.0
  0
SOLID
  5
2F9
330
2F5
100
AcDbEntity
  8
0
 62
     2
100
AcDbTrace
 10
396.1042693653386
 20
120.6376190445857
 30
0.0
 11
396.1042693653386
 21
118.3337003368063
 31
0.0
 12
387.3542693653386
 22
119.485659690696
 32
0.0
 13
387.3542693653386
 23
119.485659690696
 33
0.0
  0
SOLID
  5
2FA
330
2F5
100
AcDbEntity
  8
0
 62
     2
100
AcDbTrace
 10
423.6042693653387
 20
118.3337003368063
 30
0.0
 11
423.6042693653387
 21
120.6376190445857
 31
0.0
 12
432.3542693653387
 22
119.485659690696
 32
0.0
 13
432.3542693653387
 23
119.485659690696
 33
0.0
  0
MTEXT
  5
2FB
330
2F5
100
AcDbEntity
  8
0
 62
     7
100
AcDbMText
 10
403.2917693653388
 20
121.985659690696
 30
0.0
 40
8.75
 41
0.0
 71
     7
 72
     1
  1
45
  7
CONVERTER_2
 11
0.9999999999970621
 21
2.424068405545307E-6
 31
0.0
 73
     1
 44
0.60024009603842
  0
ENDBLK
  5
2FD
330
2F5
100
AcDbEntity
  8
0
100
AcDbBlockEnd
  0
ENDSEC
  0
SECTION
  2
ENTITIES
  0
INSERT
  5
5D
330
1F
100
AcDbEntity
  8
1
100
AcDbBlockReference
  2
_J__A4
 10
0.0
 20
0.0
 30
0.0
 41
2.5
 42
2.5
 43
2.5
  0
INSERT
  5
5E
330
1F
100
AcDbEntity
  8
1
100
AcDbBlockReference
  2
32-1-16__1
 10
176.6809859984293
 20
480.1484552014283
 30
0.0
  0
INSERT
  5
5F
330
1F
100
AcDbEntity
  8
1
100
AcDbBlockReference
  2
A20JD-60X
 10
333.3382801567055
 20
106.6020212876988
 30
0.0
  0
INSERT
  5
60
330
1F
100
AcDbEntity
  8
0
100
AcDbBlockReference
  2
R261F
 10
513.3125126667563
 20
597.7898885845032
 30
0.0
  0
INSERT
  5
61
330
1F
100
AcDbEntity
  8
0
100
AcDbBlockReference
  2
A201-0
 10
308.4212516138594
 20
287.1826732563931
 30
0.0
  0
LINE
  5
283
330
1F
100
AcDbEntity
  8
1
  6
Continuous
 62
     2
100
AcDbLine
 10
330.35029455489
 20
134.4238884447325
 30
0.0
 11
349.0584137592081
 21
134.4238884447325
 31
0.0
  0
LINE
  5
284
330
1F
100
AcDbEntity
  8
1
  6
Continuous
 62
     2
100
AcDbLine
 10
292.2479365652181
 20
179.7396763415791
 30
0.0
 11
308.3161752250001
 21
179.7396763415791
 31
0.0
  0
LINE
  5
285
330
1F
100
AcDbEntity
  8
1
  6
DASH_CENTER
 62
     2
100
AcDbLine
 10
79.8542693653345
 20
389.5510218303583
 30
0.0
 11
114.8542693653345
 21
389.5510218303583
 31
0.0
  0
LINE
  5
286
330
1F
100
AcDbEntity
  8
1
  6
DASH_CENTER
 62
     2
100
AcDbLine
 10
72.35426936533463
 20
559.5510218303583
 30
0.0
 11
122.3542693653345
 21
559.5510218303583
 31
0.0
  0
LINE
  5
287
330
1F
100
AcDbEntity
  8
1
  6
DASH_CENTER
 62
     2
100
AcDbLine
 10
97.3542693653346
 20
362.8010218303583
 30
0.0
 11
97.3542693653346
 21
648.0510218303582
 31
0.0
  0
LINE
  5
288
330
1F
100
AcDbEntity
  8
1
  6
DASH_CENTER
 62
     2
100
AcDbLine
 10
78.8178072287092
 20
584.0510218303582
 30
0.0
 11
140.6363150641845
 21
584.0510218303582
 31
0.0
  0
LINE
  5
289
330
1F
100
AcDbEntity
  8
1
  6
DASH_CENTER
 62
     2
100
AcDbLine
 10
174.2450200826725
 20
584.0510218303582
 30
0.0
 11
140.6363150641845
 21
584.0510218303582
 31
0.0
  0
LINE
  5
28A
330
1F
100
AcDbEntity
  8
1
  6
DASH_CENTER
 62
     2
100
AcDbLine
 10
148.8542693653346
 20
522.0510218303583
 30
0.0
 11
148.8542693653346
 21
551.0510218303583
 31
0.0
  0
LINE
  5
28B
330
1F
100
AcDbEntity
  8
1
  6
DASH_CENTER
 62
     2
100
AcDbLine
 10
133.4331506651601
 20
536.5510218303583
 30
0.0
 11
164.4331506651601
 21
536.5510218303583
 31
0.0
  0
LINE
  5
28C
330
1F
100
AcDbEntity
  8
1
  6
DASH_CENTER
 62
     2
100
AcDbLine
 10
387.3542693653386
 20
230.3981406713587
 30
0.0
 11
387.3542693653386
 21
141.6765619604459
 31
0.0
  0
LINE
  5
28D
330
1F
100
AcDbEntity
  8
1
  6
DASH_CENTER
 62
     2
100
AcDbLine
 10
450.5408028448118
 20
204.4856596906961
 30
0.0
 11
322.8608443177543
 21
204.4856596906961
 31
0.0
  0
LINE
  5
28E
330
1F
100
AcDbEntity
  8
1
  6
DASH_CENTER
 62
     2
100
AcDbLine
 10
192.8542693653386
 20
239.2431694868682
 30
0.0
 11
192.8542693653386
 21
285.2488523557681
 31
0.0
  0
LINE
  5
28F
330
1F
100
AcDbEntity
  8
1
  6
DASH_CENTER
 62
     2
100
AcDbLine
 10
170.4057339133543
 20
270.4856596906963
 30
0.0
 11
335.8542693653386
 21
270.4856596906963
 31
0.0
  0
LINE
  5
290
330
1F
100
AcDbEntity
  8
1
  6
DASH_CENTER
 62
     2
100
AcDbLine
 10
362.8542693653386
 20
221.0934878084415
 30
0.0
 11
362.8542693653386
 21
243.4856596906963
 31
0.0
  0
LINE
  5
291
330
1F
100
AcDbEntity
  8
1
  6
DASH_CENTER
 62
     2
100
AcDbLine
 10
97.3542693653321
 20
178.4856596906885
 30
0.0
 11
97.35426936533861
 21
286.9856596906961
 31
0.0
  0
LINE
  5
292
330
1F
100
AcDbEntity
  8
1
  6
DASH_CENTER
 62
     2
100
AcDbLine
 10
69.87998024986831
 20
204.4856596906961
 30
0.0
 11
166.1867217325926
 21
204.4856596906961
 31
0.0
  0
LINE
  5
293
330
1F
100
AcDbEntity
  8
1
  6
DASH_CENTER
 62
     2
100
AcDbLine
 10
111.4912104679883
 20
270.4856596906963
 30
0.0
 11
83.1949994744508
 21
270.4856596906963
 31
0.0
  0
ARC
  5
294
330
1F
100
AcDbEntity
  8
1
  6
Continuous
 62
     2
100
AcDbCircle
 10
387.3542693653386
 20
204.4856596906961
 30
0.0
 40
69.17306198700436
100
AcDbArc
 50
-172.0767399903232
 51
-137.2035929799124
  0
ARC
  5
295
330
1F
100
AcDbEntity
  8
1
  6
DASH_CENTER
 62
     2
100
AcDbCircle
 10
335.8542693653386
 20
243.4856596906963
 30
0.0
 40
27.0
100
AcDbArc
 50
0.0
 51
90.0
  0
SOLID
  5
296
330
1F
100
AcDbEntity
  8
1
 62
     2
100
AcDbTrace
 10
435.2684440620157
 20
221.9874022968651
 30
0.0
 11
437.2636961912069
 21
223.1393616507548
 31
0.0
 12
440.6410701266113
 22
214.9856596906961
 32
0.0
 13
440.6410701266113
 23
214.9856596906961
 33
0.0
  0
LEADER
  5
297
330
1F
100
AcDbEntity
  8
1
  6
Continuous
 62
     2
100
AcDbLeader
  3
Standard
 71
     0
 76
     3
 10
440.6410701266113
 20
214.9856596906961
 30
0.0
 10
423.5244420866326
 20
244.6325291101973
 30
0.0
 10
384.5390660220031
 20
244.6325291101973
 30
0.0
  0
SOLID
  5
298
330
1F
100
AcDbEntity
  8
1
 62
     2
100
AcDbTrace
 10
320.4662478998498
 20
190.0600970712407
 30
0.0
 11
318.1743384043803
 21
189.8251667057434
 31
0.0
 12
318.4280565071499
 22
198.6470223765953
 32
0.0
 13
318.4280565071499
 23
198.6470223765953
 33
0.0
  0
LEADER
  5
299
330
1F
100
AcDbEntity
  8
1
  6
Continuous
 62
     2
100
AcDbLeader
  3
Standard
 71
     0
 76
     2
 10
318.4280565071499
 20
198.6470223765953
 30
0.0
 10
318.6769030131925
 20
196.2193512285678
 30
0.0
  0
SOLID
  5
29A
330
1F
100
AcDbEntity
  8
1
 62
     2
100
AcDbTrace
 10
331.7583974308127
 20
160.8375477401469
 30
0.0
 11
333.4148404347001
 21
162.4388715634033
 31
0.0
 12
338.6682499409086
 22
155.3472427721387
 32
0.0
 13
338.6682499409086
 23
155.3472427721387
 33
0.0
  0
LEADER
  5
29B
330
1F
100
AcDbEntity
  8
1
  6
Continuous
 62
     2
100
AcDbLeader
  3
Standard
 71
     0
 76
     2
 10
338.6682499409086
 20
155.3472427721387
 30
0.0
 10
336.5969807881642
 20
157.4898070976068
 30
0.0
  0
MTEXT
  5
29C
330
1F
100
AcDbEntity
  8
1
 62
     7
100
AcDbMText
 10
339.6605421623321
 20
141.9238884447325
 30
0.0
 40
8.75
 41
0.0
 71
     5
 72
     1
  1
吐水
  7
CONVERTER_1
 73
     1
 44
1.32052821128451
  0
MTEXT
  5
29D
330
1F
100
AcDbEntity
  8
1
 62
     7
100
AcDbMText
 10
299.91324712258
 20
187.2396763415791
 30
0.0
 40
8.75
 41
0.0
 71
     5
 72
     1
  1
止水
  7
CONVERTER_1
 73
     1
 44
1.32052821128451
  0
MTEXT
  5
29F
330
1F
100
AcDbEntity
  8
1
 62
     7
100
AcDbMText
 10
404.031754054318
 20
252.1325291101973
 30
0.0
 40
8.75
 41
0.0
 71
     5
 72
     1
  1
PJ1/2
  7
CONVERTER_2
 73
     1
 44
1.32052821128451
  0
MTEXT
  5
2A0
330
1F
100
AcDbEntity
  8
0
 62
     7
100
AcDbMText
 10
142.5000000000003
 20
35.62500000000011
 30
0.0
 40
8.75
 41
0.0
 71
     5
 72
     1
  1
A202DC-13
  7
CONVERTER_2
 73
     1
 44
1.32052821128451
  0
MTEXT
  5
2A1
330
1F
100
AcDbEntity
  8
0
 62
     7
100
AcDbMText
 10
142.5000000000003
 20
56.87500000000011
 30
0.0
 40
8.75
 41
0.0
 71
     5
 72
     1
  1
横形自在水栓
  7
CONVERTER_1
 73
     1
 44
1.32052821128451
  0
MTEXT
  5
2A2
330
1F
100
AcDbEntity
  8
1
 62
     7
100
AcDbMText
 10
213.1250000000003
 20
42.50000000000011
 30
0.0
 40
8.75
 41
0.0
 71
     5
 72
     1
  1
1
  7
CONVERTER_2
 73
     1
 44
0.7202881152461
  0
MTEXT
  5
2A3
330
1F
100
AcDbEntity
  8
1
 62
     7
100
AcDbMText
 10
234.3750000000003
 20
42.50000000000011
 30
0.0
 40
8.75
 41
0.0
 71
     5
 72
     1
  1
2,5
  7
CONVERTER_2
 73
     1
 44
0.7202881152461
  0
MTEXT
  5
2A4
330
1F
100
AcDbEntity
  8
1
 62
     7
100
AcDbMText
 10
85.0
 20
85.00000000000001
 30
0.0
 40
8.75
 41
0.0
 71
     4
 72
     1
  1
JIS
  7
CONVERTER_2
 73
     1
 44
0.7202881152461
  0
DIMENSION
  5
2AF
330
1F
100
AcDbEntity
  8
1
100
AcDbDimension
  2
*D012
 10
97.35426936533207
 20
156.4856596906885
 30
0.0
 11
131.6400490813494
 21
163.3606596906885
 31
0.0
  1
66
 71
     5
 42
0.0
 53
0.00013888888889
  3
ME10_DIM_0
100
AcDbAlignedDimension
 13
162.6638099460338
 23
194.4856596906962
 33
0.0
 14
97.3542693653321
 24
178.4856596906885
 34
0.0
100
AcDbRotatedDimension
  0
DIMENSION
  5
2BD
330
1F
100
AcDbEntity
  8
0
100
AcDbDimension
  2
*D113
 10
187.8542693653323
 20
629.0510218303581
 30
0.0
 11
180.9792693653323
 21
661.6542494326582
 31
0.0
  1
<>
 71
     5
 42
0.0
 53
90.0
  3
ME10_DIM_1
100
AcDbAlignedDimension
 13
106.8542693653349
 23
643.051021830358
 33
0.0
 14
120.3542693653348
 24
629.0510218303581
 34
0.0
 50
90.0
100
AcDbRotatedDimension
  0
DIMENSION
  5
2C8
330
1F
100
AcDbEntity
  8
0
100
AcDbDimension
  2
*D215
 10
187.8542693653323
 20
559.5510218303583
 30
0.0
 11
180.9792693653323
 21
594.3010218303582
 31
0.0
  1
70
 71
     5
 42
0.0
 53
90.0
  3
ME10_DIM_2
100
AcDbAlignedDimension
 13
120.3542693653348
 23
629.0510218303581
 33
0.0
 14
122.3542693653345
 24
559.5510218303583
 34
0.0
 50
90.0
100
AcDbRotatedDimension
  0
DIMENSION
  5
2D3
330
1F
100
AcDbEntity
  8
0
100
AcDbDimension
  2
*D316
 10
187.8542693653323
 20
389.5510218303584
 30
0.0
 11
180.9792693653323
 21
474.5510218303584
 31
0.0
  1
<>
 71
     5
 42
0.0
 53
90.0
  3
ME10_DIM_3
100
AcDbAlignedDimension
 13
122.3542693653345
 23
559.5510218303583
 33
0.0
 14
114.8542693653345
 24
389.5510218303583
 34
0.0
 50
90.0
100
AcDbRotatedDimension
  0
DIMENSION
  5
2DE
330
1F
100
AcDbEntity
  8
0
100
AcDbDimension
  2
*D417
 10
471.3542693653386
 20
181.4856596906961
 30
0.0
 11
464.4792693653386
 21
204.4856596906961
 31
0.0
 70
     1
  1
<>
 71
     5
 42
0.0
 53
90.0
  3
ME10_DIM_4
100
AcDbAlignedDimension
 13
432.3542693653388
 23
227.4856596906961
 33
0.0
 14
432.3542693653388
 24
181.4856596906961
 34
0.0
  0
DIMENSION
  5
2E9
330
1F
100
AcDbEntity
  8
0
100
AcDbDimension
  2
*D518
 10
268.4634252499541
 20
204.4856596906961
 30
0.0
 11
261.5884252499541
 21
224.7176094499171
 31
0.0
  1
39
 71
     5
 42
0.0
 53
90.0
  3
ME10_DIM_5
100
AcDbAlignedDimension
 13
203.5999679525844
 23
242.985659690696
 33
0.0
 14
322.8608443177543
 24
204.4856596906961
 34
0.0
 50
90.0
100
AcDbRotatedDimension
  0
DIMENSION
  5
2F4
330
1F
100
AcDbEntity
  8
1
100
AcDbDimension
  2
*D619
 10
293.0956694784364
 20
282.4856596906958
 30
0.0
 11
286.2206694784364
 21
241.6451600926691
 31
0.0
  1
<>
 71
     5
 42
0.0
 53
90.0
  3
ME10_DIM_6
100
AcDbAlignedDimension
 13
322.8608443177543
 23
204.4856596906961
 33
0.0
 14
217.8542693653386
 24
282.4856596906959
 34
0.0
 50
90.0
100
AcDbRotatedDimension
  0
DIMENSION
  5
2FF
330
1F
100
AcDbEntity
  8
0
100
AcDbDimension
  2
*D720
 10
387.3542693653386
 20
119.485659690696
 30
0.0
 11
409.8542693653388
 21
126.360659690696
 31
0.0
  1
<>
 71
     5
 42
0.0
 53
0.00013888888889
  3
ME10_DIM_7
100
AcDbAlignedDimension
 13
432.3542693653388
 23
181.4856596906961
 33
0.0
 14
387.3542693653386
 24
141.6765619604459
 34
0.0
100
AcDbRotatedDimension
  0
ENDSEC
  0
SECTION
  2
OBJECTS
  0
DICTIONARY
  5
C
330
0
100
AcDbDictionary
281
     1
  3
ACAD_GROUP
350
D
  3
ACAD_LAYOUT
350
1A
  3
ACAD_MLINESTYLE
350
17
  3
ACAD_PLOTSETTINGS
350
19
  3
ACAD_PLOTSTYLENAME
350
E
  3
ACAD_TABLESTYLE
350
2A
  3
AcDbVariableDictionary
350
2C
  0
DICTIONARY
  5
D
102
{ACAD_REACTORS
330
C
102
}
330
C
100
AcDbDictionary
281
     1
  0
DICTIONARY
  5
1A
102
{ACAD_REACTORS
330
C
102
}
330
C
100
AcDbDictionary
281
     1
  3
Layout1
350
1E
  3
Layout2
350
26
  3
Model
350
22
  0
DICTIONARY
  5
17
102
{ACAD_REACTORS
330
C
102
}
330
C
100
AcDbDictionary
281
     1
  3
Standard
350
18
  0
DICTIONARY
  5
19
102
{ACAD_REACTORS
330
C
102
}
330
C
100
AcDbDictionary
281
     1
  0
ACDBDICTIONARYWDFLT
  5
E
102
{ACAD_REACTORS
330
C
102
}
330
C
100
AcDbDictionary
281
     1
  3
Normal
350
F
100
AcDbDictionaryWithDefault
340
F
  0
DICTIONARY
  5
2A
102
{ACAD_REACTORS
330
C
102
}
330
C
100
AcDbDictionary
281
     1
  3
Standard
350
2B
  0
DICTIONARY
  5
2C
102
{ACAD_REACTORS
330
C
102
}
330
C
100
AcDbDictionary
281
     1
  3
CTABLESTYLE
350
2D
  0
LAYOUT
  5
1E
102
{ACAD_REACTORS
330
1A
102
}
330
1A
100
AcDbPlotSettings
  1

  2

  4

  6

 40
0.0
 41
0.0
 42
0.0
 43
0.0
 44
0.0
 45
0.0
 46
0.0
 47
0.0
 48
0.0
 49
0.0
140
0.0
141
0.0
142
1.0
143
1.0
 70
   688
 72
     0
 73
     0
 74
     5
  7

 75
    16
147
1.0
148
0.0
149
0.0
100
AcDbLayout
  1
Layout1
 70
     1
 71
     1
 10
0.0
 20
0.0
 11
12.0
 21
9.0
 12
0.0
 22
0.0
 32
0.0
 14
1.00000000000000E+20
 24
1.00000000000000E+20
 34
1.00000000000000E+20
 15
-1.00000000000000E+20
 25
-1.00000000000000E+20
 35
-1.00000000000000E+20
146
0.0
 13
0.0
 23
0.0
 33
0.0
 16
1.0
 26
0.0
 36
0.0
 17
0.0
 27
1.0
 37
0.0
 76
     0
330
1B
  0
LAYOUT
  5
26
102
{ACAD_REACTORS
330
1A
102
}
330
1A
100
AcDbPlotSettings
  1

  2

  4

  6

 40
0.0
 41
0.0
 42
0.0
 43
0.0
 44
0.0
 45
0.0
 46
0.0
 47
0.0
 48
0.0
 49
0.0
140
0.0
141
0.0
142
1.0
143
1.0
 70
   688
 72
     0
 73
     0
 74
     5
  7

 75
    16
147
1.0
148
0.0
149
0.0
100
AcDbLayout
  1
Layout2
 70
     1
 71
     2
 10
0.0
 20
0.0
 11
0.0
 21
0.0
 12
0.0
 22
0.0
 32
0.0
 14
0.0
 24
0.0
 34
0.0
 15
0.0
 25
0.0
 35
0.0
146
0.0
 13
0.0
 23
0.0
 33
0.0
 16
1.0
 26
0.0
 36
0.0
 17
0.0
 27
1.0
 37
0.0
 76
     0
330
23
  0
LAYOUT
  5
22
102
{ACAD_REACTORS
330
1A
102
}
330
1A
100
AcDbPlotSettings
  1

  2

  4

  6

 40
0.0
 41
0.0
 42
0.0
 43
0.0
 44
0.0
 45
0.0
 46
0.0
 47
0.0
 48
0.0
 49
0.0
140
0.0
141
0.0
142
1.0
143
1.0
 70
  1712
 72
     0
 73
     0
 74
     0
  7

 75
     0
147
1.0
148
0.0
149
0.0
100
AcDbLayout
  1
Model
 70
     1
 71
     0
 10
0.0
 20
0.0
 11
0.0
 21
0.0
 12
0.0
 22
0.0
 32
0.0
 14
0.0
 24
0.0
 34
0.0
 15
525.0
 25
742.5
 35
0.0
146
0.0
 13
0.0
 23
0.0
 33
0.0
 16
1.0
 26
0.0
 36
0.0
 17
0.0
 27
1.0
 37
0.0
 76
     0
330
1F
  0
MLINESTYLE
  5
18
102
{ACAD_REACTORS
330
17
102
}
330
17
100
AcDbMlineStyle
  2
Standard
 70
     0
  3

 62
   256
 51
90.0
 52
90.0
 71
     2
 49
0.5
 62
   256
  6
BYLAYER
 49
-0.5
 62
   256
  6
BYLAYER
  0
ACDBPLACEHOLDER
  5
F
102
{ACAD_REACTORS
330
E
102
}
330
E
  0
TABLESTYLE
  5
2B
102
{ACAD_REACTORS
330
2A
102
}
330
2A
100
AcDbTableStyle
  3
Standard
 70
     0
 71
     0
 40
0.06
 41
0.06
280
     0
281
     0
  7
Standard
140
0.18
170
     2
 62
     0
 63
     7
283
     0
274
    -2
284
     1
 64
     0
275
    -2
285
     1
 65
     0
276
    -2
286
     1
 66
     0
277
    -2
287
     1
 67
     0
278
    -2
288
     1
 68
     0
279
    -2
289
     1
 69
     0
  7
Standard
140
0.25
170
     5
 62
     0
 63
     7
283
     0
274
    -2
284
     1
 64
     0
275
    -2
285
     1
 65
     0
276
    -2
286
     1
 66
     0
277
    -2
287
     1
 67
     0
278
    -2
288
     1
 68
     0
279
    -2
289
     1
 69
     0
  7
Standard
140
0.18
170
     5
 62
     0
 63
     7
283
     0
274
    -2
284
     1
 64
     0
275
    -2
285
     1
 65
     0
276
    -2
286
     1
 66
     0
277
    -2
287
     1
 67
     0
278
    -2
288
     1
 68
     0
279
    -2
289
     1
 69
     0
  0
DICTIONARYVAR
  5
2D
102
{ACAD_REACTORS
330
2C
102
}
330
2C
100
DictionaryVariables
280
     0
  1
Standard
  0
ENDSEC
  0
EOF
