  0
SECTION
  2
HEADER
  9
$ACADVER
  1
AC1015
  9
$ACADMAINTVER
 70
     6
  9
$DWGCODEPAGE
  3
DOS932
  9
$INSBASE
 10
0.0
 20
0.0
 30
0.0
  9
$EXTMIN
 10
0.0
 20
0.0
 30
0.0
  9
$EXTMAX
 10
525.0
 20
742.5
 30
0.0
  9
$LIMMIN
 10
0.0
 20
0.0
  9
$LIMMAX
 10
12.0
 20
9.0
  9
$ORTHOMODE
 70
     0
  9
$REGENMODE
 70
     1
  9
$FILLMODE
 70
     1
  9
$QTEXTMODE
 70
     0
  9
$MIRRTEXT
 70
     1
  9
$LTSCALE
 40
1.0
  9
$ATTMODE
 70
     1
  9
$TEXTSIZE
 40
0.2
  9
$TRACEWID
 40
0.05
  9
$TEXTSTYLE
  7
Standard
  9
$CLAYER
  8
0
  9
$CELTYPE
  6
ByLayer
  9
$CECOLOR
 62
   256
  9
$CELTSCALE
 40
1.0
  9
$DISPSILH
 70
     0
  9
$DIMSCALE
 40
1.0
  9
$DIMASZ
 40
0.18
  9
$DIMEXO
 40
0.0625
  9
$DIMDLI
 40
0.38
  9
$DIMRND
 40
0.0
  9
$DIMDLE
 40
0.0
  9
$DIMEXE
 40
0.18
  9
$DIMTP
 40
0.0
  9
$DIMTM
 40
0.0
  9
$DIMTXT
 40
0.18
  9
$DIMCEN
 40
0.09
  9
$DIMTSZ
 40
0.0
  9
$DIMTOL
 70
     0
  9
$DIMLIM
 70
     0
  9
$DIMTIH
 70
     1
  9
$DIMTOH
 70
     1
  9
$DIMSE1
 70
     0
  9
$DIMSE2
 70
     0
  9
$DIMTAD
 70
     0
  9
$DIMZIN
 70
     0
  9
$DIMBLK
  1

  9
$DIMASO
 70
     1
  9
$DIMSHO
 70
     1
  9
$DIMPOST
  1

  9
$DIMAPOST
  1

  9
$DIMALT
 70
     0
  9
$DIMALTD
 70
     2
  9
$DIMALTF
 40
25.4
  9
$DIMLFAC
 40
1.0
  9
$DIMTOFL
 70
     0
  9
$DIMTVP
 40
0.0
  9
$DIMTIX
 70
     0
  9
$DIMSOXD
 70
     0
  9
$DIMSAH
 70
     0
  9
$DIMBLK1
  1

  9
$DIMBLK2
  1

  9
$DIMSTYLE
  2
Standard
  9
$DIMCLRD
 70
     0
  9
$DIMCLRE
 70
     0
  9
$DIMCLRT
 70
     0
  9
$DIMTFAC
 40
1.0
  9
$DIMGAP
 40
0.09
  9
$DIMJUST
 70
     0
  9
$DIMSD1
 70
     0
  9
$DIMSD2
 70
     0
  9
$DIMTOLJ
 70
     1
  9
$DIMTZIN
 70
     0
  9
$DIMALTZ
 70
     0
  9
$DIMALTTZ
 70
     0
  9
$DIMUPT
 70
     0
  9
$DIMDEC
 70
     4
  9
$DIMTDEC
 70
     4
  9
$DIMALTU
 70
     2
  9
$DIMALTTD
 70
     2
  9
$DIMTXSTY
  7
Standard
  9
$DIMAUNIT
 70
     0
  9
$DIMADEC
 70
     0
  9
$DIMALTRND
 40
0.0
  9
$DIMAZIN
 70
     0
  9
$DIMDSEP
 70
    46
  9
$DIMATFIT
 70
     3
  9
$DIMFRAC
 70
     0
  9
$DIMLDRBLK
  1

  9
$DIMLUNIT
 70
     2
  9
$DIMLWD
 70
    -2
  9
$DIMLWE
 70
    -2
  9
$DIMTMOVE
 70
     0
  9
$LUNITS
 70
     2
  9
$LUPREC
 70
     4
  9
$SKETCHINC
 40
0.1
  9
$FILLETRAD
 40
0.5
  9
$AUNITS
 70
     0
  9
$AUPREC
 70
     0
  9
$MENU
  1
.
  9
$ELEVATION
 40
0.0
  9
$PELEVATION
 40
0.0
  9
$THICKNESS
 40
0.0
  9
$LIMCHECK
 70
     0
  9
$CHAMFERA
 40
0.5
  9
$CHAMFERB
 40
0.5
  9
$CHAMFERC
 40
1.0
  9
$CHAMFERD
 40
0.0
  9
$SKPOLY
 70
     0
  9
$TDCREATE
 40
2456181.490448854
  9
$TDUCREATE
 40
2456181.115448854
  9
$TDUPDATE
 40
2456181.490448866
  9
$TDUUPDATE
 40
2456181.115448866
  9
$TDINDWG
 40
0.0000000116
  9
$TDUSRTIMER
 40
0.0000000116
  9
$USRTIMER
 70
     1
  9
$ANGBASE
 50
0.0
  9
$ANGDIR
 70
     0
  9
$PDMODE
 70
     0
  9
$PDSIZE
 40
0.0
  9
$PLINEWID
 40
0.0
  9
$SPLFRAME
 70
     0
  9
$SPLINETYPE
 70
     6
  9
$SPLINESEGS
 70
     8
  9
$HANDSEED
  5
2CA
  9
$SURFTAB1
 70
     6
  9
$SURFTAB2
 70
     6
  9
$SURFTYPE
 70
     6
  9
$SURFU
 70
     6
  9
$SURFV
 70
     6
  9
$UCSBASE
  2

  9
$UCSNAME
  2

  9
$UCSORG
 10
0.0
 20
0.0
 30
0.0
  9
$UCSXDIR
 10
1.0
 20
0.0
 30
0.0
  9
$UCSYDIR
 10
0.0
 20
1.0
 30
0.0
  9
$UCSORTHOREF
  2

  9
$UCSORTHOVIEW
 70
     0
  9
$UCSORGTOP
 10
0.0
 20
0.0
 30
0.0
  9
$UCSORGBOTTOM
 10
0.0
 20
0.0
 30
0.0
  9
$UCSORGLEFT
 10
0.0
 20
0.0
 30
0.0
  9
$UCSORGRIGHT
 10
0.0
 20
0.0
 30
0.0
  9
$UCSORGFRONT
 10
0.0
 20
0.0
 30
0.0
  9
$UCSORGBACK
 10
0.0
 20
0.0
 30
0.0
  9
$PUCSBASE
  2

  9
$PUCSNAME
  2

  9
$PUCSORG
 10
0.0
 20
0.0
 30
0.0
  9
$PUCSXDIR
 10
1.0
 20
0.0
 30
0.0
  9
$PUCSYDIR
 10
0.0
 20
1.0
 30
0.0
  9
$PUCSORTHOREF
  2

  9
$PUCSORTHOVIEW
 70
     0
  9
$PUCSORGTOP
 10
0.0
 20
0.0
 30
0.0
  9
$PUCSORGBOTTOM
 10
0.0
 20
0.0
 30
0.0
  9
$PUCSORGLEFT
 10
0.0
 20
0.0
 30
0.0
  9
$PUCSORGRIGHT
 10
0.0
 20
0.0
 30
0.0
  9
$PUCSORGFRONT
 10
0.0
 20
0.0
 30
0.0
  9
$PUCSORGBACK
 10
0.0
 20
0.0
 30
0.0
  9
$USERI1
 70
     0
  9
$USERI2
 70
     0
  9
$USERI3
 70
     0
  9
$USERI4
 70
     0
  9
$USERI5
 70
     0
  9
$USERR1
 40
13.2
  9
$USERR2
 40
0.0
  9
$USERR3
 40
0.0
  9
$USERR4
 40
0.0
  9
$USERR5
 40
0.0
  9
$WORLDVIEW
 70
     1
  9
$SHADEDGE
 70
     3
  9
$SHADEDIF
 70
    70
  9
$TILEMODE
 70
     1
  9
$MAXACTVP
 70
    64
  9
$PINSBASE
 10
0.0
 20
0.0
 30
0.0
  9
$PLIMCHECK
 70
     0
  9
$PEXTMIN
 10
1.00000000000000E+20
 20
1.00000000000000E+20
 30
1.00000000000000E+20
  9
$PEXTMAX
 10
-1.00000000000000E+20
 20
-1.00000000000000E+20
 30
-1.00000000000000E+20
  9
$PLIMMIN
 10
0.0
 20
0.0
  9
$PLIMMAX
 10
12.0
 20
9.0
  9
$UNITMODE
 70
     0
  9
$VISRETAIN
 70
     1
  9
$PLINEGEN
 70
     0
  9
$PSLTSCALE
 70
     1
  9
$TREEDEPTH
 70
  3020
  9
$CMLSTYLE
  2
Standard
  9
$CMLJUST
 70
     0
  9
$CMLSCALE
 40
1.0
  9
$PROXYGRAPHICS
 70
     1
  9
$MEASUREMENT
 70
     1
  9
$CELWEIGHT
370
    -1
  9
$ENDCAPS
280
     0
  9
$JOINSTYLE
280
     0
  9
$LWDISPLAY
290
     0
  9
$INSUNITS
 70
     1
  9
$HYPERLINKBASE
  1

  9
$STYLESHEET
  1

  9
$XEDIT
290
     1
  9
$CEPSNTYPE
380
     0
  9
$PSTYLEMODE
290
     0
  9
$FINGERPRINTGUID
  2
{FAEB1C30-E019-11D5-929B-00C0DF256EC4}
  9
$VERSIONGUID
  2
{FAEB1C32-E019-11D5-929B-00C0DF256EC4}
  9
$EXTNAMES
290
     1
  9
$PSVPSCALE
 40
0.0
  9
$OLESTARTUP
290
     0
  0
ENDSEC
  0
SECTION
  2
CLASSES
  0
CLASS
  1
ACDBDICTIONARYWDFLT
  2
AcDbDictionaryWithDefault
  3
ObjectDBX Classes
 90
        0
280
     0
281
     0
  0
CLASS
  1
TABLESTYLE
  2
AcDbTableStyle
  3
ObjectDBX Classes
 90
     2047
280
     0
281
     0
  0
CLASS
  1
DICTIONARYVAR
  2
AcDbDictionaryVar
  3
ObjectDBX Classes
 90
        0
280
     0
281
     0
  0
CLASS
  1

  2
exOdDbCircle
  3

 90
        0
280
     0
281
     1
  0
CLASS
  1

  2
exOdDbSpline
  3

 90
        0
280
     0
281
     1
  0
CLASS
  1
ACDBPLACEHOLDER
  2
AcDbPlaceHolder
  3
ObjectDBX Classes
 90
        0
280
     0
281
     0
  0
CLASS
  1
LAYOUT
  2
AcDbLayout
  3
ObjectDBX Classes
 90
        0
280
     0
281
     0
  0
ENDSEC
  0
SECTION
  2
TABLES
  0
TABLE
  2
VPORT
  5
8
330
0
100
AcDbSymbolTable
 70
     2
  0
VPORT
  5
29
330
8
100
AcDbSymbolTableRecord
100
AcDbViewportTableRecord
  2
*Active
 70
     0
 10
0.0
 20
0.0
 11
1.0
 21
1.0
 12
262.5
 22
371.25
 13
0.0
 23
0.0
 14
0.5
 24
0.5
 15
0.5
 25
0.5
 16
0.0
 26
0.0
 36
1.0
 17
0.0
 27
0.0
 37
0.0
 40
816.7500000000001
 41
1.60267857142857
 42
50.0
 43
0.0
 44
0.0
 50
0.0
 51
0.0
 71
     0
 72
   100
 73
     1
 74
     3
 75
     0
 76
     0
 77
     0
 78
     0
281
     0
 65
     1
110
0.0
120
0.0
130
0.0
111
1.0
121
0.0
131
0.0
112
0.0
122
1.0
132
0.0
 79
     0
146
0.0
  0
ENDTAB
  0
TABLE
  2
LTYPE
  5
5
330
0
100
AcDbSymbolTable
 70
     8
  0
LTYPE
  5
14
330
5
100
AcDbSymbolTableRecord
100
AcDbLinetypeTableRecord
  2
ByBlock
 70
     0
  3

 72
    65
 73
     0
 40
0.0
  0
LTYPE
  5
15
330
5
100
AcDbSymbolTableRecord
100
AcDbLinetypeTableRecord
  2
ByLayer
 70
     0
  3

 72
    65
 73
     0
 40
0.0
  0
LTYPE
  5
16
330
5
100
AcDbSymbolTableRecord
100
AcDbLinetypeTableRecord
  2
Continuous
 70
     0
  3
Solid line
 72
    65
 73
     0
 40
0.0
  0
LTYPE
  5
2E
330
5
100
AcDbSymbolTableRecord
100
AcDbLinetypeTableRecord
  2
DASHED
 70
     0
  3
Dashed
 72
    65
 73
     2
 40
15.0
 49
7.0
 74
     0
 49
-8.0
 74
     0
  0
LTYPE
  5
2F
330
5
100
AcDbSymbolTableRecord
100
AcDbLinetypeTableRecord
  2
DOTTED
 70
     0
  3
Dotted
 72
    65
 73
     2
 40
1.0
 49
0.0
 74
     0
 49
-1.0
 74
     0
  0
LTYPE
  5
30
330
5
100
AcDbSymbolTableRecord
100
AcDbLinetypeTableRecord
  2
DOT_CENTER
 70
     0
  3
Dot_Center
 72
    65
 73
     4
 40
14.0
 49
12.0
 74
     0
 49
-1.0
 74
     0
 49
0.0
 74
     0
 49
-1.0
 74
     0
  0
LTYPE
  5
31
330
5
100
AcDbSymbolTableRecord
100
AcDbLinetypeTableRecord
  2
LONG_DASHED
 70
     0
  3
Long_Dashed
 72
    65
 73
     2
 40
15.0
 49
10.0
 74
     0
 49
-5.0
 74
     0
  0
LTYPE
  5
32
330
5
100
AcDbSymbolTableRecord
100
AcDbLinetypeTableRecord
  2
DASH_CENTER
 70
     0
  3
Dash_Center
 72
    65
 73
     4
 40
14.0
 49
11.0
 74
     0
 49
-1.0
 74
     0
 49
1.0
 74
     0
 49
-1.0
 74
     0
  0
LTYPE
  5
33
330
5
100
AcDbSymbolTableRecord
100
AcDbLinetypeTableRecord
  2
PHANTOM
 70
     0
  3
Phantom
 72
    65
 73
     6
 40
13.0
 49
10.0
 74
     0
 49
-1.0
 74
     0
 49
0.0
 74
     0
 49
-1.0
 74
     0
 49
0.0
 74
     0
 49
-1.0
 74
     0
  0
LTYPE
  5
34
330
5
100
AcDbSymbolTableRecord
100
AcDbLinetypeTableRecord
  2
CENTER_DASH_DASH
 70
     0
  3
Center_Dash_Dash
 72
    65
 73
     6
 40
14.0
 49
9.0
 74
     0
 49
-1.0
 74
     0
 49
1.0
 74
     0
 49
-1.0
 74
     0
 49
1.0
 74
     0
 49
-1.0
 74
     0
  0
ENDTAB
  0
TABLE
  2
LAYER
  5
2
330
0
100
AcDbSymbolTable
 70
     3
  0
LAYER
  5
10
330
2
100
AcDbSymbolTableRecord
100
AcDbLayerTableRecord
  2
0
 70
     0
 62
     7
  6
Continuous
370
    -3
390
F
  0
LAYER
  5
35
330
2
100
AcDbSymbolTableRecord
100
AcDbLayerTableRecord
  2
1
 70
     0
 62
     7
  6
Continuous
370
    -3
390
F
  0
LAYER
  5
36
330
2
100
AcDbSymbolTableRecord
100
AcDbLayerTableRecord
  2
_______C____
 70
     0
 62
     7
  6
Continuous
370
    -3
390
F
  0
ENDTAB
  0
TABLE
  2
STYLE
  5
3
330
0
100
AcDbSymbolTable
 70
     3
  0
STYLE
  5
11
330
3
100
AcDbSymbolTableRecord
100
AcDbTextStyleTableRecord
  2
Standard
 70
     0
 40
0.0
 41
1.0
 50
0.0
 71
     0
 42
0.2
  3
txt
  4

  0
STYLE
  5
B2
330
3
100
AcDbSymbolTableRecord
100
AcDbTextStyleTableRecord
  2
CONVERTER_1
 70
     0
 40
0.0
 41
0.89
 50
0.0
 71
     0
 42
0.2
  3
msmincho.ttc
  4

1001
ACAD
1000
MS Mincho
1071
    32785
  0
STYLE
  5
273
330
3
100
AcDbSymbolTableRecord
100
AcDbTextStyleTableRecord
  2
CONVERTER_2
 70
     0
 40
0.0
 41
0.9
 50
0.0
 71
     0
 42
0.2
  3
txt.shx
  4

  0
ENDTAB
  0
TABLE
  2
VIEW
  5
6
330
0
100
AcDbSymbolTable
 70
     0
  0
ENDTAB
  0
TABLE
  2
UCS
  5
7
330
0
100
AcDbSymbolTable
 70
     0
  0
ENDTAB
  0
TABLE
  2
APPID
  5
9
330
0
100
AcDbSymbolTable
 70
     1
  0
APPID
  5
12
330
9
100
AcDbSymbolTableRecord
100
AcDbRegAppTableRecord
  2
ACAD
 70
     0
  0
ENDTAB
  0
TABLE
  2
DIMSTYLE
  5
A
330
0
100
AcDbSymbolTable
 70
     8
100
AcDbDimStyleTable
  0
DIMSTYLE
105
27
330
A
100
AcDbSymbolTableRecord
100
AcDbDimStyleTableRecord
  2
Standard
 70
     0
340
11
  0
DIMSTYLE
105
283
102
{ACAD_REACTORS
330
284
102
}
330
A
100
AcDbSymbolTableRecord
100
AcDbDimStyleTableRecord
  2
ME10_DIM_0
 70
     0
  3
{\Fgdt;n}<>
 41
8.75
 42
0.0
 44
2.5
 73
     0
 74
     0
 77
     1
 78
     8
140
8.75
147
0.625
172
     1
173
     1
176
     2
177
     2
178
     7
271
     2
340
273
  0
DIMSTYLE
105
28E
102
{ACAD_REACTORS
330
28F
102
}
330
A
100
AcDbSymbolTableRecord
100
AcDbDimStyleTableRecord
  2
ME10_DIM_1
 70
     0
 41
8.75
 42
0.0
 44
2.5
 73
     0
 74
     0
 77
     1
 78
     8
140
8.75
147
0.625
172
     1
173
     1
176
     2
177
     2
178
     7
271
     2
340
273
  0
DIMSTYLE
105
299
102
{ACAD_REACTORS
330
29A
102
}
330
A
100
AcDbSymbolTableRecord
100
AcDbDimStyleTableRecord
  2
ME10_DIM_2
 70
     0
 41
8.75
 42
0.0
 44
2.5
 73
     0
 74
     0
 77
     1
 78
     8
140
8.75
147
0.625
172
     1
173
     1
176
     2
177
     2
178
     7
271
     2
340
273
  0
DIMSTYLE
105
2A4
102
{ACAD_REACTORS
330
2A5
102
}
330
A
100
AcDbSymbolTableRecord
100
AcDbDimStyleTableRecord
  2
ME10_DIM_3
 70
     0
 41
8.75
 42
0.0
 44
2.5
 73
     0
 74
     0
 77
     1
 78
     8
140
8.75
147
0.625
172
     1
173
     1
176
     2
177
     2
178
     7
271
     2
340
273
  0
DIMSTYLE
105
2AF
102
{ACAD_REACTORS
330
2B0
102
}
330
A
100
AcDbSymbolTableRecord
100
AcDbDimStyleTableRecord
  2
ME10_DIM_4
 70
     0
 41
8.75
 42
0.0
 44
2.5
 73
     0
 74
     0
 77
     1
 78
     8
140
8.75
147
0.625
172
     1
173
     1
176
     2
177
     2
178
     7
271
     2
340
273
  0
DIMSTYLE
105
2BA
102
{ACAD_REACTORS
330
2BB
102
}
330
A
100
AcDbSymbolTableRecord
100
AcDbDimStyleTableRecord
  2
ME10_DIM_5
 70
     0
 41
8.75
 42
0.0
 44
2.5
 73
     0
 74
     0
 77
     1
 78
     8
140
8.75
147
0.625
172
     1
173
     1
176
     2
177
     2
178
     7
271
     2
340
B2
  0
DIMSTYLE
105
2C8
102
{ACAD_REACTORS
330
2C9
102
}
330
A
100
AcDbSymbolTableRecord
100
AcDbDimStyleTableRecord
  2
ME10_DIM_6
 70
     0
 41
8.75
 42
0.0
 44
2.5
 73
     0
 74
     0
 77
     1
 78
     8
140
8.75
147
0.625
172
     1
173
     1
176
     2
177
     2
178
     7
271
     2
340
273
343
2C5
  0
ENDTAB
  0
TABLE
  2
BLOCK_RECORD
  5
1
330
0
100
AcDbSymbolTable
 70
    21
  0
BLOCK_RECORD
  5
1F
330
1
100
AcDbSymbolTableRecord
100
AcDbBlockTableRecord
  2
*Model_Space
340
22
  0
BLOCK_RECORD
  5
1B
330
1
100
AcDbSymbolTableRecord
100
AcDbBlockTableRecord
  2
*Paper_Space
340
1E
  0
BLOCK_RECORD
  5
23
330
1
100
AcDbSymbolTableRecord
100
AcDbBlockTableRecord
  2
*Paper_Space0
340
26
  0
BLOCK_RECORD
  5
37
330
1
100
AcDbSymbolTableRecord
100
AcDbBlockTableRecord
  2
_J__A4
340
0
102
{BLKREFS
331
61
102
}
  0
BLOCK_RECORD
  5
3A
330
1
100
AcDbSymbolTableRecord
100
AcDbBlockTableRecord
  2
A20-0-13
340
0
102
{BLKREFS
331
62
102
}
  0
BLOCK_RECORD
  5
3D
330
1
100
AcDbSymbolTableRecord
100
AcDbBlockTableRecord
  2
32-1-16
340
0
102
{BLKREFS
331
44
102
}
  0
BLOCK_RECORD
  5
40
330
1
100
AcDbSymbolTableRecord
100
AcDbBlockTableRecord
  2
61-1-16-170
340
0
102
{BLKREFS
331
45
102
}
  0
BLOCK_RECORD
  5
43
330
1
100
AcDbSymbolTableRecord
100
AcDbBlockTableRecord
  2
A20J-60X-16
340
0
102
{BLKREFS
331
63
102
}
  0
BLOCK_RECORD
  5
48
330
1
100
AcDbSymbolTableRecord
100
AcDbBlockTableRecord
  2
R20F
340
0
102
{BLKREFS
331
52
102
}
  0
BLOCK_RECORD
  5
4B
330
1
100
AcDbSymbolTableRecord
100
AcDbBlockTableRecord
  2
37-1-13
340
0
102
{BLKREFS
331
53
102
}
  0
BLOCK_RECORD
  5
4E
330
1
100
AcDbSymbolTableRecord
100
AcDbBlockTableRecord
  2
36-1A-13-M4
340
0
102
{BLKREFS
331
54
102
}
  0
BLOCK_RECORD
  5
51
330
1
100
AcDbSymbolTableRecord
100
AcDbBlockTableRecord
  2
R10A-13
340
0
102
{BLKREFS
331
64
102
}
  0
BLOCK_RECORD
  5
57
330
1
100
AcDbSymbolTableRecord
100
AcDbBlockTableRecord
  2
21-9-M1
340
0
102
{BLKREFS
331
65
102
}
  0
BLOCK_RECORD
  5
5A
330
1
100
AcDbSymbolTableRecord
100
AcDbBlockTableRecord
  2
84-338
340
0
102
{BLKREFS
331
5E
102
}
  0
BLOCK_RECORD
  5
5D
330
1
100
AcDbSymbolTableRecord
100
AcDbBlockTableRecord
  2
84-338X
340
0
102
{BLKREFS
331
66
102
}
  0
BLOCK_RECORD
  5
27A
330
1
100
AcDbSymbolTableRecord
100
AcDbBlockTableRecord
  2
*D013
340
0
  0
BLOCK_RECORD
  5
285
330
1
100
AcDbSymbolTableRecord
100
AcDbBlockTableRecord
  2
*D114
340
0
  0
BLOCK_RECORD
  5
290
330
1
100
AcDbSymbolTableRecord
100
AcDbBlockTableRecord
  2
*D215
340
0
  0
BLOCK_RECORD
  5
29B
330
1
100
AcDbSymbolTableRecord
100
AcDbBlockTableRecord
  2
*D316
340
0
  0
BLOCK_RECORD
  5
2A6
330
1
100
AcDbSymbolTableRecord
100
AcDbBlockTableRecord
  2
*D417
340
0
  0
BLOCK_RECORD
  5
2B1
330
1
100
AcDbSymbolTableRecord
100
AcDbBlockTableRecord
  2
*D518
340
0
  0
BLOCK_RECORD
  5
2BC
330
1
100
AcDbSymbolTableRecord
100
AcDbBlockTableRecord
  2
*D619
340
0
  0
BLOCK_RECORD
  5
2C5
330
1
100
AcDbSymbolTableRecord
100
AcDbBlockTableRecord
  2
_None
340
0
  0
ENDTAB
  0
ENDSEC
  0
SECTION
  2
BLOCKS
  0
BLOCK
  5
20
330
1F
100
AcDbEntity
  8
0
100
AcDbBlockBegin
  2
*Model_Space
 70
     0
 71
     0
 10
0.0
 20
0.0
 30
0.0
  3
*Model_Space
  1

  0
ENDBLK
  5
21
330
1F
100
AcDbEntity
  8
0
100
AcDbBlockEnd
  0
BLOCK
  5
1C
330
1B
100
AcDbEntity
 67
     1
  8
0
100
AcDbBlockBegin
  2
*Paper_Space
 70
     0
 71
     0
 10
0.0
 20
0.0
 30
0.0
  3
*Paper_Space
  1

  0
ENDBLK
  5
1D
330
1B
100
AcDbEntity
 67
     1
  8
0
100
AcDbBlockEnd
  0
BLOCK
  5
24
330
23
100
AcDbEntity
  8
0
100
AcDbBlockBegin
  2
*Paper_Space0
 70
     0
 71
     0
 10
0.0
 20
0.0
 30
0.0
  3
*Paper_Space0
  1

  0
ENDBLK
  5
25
330
23
100
AcDbEntity
  8
0
100
AcDbBlockEnd
  0
BLOCK
  5
38
330
37
100
AcDbEntity
  8
0
100
AcDbBlockBegin
  2
_J__A4
 70
     0
 71
     0
 10
0.0
 20
0.0
 30
0.0
  3
_J__A4
  1

  0
POINT
  5
67
330
37
100
AcDbEntity
  8
1
 62
     4
100
AcDbPoint
 10
34.0
 20
34.00000000000001
 30
0.0
  0
POINT
  5
68
330
37
100
AcDbEntity
  8
1
 62
     4
100
AcDbPoint
 10
57.0
 20
12.25
 30
0.0
  0
POINT
  5
69
330
37
100
AcDbEntity
  8
1
 62
     4
100
AcDbPoint
 10
57.0
 20
20.75000000000001
 30
0.0
  0
POINT
  5
6A
330
37
100
AcDbEntity
  8
1
 62
     4
100
AcDbPoint
 10
57.0
 20
24.75000000000001
 30
0.0
  0
POINT
  5
6B
330
37
100
AcDbEntity
  8
1
 62
     4
100
AcDbPoint
 10
57.0
 20
16.25
 30
0.0
  0
POINT
  5
6C
330
37
100
AcDbEntity
  8
1
 62
     4
100
AcDbPoint
 10
157.5
 20
19.00000000000001
 30
0.0
  0
POINT
  5
6D
330
37
100
AcDbEntity
  8
1
 62
     4
100
AcDbPoint
 10
47.5
 20
282.0000000000003
 30
0.0
  0
POINT
  5
6E
330
37
100
AcDbEntity
  8
1
 62
     4
100
AcDbPoint
 10
57.0
 20
22.75000000000001
 30
0.0
  0
POINT
  5
6F
330
37
100
AcDbEntity
  8
1
 62
     4
100
AcDbPoint
 10
57.0
 20
14.25
 30
0.0
  0
POINT
  5
70
330
37
100
AcDbEntity
  8
1
 62
     4
100
AcDbPoint
 10
157.5
 20
12.5
 30
0.0
  0
POINT
  5
71
330
37
100
AcDbEntity
  8
1
 62
     4
100
AcDbPoint
 10
163.25
 20
12.5
 30
0.0
  0
POINT
  5
72
330
37
100
AcDbEntity
  8
1
 62
     4
100
AcDbPoint
 10
151.75
 20
12.5
 30
0.0
  0
POINT
  5
73
330
37
100
AcDbEntity
  8
1
 62
     4
100
AcDbPoint
 10
134.75
 20
12.5
 30
0.0
  0
POINT
  5
74
330
37
100
AcDbEntity
  8
1
 62
     4
100
AcDbPoint
 10
146.25
 20
12.5
 30
0.0
  0
POINT
  5
75
330
37
100
AcDbEntity
  8
1
 62
     4
100
AcDbPoint
 10
140.5
 20
12.5
 30
0.0
  0
POINT
  5
76
330
37
100
AcDbEntity
  8
1
 62
     4
100
AcDbPoint
 10
140.5
 20
19.00000000000001
 30
0.0
  0
POINT
  5
77
330
37
100
AcDbEntity
  8
1
 62
     4
100
AcDbPoint
 10
117.75
 20
12.5
 30
0.0
  0
POINT
  5
78
330
37
100
AcDbEntity
  8
1
 62
     4
100
AcDbPoint
 10
129.25
 20
12.5
 30
0.0
  0
POINT
  5
79
330
37
100
AcDbEntity
  8
1
 62
     4
100
AcDbPoint
 10
123.5
 20
12.5
 30
0.0
  0
POINT
  5
7A
330
37
100
AcDbEntity
  8
1
 62
     4
100
AcDbPoint
 10
123.5
 20
19.00000000000001
 30
0.0
  0
POINT
  5
7B
330
37
100
AcDbEntity
  8
1
 62
     4
100
AcDbPoint
 10
100.75
 20
12.5
 30
0.0
  0
POINT
  5
7C
330
37
100
AcDbEntity
  8
1
 62
     4
100
AcDbPoint
 10
112.25
 20
12.5
 30
0.0
  0
POINT
  5
7D
330
37
100
AcDbEntity
  8
1
 62
     4
100
AcDbPoint
 10
106.5
 20
12.5
 30
0.0
  0
POINT
  5
7E
330
37
100
AcDbEntity
  8
1
 62
     4
100
AcDbPoint
 10
106.5
 20
19.00000000000001
 30
0.0
  0
POINT
  5
7F
330
37
100
AcDbEntity
  8
1
 62
     4
100
AcDbPoint
 10
85.25
 20
17.0
 30
0.0
  0
POINT
  5
80
330
37
100
AcDbEntity
  8
1
 62
     4
100
AcDbPoint
 10
93.75
 20
17.0
 30
0.0
  0
LINE
  5
81
330
37
100
AcDbEntity
  8
1
  6
Continuous
 62
     2
100
AcDbLine
 10
81.0
 20
27.00000000000001
 30
0.0
 11
81.0
 21
10.0
 31
0.0
  0
LINE
  5
82
330
37
100
AcDbEntity
  8
1
  6
DOT_CENTER
 62
     2
100
AcDbLine
 10
187.0
 20
26.50000000000001
 30
0.0
 11
187.0
 21
20.50000000000001
 31
0.0
  0
LINE
  5
83
330
37
100
AcDbEntity
  8
1
  6
DOT_CENTER
 62
     2
100
AcDbLine
 10
184.0
 20
23.50000000000001
 30
0.0
 11
197.0
 21
23.50000000000001
 31
0.0
  0
LINE
  5
84
330
37
100
AcDbEntity
  8
1
  6
Continuous
 62
     7
100
AcDbLine
 10
196.0
 20
21.50000000000001
 30
0.0
 11
191.0
 21
22.30000000000001
 31
0.0
  0
LINE
  5
85
330
37
100
AcDbEntity
  8
1
  6
Continuous
 62
     7
100
AcDbLine
 10
196.0
 20
25.50000000000001
 30
0.0
 11
196.0
 21
21.50000000000001
 31
0.0
  0
LINE
  5
86
330
37
100
AcDbEntity
  8
1
  6
Continuous
 62
     7
100
AcDbLine
 10
191.0
 20
24.70000000000001
 30
0.0
 11
196.0
 21
25.50000000000001
 31
0.0
  0
LINE
  5
87
330
37
100
AcDbEntity
  8
1
  6
Continuous
 62
     7
100
AcDbLine
 10
191.0
 20
24.70000000000001
 30
0.0
 11
191.0
 21
22.30000000000001
 31
0.0
  0
LINE
  5
88
330
37
100
AcDbEntity
  8
1
  6
Continuous
 62
     2
100
AcDbLine
 10
33.0
 20
27.0
 30
0.0
 11
33.0
 21
10.0
 31
0.0
  0
LINE
  5
89
330
37
100
AcDbEntity
  8
1
  6
Continuous
 62
     2
100
AcDbLine
 10
25.0
 20
18.50000000000001
 30
0.0
 11
81.0
 21
18.50000000000001
 31
0.0
  0
LINE
  5
8A
330
37
100
AcDbEntity
  8
1
  6
Continuous
 62
     7
100
AcDbLine
 10
200.0
 20
287.0000000000003
 30
0.0
 11
105.0
 21
287.0000000000003
 31
0.0
  0
LINE
  5
8B
330
37
100
AcDbEntity
  8
1
  6
Continuous
 62
     7
100
AcDbLine
 10
200.0
 20
10.0
 30
0.0
 11
200.0
 21
148.5
 31
0.0
  0
LINE
  5
8C
330
37
100
AcDbEntity
  8
1
  6
Continuous
 62
     7
100
AcDbLine
 10
25.0
 20
10.0
 30
0.0
 11
105.0
 21
10.0
 31
0.0
  0
LINE
  5
8D
330
37
100
AcDbEntity
  8
1
  6
PHANTOM
 62
     4
100
AcDbLine
 10
0.0
 20
297.0
 30
0.0
 11
0.0
 21
0.0
 31
0.0
  0
LINE
  5
8E
330
37
100
AcDbEntity
  8
1
  6
PHANTOM
 62
     4
100
AcDbLine
 10
210.0
 20
297.0
 30
0.0
 11
0.0
 21
297.0
 31
0.0
  0
LINE
  5
8F
330
37
100
AcDbEntity
  8
1
  6
PHANTOM
 62
     4
100
AcDbLine
 10
210.0
 20
0.0
 30
0.0
 11
210.0
 21
297.0
 31
0.0
  0
LINE
  5
90
330
37
100
AcDbEntity
  8
1
  6
PHANTOM
 62
     4
100
AcDbLine
 10
0.0
 20
0.0
 30
0.0
 11
210.0
 21
0.0
 31
0.0
  0
LINE
  5
91
330
37
100
AcDbEntity
  8
1
  6
Continuous
 62
     7
100
AcDbLine
 10
25.0
 20
41.0
 30
0.0
 11
200.0
 21
41.0
 31
0.0
  0
LINE
  5
92
330
37
100
AcDbEntity
  8
1
  6
Continuous
 62
     7
100
AcDbLine
 10
200.0
 20
27.00000000000001
 30
0.0
 11
25.0
 21
27.00000000000001
 31
0.0
  0
LINE
  5
93
330
37
100
AcDbEntity
  8
1
  6
Continuous
 62
     2
100
AcDbLine
 10
33.0
 20
41.00000000000001
 30
0.0
 11
33.0
 21
27.0
 31
0.0
  0
LINE
  5
94
330
37
100
AcDbEntity
  8
1
  6
Continuous
 62
     2
100
AcDbLine
 10
55.0
 20
287.0000000000003
 30
0.0
 11
55.0
 21
277.0000000000003
 31
0.0
  0
LINE
  5
95
330
37
100
AcDbEntity
  8
1
  6
Continuous
 62
     2
100
AcDbLine
 10
40.0
 20
287.0000000000003
 30
0.0
 11
40.0
 21
277.0000000000003
 31
0.0
  0
LINE
  5
96
330
37
100
AcDbEntity
  8
1
  6
Continuous
 62
     7
100
AcDbLine
 10
25.0
 20
10.0
 30
0.0
 11
25.0
 21
148.5
 31
0.0
  0
LINE
  5
97
330
37
100
AcDbEntity
  8
1
  6
Continuous
 62
     2
100
AcDbLine
 10
55.0
 20
277.0000000000003
 30
0.0
 11
25.0
 21
277.0000000000003
 31
0.0
  0
LINE
  5
98
330
37
100
AcDbEntity
  8
1
  6
Continuous
 62
     2
100
AcDbLine
 10
166.0
 20
27.00000000000001
 30
0.0
 11
166.0
 21
10.0
 31
0.0
  0
LINE
  5
99
330
37
100
AcDbEntity
  8
1
  6
Continuous
 62
     2
100
AcDbLine
 10
132.0
 20
27.00000000000001
 30
0.0
 11
132.0
 21
9.99999999999999
 31
0.0
  0
LINE
  5
9A
330
37
100
AcDbEntity
  8
1
  6
Continuous
 62
     2
100
AcDbLine
 10
149.0
 20
27.00000000000001
 30
0.0
 11
149.0
 21
10.0
 31
0.0
  0
LINE
  5
9B
330
37
100
AcDbEntity
  8
1
  6
Continuous
 62
     2
100
AcDbLine
 10
115.0
 20
27.00000000000001
 30
0.0
 11
115.0
 21
9.99999999999999
 31
0.0
  0
LINE
  5
9C
330
37
100
AcDbEntity
  8
1
  6
Continuous
 62
     2
100
AcDbLine
 10
98.0
 20
27.00000000000001
 30
0.0
 11
98.0
 21
9.99999999999999
 31
0.0
  0
LINE
  5
9D
330
37
100
AcDbEntity
  8
1
  6
Continuous
 62
     2
100
AcDbLine
 10
166.0
 20
20.00000000000001
 30
0.0
 11
200.0
 21
20.00000000000001
 31
0.0
  0
LINE
  5
9E
330
37
100
AcDbEntity
  8
1
  6
Continuous
 62
     2
100
AcDbLine
 10
105.0
 20
287.0000000000003
 30
0.0
 11
105.0
 21
292.0000000000003
 31
0.0
  0
LINE
  5
9F
330
37
100
AcDbEntity
  8
1
  6
Continuous
 62
     7
100
AcDbLine
 10
105.0
 20
287.0000000000003
 30
0.0
 11
25.0
 21
287.0000000000003
 31
0.0
  0
LINE
  5
A0
330
37
100
AcDbEntity
  8
1
  6
Continuous
 62
     2
100
AcDbLine
 10
25.0
 20
148.5
 30
0.0
 11
20.0
 21
148.5
 31
0.0
  0
LINE
  5
A1
330
37
100
AcDbEntity
  8
1
  6
Continuous
 62
     7
100
AcDbLine
 10
25.0
 20
148.5
 30
0.0
 11
25.0
 21
287.0000000000003
 31
0.0
  0
LINE
  5
A2
330
37
100
AcDbEntity
  8
1
  6
Continuous
 62
     2
100
AcDbLine
 10
200.0
 20
148.5
 30
0.0
 11
205.0
 21
148.5
 31
0.0
  0
LINE
  5
A3
330
37
100
AcDbEntity
  8
1
  6
Continuous
 62
     7
100
AcDbLine
 10
200.0
 20
148.5
 30
0.0
 11
200.0
 21
287.0000000000003
 31
0.0
  0
LINE
  5
A4
330
37
100
AcDbEntity
  8
1
  6
Continuous
 62
     2
100
AcDbLine
 10
105.0
 20
10.0
 30
0.0
 11
105.0
 21
5.0
 31
0.0
  0
LINE
  5
A5
330
37
100
AcDbEntity
  8
1
  6
Continuous
 62
     7
100
AcDbLine
 10
105.0
 20
10.0
 30
0.0
 11
200.0
 21
10.0
 31
0.0
  0
CIRCLE
  5
A6
330
37
100
AcDbEntity
  8
1
  6
DOT_CENTER
 62
     7
100
AcDbCircle
 10
89.5
 20
18.0
 30
0.0
 40
0.1000000000000227
  0
CIRCLE
  5
A7
330
37
100
AcDbEntity
  8
1
  6
DOT_CENTER
 62
     7
100
AcDbCircle
 10
89.5
 20
16.0
 30
0.0
 40
0.1000000000000227
  0
CIRCLE
  5
A8
330
37
100
AcDbEntity
  8
1
  6
Continuous
 62
     7
100
AcDbCircle
 10
187.0
 20
23.50000000000001
 30
0.0
 40
2.0
  0
CIRCLE
  5
A9
330
37
100
AcDbEntity
  8
1
  6
Continuous
 62
     7
100
AcDbCircle
 10
187.0
 20
23.50000000000001
 30
0.0
 40
1.200000000000102
  0
CIRCLE
  5
AA
330
37
100
AcDbEntity
  8
1
  6
Continuous
 62
     7
100
AcDbCircle
 10
154.5
 20
12.5
 30
0.0
 40
0.3000000000000114
  0
CIRCLE
  5
AB
330
37
100
AcDbEntity
  8
1
  6
Continuous
 62
     7
100
AcDbCircle
 10
160.5
 20
12.5
 30
0.0
 40
0.3000000000000114
  0
CIRCLE
  5
AC
330
37
100
AcDbEntity
  8
1
  6
Continuous
 62
     7
100
AcDbCircle
 10
143.5
 20
12.5
 30
0.0
 40
0.3000000000000114
  0
CIRCLE
  5
AD
330
37
100
AcDbEntity
  8
1
  6
Continuous
 62
     7
100
AcDbCircle
 10
137.5
 20
12.5
 30
0.0
 40
0.3000000000000114
  0
CIRCLE
  5
AE
330
37
100
AcDbEntity
  8
1
  6
Continuous
 62
     7
100
AcDbCircle
 10
126.5
 20
12.5
 30
0.0
 40
0.2999999999999972
  0
CIRCLE
  5
AF
330
37
100
AcDbEntity
  8
1
  6
Continuous
 62
     7
100
AcDbCircle
 10
120.5
 20
12.5
 30
0.0
 40
0.2999999999999972
  0
CIRCLE
  5
B0
330
37
100
AcDbEntity
  8
1
  6
Continuous
 62
     7
100
AcDbCircle
 10
109.5
 20
12.5
 30
0.0
 40
0.2999999999999972
  0
CIRCLE
  5
B1
330
37
100
AcDbEntity
  8
1
  6
Continuous
 62
     7
100
AcDbCircle
 10
103.5
 20
12.5
 30
0.0
 40
0.2999999999999972
  0
MTEXT
  5
B3
330
37
100
AcDbEntity
  8
1
 62
   250
100
AcDbMText
 10
25.0
 20
5.0
 30
0.0
 40
3.5
 41
0.0
 71
     4
 72
     1
  1
備考欄の文字列 原点位置=4
  7
CONVERTER_1
 73
     1
 44
0.7202881152461
  0
MTEXT
  5
B4
330
37
100
AcDbEntity
  8
1
 62
     2
100
AcDbMText
 10
89.5
 20
24.00000000000001
 30
0.0
 40
3.5
 41
0.0
 71
     5
 72
     1
  1
尺度
  7
CONVERTER_1
 73
     1
 44
0.7202881152461
  0
MTEXT
  5
B5
330
37
100
AcDbEntity
  8
1
 62
     2
100
AcDbMText
 10
135.5
 20
25.00000000000001
 30
0.0
 40
3.0
 41
0.0
 71
     5
 72
     1
  1
製図
  7
CONVERTER_1
 73
     1
 44
0.78031212484994
  0
MTEXT
  5
B6
330
37
100
AcDbEntity
  8
1
 62
     2
100
AcDbMText
 10
152.5
 20
25.00000000000001
 30
0.0
 40
3.0
 41
0.0
 71
     5
 72
     1
  1
設計
  7
CONVERTER_1
 73
     1
 44
0.78031212484994
  0
MTEXT
  5
B7
330
37
100
AcDbEntity
  8
1
 62
     2
100
AcDbMText
 10
118.5
 20
25.00000000000001
 30
0.0
 40
3.0
 41
0.0
 71
     5
 72
     1
  1
検図
  7
CONVERTER_1
 73
     1
 44
0.78031212484994
  0
MTEXT
  5
B8
330
37
100
AcDbEntity
  8
1
 62
     2
100
AcDbMText
 10
175.0
 20
23.50000000000001
 30
0.0
 40
3.5
 41
0.0
 71
     5
 72
     1
  1
第三角法
  7
CONVERTER_1
 73
     1
 44
0.7202881152461
  0
MTEXT
  5
B9
330
37
100
AcDbEntity
  8
1
 62
     2
100
AcDbMText
 10
101.5
 20
25.00000000000001
 30
0.0
 40
3.0
 41
0.0
 71
     5
 72
     1
  1
承認
  7
CONVERTER_1
 73
     1
 44
0.78031212484994
  0
MTEXT
  5
BA
330
37
100
AcDbEntity
  8
1
 62
     2
100
AcDbMText
 10
29.0
 20
14.25
 30
0.0
 40
3.5
 41
0.0
 71
     5
 72
     1
  1
品番
  7
CONVERTER_1
 73
     1
 44
0.96038415366146
  0
MTEXT
  5
BB
330
37
100
AcDbEntity
  8
1
 62
     2
100
AcDbMText
 10
29.0
 20
22.75
 30
0.0
 40
3.5
 41
0.0
 71
     5
 72
     1
  1
品名
  7
CONVERTER_1
 73
     1
 44
0.96038415366146
  0
MTEXT
  5
BC
330
37
100
AcDbEntity
  8
1
 62
     2
100
AcDbMText
 10
29.0
 20
34.00000000000001
 30
0.0
 40
3.5
 41
0.0
 71
     5
 72
     1
  1
備考
  7
CONVERTER_1
 73
     1
 44
0.60024009603842
  0
MTEXT
  5
BD
330
37
100
AcDbEntity
  8
1
 62
     2
100
AcDbMText
 10
32.5
 20
282.0000000000003
 30
0.0
 40
5.0
 41
0.0
 71
     5
 72
     1
  1
図番
  7
CONVERTER_1
 73
     1
 44
0.60024009603842
  0
MTEXT
  5
BE
330
37
100
AcDbEntity
  8
1
 62
     7
100
AcDbMText
 10
171.5
 20
15.0
 30
0.0
 40
2.5
 41
0.0
 71
     5
 72
     1
  1
株式会社
  7
CONVERTER_1
 73
     1
 44
1.32052821128451
  0
MTEXT
  5
BF
330
37
100
AcDbEntity
  8
1
 62
     7
100
AcDbMText
 10
188.5
 20
15.0
 30
0.0
 40
3.0
 41
0.0
 71
     5
 72
     1
  1
三栄水栓製作所
  7
CONVERTER_1
 73
     1
 44
1.32052821128451
  0
ENDBLK
  5
39
330
37
100
AcDbEntity
  8
0
100
AcDbBlockEnd
  0
BLOCK
  5
3B
330
3A
100
AcDbEntity
  8
0
100
AcDbBlockBegin
  2
A20-0-13
 70
     0
 71
     0
 10
135.2572704266855
 20
204.9659284573584
 30
0.0
  3
A20-0-13
  1

  0
LINE
  5
C0
330
3A
100
AcDbEntity
  8
1
  6
Continuous
 62
     7
100
AcDbLine
 10
389.0533037357945
 20
251.4659284573587
 30
0.0
 11
382.397592505994
 21
251.4659284573587
 31
0.0
  0
LINE
  5
C1
330
3A
100
AcDbEntity
  8
1
  6
Continuous
 62
     7
100
AcDbLine
 10
442.129643313563
 20
217.4659284573587
 30
0.0
 11
442.129643313563
 21
218.4659284573587
 31
0.0
  0
LINE
  5
C2
330
3A
100
AcDbEntity
  8
1
  6
Continuous
 62
     7
100
AcDbLine
 10
453.397592505994
 20
217.4659284573587
 30
0.0
 11
440.397592505994
 21
217.4659284573587
 31
0.0
  0
LINE
  5
C3
330
3A
100
AcDbEntity
  8
1
  6
Continuous
 62
     7
100
AcDbLine
 10
440.397592505994
 20
238.4659284573588
 30
0.0
 11
453.397592505994
 21
238.4659284573588
 31
0.0
  0
LINE
  5
C4
330
3A
100
AcDbEntity
  8
1
  6
Continuous
 62
     7
100
AcDbLine
 10
454.397592505994
 20
237.4659284573588
 30
0.0
 11
453.397592505994
 21
238.4659284573588
 31
0.0
  0
LINE
  5
C5
330
3A
100
AcDbEntity
  8
1
  6
Continuous
 62
     7
100
AcDbLine
 10
442.129643313563
 20
237.4659284573588
 30
0.0
 11
442.129643313563
 21
238.4659284573588
 31
0.0
  0
LINE
  5
C6
330
3A
100
AcDbEntity
  8
1
  6
Continuous
 62
     7
100
AcDbLine
 10
453.397592505994
 20
238.4659284573588
 30
0.0
 11
453.397592505994
 21
237.4659284573588
 31
0.0
  0
LINE
  5
C7
330
3A
100
AcDbEntity
  8
1
  6
Continuous
 62
     7
100
AcDbLine
 10
453.397592505994
 20
218.4659284573587
 30
0.0
 11
453.397592505994
 21
217.4659284573587
 31
0.0
  0
LINE
  5
C8
330
3A
100
AcDbEntity
  8
1
  6
Continuous
 62
     7
100
AcDbLine
 10
453.397592505994
 20
217.4659284573587
 30
0.0
 11
454.397592505994
 21
218.4659284573587
 31
0.0
  0
LINE
  5
C9
330
3A
100
AcDbEntity
  8
1
  6
Continuous
 62
     7
100
AcDbLine
 10
454.397592505994
 20
237.4659284573588
 30
0.0
 11
454.397592505994
 21
218.4659284573587
 31
0.0
  0
LINE
  5
CA
330
3A
100
AcDbEntity
  8
1
  6
Continuous
 62
     7
100
AcDbLine
 10
408.397592505994
 20
249.7338776497899
 30
0.0
 11
408.397592505994
 21
252.9659284573587
 31
0.0
  0
LINE
  5
CB
330
3A
100
AcDbEntity
  8
1
  6
Continuous
 62
     7
100
AcDbLine
 10
408.397592505994
 20
251.4659284573587
 30
0.0
 11
401.7418812762256
 21
251.4659284573587
 31
0.0
  0
LINE
  5
CC
330
3A
100
AcDbEntity
  8
1
  6
Continuous
 62
     7
100
AcDbLine
 10
382.397592505994
 20
252.9659284573587
 30
0.0
 11
382.397592505994
 21
237.2933075104476
 31
0.0
  0
LINE
  5
CD
330
3A
100
AcDbEntity
  8
1
  6
Continuous
 62
     7
100
AcDbLine
 10
408.397592505994
 20
249.7338776497899
 30
0.0
 11
408.397592505994
 21
248.7159284573587
 31
0.0
  0
LINE
  5
CE
330
3A
100
AcDbEntity
  8
1
  6
Continuous
 62
     2
100
AcDbLine
 10
383.397592505994
 20
251.4659284573587
 30
0.0
 11
383.397592505994
 21
252.9659284573587
 31
0.0
  0
LINE
  5
CF
330
3A
100
AcDbEntity
  8
1
  6
Continuous
 62
     2
100
AcDbLine
 10
383.397592505994
 20
251.4659284573587
 30
0.0
 11
382.397592505994
 21
249.7338776497899
 31
0.0
  0
LINE
  5
D0
330
3A
100
AcDbEntity
  8
1
  6
Continuous
 62
     2
100
AcDbLine
 10
408.397592505994
 20
249.7338776497899
 30
0.0
 11
407.397592505994
 21
251.4659284573587
 31
0.0
  0
LINE
  5
D1
330
3A
100
AcDbEntity
  8
1
  6
Continuous
 62
     7
100
AcDbLine
 10
437.897592505994
 20
240.7159284573588
 30
0.0
 11
437.897592505994
 21
250.4659284573587
 31
0.0
  0
LINE
  5
D2
330
3A
100
AcDbEntity
  8
1
  6
Continuous
 62
     7
100
AcDbLine
 10
433.897592505994
 20
236.7159284573588
 30
0.0
 11
420.397592505994
 21
236.7159284573588
 31
0.0
  0
LINE
  5
D3
330
3A
100
AcDbEntity
  8
1
  6
Continuous
 62
     2
100
AcDbLine
 10
442.129643313563
 20
237.4659284573588
 30
0.0
 11
454.397592505994
 21
237.4659284573588
 31
0.0
  0
LINE
  5
D4
330
3A
100
AcDbEntity
  8
1
  6
Continuous
 62
     2
100
AcDbLine
 10
440.397592505994
 20
238.4659284573588
 30
0.0
 11
442.129643313563
 21
237.4659284573588
 31
0.0
  0
LINE
  5
D5
330
3A
100
AcDbEntity
  8
1
  6
Continuous
 62
     7
100
AcDbLine
 10
440.397592505994
 20
250.9659284573587
 30
0.0
 11
440.397592505994
 21
238.4659284573588
 31
0.0
  0
LINE
  5
D6
330
3A
100
AcDbEntity
  8
1
  6
Continuous
 62
     7
100
AcDbLine
 10
440.397592505994
 20
250.9659284573587
 30
0.0
 11
438.397592505994
 21
250.9659284573587
 31
0.0
  0
LINE
  5
D7
330
3A
100
AcDbEntity
  8
1
  6
Continuous
 62
     2
100
AcDbLine
 10
454.397592505994
 20
218.4659284573587
 30
0.0
 11
442.129643313563
 21
218.4659284573587
 31
0.0
  0
LINE
  5
D8
330
3A
100
AcDbEntity
  8
1
  6
Continuous
 62
     7
100
AcDbLine
 10
437.897592505994
 20
205.4659284573588
 30
0.0
 11
437.897592505994
 21
215.2159284573587
 31
0.0
  0
LINE
  5
D9
330
3A
100
AcDbEntity
  8
1
  6
Continuous
 62
     7
100
AcDbLine
 10
438.397592505994
 20
204.9659284573588
 30
0.0
 11
440.397592505994
 21
204.9659284573588
 31
0.0
  0
LINE
  5
DA
330
3A
100
AcDbEntity
  8
1
  6
Continuous
 62
     7
100
AcDbLine
 10
440.397592505994
 20
217.4659284573587
 30
0.0
 11
440.397592505994
 21
204.9659284573588
 31
0.0
  0
LINE
  5
DB
330
3A
100
AcDbEntity
  8
1
  6
Continuous
 62
     2
100
AcDbLine
 10
442.129643313563
 20
218.4659284573587
 30
0.0
 11
440.397592505994
 21
217.4659284573587
 31
0.0
  0
LINE
  5
DC
330
3A
100
AcDbEntity
  8
1
  6
Continuous
 62
     2
100
AcDbLine
 10
407.397592505994
 20
252.9659284573587
 30
0.0
 11
407.397592505994
 21
251.4659284573587
 31
0.0
  0
LINE
  5
DD
330
3A
100
AcDbEntity
  8
1
  6
Continuous
 62
     7
100
AcDbLine
 10
437.897592505994
 20
240.7159284573588
 30
0.0
 11
437.897592505994
 21
215.2159284573587
 31
0.0
  0
LINE
  5
DE
330
3A
100
AcDbEntity
  8
1
  6
Continuous
 62
     7
100
AcDbLine
 10
440.397592505994
 20
238.4659284573588
 30
0.0
 11
440.397592505994
 21
217.4659284573587
 31
0.0
  0
LINE
  5
DF
330
3A
100
AcDbEntity
  8
1
  6
Continuous
 62
     7
100
AcDbLine
 10
442.129643313563
 20
218.4659284573587
 30
0.0
 11
442.129643313563
 21
237.4659284573588
 31
0.0
  0
LINE
  5
E0
330
3A
100
AcDbEntity
  8
1
  6
Continuous
 62
     7
100
AcDbLine
 10
453.397592505994
 20
237.4659284573588
 30
0.0
 11
453.397592505994
 21
218.4659284573587
 31
0.0
  0
LINE
  5
E1
330
3A
100
AcDbEntity
  8
1
  6
Continuous
 62
     2
100
AcDbLine
 10
92.75727042668601
 20
610.0396846472986
 30
0.0
 11
92.75727042668601
 21
622.3076338397295
 31
0.0
  0
LINE
  5
E2
330
3A
100
AcDbEntity
  8
1
  6
Continuous
 62
     2
100
AcDbLine
 10
91.75727042668601
 20
608.3076338397295
 30
0.0
 11
92.75727042668601
 21
610.0396846472986
 31
0.0
  0
LINE
  5
E3
330
3A
100
AcDbEntity
  8
1
  6
Continuous
 62
     7
100
AcDbLine
 10
79.25727042668601
 20
608.3076338397295
 30
0.0
 11
125.257270426686
 21
608.3076338397295
 31
0.0
  0
LINE
  5
E4
330
3A
100
AcDbEntity
  8
1
  6
Continuous
 62
     7
100
AcDbLine
 10
79.25727042668601
 20
608.3076338397295
 30
0.0
 11
79.25727042668601
 21
606.3076338397295
 31
0.0
  0
LINE
  5
E5
330
3A
100
AcDbEntity
  8
1
  6
Continuous
 62
     7
100
AcDbLine
 10
124.757270426686
 20
605.8076338397295
 30
0.0
 11
79.75727042668601
 21
605.8076338397295
 31
0.0
  0
LINE
  5
E6
330
3A
100
AcDbEntity
  8
1
  6
Continuous
 62
     7
100
AcDbLine
 10
93.50727042668601
 20
582.1739397844569
 30
0.0
 11
93.50727042668601
 21
601.8076338397295
 31
0.0
  0
LINE
  5
E7
330
3A
100
AcDbEntity
  8
1
  6
Continuous
 62
     7
100
AcDbLine
 10
125.257270426686
 20
606.3076338397295
 30
0.0
 11
125.257270426686
 21
608.3076338397295
 31
0.0
  0
LINE
  5
E8
330
3A
100
AcDbEntity
  8
1
  6
Continuous
 62
     2
100
AcDbLine
 10
111.757270426686
 20
610.0396846472986
 30
0.0
 11
112.757270426686
 21
608.3076338397295
 31
0.0
  0
LINE
  5
E9
330
3A
100
AcDbEntity
  8
1
  6
Continuous
 62
     2
100
AcDbLine
 10
111.757270426686
 20
622.3076338397295
 30
0.0
 11
111.757270426686
 21
610.0396846472986
 31
0.0
  0
LINE
  5
EA
330
3A
100
AcDbEntity
  8
1
  6
Continuous
 62
     7
100
AcDbLine
 10
111.007270426686
 20
587.9358165980227
 30
0.0
 11
111.007270426686
 21
601.8076338397295
 31
0.0
  0
LINE
  5
EB
330
3A
100
AcDbEntity
  8
1
  6
Continuous
 62
     7
100
AcDbLine
 10
112.757270426686
 20
621.3076338397295
 30
0.0
 11
112.757270426686
 21
608.3076338397295
 31
0.0
  0
LINE
  5
EC
330
3A
100
AcDbEntity
  8
1
  6
Continuous
 62
     7
100
AcDbLine
 10
112.757270426686
 20
621.3076338397295
 30
0.0
 11
111.757270426686
 21
622.3076338397295
 31
0.0
  0
LINE
  5
ED
330
3A
100
AcDbEntity
  8
1
  6
Continuous
 62
     7
100
AcDbLine
 10
112.757270426686
 20
610.0396846472986
 30
0.0
 11
91.75727042668601
 21
610.0396846472986
 31
0.0
  0
LINE
  5
EE
330
3A
100
AcDbEntity
  8
1
  6
Continuous
 62
     7
100
AcDbLine
 10
91.75727042668601
 20
621.3076338397295
 30
0.0
 11
112.757270426686
 21
621.3076338397295
 31
0.0
  0
LINE
  5
EF
330
3A
100
AcDbEntity
  8
1
  6
Continuous
 62
     7
100
AcDbLine
 10
91.75727042668601
 20
608.3076338397295
 30
0.0
 11
91.75727042668601
 21
621.3076338397295
 31
0.0
  0
LINE
  5
F0
330
3A
100
AcDbEntity
  8
1
  6
Continuous
 62
     7
100
AcDbLine
 10
92.75727042668601
 20
622.3076338397295
 30
0.0
 11
91.75727042668601
 21
621.3076338397295
 31
0.0
  0
LINE
  5
F1
330
3A
100
AcDbEntity
  8
1
  6
Continuous
 62
     7
100
AcDbLine
 10
92.75727042668601
 20
622.3076338397295
 30
0.0
 11
111.757270426686
 21
622.3076338397295
 31
0.0
  0
LINE
  5
F2
330
3A
100
AcDbEntity
  8
1
  6
Continuous
 62
     7
100
AcDbLine
 10
124.2572704266855
 20
575.3076338397302
 30
0.0
 11
124.2572704266855
 21
575.816883592553
 31
0.0
  0
LINE
  5
F3
330
3A
100
AcDbEntity
  8
1
  6
Continuous
 62
     7
100
AcDbLine
 10
124.5252196191167
 20
575.3076338397302
 30
0.0
 11
124.2572704266855
 21
575.3076338397302
 31
0.0
  0
LINE
  5
F4
330
3A
100
AcDbEntity
  8
1
  6
Continuous
 62
     7
100
AcDbLine
 10
126.2572704266855
 20
575.3076338397302
 30
0.0
 11
124.5252196191167
 21
575.3076338397302
 31
0.0
  0
LINE
  5
F5
330
3A
100
AcDbEntity
  8
1
  6
Continuous
 62
     2
100
AcDbLine
 10
126.2572704266855
 20
574.3076338397302
 30
0.0
 11
127.7572704266855
 21
574.3076338397302
 31
0.0
  0
LINE
  5
F6
330
3A
100
AcDbEntity
  8
1
  6
Continuous
 62
     2
100
AcDbLine
 10
126.2572704266855
 20
574.3076338397302
 30
0.0
 11
124.5252196191167
 21
575.3076338397302
 31
0.0
  0
LINE
  5
F7
330
3A
100
AcDbEntity
  8
1
  6
Continuous
 62
     7
100
AcDbLine
 10
126.2572704266855
 20
551.3076338397302
 30
0.0
 11
126.2572704266855
 21
575.3076338397302
 31
0.0
  0
LINE
  5
F8
330
3A
100
AcDbEntity
  8
1
  6
Continuous
 62
     2
100
AcDbLine
 10
124.5252196191167
 20
551.3076338397302
 30
0.0
 11
126.2572704266855
 21
552.3076338397302
 31
0.0
  0
LINE
  5
F9
330
3A
100
AcDbEntity
  8
1
  6
Continuous
 62
     2
100
AcDbLine
 10
126.2572704266855
 20
552.3076338397302
 30
0.0
 11
127.7572704266855
 21
552.3076338397302
 31
0.0
  0
LINE
  5
FA
330
3A
100
AcDbEntity
  8
1
  6
Continuous
 62
     7
100
AcDbLine
 10
126.2572704266855
 20
551.3076338397302
 30
0.0
 11
127.7572704266855
 21
551.3076338397302
 31
0.0
  0
LINE
  5
FB
330
3A
100
AcDbEntity
  8
1
  6
Continuous
 62
     7
100
AcDbLine
 10
124.5252196191167
 20
551.3076338397302
 30
0.0
 11
126.2572704266855
 21
551.3076338397302
 31
0.0
  0
LINE
  5
FC
330
3A
100
AcDbEntity
  8
1
  6
Continuous
 62
     7
100
AcDbLine
 10
124.2572704266855
 20
551.3076338397302
 30
0.0
 11
124.5252196191167
 21
551.3076338397302
 31
0.0
  0
LINE
  5
FD
330
3A
100
AcDbEntity
  8
1
  6
Continuous
 62
     7
100
AcDbLine
 10
124.2572704266855
 20
550.7983840869072
 30
0.0
 11
124.2572704266855
 21
551.3076338397302
 31
0.0
  0
LINE
  5
FE
330
3A
100
AcDbEntity
  8
1
  6
Continuous
 62
     7
100
AcDbLine
 10
124.2572704266855
 20
575.3076338397302
 30
0.0
 11
124.2572704266855
 21
551.3076338397302
 31
0.0
  0
LINE
  5
FF
330
3A
100
AcDbEntity
  8
1
  6
Continuous
 62
     7
100
AcDbLine
 10
124.2572704266855
 20
575.816883592553
 30
0.0
 11
122.1575514513022
 21
575.9659386678652
 31
0.0
  0
LINE
  5
100
330
3A
100
AcDbEntity
  8
1
  6
Continuous
 62
     7
100
AcDbLine
 10
121.4262655184052
 20
550.5974164075369
 30
0.0
 11
124.2572704266855
 21
550.7983840869072
 31
0.0
  0
LINE
  5
101
330
3A
100
AcDbEntity
  8
1
  6
PHANTOM
 62
     4
100
AcDbLine
 10
82.5977831766993
 20
563.3076338397302
 30
0.0
 11
164.6264059671872
 21
563.3076338397302
 31
0.0
  0
LINE
  5
102
330
3A
100
AcDbEntity
  8
1
  6
Continuous
 62
     7
100
AcDbLine
 10
127.7572704266855
 20
575.3076338397302
 30
0.0
 11
126.2572704266855
 21
575.3076338397302
 31
0.0
  0
LINE
  5
103
330
3A
100
AcDbEntity
  8
1
  6
Continuous
 62
     7
100
AcDbLine
 10
110.2572704266855
 20
549.8045505887892
 30
0.0
 11
121.4262655184052
 21
550.5974164075369
 31
0.0
  0
LINE
  5
104
330
3A
100
AcDbEntity
  8
1
  6
Continuous
 62
     2
100
AcDbLine
 10
114.2572704266855
 20
251.4659284573585
 30
0.0
 11
114.2572704266855
 21
252.9659284573585
 31
0.0
  0
LINE
  5
105
330
3A
100
AcDbEntity
  8
1
  6
Continuous
 62
     2
100
AcDbLine
 10
115.2572704266855
 20
249.7338776497896
 30
0.0
 11
114.2572704266855
 21
251.4659284573585
 31
0.0
  0
LINE
  5
106
330
3A
100
AcDbEntity
  8
1
  6
Continuous
 62
     7
100
AcDbLine
 10
115.2572704266855
 20
249.7338776497896
 30
0.0
 11
115.2572704266855
 21
248.7159284573585
 31
0.0
  0
LINE
  5
107
330
3A
100
AcDbEntity
  8
1
  6
Continuous
 62
     2
100
AcDbLine
 10
90.25727042668549
 20
251.4659284573585
 30
0.0
 11
89.25727042668549
 21
249.7338776497896
 31
0.0
  0
LINE
  5
108
330
3A
100
AcDbEntity
  8
1
  6
Continuous
 62
     2
100
AcDbLine
 10
90.25727042668549
 20
251.4659284573585
 30
0.0
 11
90.25727042668549
 21
252.9659284573585
 31
0.0
  0
LINE
  5
109
330
3A
100
AcDbEntity
  8
1
  6
Continuous
 62
     7
100
AcDbLine
 10
89.25727042668549
 20
249.7338776497896
 30
0.0
 11
89.25727042668549
 21
246.9395944183689
 31
0.0
  0
LINE
  5
10A
330
3A
100
AcDbEntity
  8
1
  6
Continuous
 62
     7
100
AcDbLine
 10
89.25727042668549
 20
249.7338776497896
 30
0.0
 11
89.25727042668549
 21
251.4659284573585
 31
0.0
  0
LINE
  5
10B
330
3A
100
AcDbEntity
  8
1
  6
Continuous
 62
     7
100
AcDbLine
 10
89.25727042668549
 20
251.4659284573585
 30
0.0
 11
89.25727042668549
 21
252.9659284573585
 31
0.0
  0
LINE
  5
10C
330
3A
100
AcDbEntity
  8
1
  6
Continuous
 62
     7
100
AcDbLine
 10
115.2572704266855
 20
251.4659284573585
 30
0.0
 11
115.2572704266855
 21
249.7338776497896
 31
0.0
  0
LINE
  5
10D
330
3A
100
AcDbEntity
  8
1
  6
Continuous
 62
     7
100
AcDbLine
 10
115.2572704266855
 20
251.4659284573585
 30
0.0
 11
89.25727042668549
 21
251.4659284573585
 31
0.0
  0
LINE
  5
10E
330
3A
100
AcDbEntity
  8
1
  6
Continuous
 62
     7
100
AcDbLine
 10
124.2572704266855
 20
240.4751782101814
 30
0.0
 11
121.4262655184052
 21
240.6761458895518
 31
0.0
  0
LINE
  5
10F
330
3A
100
AcDbEntity
  8
1
  6
Continuous
 62
     7
100
AcDbLine
 10
124.2572704266855
 20
239.9659284573585
 30
0.0
 11
124.2572704266855
 21
240.4751782101814
 31
0.0
  0
LINE
  5
110
330
3A
100
AcDbEntity
  8
1
  6
Continuous
 62
     7
100
AcDbLine
 10
124.5252196191166
 20
239.9659284573585
 30
0.0
 11
124.2572704266855
 21
239.9659284573585
 31
0.0
  0
LINE
  5
111
330
3A
100
AcDbEntity
  8
1
  6
Continuous
 62
     7
100
AcDbLine
 10
126.2572704266855
 20
239.9659284573585
 30
0.0
 11
124.5252196191166
 21
239.9659284573585
 31
0.0
  0
LINE
  5
112
330
3A
100
AcDbEntity
  8
1
  6
Continuous
 62
     7
100
AcDbLine
 10
127.7572704266855
 20
239.9659284573585
 30
0.0
 11
126.2572704266855
 21
239.9659284573585
 31
0.0
  0
LINE
  5
113
330
3A
100
AcDbEntity
  8
1
  6
Continuous
 62
     2
100
AcDbLine
 10
126.2572704266855
 20
238.9659284573585
 30
0.0
 11
127.7572704266855
 21
238.9659284573585
 31
0.0
  0
LINE
  5
114
330
3A
100
AcDbEntity
  8
1
  6
Continuous
 62
     2
100
AcDbLine
 10
126.2572704266855
 20
238.9659284573585
 30
0.0
 11
124.5252196191166
 21
239.9659284573585
 31
0.0
  0
LINE
  5
115
330
3A
100
AcDbEntity
  8
1
  6
Continuous
 62
     7
100
AcDbLine
 10
126.2572704266855
 20
215.9659284573584
 30
0.0
 11
126.2572704266855
 21
239.9659284573585
 31
0.0
  0
LINE
  5
116
330
3A
100
AcDbEntity
  8
1
  6
Continuous
 62
     2
100
AcDbLine
 10
124.5252196191166
 20
215.9659284573584
 30
0.0
 11
126.2572704266855
 21
216.9659284573584
 31
0.0
  0
LINE
  5
117
330
3A
100
AcDbEntity
  8
1
  6
Continuous
 62
     2
100
AcDbLine
 10
126.2572704266855
 20
216.9659284573584
 30
0.0
 11
127.7572704266855
 21
216.9659284573585
 31
0.0
  0
LINE
  5
118
330
3A
100
AcDbEntity
  8
1
  6
Continuous
 62
     7
100
AcDbLine
 10
126.2572704266855
 20
215.9659284573584
 30
0.0
 11
127.7572704266855
 21
215.9659284573584
 31
0.0
  0
LINE
  5
119
330
3A
100
AcDbEntity
  8
1
  6
Continuous
 62
     7
100
AcDbLine
 10
124.5252196191166
 20
215.9659284573584
 30
0.0
 11
126.2572704266855
 21
215.9659284573584
 31
0.0
  0
LINE
  5
11A
330
3A
100
AcDbEntity
  8
1
  6
Continuous
 62
     7
100
AcDbLine
 10
124.2572704266855
 20
215.9659284573584
 30
0.0
 11
124.5252196191166
 21
215.9659284573584
 31
0.0
  0
LINE
  5
11B
330
3A
100
AcDbEntity
  8
1
  6
Continuous
 62
     7
100
AcDbLine
 10
124.2572704266855
 20
215.4566787045355
 30
0.0
 11
124.2572704266855
 21
215.9659284573584
 31
0.0
  0
LINE
  5
11C
330
3A
100
AcDbEntity
  8
1
  6
Continuous
 62
     7
100
AcDbLine
 10
103.2572704266855
 20
213.9659284573585
 30
0.0
 11
121.4262655184052
 21
215.2557110251651
 31
0.0
  0
LINE
  5
11D
330
3A
100
AcDbEntity
  8
1
  6
Continuous
 62
     7
100
AcDbLine
 10
115.2572704266855
 20
248.7159284573585
 30
0.0
 11
115.2572704266855
 21
246.9395944183688
 31
0.0
  0
LINE
  5
11E
330
3A
100
AcDbEntity
  8
1
  6
Continuous
 62
     7
100
AcDbLine
 10
121.4262655184052
 20
215.2557110251651
 30
0.0
 11
124.2572704266855
 21
215.4566787045355
 31
0.0
  0
LINE
  5
11F
330
3A
100
AcDbEntity
  8
1
  6
Continuous
 62
     7
100
AcDbLine
 10
124.2572704266855
 20
239.9659284573585
 30
0.0
 11
124.2572704266855
 21
215.9659284573584
 31
0.0
  0
LINE
  5
120
330
3A
100
AcDbEntity
  8
1
  6
Continuous
 62
     7
100
AcDbLine
 10
121.4262655184052
 20
240.6761458895518
 30
0.0
 11
120.8324109389936
 21
240.7183025019825
 31
0.0
  0
LINE
  5
121
330
3A
100
AcDbEntity
  8
1
  6
Continuous
 62
     7
100
AcDbLine
 10
89.25727042668549
 20
246.9395944183689
 30
0.0
 11
89.25727042668549
 21
227.9659284573585
 31
0.0
  0
LINE
  5
122
330
3A
100
AcDbEntity
  8
1
  6
Continuous
 62
     7
100
AcDbLine
 10
115.2572704266855
 20
246.9395944183688
 30
0.0
 11
115.2572704266855
 21
246.7032414670613
 31
0.0
  0
LINE
  5
123
330
3A
100
AcDbEntity
  8
1
  6
Continuous
 62
     7
100
AcDbLine
 10
115.9481716340509
 20
241.4675443156387
 30
0.0
 11
104.1636983897632
 21
229.8459988507605
 31
0.0
  0
LINE
  5
124
330
3A
100
AcDbEntity
  8
1
  6
Continuous
 62
     7
100
AcDbLine
 10
115.2572704266855
 20
252.9659284573585
 30
0.0
 11
115.2572704266855
 21
251.4659284573585
 31
0.0
  0
LINE
  5
125
330
3A
100
AcDbEntity
  8
1
  6
Continuous
 62
     7
100
AcDbLine
 10
433.897592505994
 20
219.2159284573587
 30
0.0
 11
416.2407568530894
 21
219.2159284573583
 31
0.0
  0
ARC
  5
126
330
3A
100
AcDbEntity
  8
1
  6
Continuous
 62
     7
100
AcDbCircle
 10
395.397592505994
 20
227.9659284573588
 30
0.0
 40
14.00000000000047
100
AcDbArc
 50
-68.55239222433944
 51
-61.72472041782901
  0
ARC
  5
127
330
3A
100
AcDbEntity
  8
1
  6
Continuous
 62
     7
100
AcDbCircle
 10
420.397592505994
 20
248.7159284573587
 30
0.0
 40
12.0
100
AcDbArc
 50
180.0
 51
-90.0
  0
ARC
  5
128
330
3A
100
AcDbEntity
  8
1
  6
Continuous
 62
     7
100
AcDbCircle
 10
352.397592505994
 20
237.2933075104476
 30
0.0
 40
30.00000000000005
100
AcDbArc
 50
-8.83319836967774
 51
0.0
  0
ARC
  5
129
330
3A
100
AcDbEntity
  8
1
  6
Continuous
 62
     7
100
AcDbCircle
 10
102.2572704266855
 20
227.9659284573585
 30
0.0
 40
23.0000000000001
100
AcDbArc
 50
124.4173887104414
 51
-33.54681501581435
  0
ARC
  5
12A
330
3A
100
AcDbEntity
  8
1
  6
Continuous
 62
     7
100
AcDbCircle
 10
103.2572704266855
 20
227.9659284573585
 30
0.0
 40
14.0
100
AcDbArc
 50
180.0
 51
-90.0
  0
ARC
  5
12B
330
3A
100
AcDbEntity
  8
1
  6
Continuous
 62
     7
100
AcDbCircle
 10
102.2572704266855
 20
227.9659284573585
 30
0.0
 40
23.0000000000001
100
AcDbArc
 50
33.54681501581416
 51
55.58261128955849
  0
ARC
  5
12C
330
3A
100
AcDbEntity
  8
1
  6
Continuous
 62
     7
100
AcDbCircle
 10
416.2407568530894
 20
189.2159284573583
 30
0.0
 40
30.0
100
AcDbArc
 50
90.0
 51
118.2752795821707
  0
ARC
  5
12D
330
3A
100
AcDbEntity
  8
1
  6
Continuous
 62
     7
100
AcDbCircle
 10
395.397592505994
 20
227.9659284573588
 30
0.0
 40
14.00000000000007
100
AcDbArc
 50
-141.7867892982521
 51
-128.2132107017354
  0
ARC
  5
12E
330
3A
100
AcDbEntity
  8
1
  6
Continuous
 62
     7
100
AcDbCircle
 10
395.397592505994
 20
227.9659284573588
 30
0.0
 40
14.00000000000011
100
AcDbArc
 50
-128.2132107017354
 51
-111.4476077754996
  0
ARC
  5
12F
330
3A
100
AcDbEntity
  8
1
  6
Continuous
 62
     7
100
AcDbCircle
 10
395.397592505994
 20
227.9659284573588
 30
0.0
 40
13.9999999999997
100
AcDbArc
 50
-158.5523922244919
 51
-158.2132107017424
  0
ARC
  5
130
330
3A
100
AcDbEntity
  8
1
  6
Continuous
 62
     7
100
AcDbCircle
 10
438.397592505994
 20
250.4659284573587
 30
0.0
 40
0.5
100
AcDbArc
 50
90.0
 51
180.0
  0
ARC
  5
131
330
3A
100
AcDbEntity
  8
1
  6
Continuous
 62
     7
100
AcDbCircle
 10
433.897592505994
 20
240.7159284573588
 30
0.0
 40
4.0
100
AcDbArc
 50
-90.0
 51
0.0
  0
ARC
  5
132
330
3A
100
AcDbEntity
  8
1
  6
Continuous
 62
     7
100
AcDbCircle
 10
438.397592505994
 20
205.4659284573588
 30
0.0
 40
0.5
100
AcDbArc
 50
180.0
 51
-90.0
  0
ARC
  5
133
330
3A
100
AcDbEntity
  8
1
  6
Continuous
 62
     7
100
AcDbCircle
 10
433.897592505994
 20
215.2159284573587
 30
0.0
 40
4.0
100
AcDbArc
 50
0.0
 51
90.0
  0
ARC
  5
134
330
3A
100
AcDbEntity
  8
1
  6
Continuous
 62
     7
100
AcDbCircle
 10
89.50727042668601
 20
601.8076338397295
 30
0.0
 40
4.0
100
AcDbArc
 50
0.0
 51
90.0
  0
ARC
  5
135
330
3A
100
AcDbEntity
  8
1
  6
Continuous
 62
     7
100
AcDbCircle
 10
115.007270426686
 20
601.8076338397295
 30
0.0
 40
4.0
100
AcDbArc
 50
90.0
 51
180.0
  0
ARC
  5
136
330
3A
100
AcDbEntity
  8
1
  6
Continuous
 62
     7
100
AcDbCircle
 10
124.757270426686
 20
606.3076338397295
 30
0.0
 40
0.5
100
AcDbArc
 50
-90.0
 51
0.0
  0
ARC
  5
137
330
3A
100
AcDbEntity
  8
1
  6
Continuous
 62
     7
100
AcDbCircle
 10
79.75727042668601
 20
606.3076338397295
 30
0.0
 40
0.5
100
AcDbArc
 50
180.0
 51
-90.0
  0
ARC
  5
138
330
3A
100
AcDbEntity
  8
1
  6
Continuous
 62
     7
100
AcDbCircle
 10
63.50727042668599
 20
582.1739397844569
 30
0.0
 40
29.99999999999999
100
AcDbArc
 50
-15.10263691918584
 51
0.0
  0
ARC
  5
139
330
3A
100
AcDbEntity
  8
1
  6
Continuous
 62
     7
100
AcDbCircle
 10
123.007270426686
 20
587.9358165980227
 30
0.0
 40
12.0
100
AcDbArc
 50
180.0
 51
-94.06050734864745
  0
ARC
  5
13A
330
3A
100
AcDbEntity
  8
1
  6
Continuous
 62
     7
100
AcDbCircle
 10
121.2572704266855
 20
246.7032414670613
 30
0.0
 40
6.0
100
AcDbArc
 50
180.0
 51
-94.06050734864728
  0
ENDBLK
  5
3C
330
3A
100
AcDbEntity
  8
0
100
AcDbBlockEnd
  0
BLOCK
  5
3E
330
3D
100
AcDbEntity
  8
0
100
AcDbBlockBegin
  2
32-1-16
 70
     0
 71
     0
 10
177.0445485331941
 20
486.0008396999621
 30
0.0
  3
32-1-16
  1

  0
LINE
  5
13B
330
3D
100
AcDbEntity
  8
1
  6
Continuous
 62
     7
100
AcDbLine
 10
406.897592505994
 20
261.9659284573577
 30
0.0
 11
406.9556135677246
 21
261.9659284573577
 31
0.0
  0
LINE
  5
13C
330
3D
100
AcDbEntity
  8
1
  6
Continuous
 62
     7
100
AcDbLine
 10
382.210592505994
 20
252.9659284573577
 30
0.0
 11
382.097592505994
 21
252.9659284573577
 31
0.0
  0
LINE
  5
13D
330
3D
100
AcDbEntity
  8
1
  6
Continuous
 62
     7
100
AcDbLine
 10
383.8395714442634
 20
261.9659284573577
 30
0.0
 11
383.897592505994
 21
261.9659284573577
 31
0.0
  0
LINE
  5
13E
330
3D
100
AcDbEntity
  8
1
  6
Continuous
 62
     7
100
AcDbLine
 10
408.697592505994
 20
252.9659284573577
 30
0.0
 11
402.4686603178699
 21
252.9659284573577
 31
0.0
  0
LINE
  5
13F
330
3D
100
AcDbEntity
  8
1
  6
Continuous
 62
     7
100
AcDbLine
 10
405.1655416984252
 20
262.9659284573577
 30
0.0
 11
385.6296433135629
 21
262.9659284573577
 31
0.0
  0
LINE
  5
140
330
3D
100
AcDbEntity
  8
1
  6
Continuous
 62
     7
100
AcDbLine
 10
381.397592505994
 20
253.5376772785279
 30
0.0
 11
381.397592505994
 21
260.6791057070708
 31
0.0
  0
LINE
  5
141
330
3D
100
AcDbEntity
  8
1
  6
Continuous
 62
     7
100
AcDbLine
 10
409.397592505994
 20
260.6791057070707
 30
0.0
 11
409.397592505994
 21
253.5376772785279
 31
0.0
  0
LINE
  5
142
330
3D
100
AcDbEntity
  8
1
  6
Continuous
 62
     7
100
AcDbLine
 10
384.7636179097785
 20
261.9659284573577
 30
0.0
 11
391.6559351192101
 21
261.9659284573577
 31
0.0
  0
LINE
  5
143
330
3D
100
AcDbEntity
  8
1
  6
Continuous
 62
     7
100
AcDbLine
 10
90.69924936495488
 20
261.9659284573585
 30
0.0
 11
90.75727042668549
 21
261.9659284573585
 31
0.0
  0
LINE
  5
144
330
3D
100
AcDbEntity
  8
1
  6
Continuous
 62
     7
100
AcDbLine
 10
89.07027042668551
 20
252.9659284573585
 30
0.0
 11
88.9572704266854
 21
252.9659284573585
 31
0.0
  0
LINE
  5
145
330
3D
100
AcDbEntity
  8
1
  6
Continuous
 62
     7
100
AcDbLine
 10
88.9572704266854
 20
252.9659284573585
 30
0.0
 11
102.2572704266855
 21
252.9659284573585
 31
0.0
  0
LINE
  5
146
330
3D
100
AcDbEntity
  8
1
  6
Continuous
 62
     7
100
AcDbLine
 10
108.9093377745105
 20
577.3076338397302
 30
0.0
 11
95.6052030788604
 21
577.3076338397302
 31
0.0
  0
LINE
  5
147
330
3D
100
AcDbEntity
  8
1
  6
Continuous
 62
     7
100
AcDbLine
 10
117.70765975358
 20
564.5467745288288
 30
0.0
 11
111.0555924057551
 21
576.0684931506316
 31
0.0
  0
LINE
  5
148
330
3D
100
AcDbEntity
  8
1
  6
Continuous
 62
     7
100
AcDbLine
 10
111.0555924057551
 20
550.5467745288288
 30
0.0
 11
117.70765975358
 21
562.0684931506316
 31
0.0
  0
LINE
  5
149
330
3D
100
AcDbEntity
  8
1
  6
Continuous
 62
     7
100
AcDbLine
 10
112.0252196191166
 20
262.9659284573585
 30
0.0
 11
110.0520183812068
 21
262.9659284573585
 31
0.0
  0
LINE
  5
14A
330
3D
100
AcDbEntity
  8
1
  6
Continuous
 62
     7
100
AcDbLine
 10
113.7572704266855
 20
261.9659284573585
 30
0.0
 11
113.815291488416
 21
261.9659284573585
 31
0.0
  0
LINE
  5
14B
330
3D
100
AcDbEntity
  8
1
  6
Continuous
 62
     7
100
AcDbLine
 10
115.5572704266855
 20
252.9659284573585
 30
0.0
 11
115.4442704266855
 21
252.9659284573585
 31
0.0
  0
LINE
  5
14C
330
3D
100
AcDbEntity
  8
1
  6
Continuous
 62
     7
100
AcDbLine
 10
102.2572704266855
 20
252.9659284573585
 30
0.0
 11
115.5572704266855
 21
252.9659284573585
 31
0.0
  0
LINE
  5
14D
330
3D
100
AcDbEntity
  8
1
  6
Continuous
 62
     7
100
AcDbLine
 10
94.41168777709919
 20
262.9659284573585
 30
0.0
 11
92.48932123425419
 21
262.9659284573585
 31
0.0
  0
LINE
  5
14E
330
3D
100
AcDbEntity
  8
1
  6
Continuous
 62
     7
100
AcDbLine
 10
93.458948447616
 20
576.0684931506316
 30
0.0
 11
86.8068810997911
 21
564.5467745288288
 31
0.0
  0
LINE
  5
14F
330
3D
100
AcDbEntity
  8
1
  6
Continuous
 62
     7
100
AcDbLine
 10
86.8068810997911
 20
562.0684931506316
 30
0.0
 11
93.458948447616
 21
550.5467745288288
 31
0.0
  0
LINE
  5
150
330
3D
100
AcDbEntity
  8
1
  6
Continuous
 62
     7
100
AcDbLine
 10
399.13924989281
 20
261.9659284573577
 30
0.0
 11
406.0315671022096
 21
261.9659284573577
 31
0.0
  0
LINE
  5
151
330
3D
100
AcDbEntity
  8
1
  6
Continuous
 62
     7
100
AcDbLine
 10
388.3265246941502
 20
252.9659284573577
 30
0.0
 11
382.097592505994
 21
252.9659284573577
 31
0.0
  0
ARC
  5
152
330
3D
100
AcDbEntity
  8
1
  6
Continuous
 62
     7
100
AcDbCircle
 10
405.897592505994
 20
257.1083914927993
 30
0.0
 40
4.999999999999975
100
AcDbArc
 50
45.57299599919402
 51
74.66244233044624
  0
ARC
  5
153
330
3D
100
AcDbEntity
  8
1
  6
Continuous
 62
     7
100
AcDbCircle
 10
384.897592505994
 20
257.1083914927993
 30
0.0
 40
4.999999999999975
100
AcDbArc
 50
-134.427004000806
 51
-124.0557977425681
  0
ARC
  5
154
330
3D
100
AcDbEntity
  8
1
  6
Continuous
 62
     7
100
AcDbCircle
 10
384.897592505994
 20
257.1083914927993
 30
0.0
 40
5.000000000000094
100
AcDbArc
 50
105.3375576695538
 51
134.4270040008051
  0
ARC
  5
155
330
3D
100
AcDbEntity
  8
1
  6
Continuous
 62
     7
100
AcDbCircle
 10
405.897592505994
 20
257.1083914927993
 30
0.0
 40
4.999999999999993
100
AcDbArc
 50
-55.94420225743188
 51
-45.57299599919402
  0
ARC
  5
156
330
3D
100
AcDbEntity
  8
1
  6
Continuous
 62
     7
100
AcDbCircle
 10
91.75727042668549
 20
257.1083914928001
 30
0.0
 40
5.000000000000204
100
AcDbArc
 50
105.3375576695534
 51
-124.0557977425689
  0
ARC
  5
157
330
3D
100
AcDbEntity
  8
1
  6
Continuous
 62
     7
100
AcDbCircle
 10
102.2572704266854
 20
563.3076338397302
 30
0.0
 40
15.50000000000002
100
AcDbArc
 50
55.41462091516064
 51
64.58537908483878
  0
ARC
  5
158
330
3D
100
AcDbEntity
  8
1
  6
Continuous
 62
     7
100
AcDbCircle
 10
102.2572704266854
 20
563.3076338397302
 30
0.0
 40
15.5
100
AcDbArc
 50
0.0
 51
4.58537908483916
  0
ARC
  5
159
330
3D
100
AcDbEntity
  8
1
  6
Continuous
 62
     7
100
AcDbCircle
 10
102.2572704266854
 20
563.3076338397302
 30
0.0
 40
15.50000000000005
100
AcDbArc
 50
-58.92704902784635
 51
-55.41462091516064
  0
ARC
  5
15A
330
3D
100
AcDbEntity
  8
1
  6
Continuous
 62
     7
100
AcDbCircle
 10
102.2572704266854
 20
563.3076338397302
 30
0.0
 40
15.49999999999995
100
AcDbArc
 50
-4.58537908483916
 51
0.0
  0
ARC
  5
15B
330
3D
100
AcDbEntity
  8
1
  6
Continuous
 62
     7
100
AcDbCircle
 10
112.7572704266855
 20
257.1083914928001
 30
0.0
 40
4.999999999999993
100
AcDbArc
 50
-55.94420225743188
 51
74.66244233044574
  0
ARC
  5
15C
330
3D
100
AcDbEntity
  8
1
  6
Continuous
 62
     7
100
AcDbCircle
 10
102.2572704266854
 20
563.3076338397302
 30
0.0
 40
15.49999999999998
100
AcDbArc
 50
115.4146209151608
 51
124.5853790848384
  0
ARC
  5
15D
330
3D
100
AcDbEntity
  8
1
  6
Continuous
 62
     7
100
AcDbCircle
 10
102.2572704266854
 20
563.3076338397302
 30
0.0
 40
15.49999999999964
100
AcDbArc
 50
175.4146209151608
 51
180.0
  0
ARC
  5
15E
330
3D
100
AcDbEntity
  8
1
  6
Continuous
 62
     7
100
AcDbCircle
 10
102.2572704266854
 20
563.3076338397302
 30
0.0
 40
15.49999999999985
100
AcDbArc
 50
-124.5853790848384
 51
-121.072950972153
  0
ARC
  5
15F
330
3D
100
AcDbEntity
  8
1
  6
Continuous
 62
     7
100
AcDbCircle
 10
102.2572704266854
 20
563.3076338397302
 30
0.0
 40
15.4999999999997
100
AcDbArc
 50
180.0
 51
-175.4146209151608
  0
ARC
  5
160
330
3D
100
AcDbEntity
  8
1
  6
Continuous
 62
     7
100
AcDbCircle
 10
102.2572704266854
 20
563.3076338397302
 30
0.0
 40
10.7679491924311
100
AcDbArc
 50
-42.01706006464691
 51
89.99999999999947
  0
ARC
  5
161
330
3D
100
AcDbEntity
  8
1
  6
Continuous
 62
     7
100
AcDbCircle
 10
102.2572704266854
 20
563.3076338397302
 30
0.0
 40
10.76794919243116
100
AcDbArc
 50
89.99999999999947
 51
-137.9829399353524
  0
SPLINE
  5
162
330
3D
100
AcDbEntity
  8
0
  6
Continuous
 62
     7
100
AcDbSpline
210
0.0
220
0.0
230
1.0
 70
    11
 71
     3
 72
    79
 73
    75
 74
    73
 42
0.0000000001
 43
0.0000000001
 44
0.00000001
 40
0.0
 40
0.0
 40
0.0
 40
0.0
 40
0.2910229153818653
 40
0.5820342278737748
 40
0.874933933436405
 40
1.167812547519285
 40
1.463561188767226
 40
1.759282806464797
 40
2.058487811140736
 40
2.357663885605951
 40
2.660503341347706
 40
2.963315625194732
 40
3.269530826276537
 40
3.575723468843857
 40
3.884662744191541
 40
4.193586027919054
 40
4.504289085610776
 40
4.814983882015401
 40
5.126294430971162
 40
5.437604979926924
 40
5.748299776331552
 40
6.059002834023214
 40
6.367926117750808
 40
6.676865393098413
 40
6.983058035665721
 40
7.289273236747582
 40
7.592085520594639
 40
7.894924976336329
 40
8.194101050801514
 40
8.493306055477479
 40
8.789027673175033
 40
9.084776314423015
 40
9.377654928505873
 40
9.670554634068539
 40
9.961565946560476
 40
10.25258886194232
 40
10.54295309984929
 40
10.83331733775629
 40
11.12434025313818
 40
11.4153515656301
 40
11.70825127119276
 40
12.00112988527564
 40
12.2968785265236
 40
12.59260014422112
 40
12.89180514889708
 40
13.19098122336223
 40
13.49382067910392
 40
13.79663296295096
 40
14.10284816403285
 40
14.40904080660014
 40
14.71798008194774
 40
15.02690336567529
 40
15.33760642336689
 40
15.64830121977157
 40
15.95961176872734
 40
16.27092231768316
 40
16.58161711408784
 40
16.8923201717795
 40
17.20124345550705
 40
17.51018273085468
 40
17.81637537342189
 40
18.12259057450376
 40
18.42540285835084
 40
18.72824231409264
 40
19.0274183885578
 40
19.32662339323374
 40
19.6223450109313
 40
19.91809365217928
 40
20.21097226626218
 40
20.50387197182478
 40
20.79488328431666
 40
21.08590619969852
 40
21.37627043760553
 40
21.66663467551254
 40
21.66663467551254
 40
21.66663467551254
 40
21.66663467551254
 10
114.0915826249171
 20
260.6654607442013
 30
0.0
 10
113.9952075662002
 20
260.6537850763999
 30
0.0
 10
113.8024612911757
 20
260.6304342062983
 30
0.0
 10
113.5185247819108
 20
260.5610782128478
 30
0.0
 10
113.2412605160521
 20
260.4676354552724
 30
0.0
 10
112.972508132202
 20
260.347728469295
 30
0.0
 10
112.7148627486822
 20
260.2036829641079
 30
0.0
 10
112.4696358014474
 20
260.0356163632624
 30
0.0
 10
112.2393724453903
 20
259.8457816301886
 30
0.0
 10
112.0251402368743
 20
259.6346455015212
 30
0.0
 10
111.8291858081115
 20
259.4048658978871
 30
0.0
 10
111.6524284644908
 20
259.1571373656629
 30
0.0
 10
111.4966576305238
 20
258.8944051258291
 30
0.0
 10
111.3626892131546
 20
258.6176541141873
 30
0.0
 10
111.2517661818693
 20
258.3299221364236
 30
0.0
 10
111.1645893894978
 20
258.0325686900008
 30
0.0
 10
111.1018413794049
 20
257.7285226938577
 30
0.0
 10
111.0640410001927
 20
257.4195810981037
 30
0.0
 10
111.0513639267044
 20
257.108391492801
 30
0.0
 10
111.0640410001924
 20
256.7972018874928
 30
0.0
 10
111.1018413794062
 20
256.4882602917555
 30
0.0
 10
111.1645893894933
 20
256.1842142955507
 30
0.0
 10
111.2517661818862
 20
255.8868608493569
 30
0.0
 10
111.3626892130915
 20
255.5991288707421
 30
0.0
 10
111.4966576307569
 20
255.3223778622501
 30
0.0
 10
111.6524284636243
 20
255.0596456107257
 30
0.0
 10
111.8291858113057
 20
254.8119171216676
 30
0.0
 10
112.0251402250088
 20
254.5821373579468
 30
0.0
 10
112.2393724890799
 20
254.3710018198389
 30
0.0
 10
112.4696356391143
 20
254.1811648967113
 30
0.0
 10
112.7148633467095
 20
254.0131063786165
 30
0.0
 10
112.972505908389
 20
253.8690308768235
 30
0.0
 10
113.2412687262802
 20
253.7492348063439
 30
0.0
 10
113.5184942119726
 20
253.6553798095026
 30
0.0
 10
113.8025745654751
 20
253.5875529029129
 30
0.0
 10
114.0909420459881
 20
253.5468579412891
 30
0.0
 10
114.3816260796676
 20
253.5330921477242
 30
0.0
 10
114.6723101133472
 20
253.546857941289
 30
0.0
 10
114.9606775938601
 20
253.5875529029128
 30
0.0
 10
115.2447579473627
 20
253.6553798095027
 30
0.0
 10
115.521983433055
 20
253.7492348063439
 30
0.0
 10
115.7907462509463
 20
253.8690308768236
 30
0.0
 10
116.0483888126258
 20
254.0131063786165
 30
0.0
 10
116.293616520221
 20
254.1811648967113
 30
0.0
 10
116.5238796702553
 20
254.371001819839
 30
0.0
 10
116.7381119343264
 20
254.5821373579468
 30
0.0
 10
116.9340663480295
 20
254.8119171216675
 30
0.0
 10
117.1108236957109
 20
255.0596456107258
 30
0.0
 10
117.2665945285782
 20
255.3223778622499
 30
0.0
 10
117.4005629462437
 20
255.5991288707423
 30
0.0
 10
117.511485977449
 20
255.8868608493569
 30
0.0
 10
117.598662769842
 20
256.1842142955508
 30
0.0
 10
117.661410779929
 20
256.4882602917554
 30
0.0
 10
117.6992111591428
 20
256.7972018874929
 30
0.0
 10
117.7118882326306
 20
257.1083914928001
 30
0.0
 10
117.6992111591428
 20
257.419581098107
 30
0.0
 10
117.6614107799289
 20
257.7285226938457
 30
0.0
 10
117.5986627698422
 20
258.0325686900459
 30
0.0
 10
117.5114859774478
 20
258.3299221362562
 30
0.0
 10
117.4005629462482
 20
258.6176541148099
 30
0.0
 10
117.2665945285615
 20
258.8944051235279
 30
0.0
 10
117.1108236957731
 20
259.1571373742138
 30
0.0
 10
116.9340663478004
 20
259.4048658663677
 30
0.0
 10
116.7381119351774
 20
259.6346456186078
 30
0.0
 10
116.5238796671221
 20
259.8457811990677
 30
0.0
 10
116.2936165318625
 20
260.035617965136
 30
0.0
 10
116.0483887697384
 20
260.2036770628834
 30
0.0
 10
115.7907464104263
 20
260.3477504134771
 30
0.0
 10
115.5219828442605
 20
260.4675544382341
 30
0.0
 10
115.2447601396781
 20
260.5613798714393
 30
0.0
 10
114.960669470422
 20
260.6293164361113
 30
0.0
 10
114.6723404093509
 20
260.669602993028
 30
0.0
 10
114.381513296685
 20
260.6848897387121
 30
0.0
 10
114.1882261821731
 20
260.6719370757049
 30
0.0
 10
114.0915826249171
 20
260.6654607442013
 30
0.0
 11
114.0915826249171
 21
260.6654607442013
 31
0.0
 11
113.8034231286422
 21
260.6247367711148
 31
0.0
 11
113.5203409222597
 21
260.5572679010495
 31
0.0
 11
113.2429168797159
 21
260.4633203724107
 31
0.0
 11
112.9753551275986
 21
260.3442044986113
 31
0.0
 11
112.7172227588834
 21
260.1998613691541
 31
0.0
 11
112.4732101062722
 21
260.0328011987384
 31
0.0
 11
112.2423306007413
 21
259.8424901671376
 31
0.0
 11
112.0291553057901
 21
259.6325791927821
 31
0.0
 11
111.8326209817819
 21
259.4021752096555
 31
0.0
 11
111.6566474459823
 21
259.1557434869678
 31
0.0
 11
111.5004503055095
 21
258.89236125013
 31
0.0
 11
111.3669546175452
 21
258.6168021173521
 31
0.0
 11
111.2558046919881
 21
258.3285501964548
 31
0.0
 11
111.1688280379618
 21
258.0321237184145
 31
0.0
 11
111.1060229636402
 21
257.7278345258715
 31
0.0
 11
111.0682476019687
 21
257.419444709951
 31
0.0
 11
111.0555924057551
 21
257.1083914928001
 31
0.0
 11
111.0682476019687
 21
256.7973382756492
 31
0.0
 11
111.1060229636403
 21
256.4889484597287
 31
0.0
 11
111.1688280379618
 21
256.1846592671857
 31
0.0
 11
111.2558046919881
 21
255.8882327891454
 31
0.0
 11
111.3669546175452
 21
255.5999808682481
 31
0.0
 11
111.5004503055094
 21
255.3244217354702
 31
0.0
 11
111.6566474459823
 21
255.0610394986323
 31
0.0
 11
111.8326209817819
 21
254.8146077759446
 31
0.0
 11
112.0291553057901
 21
254.5842037928181
 31
0.0
 11
112.2423306007414
 21
254.3742928184627
 31
0.0
 11
112.4732101062722
 21
254.1839817868619
 31
0.0
 11
112.7172227588834
 21
254.0169216164462
 31
0.0
 11
112.9753551275986
 21
253.8725784869889
 31
0.0
 11
113.2429168797159
 21
253.7534626131895
 31
0.0
 11
113.5203409222598
 21
253.6595150845508
 31
0.0
 11
113.8034231286423
 21
253.5920462144855
 31
0.0
 11
114.0915826249172
 21
253.551322241399
 31
0.0
 11
114.3816260796676
 21
253.5376772785287
 31
0.0
 11
114.6716695344181
 21
253.5513222413989
 31
0.0
 11
114.959829030693
 21
253.5920462144855
 31
0.0
 11
115.2429112370755
 21
253.6595150845508
 31
0.0
 11
115.5203352796193
 21
253.7534626131896
 31
0.0
 11
115.7878970317367
 21
253.872578486989
 31
0.0
 11
116.0460294004519
 21
254.0169216164462
 31
0.0
 11
116.290042053063
 21
254.1839817868619
 31
0.0
 11
116.5209215585939
 21
254.3742928184627
 31
0.0
 11
116.7340968535451
 21
254.5842037928181
 31
0.0
 11
116.9306311775533
 21
254.8146077759446
 31
0.0
 11
117.1066047133529
 21
255.0610394986323
 31
0.0
 11
117.2628018538258
 21
255.3244217354702
 31
0.0
 11
117.39629754179
 21
255.5999808682481
 31
0.0
 11
117.5074474673471
 21
255.8882327891454
 31
0.0
 11
117.5944241213734
 21
256.1846592671857
 31
0.0
 11
117.6572291956949
 21
256.4889484597285
 31
0.0
 11
117.6950045573665
 21
256.7973382756491
 31
0.0
 11
117.7076597535801
 21
257.1083914928
 31
0.0
 11
117.6950045573665
 21
257.419444709951
 31
0.0
 11
117.6572291956949
 21
257.7278345258716
 31
0.0
 11
117.5944241213734
 21
258.0321237184145
 31
0.0
 11
117.5074474673471
 21
258.3285501964548
 31
0.0
 11
117.39629754179
 21
258.6168021173521
 31
0.0
 11
117.2628018538258
 21
258.8923612501299
 31
0.0
 11
117.1066047133529
 21
259.1557434869678
 31
0.0
 11
116.9306311775533
 21
259.4021752096555
 31
0.0
 11
116.734096853545
 21
259.6325791927822
 31
0.0
 11
116.5209215585939
 21
259.8424901671376
 31
0.0
 11
116.290042053063
 21
260.0328011987384
 31
0.0
 11
116.0460294004518
 21
260.1998613691541
 31
0.0
 11
115.7878970317366
 21
260.3442044986113
 31
0.0
 11
115.5203352796192
 21
260.4633203724107
 31
0.0
 11
115.2429112370754
 21
260.5572679010494
 31
0.0
 11
114.959829030693
 21
260.6247367711147
 31
0.0
 11
114.6716695344181
 21
260.6654607442013
 31
0.0
 11
114.3816260796676
 21
260.6791057070715
 31
0.0
 11
114.0915826249171
 21
260.6654607442013
 31
0.0
  0
SPLINE
  5
163
330
3D
100
AcDbEntity
  8
0
  6
Continuous
 62
     7
100
AcDbSpline
210
0.0
220
0.0
230
1.0
 70
    11
 71
     3
 72
    79
 73
    75
 74
    73
 42
0.0000000001
 43
0.0000000001
 44
0.00000001
 40
0.0
 40
0.0
 40
0.0
 40
0.0
 40
0.326118988163877
 40
0.6517242273663232
 40
1.007570734071826
 40
1.362786578155844
 40
1.759886314710509
 40
2.156516714717131
 40
2.599210008268884
 40
3.04160362700423
 40
3.528307206464706
 40
4.014826849024958
 40
4.53961631440397
 40
5.064295509496636
 40
5.618233632287944
 40
6.172109437578958
 40
6.744280968665858
 40
7.316424323670578
 40
7.894787044418064
 40
8.473149765165607
 40
9.045293120170356
 40
9.617464651257253
 40
10.17134045654825
 40
10.72527857933949
 40
11.24995777443219
 40
11.7747472398112
 40
12.26126688237148
 40
12.74797046183195
 40
13.1903640805673
 40
13.63305737411904
 40
14.02968777412571
 40
14.42678751068032
 40
14.78200335476435
 40
15.13784986146985
 40
15.46345510067232
 40
15.78957408883619
 40
16.10448972240909
 40
16.41940535598204
 40
16.74552434414598
 40
17.07112958334839
 40
17.42697609005388
 40
17.78219193413787
 40
18.17929167069245
 40
18.57592207069913
 40
19.01861536425091
 40
19.46100898298626
 40
19.94771256244675
 40
20.43423220500703
 40
20.95902167038606
 40
21.48370086547872
 40
22.03763898826999
 40
22.59151479356103
 40
23.16368632464798
 40
23.73582967965269
 40
24.31419240040019
 40
24.89255512114768
 40
25.46469847615238
 40
26.03687000723928
 40
26.59074581253031
 40
27.1446839353216
 40
27.66936313041433
 40
28.19415259579335
 40
28.68067223835364
 40
29.16737581781407
 40
29.60976943654941
 40
30.05246273010115
 40
30.44909313010779
 40
30.84619286666244
 40
31.20140871074646
 40
31.55725521745196
 40
31.88286045665436
 40
32.20897944481829
 40
32.52389507839124
 40
32.83881071196414
 40
32.83881071196414
 40
32.83881071196414
 40
32.83881071196414
 10
108.8830495835751
 20
256.7945750061618
 30
0.0
 10
108.8604923095803
 20
256.6879852478899
 30
0.0
 10
108.8154132970132
 20
256.4749736466761
 30
0.0
 10
108.6808855254419
 20
256.1651551519608
 30
0.0
 10
108.5041414352582
 20
255.8673713060774
 30
0.0
 10
108.275260022503
 20
255.5762252624888
 30
0.0
 10
108.0060421127219
 20
255.3028330454021
 30
0.0
 10
107.6887719967991
 20
255.0388733182909
 30
0.0
 10
107.3367195761098
 20
254.7958671172067
 30
0.0
 10
106.9408462083194
 20
254.5662128665793
 30
0.0
 10
106.5161377936619
 20
254.3596619074776
 30
0.0
 10
106.053620420315
 20
254.1706591523
 30
0.0
 10
105.568379918532
 20
254.0063453576597
 30
0.0
 10
105.0531384305037
 20
253.8633298558215
 30
0.0
 10
104.521473169746
 20
253.7461774201772
 30
0.0
 10
103.9690241201467
 20
253.6532035291502
 30
0.0
 10
103.4066332802116
 20
253.5868844701855
 30
0.0
 10
102.8336166299629
 20
253.5465382121413
 30
0.0
 10
102.2572704266891
 20
253.5332478803634
 30
0.0
 10
101.680924223393
 20
253.5465382121391
 30
0.0
 10
101.1079075732107
 20
253.5868844701941
 30
0.0
 10
100.5455167330349
 20
253.6532035291183
 30
0.0
 10
99.9930676843052
 20
253.746177420292
 30
0.0
 10
99.46140242038159
 20
253.8633298554024
 30
0.0
 10
98.9461609435723
 20
254.0063453591322
 30
0.0
 10
98.46092040140138
 20
254.1706591469629
 30
0.0
 10
97.99840316832609
 20
254.3596619257906
 30
0.0
 10
97.5736942541223
 20
254.566212800668
 30
0.0
 10
97.17782258976159
 20
254.7958673384966
 30
0.0
 10
96.82576415499425
 20
255.0388725255971
 30
0.0
 10
96.50851427830695
 20
255.3028356650771
 30
0.0
 10
96.23922514914338
 20
255.5762158744572
 30
0.0
 10
96.01058315702403
 20
255.8674022847646
 30
0.0
 10
95.83299043177597
 20
256.1650430493593
 30
0.0
 10
95.70137736014142
 20
256.4753529673501
 30
0.0
 10
95.62395238406488
 20
256.7895115443761
 30
0.0
 10
95.59599226695201
 20
257.1083914928001
 30
0.0
 10
95.62395238406492
 20
257.4272714412241
 30
0.0
 10
95.70137736014149
 20
257.7414300182501
 30
0.0
 10
95.83299043177607
 20
258.0517399362409
 30
0.0
 10
96.01058315702397
 20
258.3493807008356
 30
0.0
 10
96.23922514914339
 20
258.6405671111431
 30
0.0
 10
96.50851427830693
 20
258.913947320523
 30
0.0
 10
96.82576415499418
 20
259.1779104600032
 30
0.0
 10
97.17782258976153
 20
259.4209156471037
 30
0.0
 10
97.57369425412226
 20
259.6505701849324
 30
0.0
 10
97.99840316832609
 20
259.8571210598097
 30
0.0
 10
98.46092040140138
 20
260.0461238386372
 30
0.0
 10
98.9461609435723
 20
260.2104376264682
 30
0.0
 10
99.46140242038159
 20
260.3534531301977
 30
0.0
 10
99.99306768430515
 20
260.4706055653084
 30
0.0
 10
100.5455167330351
 20
260.5635794564819
 30
0.0
 10
101.1079075732105
 20
260.6298985154062
 30
0.0
 10
101.6809242233939
 20
260.6702447734613
 30
0.0
 10
102.2572704266856
 20
260.6835351052363
 30
0.0
 10
102.8336166299758
 20
260.6702447734615
 30
0.0
 10
103.4066332801639
 20
260.6298985154057
 30
0.0
 10
103.9690241203224
 20
260.5635794564843
 30
0.0
 10
104.5214731691136
 20
260.4706055653003
 30
0.0
 10
105.0531384328139
 20
260.3534531302274
 30
0.0
 10
105.5683799104145
 20
260.2104376263642
 30
0.0
 10
106.0536204497366
 20
260.0461238390137
 30
0.0
 10
106.5161376927061
 20
259.8571210585179
 30
0.0
 10
106.940846571674
 20
259.6505701895815
 30
0.0
 10
107.3367183561877
 20
259.4209156314948
 30
0.0
 10
107.6887763667462
 20
259.1779105159166
 30
0.0
 10
108.0060276710274
 20
258.9139471357418
 30
0.0
 10
108.2753117766637
 20
258.6405677733368
 30
0.0
 10
108.5039706565467
 20
258.3493785157244
 30
0.0
 10
108.6815035225087
 20
258.051747843505
 30
0.0
 10
108.8133221852907
 20
257.7414032625038
 30
0.0
 10
108.890002046849
 20
257.4273703130293
 30
0.0
 10
108.920653947157
 20
257.1080365254648
 30
0.0
 10
108.8955843714358
 20
256.8990621792628
 30
0.0
 10
108.8830495835751
 20
256.7945750061618
 30
0.0
 11
108.8830495835751
 21
256.7945750061618
 31
0.0
 11
108.8048769210214
 21
256.4779638420026
 31
0.0
 11
108.6791706659448
 21
256.1776028771108
 31
0.0
 11
108.4976142825097
 21
255.8715571028082
 31
0.0
 11
108.2792522226147
 21
255.5913851793634
 31
0.0
 11
108.0015046732395
 21
255.3075815507964
 31
0.0
 11
107.6972051210601
 21
255.0531852914826
 31
0.0
 11
107.3335574957411
 21
254.8007219144246
 31
0.0
 11
106.951224488862
 21
254.5781604942535
 31
0.0
 11
106.5139559280869
 21
254.364439695038
 31
0.0
 11
106.0637605003878
 21
254.1799798363267
 31
0.0
 11
105.5669207787733
 21
254.0109997369104
 31
0.0
 11
105.0614341108539
 21
253.870388619573
 31
0.0
 11
104.5205763038468
 21
253.7507212619479
 31
0.0
 11
103.9744059957299
 21
253.6586538832607
 31
0.0
 11
103.4062060286907
 21
253.5913556036176
 31
0.0
 11
102.8354763506399
 21
253.5511604140028
 31
0.0
 11
102.2572704266854
 21
253.5376939276641
 31
0.0
 11
101.6790645027308
 21
253.5511604140028
 31
0.0
 11
101.10833482468
 21
253.5913556036176
 31
0.0
 11
100.5401348576408
 21
253.6586538832607
 31
0.0
 11
99.99396454952398
 21
253.7507212619479
 31
0.0
 11
99.45310674251689
 21
253.870388619573
 31
0.0
 11
98.9476200745975
 21
254.0109997369104
 31
0.0
 11
98.45078035298292
 21
254.1799798363267
 31
0.0
 11
98.0005849252838
 21
254.364439695038
 31
0.0
 11
97.56331636450872
 21
254.5781604942535
 31
0.0
 11
97.18098335762969
 21
254.8007219144246
 31
0.0
 11
96.81733573231068
 21
255.0531852914826
 31
0.0
 11
96.51303618013124
 21
255.3075815507964
 31
0.0
 11
96.23528863075603
 21
255.5913851793634
 31
0.0
 11
96.01692657086105
 21
255.8715571028082
 31
0.0
 11
95.83537018742595
 21
256.1776028771108
 31
0.0
 11
95.70966393234932
 21
256.4779638420026
 31
0.0
 11
95.63149126979556
 21
256.7945750061618
 31
0.0
 11
95.60520307886034
 21
257.1083914928001
 31
0.0
 11
95.6314912697956
 21
257.4222079794384
 31
0.0
 11
95.7096639323494
 21
257.7388191435977
 31
0.0
 11
95.83537018742601
 21
258.0391801084894
 31
0.0
 11
96.01692657086106
 21
258.345225882792
 31
0.0
 11
96.23528863075602
 21
258.6253978062368
 31
0.0
 11
96.5130361801312
 21
258.9092014348038
 31
0.0
 11
96.81733573231063
 21
259.1635976941176
 31
0.0
 11
97.18098335762964
 21
259.4160610711757
 31
0.0
 11
97.56331636450868
 21
259.6386224913468
 31
0.0
 11
98.0005849252838
 21
259.8523432905623
 31
0.0
 11
98.45078035298292
 21
260.0368031492736
 31
0.0
 11
98.9476200745975
 21
260.2057832486899
 31
0.0
 11
99.45310674251688
 21
260.3463943660272
 31
0.0
 11
99.99396454952398
 21
260.4660617236523
 31
0.0
 11
100.5401348576408
 21
260.5581291023395
 31
0.0
 11
101.1083348246801
 21
260.6254273819827
 31
0.0
 11
101.6790645027309
 21
260.6656225715975
 31
0.0
 11
102.2572704266854
 21
260.6790890579362
 31
0.0
 11
102.83547635064
 21
260.6656225715975
 31
0.0
 11
103.4062060286907
 21
260.6254273819828
 31
0.0
 11
103.9744059957299
 21
260.5581291023397
 31
0.0
 11
104.5205763038468
 21
260.4660617236524
 31
0.0
 11
105.0614341108539
 21
260.3463943660273
 31
0.0
 11
105.5669207787733
 21
260.2057832486898
 31
0.0
 11
106.0637605003879
 21
260.0368031492735
 31
0.0
 11
106.513955928087
 21
259.8523432905622
 31
0.0
 11
106.9512244888621
 21
259.6386224913468
 31
0.0
 11
107.3335574957411
 21
259.4160610711757
 31
0.0
 11
107.6972051210601
 21
259.1635976941176
 31
0.0
 11
108.0015046732395
 21
258.9092014348038
 31
0.0
 11
108.2792522226147
 21
258.6253978062368
 31
0.0
 11
108.4976142825097
 21
258.345225882792
 31
0.0
 11
108.6791706659448
 21
258.0391801084894
 31
0.0
 11
108.8048769210214
 21
257.7388191435977
 31
0.0
 11
108.8830495835751
 21
257.4222079794384
 31
0.0
 11
108.9093377745104
 21
257.1083914928001
 31
0.0
 11
108.8830495835751
 21
256.7945750061618
 31
0.0
  0
SPLINE
  5
164
330
3D
100
AcDbEntity
  8
0
  6
Continuous
 62
     7
100
AcDbSpline
210
0.0
220
0.0
230
1.0
 70
    11
 71
     3
 72
    79
 73
    75
 74
    73
 42
0.0000000001
 43
0.0000000001
 44
0.00000001
 40
0.0
 40
0.0
 40
0.0
 40
0.0
 40
0.2910229153818371
 40
0.5820342278737321
 40
0.8749339334363624
 40
1.167812547519243
 40
1.463561188767196
 40
1.759282806464755
 40
2.058487811140647
 40
2.357663885605752
 40
2.660503341347401
 40
2.963315625194511
 40
3.26953082627638
 40
3.575723468843758
 40
3.884662744191404
 40
4.193586027918967
 40
4.504289085610622
 40
4.814983882015302
 40
5.126294430971064
 40
5.437604979926825
 40
5.748299776331508
 40
6.059002834023113
 40
6.367926117750685
 40
6.676865393098316
 40
6.983058035665598
 40
7.289273236747499
 40
7.592085520594548
 40
7.89492497633621
 40
8.194101050801365
 40
8.493306055477278
 40
8.789027673174838
 40
9.084776314422806
 40
9.377654928505713
 40
9.670554634068338
 40
9.961565946560254
 40
10.25258886194207
 40
10.54295309984903
 40
10.833317337756
 40
11.12434025313784
 40
11.41535156562975
 40
11.70825127119239
 40
12.0011298852753
 40
12.2968785265233
 40
12.59260014422084
 40
12.89180514889673
 40
13.1909812233619
 40
13.4938206791036
 40
13.79663296295064
 40
14.10284816403255
 40
14.40904080659982
 40
14.71798008194744
 40
15.026903365675
 40
15.33760642336666
 40
15.64830121977129
 40
15.95961176872705
 40
16.27092231768281
 40
16.5816171140875
 40
16.89232017177915
 40
17.20124345550671
 40
17.51018273085434
 40
17.8163753734216
 40
18.12259057450346
 40
18.42540285835053
 40
18.72824231409225
 40
19.02741838855745
 40
19.32662339323334
 40
19.62234501093089
 40
19.91809365217882
 40
20.21097226626173
 40
20.50387197182436
 40
20.7948832843163
 40
21.08590619969814
 40
21.3762704376051
 40
21.66663467551207
 40
21.66663467551207
 40
21.66663467551207
 40
21.66663467551207
 10
90.42295822845372
 20
260.6654607442013
 30
0.0
 10
90.51933328717068
 20
260.6537850764
 30
0.0
 10
90.71207956219514
 20
260.6304342062985
 30
0.0
 10
90.99601607145998
 20
260.5610782128476
 30
0.0
 10
91.27328033731872
 20
260.4676354552723
 30
0.0
 10
91.54203272116882
 20
260.347728469295
 30
0.0
 10
91.79967810468858
 20
260.2036829641079
 30
0.0
 10
92.04490505192332
 20
260.0356163632624
 30
0.0
 10
92.27516840798049
 20
259.8457816301887
 30
0.0
 10
92.48940061649643
 20
259.6346455015212
 30
0.0
 10
92.68535504525924
 20
259.4048658978874
 30
0.0
 10
92.86211238887982
 20
259.157137365663
 30
0.0
 10
93.017883222847
 20
258.8944051258292
 30
0.0
 10
93.15185164021605
 20
258.6176541141872
 30
0.0
 10
93.26277467150155
 20
258.3299221364237
 30
0.0
 10
93.34995146387293
 20
258.0325686900009
 30
0.0
 10
93.41269947396576
 20
257.7285226938577
 30
0.0
 10
93.45049985317797
 20
257.4195810981037
 30
0.0
 10
93.46317692666626
 20
257.1083914928011
 30
0.0
 10
93.45049985317829
 20
256.7972018874928
 30
0.0
 10
93.41269947396455
 20
256.4882602917555
 30
0.0
 10
93.34995146387742
 20
256.1842142955507
 30
0.0
 10
93.26277467148449
 20
255.886860849357
 30
0.0
 10
93.15185164027915
 20
255.5991288707421
 30
0.0
 10
93.01788322261378
 20
255.3223778622501
 30
0.0
 10
92.86211238974641
 20
255.0596456107258
 30
0.0
 10
92.68535504206501
 20
254.8119171216676
 30
0.0
 10
92.48940062836195
 20
254.5821373579468
 30
0.0
 10
92.27516836429091
 20
254.3710018198389
 30
0.0
 10
92.0449052142565
 20
254.1811648967113
 30
0.0
 10
91.79967750666131
 20
254.0131063786164
 30
0.0
 10
91.54203494498185
 20
253.8690308768235
 30
0.0
 10
91.27327212709059
 20
253.7492348063437
 30
0.0
 10
90.99604664139827
 20
253.6553798095027
 30
0.0
 10
90.71196628789573
 20
253.5875529029128
 30
0.0
 10
90.42359880738275
 20
253.546857941289
 30
0.0
 10
90.13291477370332
 20
253.5330921477242
 30
0.0
 10
89.84223074002381
 20
253.546857941289
 30
0.0
 10
89.55386325951083
 20
253.5875529029127
 30
0.0
 10
89.26978290600835
 20
253.6553798095027
 30
0.0
 10
88.99255742031595
 20
253.7492348063437
 30
0.0
 10
88.72379460242476
 20
253.8690308768236
 30
0.0
 10
88.46615204074527
 20
254.0131063786165
 30
0.0
 10
88.22092433315011
 20
254.1811648967114
 30
0.0
 10
87.99066118311562
 20
254.3710018198388
 30
0.0
 10
87.77642891904459
 20
254.5821373579468
 30
0.0
 10
87.58047450534149
 20
254.8119171216675
 30
0.0
 10
87.40371715766004
 20
255.0596456107257
 30
0.0
 10
87.24794632479278
 20
255.3223778622501
 30
0.0
 10
87.11397790712732
 20
255.5991288707421
 30
0.0
 10
87.00305487592206
 20
255.886860849357
 30
0.0
 10
86.91587808352912
 20
256.1842142955508
 30
0.0
 10
86.8531300734421
 20
256.4882602917555
 30
0.0
 10
86.81532969422821
 20
256.797201887493
 30
0.0
 10
86.8026526207404
 20
257.1083914928001
 30
0.0
 10
86.81532969422824
 20
257.419581098107
 30
0.0
 10
86.85313007344213
 20
257.7285226938456
 30
0.0
 10
86.91587808352878
 20
258.0325686900459
 30
0.0
 10
87.00305487592325
 20
258.3299221362562
 30
0.0
 10
87.1139779071228
 20
258.61765411481
 30
0.0
 10
87.24794632480948
 20
258.8944051235279
 30
0.0
 10
87.40371715759795
 20
259.1571373742138
 30
0.0
 10
87.58047450557056
 20
259.4048658663677
 30
0.0
 10
87.77642891819365
 20
259.6346456186078
 30
0.0
 10
87.99066118624887
 20
259.8457811990677
 30
0.0
 10
88.22092432150841
 20
260.0356179651359
 30
0.0
 10
88.46615208363261
 20
260.2036770628835
 30
0.0
 10
88.72379444294451
 20
260.3477504134771
 30
0.0
 10
88.99255800911037
 20
260.4675544382341
 30
0.0
 10
89.26978071369284
 20
260.5613798714393
 30
0.0
 10
89.55387138294893
 20
260.6293164361113
 30
0.0
 10
89.84220044402002
 20
260.669602993028
 30
0.0
 10
90.13302755668589
 20
260.6848897387121
 30
0.0
 10
90.32631467119778
 20
260.6719370757049
 30
0.0
 10
90.42295822845372
 20
260.6654607442013
 30
0.0
 11
90.42295822845372
 21
260.6654607442013
 31
0.0
 11
90.71111772472861
 21
260.6247367711148
 31
0.0
 11
90.99419993111107
 21
260.5572679010494
 31
0.0
 11
91.27162397365485
 21
260.4633203724106
 31
0.0
 11
91.5391857257722
 21
260.3442044986112
 31
0.0
 11
91.7973180944874
 21
260.199861369154
 31
0.0
 11
92.04133074709856
 21
260.0328011987383
 31
0.0
 11
92.27221025262944
 21
259.8424901671376
 31
0.0
 11
92.48538554758059
 21
259.6325791927822
 31
0.0
 11
92.6819198715888
 21
259.4021752096558
 31
0.0
 11
92.85789340738842
 21
259.1557434869679
 31
0.0
 11
93.01409054786127
 21
258.8923612501301
 31
0.0
 11
93.14758623582551
 21
258.6168021173521
 31
0.0
 11
93.25873616138269
 21
258.3285501964548
 31
0.0
 11
93.34571281540897
 21
258.0321237184145
 31
0.0
 11
93.40851788973046
 21
257.7278345258716
 31
0.0
 11
93.44629325140204
 21
257.419444709951
 31
0.0
 11
93.45894844761563
 21
257.1083914928001
 31
0.0
 11
93.44629325140204
 21
256.7973382756492
 31
0.0
 11
93.40851788973045
 21
256.4889484597286
 31
0.0
 11
93.34571281540893
 21
256.1846592671857
 31
0.0
 11
93.25873616138262
 21
255.8882327891454
 31
0.0
 11
93.14758623582549
 21
255.5999808682481
 31
0.0
 11
93.01409054786129
 21
255.3244217354702
 31
0.0
 11
92.85789340738842
 21
255.0610394986323
 31
0.0
 11
92.68191987158879
 21
254.8146077759446
 31
0.0
 11
92.48538554758059
 21
254.5842037928181
 31
0.0
 11
92.27221025262945
 21
254.3742928184626
 31
0.0
 11
92.04133074709861
 21
254.1839817868619
 31
0.0
 11
91.79731809448745
 21
254.0169216164462
 31
0.0
 11
91.53918572577226
 21
253.8725784869889
 31
0.0
 11
91.27162397365487
 21
253.7534626131895
 31
0.0
 11
90.99419993111107
 21
253.6595150845508
 31
0.0
 11
90.71111772472858
 21
253.5920462144855
 31
0.0
 11
90.42295822845372
 21
253.5513222413989
 31
0.0
 11
90.13291477370331
 21
253.5376772785287
 31
0.0
 11
89.84287131895287
 21
253.5513222413989
 31
0.0
 11
89.55471182267799
 21
253.5920462144854
 31
0.0
 11
89.27162961629551
 21
253.6595150845508
 31
0.0
 11
88.99420557375171
 21
253.7534626131895
 31
0.0
 11
88.72664382163434
 21
253.872578486989
 31
0.0
 11
88.46851145291913
 21
254.0169216164462
 31
0.0
 11
88.22449880030797
 21
254.1839817868619
 31
0.0
 11
87.99361929477712
 21
254.3742928184626
 31
0.0
 11
87.78044399982595
 21
254.5842037928181
 31
0.0
 11
87.58390967581769
 21
254.8146077759446
 31
0.0
 11
87.40793614001808
 21
255.0610394986323
 31
0.0
 11
87.25173899954524
 21
255.3244217354703
 31
0.0
 11
87.11824331158103
 21
255.5999808682481
 31
0.0
 11
87.00709338602393
 21
255.8882327891454
 31
0.0
 11
86.92011673199764
 21
256.1846592671857
 31
0.0
 11
86.85731165767615
 21
256.4889484597287
 31
0.0
 11
86.81953629600451
 21
256.7973382756492
 31
0.0
 11
86.80688109979093
 21
257.1083914928001
 31
0.0
 11
86.81953629600451
 21
257.419444709951
 31
0.0
 11
86.85731165767614
 21
257.7278345258716
 31
0.0
 11
86.92011673199764
 21
258.0321237184145
 31
0.0
 11
87.00709338602391
 21
258.3285501964548
 31
0.0
 11
87.11824331158104
 21
258.6168021173521
 31
0.0
 11
87.25173899954524
 21
258.89236125013
 31
0.0
 11
87.40793614001808
 21
259.1557434869678
 31
0.0
 11
87.58390967581771
 21
259.4021752096556
 31
0.0
 11
87.78044399982595
 21
259.6325791927821
 31
0.0
 11
87.99361929477713
 21
259.8424901671376
 31
0.0
 11
88.22449880030797
 21
260.0328011987384
 31
0.0
 11
88.46851145291912
 21
260.1998613691541
 31
0.0
 11
88.72664382163428
 21
260.3442044986113
 31
0.0
 11
88.99420557375166
 21
260.4633203724107
 31
0.0
 11
89.27162961629549
 21
260.5572679010494
 31
0.0
 11
89.55471182267799
 21
260.6247367711147
 31
0.0
 11
89.84287131895287
 21
260.6654607442013
 31
0.0
 11
90.13291477370329
 21
260.6791057070715
 31
0.0
 11
90.42295822845372
 21
260.6654607442013
 31
0.0
  0
SPLINE
  5
165
330
3D
100
AcDbEntity
  8
1
  6
Continuous
 62
     7
100
AcDbSpline
210
0.0
220
0.0
230
1.0
 70
     8
 71
     3
 72
    90
 73
    86
 74
    84
 42
0.0000000001
 43
0.0000000001
 44
0.00000001
 40
0.0
 40
0.0
 40
0.0
 40
0.0
 40
0.0026208178917288
 40
0.0052416813914418
 40
0.2536029998088755
 40
0.5017707187835109
 40
0.7499314238935549
 40
0.9982717165264103
 40
1.248938779311055
 40
1.499424378406239
 40
1.749909977501422
 40
2.000577040286007
 40
2.248917332918863
 40
2.497078038028912
 40
2.745245757003541
 40
2.993607075420983
 40
3.235144318172378
 40
3.47649388500289
 40
3.717858623095986
 40
3.959441341418424
 40
4.190180436930948
 40
4.420712427412401
 40
4.651270210108373
 40
4.882086604190632
 40
5.098867652835161
 40
5.31540740381483
 40
5.531987542573285
 40
5.748889597202311
 40
5.949791897591833
 40
6.150397628379988
 40
6.351063316060012
 40
6.552145168207295
 40
6.736948796368795
 40
6.921369369759034
 40
7.105871990703518
 40
7.29092114287449
 40
7.461569143310272
 40
7.631704372140781
 40
7.80193262172698
 40
7.972858695386297
 40
8.101616039049342
 40
8.229845012658583
 40
8.357925979344318
 40
8.486240618454572
 40
8.615168534056156
 40
8.741175327797015
 40
8.866563990408272
 40
8.991745931034577
 40
9.117134593645773
 40
9.243141387386581
 40
9.372069302988109
 40
9.500383942098283
 40
9.628464908784048
 40
9.75669388239327
 40
9.885451226056411
 40
10.05637729971578
 40
10.22660554930206
 40
10.39674077813262
 40
10.56738877856841
 40
10.75243793073931
 40
10.93694055168381
 40
11.12136112507401
 40
11.30616475323561
 40
11.5072466053829
 40
11.70791229306287
 40
11.90851802385103
 40
12.10942032424058
 40
12.32632237886962
 40
12.54290251762807
 40
12.75944226860787
 40
12.97622331725224
 40
13.2070397113345
 40
13.43759749403053
 40
13.66812948451183
 40
13.89886858002434
 40
14.14045129834674
 40
14.38181603643972
 40
14.62316560327034
 40
14.86470284602179
 40
15.11306416443928
 40
15.36123188341391
 40
15.60939258852395
 40
15.85773288115675
 40
15.98395047401743
 40
16.11009927652438
 40
16.11009927652438
 40
16.11009927652438
 40
16.11009927652438
 10
400.9047788375375
 20
260.5571855427733
 30
0.0
 10
400.905640730978
 20
260.5573281161352
 30
0.0
 10
400.9073645328575
 20
260.5576132653401
 30
0.0
 10
400.9907709694904
 20
260.5713761410482
 30
0.0
 10
401.1553167482238
 20
260.5962008436141
 30
0.0
 10
401.4017215672612
 20
260.6264899069195
 30
0.0
 10
401.6488590964684
 20
260.650014479872
 30
0.0
 10
401.8973806800065
 20
260.6667859853797
 30
0.0
 10
402.1470390465567
 20
260.6768515441416
 30
0.0
 10
402.3975925073075
 20
260.6802323966699
 30
0.0
 10
402.6481459601791
 20
260.6768514791494
 30
0.0
 10
402.8978043503117
 20
260.6667862445621
 30
0.0
 10
403.1463258481658
 20
260.6500135183236
 30
0.0
 10
403.3934636958927
 20
260.626493494962
 30
0.0
 10
403.6398673260472
 20
260.5961874470704
 30
0.0
 10
403.8831767741954
 20
260.5595433418044
 30
0.0
 10
404.1231246104418
 20
260.5164735508064
 30
0.0
 10
404.3594288163006
 20
260.4668804540384
 30
0.0
 10
404.5942037195138
 20
260.4104358184292
 30
0.0
 10
404.823866486497
 20
260.3482618245398
 30
0.0
 10
405.0480897359722
 20
260.2802106352277
 30
0.0
 10
405.2665223351466
 20
260.2061373752345
 30
0.0
 10
405.4825024498399
 20
260.1251302784673
 30
0.0
 10
405.6916356613112
 20
260.0392198313472
 30
0.0
 10
405.8934941276261
 20
259.9482143597044
 30
0.0
 10
406.0876171318294
 20
259.8519431731848
 30
0.0
 10
406.2781589278058
 20
259.7486944200747
 30
0.0
 10
406.4604946400726
 20
259.6415029324076
 30
0.0
 10
406.6340522509956
 20
259.5301759877198
 30
0.0
 10
406.7982145534344
 20
259.4145607079541
 30
0.0
 10
406.9573798373322
 20
259.2920752173498
 30
0.0
 10
407.1074076735038
 20
259.1666064523403
 30
0.0
 10
407.2475552635966
 20
259.0380541300461
 30
0.0
 10
407.3770082680397
 20
258.9063682356471
 30
0.0
 10
407.4997133557372
 20
258.7682807862753
 30
0.0
 10
407.6127199283562
 20
258.6279883667311
 30
0.0
 10
407.7151686279446
 20
258.4856493864801
 30
0.0
 10
407.8060619795757
 20
258.341460938402
 30
0.0
 10
407.8882281892547
 20
258.1920384384039
 30
0.0
 10
407.9556308387557
 20
258.0505357609862
 30
0.0
 10
408.0096837259185
 20
257.9184681799114
 30
0.0
 10
408.0516215592508
 20
257.797085915593
 30
0.0
 10
408.0868764334291
 20
257.6737548989858
 30
0.0
 10
408.1153667970072
 20
257.5484485622433
 30
0.0
 10
408.1369751249033
 20
257.4224765131115
 30
0.0
 10
408.151541504387
 20
257.2964745499846
 30
0.0
 10
408.1587491773968
 20
257.1710854458603
 30
0.0
 10
408.1587491773967
 20
257.0456975397384
 30
0.0
 10
408.1515415043872
 20
256.9203084356141
 30
0.0
 10
408.1369751249031
 20
256.7943064724872
 30
0.0
 10
408.1153667970074
 20
256.6683344233555
 30
0.0
 10
408.0868764334292
 20
256.5430280866131
 30
0.0
 10
408.0516215592509
 20
256.419697070006
 30
0.0
 10
408.0096837259189
 20
256.2983148056873
 30
0.0
 10
407.9556308387558
 20
256.1662472246126
 30
0.0
 10
407.8882281892549
 20
256.0247445471948
 30
0.0
 10
407.8060619795757
 20
255.8753220471967
 30
0.0
 10
407.7151686279447
 20
255.7311335991185
 30
0.0
 10
407.6127199283563
 20
255.5887946188677
 30
0.0
 10
407.4997133557374
 20
255.4485021993232
 30
0.0
 10
407.3770082680398
 20
255.3104147499518
 30
0.0
 10
407.2475552635966
 20
255.1787288555526
 30
0.0
 10
407.107407673504
 20
255.0501765332584
 30
0.0
 10
406.9573798373322
 20
254.924707768249
 30
0.0
 10
406.7982145534343
 20
254.8022222776447
 30
0.0
 10
406.6340522509955
 20
254.686606997879
 30
0.0
 10
406.4604946400727
 20
254.5752800531911
 30
0.0
 10
406.2781589278058
 20
254.4680885655239
 30
0.0
 10
406.0876171318292
 20
254.3648398124142
 30
0.0
 10
405.8934941276262
 20
254.268568625893
 30
0.0
 10
405.6916356613108
 20
254.1775631542569
 30
0.0
 10
405.4825024498415
 20
254.0916527071092
 30
0.0
 10
405.2665223351409
 20
254.0106456104467
 30
0.0
 10
405.0480897359936
 20
253.9365723500629
 30
0.0
 10
404.8238664864168
 20
253.8685211622323
 30
0.0
 10
404.5942037198295
 20
253.806347162563
 30
0.0
 10
404.3594288151264
 20
253.7499025487079
 30
0.0
 10
404.1231246148257
 20
253.7003093707847
 30
0.0
 10
403.8831767576262
 20
253.6572398857346
 30
0.0
 10
403.63986738981
 20
253.6205946074814
 30
0.0
 10
403.3934634583578
 20
253.5902929590699
 30
0.0
 10
403.1463267348654
 20
253.5667565198829
 30
0.0
 10
402.9391958526081
 20
253.5528287397684
 30
0.0
 10
402.7724767537621
 20
253.5448724755155
 30
0.0
 10
402.6883928183719
 20
253.542292884445
 30
0.0
 10
402.6463623105299
 20
253.5410034404838
 30
0.0
 11
400.9047788375375
 21
260.5571855427733
 31
0.0
 11
400.9073645460904
 21
260.5576130912511
 31
0.0
 11
400.9099504335391
 21
260.5580398365931
 31
0.0
 11
401.1555334312248
 21
260.5950848866505
 31
0.0
 11
401.4018471402326
 21
260.6253631543664
 31
0.0
 11
401.6488915605627
 21
260.6488746397408
 31
0.0
 11
401.896666692215
 21
260.6656193427735
 31
0.0
 11
402.1471295991049
 21
260.6757341159965
 31
0.0
 11
402.3975925059947
 21
260.679105707071
 31
0.0
 11
402.6480554128845
 21
260.6757341159966
 31
0.0
 11
402.8985183197743
 21
260.6656193427737
 31
0.0
 11
403.1462934514266
 21
260.6488746397409
 31
0.0
 11
403.3933378717567
 21
260.6253631543665
 31
0.0
 11
403.6396515807645
 21
260.5950848866506
 31
0.0
 11
403.8852345784502
 21
260.5580398365931
 31
0.0
 11
404.1229613593368
 21
260.5153055729957
 31
0.0
 11
404.3591666059489
 21
260.4657405159269
 31
0.0
 11
404.5938503182866
 21
260.409344665387
 31
0.0
 11
404.8270124963498
 21
260.3461180213759
 31
0.0
 11
405.0477765076952
 21
260.2790078023879
 31
0.0
 11
405.2661015848504
 21
260.2049864587057
 31
0.0
 11
405.4819877278151
 21
260.1240539903293
 31
0.0
 11
405.6954349365896
 21
260.0362103972588
 31
0.0
 11
405.8929986844958
 21
259.9469770595164
 31
0.0
 11
406.0870026057832
 21
259.850790042308
 31
0.0
 11
406.2774467004517
 21
259.7476493456334
 31
0.0
 11
406.4643309685015
 21
259.6375549694927
 31
0.0
 11
406.6333277483368
 21
259.5289187752152
 31
0.0
 11
406.7973580876824
 21
259.4134341138994
 31
0.0
 11
406.956421986538
 21
259.2911009855452
 31
0.0
 11
407.1105194449039
 21
259.1619193901527
 31
0.0
 11
407.246543488525
 21
259.0368200674582
 31
0.0
 11
407.3758565740088
 21
258.9053321447723
 31
0.0
 11
407.4984587013551
 21
258.7674556220951
 31
0.0
 11
407.6143498705641
 21
258.6231904994266
 31
0.0
 11
407.7138190898079
 21
258.4845304313618
 31
0.0
 11
407.8045855946697
 21
258.3406296402437
 31
0.0
 11
407.8866493851494
 21
258.1914881260725
 31
0.0
 11
407.960010461247
 21
258.0371058888482
 31
0.0
 11
408.0086275089577
 21
257.9178799008294
 31
0.0
 11
408.0505310701979
 21
257.7966909523717
 31
0.0
 11
408.0857211449672
 21
257.6735390434751
 31
0.0
 11
408.1141977332661
 21
257.5484241741395
 31
0.0
 11
408.1359608350942
 21
257.4213463443651
 31
0.0
 11
408.1503550634474
 21
257.2961644037388
 31
0.0
 11
408.157552177624
 21
257.1709824631125
 31
0.0
 11
408.157552177624
 21
257.0458005224862
 31
0.0
 11
408.1503550634475
 21
256.9206185818599
 31
0.0
 11
408.1359608350942
 21
256.7954366412337
 31
0.0
 11
408.1141977332661
 21
256.6683588114593
 31
0.0
 11
408.0857211449674
 21
256.5432439421238
 31
0.0
 11
408.0505310701979
 21
256.4200920332272
 31
0.0
 11
408.0086275089579
 21
256.2989030847695
 31
0.0
 11
407.9600104612471
 21
256.1796770967506
 31
0.0
 11
407.8866493851496
 21
256.0252948595262
 31
0.0
 11
407.8045855946698
 21
255.8761533453549
 31
0.0
 11
407.713819089808
 21
255.7322525542369
 31
0.0
 11
407.6143498705641
 21
255.593592486172
 31
0.0
 11
407.4984587013552
 21
255.4493273635035
 31
0.0
 11
407.3758565740088
 21
255.3114508408264
 31
0.0
 11
407.2465434885251
 21
255.1799629181406
 31
0.0
 11
407.1105194449038
 21
255.054863595446
 31
0.0
 11
406.956421986538
 21
254.9256820000535
 31
0.0
 11
406.7973580876823
 21
254.8033488716993
 31
0.0
 11
406.6333277483368
 21
254.6878642103835
 31
0.0
 11
406.4643309685014
 21
254.579228016106
 31
0.0
 11
406.2774467004517
 21
254.4691336399653
 31
0.0
 11
406.0870026057831
 21
254.3659929432908
 31
0.0
 11
405.8929986844956
 21
254.2698059260823
 31
0.0
 11
405.6954349365896
 21
254.1805725883399
 31
0.0
 11
405.4819877278151
 21
254.0927289952693
 31
0.0
 11
405.2661015848503
 21
254.0117965268929
 31
0.0
 11
405.0477765076953
 21
253.9377751832107
 31
0.0
 11
404.8270124963499
 21
253.8706649642228
 31
0.0
 11
404.5938503182868
 21
253.8074383202116
 31
0.0
 11
404.3591666059492
 21
253.7510424696717
 31
0.0
 11
404.122961359337
 21
253.701477412603
 31
0.0
 11
403.8852345784503
 21
253.6587431490055
 31
0.0
 11
403.6396515807646
 21
253.6216980989481
 31
0.0
 11
403.3933378717567
 21
253.5914198312322
 31
0.0
 11
403.1462934514267
 21
253.5679083458579
 31
0.0
 11
402.8985183197744
 21
253.5511636428251
 31
0.0
 11
402.7724403151523
 21
253.5452292095719
 31
0.0
 11
402.6463623105299
 21
253.5410034404838
 31
0.0
  0
SPLINE
  5
166
330
3D
100
AcDbEntity
  8
1
  6
Continuous
 62
     7
100
AcDbSpline
210
0.0
220
0.0
230
1.0
 70
     8
 71
     3
 72
    90
 73
    86
 74
    84
 42
0.0000000001
 43
0.0000000001
 44
0.00000001
 40
0.0
 40
0.0
 40
0.0
 40
0.0
 40
0.0026208179144371
 40
0.0052416814365127
 40
0.2536029998540025
 40
0.501770718828631
 40
0.7499314239386751
 40
0.9982717165715872
 40
1.248938779356118
 40
1.499424378451359
 40
1.749909977546598
 40
2.000577040331184
 40
2.248917332963983
 40
2.497078038074145
 40
2.745245757048774
 40
2.993607075466216
 40
3.235144318217555
 40
3.476493885048122
 40
3.717858623141053
 40
3.959441341463546
 40
4.19018043697607
 40
4.420712427457362
 40
4.651270210153387
 40
4.882086604235646
 40
5.098867652880071
 40
5.315407403859689
 40
5.531987542618195
 40
5.748889597247172
 40
5.949791897636695
 40
6.150397628424804
 40
6.351063316104872
 40
6.552145168252242
 40
6.736948796413826
 40
6.921369369804066
 40
7.105871990748588
 40
7.290921142919524
 40
7.461569143355273
 40
7.631704372185812
 40
7.801932621772039
 40
7.972858695431307
 40
8.101616039094395
 40
8.229845012703599
 40
8.357925979389334
 40
8.4862406184996
 40
8.615168534101194
 40
8.741175327842067
 40
8.866563990453319
 40
8.991745931079624
 40
9.117134593690823
 40
9.243141387431638
 40
9.372069303033166
 40
9.500383942143378
 40
9.628464908829113
 40
9.756693882438372
 40
9.88545122610147
 40
10.05637729976086
 40
10.22660554934708
 40
10.39674077817762
 40
10.56738877861338
 40
10.75243793078431
 40
10.93694055172878
 40
11.12136112511901
 40
11.30616475328058
 40
11.50724660542799
 40
11.7079122931081
 40
11.90851802389626
 40
12.10942032428576
 40
12.3263223789148
 40
12.5429025176732
 40
12.7594422686529
 40
12.97622331729732
 40
13.20703971137968
 40
13.43759749407555
 40
13.66812948455691
 40
13.89886858006936
 40
14.14045129839187
 40
14.38181603648479
 40
14.62316560331542
 40
14.8647028460667
 40
15.11306416448424
 40
15.36123188345882
 40
15.60939258856886
 40
15.85773288120171
 40
15.98395047406012
 40
16.11009927656458
 40
16.11009927656458
 40
16.11009927656458
 40
16.11009927656458
 10
389.8904061744964
 20
260.5571855427659
 30
0.0
 10
389.8895442810485
 20
260.5573281161291
 30
0.0
 10
389.887820479154
 20
260.5576132653366
 30
0.0
 10
389.80441404251
 20
260.5713761410446
 30
0.0
 10
389.639868263764
 20
260.5962008436155
 30
0.0
 10
389.3934634447285
 20
260.6264899069191
 30
0.0
 10
389.1463259155208
 20
260.6500144798722
 30
0.0
 10
388.897804331983
 20
260.6667859853795
 30
0.0
 10
388.6481459654327
 20
260.6768515441416
 30
0.0
 10
388.3975925046816
 20
260.6802323966699
 30
0.0
 10
388.1470390518105
 20
260.6768514791494
 30
0.0
 10
387.8973806616775
 20
260.6667862445619
 30
0.0
 10
387.6488591638237
 20
260.6500135183235
 30
0.0
 10
387.4017213160967
 20
260.626493494962
 30
0.0
 10
387.1553176859418
 20
260.5961874470704
 30
0.0
 10
386.9120082377941
 20
260.5595433418044
 30
0.0
 10
386.6720604015474
 20
260.5164735508065
 30
0.0
 10
386.4357561956887
 20
260.4668804540384
 30
0.0
 10
386.2009812924756
 20
260.4104358184291
 30
0.0
 10
385.9713185254924
 20
260.3482618245398
 30
0.0
 10
385.7470952760172
 20
260.2802106352278
 30
0.0
 10
385.528662676843
 20
260.2061373752345
 30
0.0
 10
385.3126825621496
 20
260.1251302784673
 30
0.0
 10
385.1035493506781
 20
260.0392198313473
 30
0.0
 10
384.9016908843635
 20
259.9482143597044
 30
0.0
 10
384.7075678801602
 20
259.8519431731847
 30
0.0
 10
384.5170260841838
 20
259.7486944200748
 30
0.0
 10
384.3346903719168
 20
259.6415029324076
 30
0.0
 10
384.1611327609943
 20
259.5301759877198
 30
0.0
 10
383.9969704585552
 20
259.414560707954
 30
0.0
 10
383.8378051746574
 20
259.2920752173497
 30
0.0
 10
383.6877773384857
 20
259.1666064523404
 30
0.0
 10
383.5476297483929
 20
259.0380541300462
 30
0.0
 10
383.4181767439497
 20
258.9063682356469
 30
0.0
 10
383.2954716562522
 20
258.7682807862754
 30
0.0
 10
383.1824650836331
 20
258.627988366731
 30
0.0
 10
383.0800163840449
 20
258.4856493864801
 30
0.0
 10
382.9891230324138
 20
258.341460938402
 30
0.0
 10
382.9069568227347
 20
258.192038438404
 30
0.0
 10
382.8395541732338
 20
258.050535760986
 30
0.0
 10
382.7855012860707
 20
257.9184681799115
 30
0.0
 10
382.7435634527386
 20
257.7970859155929
 30
0.0
 10
382.7083085785605
 20
257.6737548989858
 30
0.0
 10
382.6798182149822
 20
257.5484485622433
 30
0.0
 10
382.6582098870862
 20
257.4224765131115
 30
0.0
 10
382.6436435076022
 20
257.2964745499846
 30
0.0
 10
382.6364358345927
 20
257.1710854458602
 30
0.0
 10
382.6364358345927
 20
257.0456975397385
 30
0.0
 10
382.6436435076022
 20
256.9203084356141
 30
0.0
 10
382.6582098870862
 20
256.7943064724873
 30
0.0
 10
382.6798182149822
 20
256.6683344233554
 30
0.0
 10
382.7083085785605
 20
256.5430280866132
 30
0.0
 10
382.7435634527387
 20
256.4196970700058
 30
0.0
 10
382.7855012860708
 20
256.2983148056874
 30
0.0
 10
382.8395541732337
 20
256.1662472246126
 30
0.0
 10
382.9069568227348
 20
256.0247445471948
 30
0.0
 10
382.9891230324137
 20
255.8753220471967
 30
0.0
 10
383.0800163840447
 20
255.7311335991184
 30
0.0
 10
383.1824650836333
 20
255.5887946188676
 30
0.0
 10
383.2954716562521
 20
255.4485021993233
 30
0.0
 10
383.4181767439496
 20
255.3104147499517
 30
0.0
 10
383.5476297483929
 20
255.1787288555527
 30
0.0
 10
383.6877773384855
 20
255.0501765332582
 30
0.0
 10
383.8378051746575
 20
254.9247077682491
 30
0.0
 10
383.9969704585553
 20
254.8022222776447
 30
0.0
 10
384.1611327609941
 20
254.6866069978789
 30
0.0
 10
384.3346903719169
 20
254.5752800531911
 30
0.0
 10
384.5170260841839
 20
254.4680885655238
 30
0.0
 10
384.7075678801602
 20
254.3648398124143
 30
0.0
 10
384.9016908843635
 20
254.2685686258929
 30
0.0
 10
385.1035493506787
 20
254.177563154257
 30
0.0
 10
385.3126825621482
 20
254.0916527071092
 30
0.0
 10
385.5286626768486
 20
254.0106456104467
 30
0.0
 10
385.7470952759961
 20
253.9365723500629
 30
0.0
 10
385.9713185255728
 20
253.8685211622322
 30
0.0
 10
386.2009812921599
 20
253.806347162563
 30
0.0
 10
386.4357561968633
 20
253.7499025487079
 30
0.0
 10
386.6720603971638
 20
253.7003093707847
 30
0.0
 10
386.9120082543633
 20
253.6572398857345
 30
0.0
 10
387.1553176221794
 20
253.6205946074814
 30
0.0
 10
387.4017215536317
 20
253.5902929590699
 30
0.0
 10
387.6488582771239
 20
253.5667565198829
 30
0.0
 10
387.8559891593807
 20
253.5528287397685
 30
0.0
 10
388.0227082582248
 20
253.5448724755156
 30
0.0
 10
388.1067921936136
 20
253.542292884445
 30
0.0
 10
388.1488227014547
 20
253.5410034404838
 30
0.0
 11
389.8904061744964
 21
260.5571855427659
 31
0.0
 11
389.887820465921
 21
260.5576130912475
 31
0.0
 11
389.8852345784503
 21
260.5580398365931
 31
0.0
 11
389.6396515807646
 21
260.5950848866506
 31
0.0
 11
389.3933378717567
 21
260.6253631543664
 31
0.0
 11
389.1462934514267
 21
260.6488746397408
 31
0.0
 11
388.8985183197743
 21
260.6656193427735
 31
0.0
 11
388.6480554128846
 21
260.6757341159965
 31
0.0
 11
388.3975925059947
 21
260.679105707071
 31
0.0
 11
388.1471295991048
 21
260.6757341159966
 31
0.0
 11
387.896666692215
 21
260.6656193427737
 31
0.0
 11
387.6488915605627
 21
260.6488746397409
 31
0.0
 11
387.4018471402326
 21
260.6253631543665
 31
0.0
 11
387.1555334312247
 21
260.5950848866506
 31
0.0
 11
386.9099504335391
 21
260.5580398365931
 31
0.0
 11
386.6722236526525
 21
260.5153055729957
 31
0.0
 11
386.4360184060404
 21
260.4657405159269
 31
0.0
 11
386.2013346937028
 21
260.409344665387
 31
0.0
 11
385.9681725156396
 21
260.3461180213759
 31
0.0
 11
385.7474085042942
 21
260.2790078023879
 31
0.0
 11
385.5290834271391
 21
260.2049864587057
 31
0.0
 11
385.3131972841744
 21
260.1240539903293
 31
0.0
 11
385.0997500753999
 21
260.0362103972588
 31
0.0
 11
384.9021863274938
 21
259.9469770595164
 31
0.0
 11
384.7081824062065
 21
259.850790042308
 31
0.0
 11
384.5177383115379
 21
259.7476493456334
 31
0.0
 11
384.3308540434882
 21
259.6375549694927
 31
0.0
 11
384.1618572636529
 21
259.5289187752152
 31
0.0
 11
383.9978269243073
 21
259.4134341138994
 31
0.0
 11
383.8387630254516
 21
259.2911009855452
 31
0.0
 11
383.6846655670856
 21
259.1619193901527
 31
0.0
 11
383.5486415234644
 21
259.0368200674582
 31
0.0
 11
383.4193284379807
 21
258.9053321447723
 31
0.0
 11
383.2967263106343
 21
258.7674556220951
 31
0.0
 11
383.1808351414254
 21
258.6231904994266
 31
0.0
 11
383.0813659221815
 21
258.4845304313618
 31
0.0
 11
382.9905994173197
 21
258.3406296402437
 31
0.0
 11
382.90853562684
 21
258.1914881260725
 31
0.0
 11
382.8351745507425
 21
258.0371058888482
 31
0.0
 11
382.7865575030317
 21
257.9178799008294
 31
0.0
 11
382.7446539417916
 21
257.7966909523717
 31
0.0
 11
382.7094638670222
 21
257.6735390434751
 31
0.0
 11
382.6809872787234
 21
257.5484241741395
 31
0.0
 11
382.6592241768952
 21
257.4213463443651
 31
0.0
 11
382.6448299485419
 21
257.2961644037388
 31
0.0
 11
382.6376328343653
 21
257.1709824631125
 31
0.0
 11
382.6376328343653
 21
257.0458005224862
 31
0.0
 11
382.6448299485419
 21
256.9206185818599
 31
0.0
 11
382.6592241768952
 21
256.7954366412337
 31
0.0
 11
382.6809872787234
 21
256.6683588114593
 31
0.0
 11
382.7094638670222
 21
256.5432439421238
 31
0.0
 11
382.7446539417916
 21
256.4200920332272
 31
0.0
 11
382.7865575030317
 21
256.2989030847695
 31
0.0
 11
382.8351745507424
 21
256.1796770967506
 31
0.0
 11
382.90853562684
 21
256.0252948595262
 31
0.0
 11
382.9905994173197
 21
255.8761533453549
 31
0.0
 11
383.0813659221814
 21
255.7322525542369
 31
0.0
 11
383.1808351414253
 21
255.593592486172
 31
0.0
 11
383.2967263106343
 21
255.4493273635035
 31
0.0
 11
383.4193284379805
 21
255.3114508408264
 31
0.0
 11
383.5486415234644
 21
255.1799629181406
 31
0.0
 11
383.6846655670855
 21
255.054863595446
 31
0.0
 11
383.8387630254516
 21
254.9256820000535
 31
0.0
 11
383.9978269243074
 21
254.8033488716993
 31
0.0
 11
384.1618572636529
 21
254.6878642103835
 31
0.0
 11
384.3308540434882
 21
254.579228016106
 31
0.0
 11
384.517738311538
 21
254.4691336399653
 31
0.0
 11
384.7081824062065
 21
254.3659929432908
 31
0.0
 11
384.9021863274938
 21
254.2698059260823
 31
0.0
 11
385.0997500754
 21
254.1805725883399
 31
0.0
 11
385.3131972841745
 21
254.0927289952693
 31
0.0
 11
385.5290834271391
 21
254.0117965268929
 31
0.0
 11
385.7474085042942
 21
253.9377751832107
 31
0.0
 11
385.9681725156396
 21
253.8706649642228
 31
0.0
 11
386.2013346937028
 21
253.8074383202116
 31
0.0
 11
386.4360184060404
 21
253.7510424696717
 31
0.0
 11
386.6722236526525
 21
253.701477412603
 31
0.0
 11
386.9099504335391
 21
253.6587431490055
 31
0.0
 11
387.1555334312249
 21
253.6216980989481
 31
0.0
 11
387.4018471402326
 21
253.5914198312322
 31
0.0
 11
387.6488915605627
 21
253.5679083458579
 31
0.0
 11
387.896666692215
 21
253.5511636428252
 31
0.0
 11
388.0227446968349
 21
253.545229209572
 31
0.0
 11
388.1488227014547
 21
253.5410034404838
 31
0.0
  0
ARC
  5
167
330
3D
100
AcDbEntity
  8
1
  6
Continuous
 62
     7
100
AcDbCircle
 10
406.9556135677246
 20
260.9659284573577
 30
0.0
 40
1.000000000000109
100
AcDbArc
 50
74.66244233044966
 51
90.0
  0
ARC
  5
168
330
3D
100
AcDbEntity
  8
1
  6
Continuous
 62
     7
100
AcDbCircle
 10
405.1655416984252
 20
261.9659284573577
 30
0.0
 40
0.9999999999999277
100
AcDbArc
 50
42.94140286488343
 51
90.0
  0
ARC
  5
169
330
3D
100
AcDbEntity
  8
1
  6
Continuous
 62
     7
100
AcDbCircle
 10
406.897592505994
 20
262.9659284573577
 30
0.0
 40
0.9999999999999836
100
AcDbArc
 50
-149.9999999999995
 51
-90.0
  0
ARC
  5
16A
330
3D
100
AcDbEntity
  8
1
  6
Continuous
 62
     7
100
AcDbCircle
 10
405.1655416984252
 20
261.9659284573577
 30
0.0
 40
0.9999999999999344
100
AcDbArc
 50
30.00000000000217
 51
42.94140286488343
  0
ARC
  5
16B
330
3D
100
AcDbEntity
  8
1
  6
Continuous
 62
     7
100
AcDbCircle
 10
383.8395714442634
 20
260.9659284573577
 30
0.0
 40
1.0
100
AcDbArc
 50
90.0
 51
105.3375576695503
  0
ARC
  5
16C
330
3D
100
AcDbEntity
  8
1
  6
Continuous
 62
     7
100
AcDbCircle
 10
385.6296433135629
 20
261.9659284573577
 30
0.0
 40
1.0
100
AcDbArc
 50
90.0
 51
137.058597135121
  0
ARC
  5
16D
330
3D
100
AcDbEntity
  8
1
  6
Continuous
 62
     7
100
AcDbCircle
 10
383.897592505994
 20
262.9659284573577
 30
0.0
 40
1.0
100
AcDbArc
 50
-90.0
 51
-29.99999999999892
  0
ARC
  5
16E
330
3D
100
AcDbEntity
  8
1
  6
Continuous
 62
     7
100
AcDbCircle
 10
385.6296433135629
 20
261.9659284573577
 30
0.0
 40
1.000000000000011
100
AcDbArc
 50
137.058597135121
 51
149.9999999999995
  0
ARC
  5
16F
330
3D
100
AcDbEntity
  8
1
  6
Continuous
 62
     7
100
AcDbCircle
 10
90.75727042668549
 20
262.9659284573585
 30
0.0
 40
1.0
100
AcDbArc
 50
-90.0
 51
-30.00000000000136
  0
ARC
  5
170
330
3D
100
AcDbEntity
  8
1
  6
Continuous
 62
     7
100
AcDbCircle
 10
92.48932123425419
 20
261.9659284573585
 30
0.0
 40
1.0
100
AcDbArc
 50
90.0
 51
149.9999999999962
  0
ARC
  5
171
330
3D
100
AcDbEntity
  8
1
  6
Continuous
 62
     7
100
AcDbCircle
 10
90.69924936495488
 20
260.9659284573585
 30
0.0
 40
1.0
100
AcDbArc
 50
90.0
 51
105.3375576695471
  0
ARC
  5
172
330
3D
100
AcDbEntity
  8
1
  6
Continuous
 62
     7
100
AcDbCircle
 10
113.7572704266855
 20
262.9659284573585
 30
0.0
 40
1.000000000000045
100
AcDbArc
 50
-150.0000000000015
 51
-90.0
  0
ARC
  5
173
330
3D
100
AcDbEntity
  8
1
  6
Continuous
 62
     7
100
AcDbCircle
 10
112.0252196191166
 20
261.9659284573585
 30
0.0
 40
0.9999999999999713
100
AcDbArc
 50
30.00000000000095
 51
90.0
  0
ARC
  5
174
330
3D
100
AcDbEntity
  8
1
  6
Continuous
 62
     7
100
AcDbCircle
 10
113.815291488416
 20
260.9659284573585
 30
0.0
 40
1.000000000000025
100
AcDbArc
 50
74.66244233044246
 51
90.0
  0
ENDBLK
  5
3F
330
3D
100
AcDbEntity
  8
0
100
AcDbBlockEnd
  0
BLOCK
  5
41
330
40
100
AcDbEntity
  8
0
100
AcDbBlockBegin
  2
61-1-16-170
 70
     0
 71
     0
 10
-189.073190708882
 20
304.3617257781405
 30
0.0
  3
61-1-16-170
  1

  0
LINE
  5
175
330
40
100
AcDbEntity
  8
1
  6
Continuous
 62
     7
100
AcDbLine
 10
233.397592505994
 20
267.4659284573587
 30
0.0
 11
233.397592505994
 21
268.4659284573587
 31
0.0
  0
LINE
  5
176
330
40
100
AcDbEntity
  8
1
  6
Continuous
 62
     7
100
AcDbLine
 10
217.397592505994
 20
267.4659284573588
 30
0.0
 11
217.397592505994
 21
268.4659284573588
 31
0.0
  0
LINE
  5
177
330
40
100
AcDbEntity
  8
1
  6
Continuous
 62
     7
100
AcDbLine
 10
368.397592505994
 20
287.4659284573588
 30
0.0
 11
252.397592505994
 21
287.4659284573588
 31
0.0
  0
LINE
  5
178
330
40
100
AcDbEntity
  8
1
  6
Continuous
 62
     7
100
AcDbLine
 10
403.397592505994
 20
268.4659284573588
 30
0.0
 11
403.397592505994
 21
262.9659284573588
 31
0.0
  0
LINE
  5
179
330
40
100
AcDbEntity
  8
1
  6
Continuous
 62
     7
100
AcDbLine
 10
387.397592505994
 20
262.9659284573588
 30
0.0
 11
387.397592505994
 21
268.4659284573588
 31
0.0
  0
LINE
  5
17A
330
40
100
AcDbEntity
  8
1
  6
Continuous
 62
     7
100
AcDbLine
 10
368.397592505994
 20
303.4659284573588
 30
0.0
 11
252.397592505994
 21
303.4659284573588
 31
0.0
  0
LINE
  5
17B
330
40
100
AcDbEntity
  8
1
  6
Continuous
 62
     7
100
AcDbLine
 10
232.7839995119801
 20
262.4659284573587
 30
0.0
 11
225.397592505994
 21
262.4659284573587
 31
0.0
  0
LINE
  5
17C
330
40
100
AcDbEntity
  8
1
  6
Continuous
 62
     7
100
AcDbLine
 10
225.397592505994
 20
262.4659284573587
 30
0.0
 11
218.0111855000079
 21
262.4659284573587
 31
0.0
  0
LINE
  5
17D
330
40
100
AcDbEntity
  8
1
  6
Continuous
 62
     7
100
AcDbLine
 10
233.397592505994
 20
267.4659284573587
 30
0.0
 11
217.397592505994
 21
267.4659284573588
 31
0.0
  0
LINE
  5
17E
330
40
100
AcDbEntity
  8
1
  6
Continuous
 62
     7
100
AcDbLine
 10
110.2572704266855
 20
563.3076338397302
 30
0.0
 11
110.2572704266855
 21
393.30763383973
 31
0.0
  0
LINE
  5
17F
330
40
100
AcDbEntity
  8
1
  6
Continuous
 62
     7
100
AcDbLine
 10
94.25727042668549
 20
563.3076338397302
 30
0.0
 11
94.25727042668549
 21
393.30763383973
 31
0.0
  0
LINE
  5
180
330
40
100
AcDbEntity
  8
1
  6
PHANTOM
 62
     4
100
AcDbLine
 10
113.6314926205475
 20
393.30763383973
 30
0.0
 11
91.27931921446461
 21
393.30763383973
 31
0.0
  0
LINE
  5
181
330
40
100
AcDbEntity
  8
1
  6
Continuous
 62
     7
100
AcDbLine
 10
110.2572704266855
 20
267.4659284573587
 30
0.0
 11
94.25727042668549
 21
267.4659284573588
 31
0.0
  0
LINE
  5
182
330
40
100
AcDbEntity
  8
1
  6
Continuous
 62
     7
100
AcDbLine
 10
94.87086342069938
 20
262.4659284573587
 30
0.0
 11
109.6436774326716
 21
262.4659284573587
 31
0.0
  0
LINE
  5
183
330
40
100
AcDbEntity
  8
1
  6
Continuous
 62
     7
100
AcDbLine
 10
110.2572704266855
 20
267.4659284573587
 30
0.0
 11
110.2572704266855
 21
295.4659284573588
 31
0.0
  0
LINE
  5
184
330
40
100
AcDbEntity
  8
1
  6
Continuous
 62
     7
100
AcDbLine
 10
94.25727042668549
 20
267.4659284573588
 30
0.0
 11
94.25727042668549
 21
295.4659284573588
 31
0.0
  0
LINE
  5
185
330
40
100
AcDbEntity
  8
1
  6
PHANTOM
 62
     4
100
AcDbLine
 10
91.74405001732652
 20
295.4659284573588
 30
0.0
 11
113.1499864351131
 21
295.4659284573588
 31
0.0
  0
ARC
  5
186
330
40
100
AcDbEntity
  8
1
  6
Continuous
 62
     7
100
AcDbCircle
 10
230.1875662112758
 20
265.3222087501363
 30
0.0
 40
3.86002629471821
100
AcDbArc
 50
0.0
 51
33.73579100002926
  0
ARC
  5
187
330
40
100
AcDbEntity
  8
1
  6
Continuous
 62
     7
100
AcDbCircle
 10
220.6076188007123
 20
265.3222087501363
 30
0.0
 40
3.860026294718296
100
AcDbArc
 50
180.0
 51
-132.2716554964196
  0
ARC
  5
188
330
40
100
AcDbEntity
  8
1
  6
Continuous
 62
     7
100
AcDbCircle
 10
220.6076188007123
 20
265.3222087501363
 30
0.0
 40
3.860026294718328
100
AcDbArc
 50
146.26420899997
 51
180.0
  0
ARC
  5
189
330
40
100
AcDbEntity
  8
1
  6
Continuous
 62
     7
100
AcDbCircle
 10
230.1875662112758
 20
265.3222087501363
 30
0.0
 40
3.860026294718233
100
AcDbArc
 50
-47.72834450358104
 51
0.0
  0
ARC
  5
18A
330
40
100
AcDbEntity
  8
1
  6
Continuous
 62
     7
100
AcDbCircle
 10
252.397592505994
 20
268.4659284573587
 30
0.0
 40
19.00000000000011
100
AcDbArc
 50
90.0
 51
180.0
  0
ARC
  5
18B
330
40
100
AcDbEntity
  8
1
  6
Continuous
 62
     7
100
AcDbCircle
 10
252.397592505994
 20
268.4659284573587
 30
0.0
 40
35.00000000000011
100
AcDbArc
 50
90.0
 51
179.9999999999998
  0
ARC
  5
18C
330
40
100
AcDbEntity
  8
1
  6
Continuous
 62
     7
100
AcDbCircle
 10
368.397592505994
 20
268.4659284573588
 30
0.0
 40
19.0
100
AcDbArc
 50
0.0
 51
90.0
  0
ARC
  5
18D
330
40
100
AcDbEntity
  8
1
  6
Continuous
 62
     7
100
AcDbCircle
 10
368.397592505994
 20
268.4659284573588
 30
0.0
 40
35.0
100
AcDbArc
 50
0.0
 51
90.0
  0
ARC
  5
18E
330
40
100
AcDbEntity
  8
1
  6
Continuous
 62
     7
100
AcDbCircle
 10
102.2572704266855
 20
393.30763383973
 30
0.0
 40
8.0
100
AcDbArc
 50
180.0
 51
0.0
  0
ARC
  5
18F
330
40
100
AcDbEntity
  8
1
  6
Continuous
 62
     7
100
AcDbCircle
 10
102.2572704266855
 20
393.30763383973
 30
0.0
 40
8.650000000000205
100
AcDbArc
 50
-90.0
 51
22.35342559933271
  0
ARC
  5
190
330
40
100
AcDbEntity
  8
1
  6
Continuous
 62
     7
100
AcDbCircle
 10
102.2572704266855
 20
393.30763383973
 30
0.0
 40
8.650000000000093
100
AcDbArc
 50
157.6465744006673
 51
-90.0
  0
ARC
  5
191
330
40
100
AcDbEntity
  8
1
  6
Continuous
 62
     7
100
AcDbCircle
 10
107.0472441319673
 20
265.3222087501363
 30
0.0
 40
3.860026294718196
100
AcDbArc
 50
0.0
 51
33.73579100002937
  0
ARC
  5
192
330
40
100
AcDbEntity
  8
1
  6
Continuous
 62
     7
100
AcDbCircle
 10
97.46729672140378
 20
265.3222087501363
 30
0.0
 40
3.860026294718296
100
AcDbArc
 50
180.0
 51
-132.2716554964199
  0
ARC
  5
193
330
40
100
AcDbEntity
  8
1
  6
Continuous
 62
     7
100
AcDbCircle
 10
97.46729672140378
 20
265.3222087501363
 30
0.0
 40
3.860026294718328
100
AcDbArc
 50
146.26420899997
 51
180.0
  0
ARC
  5
194
330
40
100
AcDbEntity
  8
1
  6
Continuous
 62
     7
100
AcDbCircle
 10
107.0472441319673
 20
265.3222087501363
 30
0.0
 40
3.860026294718213
100
AcDbArc
 50
-47.72834450358135
 51
0.0
  0
ARC
  5
195
330
40
100
AcDbEntity
  8
1
  6
Continuous
 62
     7
100
AcDbCircle
 10
102.2572704266855
 20
295.4659284573588
 30
0.0
 40
8.0
100
AcDbArc
 50
0.0
 51
180.0
  0
ARC
  5
196
330
40
100
AcDbEntity
  8
1
  6
Continuous
 62
     7
100
AcDbCircle
 10
102.2572704266854
 20
563.3076338397302
 30
0.0
 40
8.0000000000001
100
AcDbArc
 50
0.0
 51
180.0
  0
ENDBLK
  5
42
330
40
100
AcDbEntity
  8
0
100
AcDbBlockEnd
  0
BLOCK
  5
46
330
43
100
AcDbEntity
  8
0
100
AcDbBlockBegin
  2
A20J-60X-16
 70
     0
 71
     0
 10
59.36579310158329
 20
245.4659284573585
 30
0.0
  3
A20J-60X-16
  1

  0
INSERT
  5
44
330
43
100
AcDbEntity
  8
0
100
AcDbBlockReference
  2
32-1-16
 10
177.0445485331941
 20
486.0008396999621
 30
0.0
  0
INSERT
  5
45
330
43
100
AcDbEntity
  8
0
100
AcDbBlockReference
  2
61-1-16-170
 10
-189.073190708882
 20
304.3617257781405
 30
0.0
  0
LINE
  5
197
330
43
100
AcDbEntity
  8
1
  6
PHANTOM
 62
     4
100
AcDbLine
 10
102.2572704266855
 20
307.617409450079
 30
0.0
 11
102.2572704266855
 21
246.4659284573585
 31
0.0
  0
LINE
  5
198
330
43
100
AcDbEntity
  8
1
  6
PHANTOM
 62
     4
100
AcDbLine
 10
252.397592505994
 20
295.4659284573588
 30
0.0
 11
368.397592505994
 21
295.4659284573588
 31
0.0
  0
LINE
  5
199
330
43
100
AcDbEntity
  8
1
  6
PHANTOM
 62
     4
100
AcDbLine
 10
225.397592505994
 20
259.4659284573587
 30
0.0
 11
225.397592505994
 21
268.4659284573587
 31
0.0
  0
ARC
  5
19A
330
43
100
AcDbEntity
  8
1
  6
PHANTOM
 62
     4
100
AcDbCircle
 10
368.397592505994
 20
268.4659284573588
 30
0.0
 40
27.0
100
AcDbArc
 50
0.0
 51
90.0
  0
ARC
  5
19B
330
43
100
AcDbEntity
  8
1
  6
PHANTOM
 62
     4
100
AcDbCircle
 10
252.397592505994
 20
268.4659284573587
 30
0.0
 40
27.00000000000011
100
AcDbArc
 50
90.0
 51
180.0
  0
ENDBLK
  5
47
330
43
100
AcDbEntity
  8
0
100
AcDbBlockEnd
  0
BLOCK
  5
49
330
48
100
AcDbEntity
  8
0
100
AcDbBlockBegin
  2
R20F
 70
     0
 71
     0
 10
167.355810212903
 20
209.5411541694329
 30
0.0
  3
R20F
  1

  0
LINE
  5
19C
330
48
100
AcDbEntity
  8
1
  6
DASH_CENTER
 62
     2
100
AcDbLine
 10
140.7572704266855
 20
227.9659284573586
 30
0.0
 11
161.6868942190413
 21
227.9659284573586
 31
0.0
  0
ENDBLK
  5
4A
330
48
100
AcDbEntity
  8
0
100
AcDbBlockEnd
  0
BLOCK
  5
4C
330
4B
100
AcDbEntity
  8
0
100
AcDbBlockBegin
  2
37-1-13
 70
     0
 71
     0
 10
-4.23843546345902
 20
319.7671586741296
 30
0.0
  3
37-1-13
  1

  0
LINE
  5
19D
330
4B
100
AcDbEntity
  8
1
  6
Continuous
 62
     7
100
AcDbLine
 10
135.2572704266855
 20
227.9659284573585
 30
0.0
 11
135.2572704266856
 21
215.4659284573587
 31
0.0
  0
LINE
  5
19E
330
4B
100
AcDbEntity
  8
1
  6
Continuous
 62
     7
100
AcDbLine
 10
135.2572704266856
 20
240.4659284573584
 30
0.0
 11
135.2572704266855
 21
227.9659284573585
 31
0.0
  0
LINE
  5
19F
330
4B
100
AcDbEntity
  8
1
  6
Continuous
 62
     7
100
AcDbLine
 10
127.7572704266855
 20
214.8952142430872
 30
0.0
 11
127.7572704266855
 21
241.0366426716301
 31
0.0
  0
LINE
  5
1A0
330
4B
100
AcDbEntity
  8
1
  6
Continuous
 62
     7
100
AcDbLine
 10
141.7572704266855
 20
221.9659284573585
 30
0.0
 11
141.7572704266855
 21
233.9659284573585
 31
0.0
  0
LINE
  5
1A1
330
4B
100
AcDbEntity
  8
1
  6
Continuous
 62
     7
100
AcDbLine
 10
135.2572704266855
 20
563.30763383973
 30
0.0
 11
135.2572704266855
 21
550.8076338397302
 31
0.0
  0
LINE
  5
1A2
330
4B
100
AcDbEntity
  8
1
  6
Continuous
 62
     7
100
AcDbLine
 10
127.7572704266855
 20
550.30763383973
 30
0.0
 11
127.7572704266855
 21
563.30763383973
 31
0.0
  0
LINE
  5
1A3
330
4B
100
AcDbEntity
  8
1
  6
Continuous
 62
     7
100
AcDbLine
 10
141.7572704266855
 20
557.30763383973
 30
0.0
 11
141.7572704266855
 21
563.30763383973
 31
0.0
  0
LINE
  5
1A4
330
4B
100
AcDbEntity
  8
1
  6
Continuous
 62
     7
100
AcDbLine
 10
127.7572704266855
 20
550.30763383973
 30
0.0
 11
134.8279846409569
 21
550.30763383973
 31
0.0
  0
LINE
  5
1A5
330
4B
100
AcDbEntity
  8
1
  6
Continuous
 62
     7
100
AcDbLine
 10
135.2572704266855
 20
575.8076338397298
 30
0.0
 11
135.2572704266855
 21
563.30763383973
 31
0.0
  0
LINE
  5
1A6
330
4B
100
AcDbEntity
  8
1
  6
Continuous
 62
     7
100
AcDbLine
 10
127.7572704266855
 20
563.30763383973
 30
0.0
 11
127.7572704266855
 21
576.30763383973
 31
0.0
  0
LINE
  5
1A7
330
4B
100
AcDbEntity
  8
1
  6
Continuous
 62
     7
100
AcDbLine
 10
141.7572704266855
 20
563.30763383973
 30
0.0
 11
141.7572704266855
 21
569.30763383973
 31
0.0
  0
LINE
  5
1A8
330
4B
100
AcDbEntity
  8
1
  6
Continuous
 62
     7
100
AcDbLine
 10
134.827984640957
 20
576.30763383973
 30
0.0
 11
127.7572704266855
 21
576.30763383973
 31
0.0
  0
LINE
  5
1A9
330
4B
100
AcDbEntity
  8
1
  6
Continuous
 62
     7
100
AcDbLine
 10
408.397592505994
 20
222.8367529277431
 30
0.0
 11
408.397592505994
 21
221.5433121680258
 31
0.0
  0
LINE
  5
1AA
330
4B
100
AcDbEntity
  8
1
  6
Continuous
 62
     7
100
AcDbLine
 10
389.7878515445773
 20
216.193606912586
 30
0.0
 11
388.897592505994
 21
216.7075982081606
 31
0.0
  0
LINE
  5
1AB
330
4B
100
AcDbEntity
  8
1
  6
Continuous
 62
     7
100
AcDbLine
 10
382.397592505994
 20
233.0951039869927
 30
0.0
 11
382.397592505994
 21
234.388544746691
 31
0.0
  0
LINE
  5
1AC
330
4B
100
AcDbEntity
  8
1
  6
Continuous
 62
     7
100
AcDbLine
 10
401.00733346747
 20
239.7382500020964
 30
0.0
 11
401.897592505994
 21
239.224258706556
 31
0.0
  0
LINE
  5
1AD
330
4B
100
AcDbEntity
  8
1
  6
Continuous
 62
     7
100
AcDbLine
 10
407.4597413713157
 20
236.0129505618894
 30
0.0
 11
408.3975925059938
 21
234.3885447466906
 31
0.0
  0
LINE
  5
1AE
330
4B
100
AcDbEntity
  8
1
  6
Continuous
 62
     7
100
AcDbLine
 10
408.397592505994
 20
221.5433121680258
 30
0.0
 11
407.4597413713157
 21
219.918906352827
 31
0.0
  0
LINE
  5
1AF
330
4B
100
AcDbEntity
  8
1
  6
Continuous
 62
     7
100
AcDbLine
 10
383.3354436406722
 20
219.9189063528262
 30
0.0
 11
382.3975925059934
 21
221.5433121680259
 31
0.0
  0
LINE
  5
1B0
330
4B
100
AcDbEntity
  8
1
  6
Continuous
 62
     7
100
AcDbLine
 10
382.397592505994
 20
234.388544746691
 30
0.0
 11
383.3354436406721
 21
236.0129505618899
 31
0.0
  0
LINE
  5
1B1
330
4B
100
AcDbEntity
  8
1
  6
PHANTOM
 62
     4
100
AcDbLine
 10
395.397592505994
 20
243.5322385124036
 30
0.0
 11
395.397592505994
 21
212.4692317143604
 31
0.0
  0
LINE
  5
1B2
330
4B
100
AcDbEntity
  8
1
  6
PHANTOM
 62
     4
100
AcDbLine
 10
377.3986839355143
 20
227.9659284573583
 30
0.0
 11
413.1025782033846
 21
227.9659284573583
 31
0.0
  0
LINE
  5
1B3
330
4B
100
AcDbEntity
  8
1
  6
Continuous
 62
     7
100
AcDbLine
 10
388.897592505994
 20
216.7075982081606
 30
0.0
 11
383.3354436406722
 21
219.9189063528262
 31
0.0
  0
LINE
  5
1B4
330
4B
100
AcDbEntity
  8
1
  6
Continuous
 62
     7
100
AcDbLine
 10
401.897592505994
 20
239.224258706556
 30
0.0
 11
407.4597413713157
 21
236.0129505618894
 31
0.0
  0
LINE
  5
1B5
330
4B
100
AcDbEntity
  8
1
  6
Continuous
 62
     7
100
AcDbLine
 10
407.4597413713157
 20
219.918906352827
 30
0.0
 11
406.3395888151277
 21
219.2721859729784
 31
0.0
  0
LINE
  5
1B6
330
4B
100
AcDbEntity
  8
1
  6
Continuous
 62
     7
100
AcDbLine
 10
383.3354436406721
 20
236.0129505618899
 30
0.0
 11
384.4555961968786
 21
236.659670941749
 31
0.0
  0
LINE
  5
1B7
330
4B
100
AcDbEntity
  8
1
  6
Continuous
 62
     7
100
AcDbLine
 10
408.3975925059938
 20
234.3885447466906
 30
0.0
 11
408.3975925059938
 21
233.0951039870026
 31
0.0
  0
LINE
  5
1B8
330
4B
100
AcDbEntity
  8
1
  6
Continuous
 62
     7
100
AcDbLine
 10
406.3395888151277
 20
219.2721859729784
 30
0.0
 11
401.0073334674518
 21
216.1936069126099
 31
0.0
  0
LINE
  5
1B9
330
4B
100
AcDbEntity
  8
1
  6
Continuous
 62
     7
100
AcDbLine
 10
382.3975925059934
 20
221.5433121680259
 30
0.0
 11
382.3975925059935
 21
222.8367529277531
 31
0.0
  0
LINE
  5
1BA
330
4B
100
AcDbEntity
  8
1
  6
Continuous
 62
     7
100
AcDbLine
 10
384.4555961968786
 20
236.659670941749
 30
0.0
 11
389.7878515445597
 21
239.7382500021206
 31
0.0
  0
ARC
  5
1BB
330
4B
100
AcDbEntity
  8
1
  6
Continuous
 62
     7
100
AcDbCircle
 10
155.1637256318005
 20
202.0594732522436
 30
0.0
 40
24.00000000000003
100
AcDbArc
 50
123.9591925000977
 51
146.0408074999021
  0
ARC
  5
1BC
330
4B
100
AcDbEntity
  8
1
  6
Continuous
 62
     7
100
AcDbCircle
 10
131.2572704266855
 20
218.4659284573585
 30
0.0
 40
4.999999999999915
100
AcDbArc
 50
-134.4270040008067
 51
-36.86989764584142
  0
ARC
  5
1BD
330
4B
100
AcDbEntity
  8
1
  6
Continuous
 62
     7
100
AcDbCircle
 10
155.1637256318004
 20
253.8723836624735
 30
0.0
 40
24.0
100
AcDbArc
 50
-146.0408074999019
 51
-123.9591925000973
  0
ARC
  5
1BE
330
4B
100
AcDbEntity
  8
1
  6
Continuous
 62
     7
100
AcDbCircle
 10
131.2572704266855
 20
237.4659284573585
 30
0.0
 40
5.000000000000023
100
AcDbArc
 50
36.86989764584219
 51
134.4270040008044
  0
ARC
  5
1BF
330
4B
100
AcDbEntity
  8
1
  6
Continuous
 62
     7
100
AcDbCircle
 10
155.1637256318004
 20
537.4011786346152
 30
0.0
 40
23.99999999999984
100
AcDbArc
 50
123.9591925000977
 51
146.0408074999024
  0
ARC
  5
1C0
330
4B
100
AcDbEntity
  8
1
  6
Continuous
 62
     7
100
AcDbCircle
 10
131.2572704266855
 20
553.80763383973
 30
0.0
 40
4.999999999999996
100
AcDbArc
 50
-44.42700400080575
 51
-36.86989764584194
  0
ARC
  5
1C1
330
4B
100
AcDbEntity
  8
1
  6
Continuous
 62
     7
100
AcDbCircle
 10
155.1637256318004
 20
589.2140890448447
 30
0.0
 40
24.00000000000001
100
AcDbArc
 50
-146.0408074999024
 51
-123.9591925000977
  0
ARC
  5
1C2
330
4B
100
AcDbEntity
  8
1
  6
Continuous
 62
     7
100
AcDbCircle
 10
131.2572704266855
 20
572.80763383973
 30
0.0
 40
4.999999999999863
100
AcDbArc
 50
36.86989764584194
 51
44.42700400080507
  0
ARC
  5
1C3
330
4B
100
AcDbEntity
  8
1
  6
Continuous
 62
     7
100
AcDbCircle
 10
395.397592505994
 20
227.9659284573583
 30
0.0
 40
12.99999999999997
100
AcDbArc
 50
-34.30728384504037
 51
-25.69271615485668
  0
ARC
  5
1C4
330
4B
100
AcDbEntity
  8
1
  6
Continuous
 62
     7
100
AcDbCircle
 10
395.397592505994
 20
227.9659284573583
 30
0.0
 40
13.00000000000001
100
AcDbArc
 50
-120.0
 51
-115.6927161547678
  0
ARC
  5
1C5
330
4B
100
AcDbEntity
  8
1
  6
Continuous
 62
     7
100
AcDbCircle
 10
395.397592505994
 20
227.9659284573583
 30
0.0
 40
13.00000000000017
100
AcDbArc
 50
145.6927161548486
 51
154.307283845048
  0
ARC
  5
1C6
330
4B
100
AcDbEntity
  8
1
  6
Continuous
 62
     7
100
AcDbCircle
 10
395.397592505994
 20
227.9659284573583
 30
0.0
 40
12.99999999999998
100
AcDbArc
 50
59.99999999999996
 51
64.30728384495836
  0
ARC
  5
1C7
330
4B
100
AcDbEntity
  8
1
  6
Continuous
 62
     7
100
AcDbCircle
 10
395.397592505994
 20
227.9659284573583
 30
0.0
 40
13.00000000000004
100
AcDbArc
 50
-154.3072838452301
 51
-120.0
  0
ARC
  5
1C8
330
4B
100
AcDbEntity
  8
1
  6
Continuous
 62
     7
100
AcDbCircle
 10
395.397592505994
 20
227.9659284573583
 30
0.0
 40
13.0000000000002
100
AcDbArc
 50
55.69271615504174
 51
59.99999999999996
  0
ARC
  5
1C9
330
4B
100
AcDbEntity
  8
1
  6
Continuous
 62
     7
100
AcDbCircle
 10
395.397592505994
 20
227.9659284573583
 30
0.0
 40
13.00000000000023
100
AcDbArc
 50
25.69271615503756
 51
55.69271615504174
  0
ARC
  5
1CA
330
4B
100
AcDbEntity
  8
1
  6
Continuous
 62
     7
100
AcDbCircle
 10
395.397592505994
 20
227.9659284573583
 30
0.0
 40
12.99999999999989
100
AcDbArc
 50
-64.30728384504248
 51
-34.30728384504037
  0
ARC
  5
1CB
330
4B
100
AcDbEntity
  8
1
  6
Continuous
 62
     7
100
AcDbCircle
 10
395.397592505994
 20
227.9659284573583
 30
0.0
 40
13.00000000000028
100
AcDbArc
 50
115.6927161548502
 51
145.6927161548486
  0
SPLINE
  5
1CC
330
4B
100
AcDbEntity
  8
1
  6
Continuous
 62
     7
100
AcDbSpline
210
0.0
220
0.0
230
1.0
 70
    11
 71
     3
 72
    79
 73
    75
 74
    73
 42
0.0000000001
 43
0.0000000001
 44
0.00000001
 40
0.0
 40
0.0
 40
0.0
 40
0.0
 40
0.317159865688477
 40
0.6340856861075229
 40
0.9694901489363259
 40
1.30456282090129
 40
1.666124796939062
 40
2.027385866504865
 40
2.418724079015808
 40
2.809836934323288
 40
3.230628787512681
 40
3.651266058867472
 40
4.098016897818803
 40
4.544667758504398
 40
5.011536287768366
 40
5.478345522146669
 40
5.957894801974933
 40
6.437416541840375
 40
6.921284920564522
 40
7.405153299288668
 40
7.884675039153996
 40
8.364224318982375
 40
8.831033553360678
 40
9.297902082624644
 40
9.744552943310239
 40
10.19130378226156
 40
10.61194105361657
 40
11.03273290680576
 40
11.42384576211335
 40
11.81518397462428
 40
12.17644504419014
 40
12.53800702022794
 40
12.8730796921929
 40
13.2084841550217
 40
13.52540997544071
 40
13.84256984112921
 40
14.15305257372687
 40
14.46353530632459
 40
14.78069517201318
 40
15.0976209924322
 40
15.43302545526093
 40
15.76809812722591
 40
16.12966010326375
 40
16.49092117282963
 40
16.88225938534047
 40
17.27337224064795
 40
17.69416409383732
 40
18.11480136519211
 40
18.56155220414355
 40
19.00820306482904
 40
19.47507159409302
 40
19.94188082847132
 40
20.42143010829969
 40
20.90095184816525
 40
21.38482022688928
 40
21.86868860561343
 40
22.34821034547888
 40
22.82775962530736
 40
23.29456885968543
 40
23.76143738894942
 40
24.20808824963494
 40
24.65483908858634
 40
25.0754763599412
 40
25.49626821313047
 40
25.88738106843788
 40
26.27871928094889
 40
26.63998035051469
 40
27.00154232655253
 40
27.33661499851755
 40
27.67201946134631
 40
27.98894528176535
 40
28.30610514745391
 40
28.61658788005164
 40
28.92707061264931
 40
28.92707061264931
 40
28.92707061264931
 40
28.92707061264931
 10
130.9829023219106
 20
551.2671603140434
 30
0.0
 10
130.8786539324117
 20
551.2857382451522
 30
0.0
 10
130.6702340825749
 20
551.3228803979526
 30
0.0
 10
130.3651967787985
 20
551.4337354709154
 30
0.0
 10
130.0700451336358
 20
551.5807557801234
 30
0.0
 10
129.7823555075024
 20
551.7708268892438
 30
0.0
 10
129.5101166805166
 20
551.9959548369839
 30
0.0
 10
129.2487079050234
 20
552.2605390936
 30
0.0
 10
129.0065203398158
 20
552.5556355186549
 30
0.0
 10
128.7788933646971
 20
552.8863778744657
 30
0.0
 10
128.5732014188031
 20
553.2425038752026
 30
0.0
 10
128.3858201186519
 20
553.6292327227612
 30
0.0
 10
128.2223665203514
 20
554.0359694045013
 30
0.0
 10
128.0805678870502
 20
554.4669549327915
 30
0.0
 10
127.9641309631878
 20
554.9123867930534
 30
0.0
 10
127.8719468719616
 20
555.3746197803865
 30
0.0
 10
127.8060656335491
 20
555.8455877026175
 30
0.0
 10
127.7660719830341
 20
556.3251490658095
 30
0.0
 10
127.7528497930106
 20
556.8076338397277
 30
0.0
 10
127.7660719830329
 20
557.2901186136601
 30
0.0
 10
127.8060656335539
 20
557.7696799768079
 30
0.0
 10
127.8719468719439
 20
558.2406478992003
 30
0.0
 10
127.9641309632522
 20
558.7028808859473
 30
0.0
 10
128.080567886814
 20
559.148312748353
 30
0.0
 10
128.2223665211905
 20
559.5792982689741
 30
0.0
 10
128.3858201155925
 20
559.9860349785184
 30
0.0
 10
128.5732014294836
 20
560.3727637280869
 30
0.0
 10
128.7788933259305
 20
560.7288900814654
 30
0.0
 10
129.0065204732325
 20
561.0596312093226
 30
0.0
 10
129.2487074217802
 20
561.3547320321828
 30
0.0
 10
129.5101183312363
 20
561.6193010701185
 30
0.0
 10
129.7823495160276
 20
561.8444835193229
 30
0.0
 10
130.0700656902203
 20
562.0343652969521
 30
0.0
 10
130.3651215719581
 20
562.1820685574772
 30
0.0
 10
130.6704977204148
 20
562.2905071084631
 30
0.0
 10
130.9797297743523
 20
562.3546896974636
 30
0.0
 10
131.2926275338212
 20
562.3772489258788
 30
0.0
 10
131.6055252932901
 20
562.3546896974633
 30
0.0
 10
131.9147573472276
 20
562.2905071084631
 30
0.0
 10
132.2201334956842
 20
562.182068557477
 30
0.0
 10
132.5151893774221
 20
562.0343652969521
 30
0.0
 10
132.8029055516148
 20
561.8444835193226
 30
0.0
 10
133.0751367364061
 20
561.6193010701186
 30
0.0
 10
133.3365476458623
 20
561.3547320321823
 30
0.0
 10
133.5787345944099
 20
561.059631209323
 30
0.0
 10
133.806361741712
 20
560.728890081465
 30
0.0
 10
134.0120536381587
 20
560.372763728087
 30
0.0
 10
134.19943495205
 20
559.9860349785183
 30
0.0
 10
134.3628885464518
 20
559.5792982689743
 30
0.0
 10
134.5046871808285
 20
559.148312748353
 30
0.0
 10
134.6211241043904
 20
558.7028808859475
 30
0.0
 10
134.7133081956986
 20
558.2406478992004
 30
0.0
 10
134.7791894340885
 20
557.769679976808
 30
0.0
 10
134.8191830846096
 20
557.2901186136598
 30
0.0
 10
134.8324052746316
 20
556.8076338397298
 30
0.0
 10
134.8191830846097
 20
556.3251490658007
 30
0.0
 10
134.7791894340881
 20
555.8455877026495
 30
0.0
 10
134.7133081956999
 20
555.3746197802686
 30
0.0
 10
134.6211241043857
 20
554.9123867934799
 30
0.0
 10
134.5046871808452
 20
554.4669549312268
 30
0.0
 10
134.3628885463921
 20
554.0359694100607
 30
0.0
 10
134.1994349522673
 20
553.6292327024914
 30
0.0
 10
134.0120536374001
 20
553.2425039459628
 30
0.0
 10
133.8063617444657
 20
552.8863776176322
 30
0.0
 10
133.5787345849334
 20
552.5556364025554
 30
0.0
 10
133.3365476801864
 20
552.2605358920639
 30
0.0
 10
133.0751366191583
 20
551.9959657731713
 30
0.0
 10
132.8029059771788
 20
551.7707871951118
 30
0.0
 10
132.5151879173237
 20
551.5808919695951
 30
0.0
 10
132.2201388374955
 20
551.4332372179167
 30
0.0
 10
131.9147386214895
 20
551.3246270255694
 30
0.0
 10
131.6055947459516
 20
551.2610732941344
 30
0.0
 10
131.2923743724425
 20
551.2362132950013
 30
0.0
 10
131.0860596720879
 20
551.2568446410294
 30
0.0
 10
130.9829023219106
 20
551.2671603140434
 30
0.0
 11
130.9829023219106
 21
551.2671603140434
 31
0.0
 11
130.6723870841265
 21
551.3317410194238
 31
0.0
 11
130.3734312684296
 21
551.4369427109941
 31
0.0
 11
130.0733282815989
 21
551.5867237210748
 31
0.0
 11
129.7931915562141
 21
551.7705636258518
 31
0.0
 11
129.5141475977438
 21
552.0004799840292
 31
0.0
 11
129.2597303207313
 21
552.2569588516603
 31
0.0
 11
129.0108916686405
 21
552.5589934884107
 31
0.0
 11
128.7887082606135
 21
552.8808689282695
 31
0.0
 11
128.5776836102627
 21
553.2449216451319
 31
0.0
 11
128.3939170267218
 21
553.6232938915064
 31
0.0
 11
128.2268549843084
 21
554.0376326250184
 31
0.0
 11
128.087018743582
 21
554.4618292977195
 31
0.0
 11
127.9685906743977
 21
554.9134275882902
 31
0.0
 11
127.8771587787007
 21
555.3711950726643
 31
0.0
 11
127.810497229794
 21
555.8460884814216
 31
0.0
 11
127.7706272987604
 21
556.3239498500244
 31
0.0
 11
127.7572704266855
 21
556.80763383973
 31
0.0
 11
127.7706272987604
 21
557.2913178294356
 31
0.0
 11
127.810497229794
 21
557.7691791980383
 31
0.0
 11
127.8771587787007
 21
558.2440726067957
 31
0.0
 11
127.9685906743977
 21
558.7018400911697
 31
0.0
 11
128.087018743582
 21
559.1534383817404
 31
0.0
 11
128.2268549843084
 21
559.5776350544415
 31
0.0
 11
128.3939170267217
 21
559.9919737879536
 31
0.0
 11
128.5776836102627
 21
560.3703460343284
 31
0.0
 11
128.7887082606135
 21
560.7343987511905
 31
0.0
 11
129.0108916686405
 21
561.0562741910494
 31
0.0
 11
129.2597303207313
 21
561.3583088277998
 31
0.0
 11
129.5141475977438
 21
561.614787695431
 31
0.0
 11
129.7931915562141
 21
561.8447040536084
 31
0.0
 11
130.0733282815989
 21
562.0285439583854
 31
0.0
 11
130.3734312684296
 21
562.1783249684661
 31
0.0
 11
130.6723870841265
 21
562.2835266600363
 31
0.0
 11
130.9829023219106
 21
562.3481073654168
 31
0.0
 11
131.2926275338211
 21
562.3697827050518
 31
0.0
 11
131.6023527457317
 21
562.3481073654166
 31
0.0
 11
131.9128679835159
 21
562.2835266600362
 31
0.0
 11
132.2118237992128
 21
562.1783249684659
 31
0.0
 11
132.5119267860435
 21
562.0285439583853
 31
0.0
 11
132.7920635114283
 21
561.8447040536083
 31
0.0
 11
133.0711074698987
 21
561.6147876954309
 31
0.0
 11
133.3255247469112
 21
561.3583088277997
 31
0.0
 11
133.574363399002
 21
561.0562741910494
 31
0.0
 11
133.7965468070289
 21
560.7343987511906
 31
0.0
 11
134.0075714573797
 21
560.3703460343282
 31
0.0
 11
134.1913380409206
 21
559.9919737879537
 31
0.0
 11
134.358400083334
 21
559.5776350544415
 31
0.0
 11
134.4982363240605
 21
559.1534383817406
 31
0.0
 11
134.6166643932448
 21
558.7018400911699
 31
0.0
 11
134.7080962889418
 21
558.2440726067958
 31
0.0
 11
134.7747578378485
 21
557.7691791980384
 31
0.0
 11
134.8146277688821
 21
557.2913178294355
 31
0.0
 11
134.827984640957
 21
556.80763383973
 31
0.0
 11
134.8146277688821
 21
556.3239498500244
 31
0.0
 11
134.7747578378484
 21
555.8460884814216
 31
0.0
 11
134.7080962889418
 21
555.371195072664
 31
0.0
 11
134.6166643932448
 21
554.9134275882902
 31
0.0
 11
134.4982363240604
 21
554.4618292977195
 31
0.0
 11
134.3584000833339
 21
554.0376326250186
 31
0.0
 11
134.1913380409206
 21
553.6232938915064
 31
0.0
 11
134.0075714573798
 21
553.2449216451317
 31
0.0
 11
133.796546807029
 21
552.8808689282695
 31
0.0
 11
133.574363399002
 21
552.5589934884108
 31
0.0
 11
133.3255247469112
 21
552.2569588516603
 31
0.0
 11
133.0711074698987
 21
552.0004799840292
 31
0.0
 11
132.7920635114283
 21
551.7705636258518
 31
0.0
 11
132.5119267860435
 21
551.5867237210747
 31
0.0
 11
132.2118237992128
 21
551.4369427109941
 31
0.0
 11
131.9128679835159
 21
551.3317410194238
 31
0.0
 11
131.6023527457317
 21
551.2671603140434
 31
0.0
 11
131.2926275338211
 21
551.2454849744082
 31
0.0
 11
130.9829023219106
 21
551.2671603140434
 31
0.0
  0
SPLINE
  5
1CD
330
4B
100
AcDbEntity
  8
1
  6
Continuous
 62
     7
100
AcDbSpline
210
0.0
220
0.0
230
1.0
 70
    11
 71
     3
 72
    79
 73
    75
 74
    73
 42
0.0000000001
 43
0.0000000001
 44
0.00000001
 40
0.0
 40
0.0
 40
0.0
 40
0.0
 40
0.317159865688477
 40
0.6340856861075229
 40
0.9694901489362242
 40
1.304562820901251
 40
1.666124796939023
 40
2.027385866504907
 40
2.41872407901585
 40
2.809836934323424
 40
3.230628787512718
 40
3.651266058867509
 40
4.098016897818946
 40
4.544667758504433
 40
5.011536287768512
 40
5.478345522146704
 40
5.957894801974968
 40
6.437416541840523
 40
6.921284920564555
 40
7.405153299288702
 40
7.884675039154144
 40
8.364224318982409
 40
8.8310335533606
 40
9.297902082624676
 40
9.744552943310271
 40
10.1913037822617
 40
10.6119410536166
 40
11.0327329068058
 40
11.4238457621132
 40
11.81518397462421
 40
12.17644504419016
 40
12.53800702022781
 40
12.87307969219283
 40
13.20848415502164
 40
13.52540997544072
 40
13.8425698411292
 40
14.15305257372685
 40
14.46353530632458
 40
14.78069517201316
 40
15.09762099243218
 40
15.43302545526096
 40
15.76809812722595
 40
16.12966010326379
 40
16.49092117282967
 40
16.88225938534059
 40
17.27337224064807
 40
17.69416409383724
 40
18.11480136519203
 40
18.56155220414347
 40
19.00820306482897
 40
19.47507159409295
 40
19.94188082847113
 40
20.42143010829961
 40
20.90095184816506
 40
21.3848202268892
 40
21.86868860561324
 40
22.3482103454788
 40
22.82775962530706
 40
23.29456885968547
 40
23.76143738894935
 40
24.20808824963476
 40
24.65483908858626
 40
25.07547635994112
 40
25.4962682131304
 40
25.88738106843789
 40
26.27871928094882
 40
26.6399803505147
 40
27.00154232655254
 40
27.33661499851757
 40
27.67201946134627
 40
27.98894528176531
 40
28.30610514745387
 40
28.6165878800516
 40
28.92707061264927
 40
28.92707061264927
 40
28.92707061264927
 40
28.92707061264927
 10
130.9829023219106
 20
575.3481073654166
 30
0.0
 10
130.8786539324117
 20
575.3295294343078
 30
0.0
 10
130.670234082575
 20
575.2923872815074
 30
0.0
 10
130.3651967787986
 20
575.1815322085442
 30
0.0
 10
130.0700451336357
 20
575.0345118993371
 30
0.0
 10
129.7823555075024
 20
574.8444407902159
 30
0.0
 10
129.5101166805165
 20
574.6193128424764
 30
0.0
 10
129.2487079050234
 20
574.35472858586
 30
0.0
 10
129.0065203398157
 20
574.0596321608052
 30
0.0
 10
128.7788933646972
 20
573.7288898049941
 30
0.0
 10
128.5732014188031
 20
573.3727638042574
 30
0.0
 10
128.3858201186519
 20
572.9860349566985
 30
0.0
 10
128.2223665203514
 20
572.5792982749583
 30
0.0
 10
128.0805678870501
 20
572.1483127466687
 30
0.0
 10
127.9641309631878
 20
571.7028808864063
 30
0.0
 10
127.8719468719616
 20
571.2406478990736
 30
0.0
 10
127.8060656335491
 20
570.7696799768422
 30
0.0
 10
127.7660719830342
 20
570.2901186136505
 30
0.0
 10
127.7528497930106
 20
569.8076338397325
 30
0.0
 10
127.7660719830329
 20
569.3251490657993
 30
0.0
 10
127.8060656335539
 20
568.8455877026522
 30
0.0
 10
127.8719468719438
 20
568.3746197802597
 30
0.0
 10
127.9641309632522
 20
567.9123867935128
 30
0.0
 10
128.080567886814
 20
567.4669549311072
 30
0.0
 10
128.2223665211905
 20
567.0359694104856
 30
0.0
 10
128.3858201155924
 20
566.6292327009417
 30
0.0
 10
128.5732014294837
 20
566.242503951373
 30
0.0
 10
128.7788933259304
 20
565.886377597995
 30
0.0
 10
129.0065204732327
 20
565.5556364701374
 30
0.0
 10
129.2487074217801
 20
565.2605356472775
 30
0.0
 10
129.5101183312362
 20
564.9959666093413
 30
0.0
 10
129.7823495160278
 20
564.7707841601375
 30
0.0
 10
130.0700656902203
 20
564.5809023825079
 30
0.0
 10
130.3651215719582
 20
564.4331991219829
 30
0.0
 10
130.6704977204147
 20
564.3247605709967
 30
0.0
 10
130.9797297743523
 20
564.2605779819963
 30
0.0
 10
131.2926275338212
 20
564.2380187535813
 30
0.0
 10
131.6055252932901
 20
564.2605779819968
 30
0.0
 10
131.9147573472276
 20
564.3247605709969
 30
0.0
 10
132.2201334956843
 20
564.433199121983
 30
0.0
 10
132.515189377422
 20
564.5809023825079
 30
0.0
 10
132.8029055516149
 20
564.7707841601376
 30
0.0
 10
133.0751367364061
 20
564.9959666093414
 30
0.0
 10
133.3365476458624
 20
565.2605356472777
 30
0.0
 10
133.5787345944098
 20
565.5556364701373
 30
0.0
 10
133.806361741712
 20
565.886377597995
 30
0.0
 10
134.0120536381587
 20
566.2425039513731
 30
0.0
 10
134.19943495205
 20
566.6292327009417
 30
0.0
 10
134.3628885464518
 20
567.0359694104856
 30
0.0
 10
134.5046871808285
 20
567.466954931107
 30
0.0
 10
134.6211241043903
 20
567.9123867935126
 30
0.0
 10
134.7133081956986
 20
568.3746197802597
 30
0.0
 10
134.7791894340885
 20
568.8455877026519
 30
0.0
 10
134.8191830846097
 20
569.3251490658001
 30
0.0
 10
134.8324052746316
 20
569.8076338397301
 30
0.0
 10
134.8191830846097
 20
570.2901186136592
 30
0.0
 10
134.7791894340882
 20
570.7696799768105
 30
0.0
 10
134.7133081956998
 20
571.2406478991913
 30
0.0
 10
134.6211241043857
 20
571.7028808859799
 30
0.0
 10
134.5046871808452
 20
572.1483127482333
 30
0.0
 10
134.362888546392
 20
572.5792982693993
 30
0.0
 10
134.1994349522673
 20
572.9860349769683
 30
0.0
 10
134.0120536374002
 20
573.3727637334973
 30
0.0
 10
133.8063617444656
 20
573.7288900618278
 30
0.0
 10
133.5787345849335
 20
574.0596312769048
 30
0.0
 10
133.3365476801863
 20
574.3547317873962
 30
0.0
 10
133.0751366191583
 20
574.6193019062888
 30
0.0
 10
132.8029059771788
 20
574.8444804843482
 30
0.0
 10
132.5151879173237
 20
575.0343757098652
 30
0.0
 10
132.2201388374955
 20
575.1820304615433
 30
0.0
 10
131.9147386214895
 20
575.2906406538906
 30
0.0
 10
131.6055947459516
 20
575.3541943853257
 30
0.0
 10
131.2923743724425
 20
575.3790543844585
 30
0.0
 10
131.0860596720879
 20
575.3584230384306
 30
0.0
 10
130.9829023219106
 20
575.3481073654166
 30
0.0
 11
130.9829023219106
 21
575.3481073654166
 31
0.0
 11
130.6723870841265
 21
575.2835266600362
 31
0.0
 11
130.3734312684296
 21
575.1783249684659
 31
0.0
 11
130.0733282815989
 21
575.0285439583854
 31
0.0
 11
129.7931915562141
 21
574.8447040536083
 31
0.0
 11
129.5141475977438
 21
574.6147876954309
 31
0.0
 11
129.2597303207313
 21
574.3583088277997
 31
0.0
 11
129.0108916686405
 21
574.0562741910493
 31
0.0
 11
128.7887082606135
 21
573.7343987511904
 31
0.0
 11
128.5776836102627
 21
573.3703460343281
 31
0.0
 11
128.3939170267218
 21
572.9919737879536
 31
0.0
 11
128.2268549843084
 21
572.5776350544414
 31
0.0
 11
128.087018743582
 21
572.1534383817404
 31
0.0
 11
127.9685906743977
 21
571.7018400911696
 31
0.0
 11
127.8771587787007
 21
571.2440726067957
 31
0.0
 11
127.810497229794
 21
570.7691791980384
 31
0.0
 11
127.7706272987604
 21
570.2913178294355
 31
0.0
 11
127.7572704266855
 21
569.80763383973
 31
0.0
 11
127.7706272987604
 21
569.3239498500244
 31
0.0
 11
127.810497229794
 21
568.8460884814216
 31
0.0
 11
127.8771587787007
 21
568.3711950726643
 31
0.0
 11
127.9685906743977
 21
567.9134275882904
 31
0.0
 11
128.087018743582
 21
567.4618292977195
 31
0.0
 11
128.2268549843084
 21
567.0376326250184
 31
0.0
 11
128.3939170267217
 21
566.6232938915063
 31
0.0
 11
128.5776836102627
 21
566.2449216451316
 31
0.0
 11
128.7887082606135
 21
565.8808689282695
 31
0.0
 11
129.0108916686405
 21
565.5589934884108
 31
0.0
 11
129.2597303207313
 21
565.2569588516603
 31
0.0
 11
129.5141475977438
 21
565.000479984029
 31
0.0
 11
129.7931915562141
 21
564.7705636258518
 31
0.0
 11
130.0733282815989
 21
564.5867237210747
 31
0.0
 11
130.3734312684296
 21
564.436942710994
 31
0.0
 11
130.6723870841265
 21
564.3317410194236
 31
0.0
 11
130.9829023219106
 21
564.2671603140432
 31
0.0
 11
131.2926275338211
 21
564.2454849744082
 31
0.0
 11
131.6023527457317
 21
564.2671603140434
 31
0.0
 11
131.9128679835159
 21
564.3317410194238
 31
0.0
 11
132.2118237992128
 21
564.4369427109941
 31
0.0
 11
132.5119267860435
 21
564.5867237210748
 31
0.0
 11
132.7920635114283
 21
564.7705636258518
 31
0.0
 11
133.0711074698987
 21
565.0004799840292
 31
0.0
 11
133.3255247469112
 21
565.2569588516604
 31
0.0
 11
133.574363399002
 21
565.5589934884108
 31
0.0
 11
133.7965468070289
 21
565.8808689282696
 31
0.0
 11
134.0075714573797
 21
566.2449216451317
 31
0.0
 11
134.1913380409206
 21
566.6232938915063
 31
0.0
 11
134.358400083334
 21
567.0376326250184
 31
0.0
 11
134.4982363240605
 21
567.4618292977194
 31
0.0
 11
134.6166643932448
 21
567.9134275882901
 31
0.0
 11
134.7080962889418
 21
568.371195072664
 31
0.0
 11
134.7747578378485
 21
568.8460884814216
 31
0.0
 11
134.8146277688821
 21
569.3239498500244
 31
0.0
 11
134.827984640957
 21
569.80763383973
 31
0.0
 11
134.8146277688821
 21
570.2913178294355
 31
0.0
 11
134.7747578378484
 21
570.7691791980384
 31
0.0
 11
134.7080962889418
 21
571.2440726067957
 31
0.0
 11
134.6166643932448
 21
571.7018400911699
 31
0.0
 11
134.4982363240604
 21
572.1534383817404
 31
0.0
 11
134.3584000833339
 21
572.5776350544413
 31
0.0
 11
134.1913380409206
 21
572.9919737879536
 31
0.0
 11
134.0075714573798
 21
573.3703460343282
 31
0.0
 11
133.796546807029
 21
573.7343987511905
 31
0.0
 11
133.574363399002
 21
574.0562741910493
 31
0.0
 11
133.3255247469112
 21
574.3583088277997
 31
0.0
 11
133.0711074698987
 21
574.6147876954309
 31
0.0
 11
132.7920635114283
 21
574.8447040536083
 31
0.0
 11
132.5119267860435
 21
575.0285439583854
 31
0.0
 11
132.2118237992128
 21
575.1783249684659
 31
0.0
 11
131.9128679835159
 21
575.2835266600362
 31
0.0
 11
131.6023527457317
 21
575.3481073654166
 31
0.0
 11
131.2926275338211
 21
575.3697827050518
 31
0.0
 11
130.9829023219106
 21
575.3481073654166
 31
0.0
  0
SPLINE
  5
1CE
330
4B
100
AcDbEntity
  8
0
  6
Continuous
 62
     7
100
AcDbSpline
210
0.0
220
0.0
230
1.0
 70
    11
 71
     3
 72
    79
 73
    75
 74
    73
 42
0.0000000001
 43
0.0000000001
 44
0.00000001
 40
0.0
 40
0.0
 40
0.0
 40
0.0
 40
0.2811775426109088
 40
0.5623408931992655
 40
0.8457466631367532
 40
1.129126830422803
 40
1.415908903032342
 40
1.702658539054611
 40
1.993527432940216
 40
2.284362055943285
 40
2.579517800564288
 40
2.874641782101776
 40
3.173769982296636
 40
3.47287212278803
 40
3.775199692337275
 40
4.0775089578596
 40
4.381905225139362
 40
4.686292091405385
 40
4.991400459519039
 40
5.29650882763261
 40
5.600895693898573
 40
5.905291961178313
 40
6.207601226700583
 40
6.509928796249802
 40
6.809030936741196
 40
7.108159136936105
 40
7.403283118473616
 40
7.698438863094623
 40
7.989273486097711
 40
8.280142379983298
 40
8.566892016005557
 40
8.853674088615058
 40
9.137054255901157
 40
9.420460025838676
 40
9.701623376427042
 40
9.982800919037947
 40
10.26319552186812
 40
10.54359012469832
 40
10.82476766730923
 40
11.10593101789756
 40
11.38933678783507
 40
11.67271695512119
 40
11.95949902773075
 40
12.24624866375298
 40
12.53711755763854
 40
12.82795218064159
 40
13.12310792526256
 40
13.41823190680013
 40
13.717360106995
 40
14.01646224748644
 40
14.31878981703567
 40
14.62109908255796
 40
14.92549534983767
 40
15.22988221610367
 40
15.5349905842173
 40
15.84009895233093
 40
16.14448581859686
 40
16.44888208587665
 40
16.75119135139899
 40
17.0535189209482
 40
17.3526210614396
 40
17.6517492616345
 40
17.94687324317198
 40
18.242028987793
 40
18.53286361079611
 40
18.8237325046817
 40
19.11048214070394
 40
19.3972642133135
 40
19.68064438059963
 40
19.96405015053709
 40
20.24521350112546
 40
20.5263910437363
 40
20.80678564656659
 40
21.08718024939678
 40
21.08718024939678
 40
21.08718024939678
 40
21.08718024939678
 10
134.743888547804
 20
238.9441836119585
 30
0.0
 10
134.7324374257141
 20
238.8510875368681
 30
0.0
 10
134.7095357595129
 20
238.6649000855744
 30
0.0
 10
134.641498468464
 20
238.3906626322682
 30
0.0
 10
134.5498763394904
 20
238.1229359649614
 30
0.0
 10
134.4322653517058
 20
237.8633754767931
 30
0.0
 10
134.2910470284866
 20
237.614641184426
 30
0.0
 10
134.1262250577419
 20
237.3778270796354
 30
0.0
 10
133.9401477605771
 20
237.1555687155686
 30
0.0
 10
133.7331229109658
 20
236.9487133284334
 30
0.0
 10
133.5079241132518
 20
236.7595995249202
 30
0.0
 10
133.2650592077223
 20
236.5889511407692
 30
0.0
 10
133.0075905767122
 20
236.4386338235196
 30
0.0
 10
132.7363126794407
 20
236.3093104881588
 30
0.0
 10
132.4543595255333
 20
236.2022775607206
 30
0.0
 10
132.1629223721637
 20
236.1181304230586
 30
0.0
 10
131.864984428706
 20
236.0575859143507
 30
0.0
 10
131.5622187639056
 20
236.0210987176115
 30
0.0
 10
131.2572704266864
 20
236.0088716612604
 30
0.0
 10
130.9523220894615
 20
236.0210987176111
 30
0.0
 10
130.6495564246781
 20
236.0575859143519
 30
0.0
 10
130.3516184811585
 20
236.1181304230539
 30
0.0
 10
130.060181328018
 20
236.2022775607377
 30
0.0
 10
129.7782281732604
 20
236.3093104880949
 30
0.0
 10
129.5069502791292
 20
236.4386338237556
 30
0.0
 10
129.2494816364771
 20
236.5889511398931
 30
0.0
 10
129.0066167738403
 20
236.7595995281419
 30
0.0
 10
128.7814178172633
 20
236.9487133164775
 30
0.0
 10
128.5743935522599
 20
237.1555687594656
 30
0.0
 10
128.3883140900758
 20
237.3778269166882
 30
0.0
 10
128.2235000903222
 20
237.6146417830212
 30
0.0
 10
128.0822522219082
 20
237.8633732526631
 30
0.0
 10
127.9647502544542
 20
238.1229441565495
 30
0.0
 10
127.8727233070842
 20
238.3906321478198
 30
0.0
 10
127.8061854794641
 20
238.6650128587029
 30
0.0
 10
127.7662826958516
 20
238.9435038701664
 30
0.0
 10
127.7527705745223
 20
239.2242587065562
 30
0.0
 10
127.7662826958516
 20
239.5050135429461
 30
0.0
 10
127.8061854794642
 20
239.7835045544096
 30
0.0
 10
127.8727233070842
 20
240.0578852652926
 30
0.0
 10
127.9647502544542
 20
240.325573256563
 30
0.0
 10
128.0822522219082
 20
240.5851441604494
 30
0.0
 10
128.2235000903221
 20
240.8338756300914
 30
0.0
 10
128.3883140900758
 20
241.0706904964243
 30
0.0
 10
128.5743935522598
 20
241.2929486536469
 30
0.0
 10
128.7814178172633
 20
241.4998040966349
 30
0.0
 10
129.0066167738403
 20
241.6889178849705
 30
0.0
 10
129.2494816364771
 20
241.8595662732193
 30
0.0
 10
129.5069502791292
 20
242.0098835893568
 30
0.0
 10
129.7782281732604
 20
242.1392069250175
 30
0.0
 10
130.060181328018
 20
242.2462398523748
 30
0.0
 10
130.3516184811585
 20
242.3303869900586
 30
0.0
 10
130.649556424678
 20
242.3909314987605
 30
0.0
 10
130.9523220894618
 20
242.4274186955013
 30
0.0
 10
131.2572704266855
 20
242.439645751852
 30
0.0
 10
131.5622187639089
 20
242.4274186955013
 30
0.0
 10
131.8649844286939
 20
242.3909314987606
 30
0.0
 10
132.1629223722088
 20
242.3303869900588
 30
0.0
 10
132.454359525366
 20
242.2462398523737
 30
0.0
 10
132.7363126800625
 20
242.1392069250221
 30
0.0
 10
133.007590574419
 20
242.0098835893402
 30
0.0
 10
133.2650592162363
 20
241.8595662732823
 30
0.0
 10
133.5079240819483
 20
241.6889178847396
 30
0.0
 10
133.7331230271355
 20
241.4998040974922
 30
0.0
 10
133.9401473340529
 20
241.2929486504996
 30
0.0
 10
134.126226641014
 20
241.0706905081069
 30
0.0
 10
134.2910412122548
 20
240.8338755871745
 30
0.0
 10
134.432286962401
 20
240.5851443199102
 30
0.0
 10
134.5497967461596
 20
240.3255726692601
 30
0.0
 10
134.6417946697332
 20
240.0578874509009
 30
0.0
 10
134.7084400026483
 20
239.7834964690451
 30
0.0
 10
134.747942588595
 20
239.5050436921573
 30
0.0
 10
134.7629443684124
 20
239.2241465349468
 30
0.0
 10
134.7502404880068
 20
239.037504586288
 30
0.0
 10
134.743888547804
 20
238.9441836119585
 30
0.0
 11
134.743888547804
 21
238.9441836119585
 31
0.0
 11
134.7039507383401
 21
238.6658568582248
 31
0.0
 11
134.637813519201
 21
238.3925828236759
 31
0.0
 11
134.5456596975352
 21
238.1245781528468
 31
0.0
 11
134.4289296462605
 21
237.8663565148292
 31
0.0
 11
134.2873307080985
 21
237.6169698714787
 31
0.0
 11
134.1236531075744
 21
237.3815234936226
 31
0.0
 11
133.9369646339978
 21
237.1584716447984
 31
0.0
 11
133.731330423727
 21
236.9528035882032
 31
0.0
 11
133.5053362696006
 21
236.7629521834587
 31
0.0
 11
133.2639334604784
 21
236.5931792520873
 31
0.0
 11
133.005634345255
 21
236.4423175696539
 31
0.0
 11
132.735684933837
 21
236.3135177027224
 31
0.0
 11
132.4530513348426
 21
236.2061854707087
 31
0.0
 11
132.1626258207821
 21
236.1222574491463
 31
0.0
 11
131.8643297821412
 21
236.0616227984507
 31
0.0
 11
131.562134227899
 21
236.0251644475346
 31
0.0
 11
131.2572704266854
 21
236.01295056189
 31
0.0
 11
130.9524066254718
 21
236.0251644475346
 31
0.0
 11
130.6502110712297
 21
236.0616227984507
 31
0.0
 11
130.3519150325888
 21
236.1222574491463
 31
0.0
 11
130.0614895185284
 21
236.2061854707087
 31
0.0
 11
129.7788559195341
 21
236.3135177027224
 31
0.0
 11
129.508906508116
 21
236.4423175696539
 31
0.0
 11
129.2506073928926
 21
236.5931792520873
 31
0.0
 11
129.0092045837703
 21
236.7629521834587
 31
0.0
 11
128.7832104296439
 21
236.9528035882032
 31
0.0
 11
128.5775762193731
 21
237.1584716447984
 31
0.0
 11
128.3908877457965
 21
237.3815234936226
 31
0.0
 11
128.2272101452725
 21
237.6169698714788
 31
0.0
 11
128.0856112071105
 21
237.8663565148292
 31
0.0
 11
127.9688811558358
 21
238.1245781528468
 31
0.0
 11
127.8767273341699
 21
238.392582823676
 31
0.0
 11
127.8105901150308
 21
238.6658568582249
 31
0.0
 11
127.770652305567
 21
238.9441836119586
 31
0.0
 11
127.7572704266855
 21
239.2242587065562
 31
0.0
 11
127.770652305567
 21
239.5043338011539
 31
0.0
 11
127.8105901150309
 21
239.7826605548876
 31
0.0
 11
127.87672733417
 21
240.0559345894365
 31
0.0
 11
127.9688811558358
 21
240.3239392602656
 31
0.0
 11
128.0856112071105
 21
240.5821608982833
 31
0.0
 11
128.2272101452725
 21
240.8315475416338
 31
0.0
 11
128.3908877457965
 21
241.0669939194899
 31
0.0
 11
128.577576219373
 21
241.2900457683141
 31
0.0
 11
128.7832104296439
 21
241.4957138249092
 31
0.0
 11
129.0092045837703
 21
241.6855652296537
 31
0.0
 11
129.2506073928926
 21
241.8553381610251
 31
0.0
 11
129.508906508116
 21
242.0061998434585
 31
0.0
 11
129.7788559195341
 21
242.1349997103901
 31
0.0
 11
130.0614895185284
 21
242.2423319424038
 31
0.0
 11
130.3519150325888
 21
242.3262599639662
 31
0.0
 11
130.6502110712297
 21
242.3868946146618
 31
0.0
 11
130.9524066254718
 21
242.4233529655779
 31
0.0
 11
131.2572704266855
 21
242.4355668512225
 31
0.0
 11
131.5621342278991
 21
242.4233529655779
 31
0.0
 11
131.8643297821412
 21
242.3868946146618
 31
0.0
 11
132.1626258207821
 21
242.3262599639662
 31
0.0
 11
132.4530513348426
 21
242.2423319424038
 31
0.0
 11
132.7356849338369
 21
242.1349997103901
 31
0.0
 11
133.005634345255
 21
242.0061998434586
 31
0.0
 11
133.2639334604784
 21
241.8553381610252
 31
0.0
 11
133.5053362696006
 21
241.6855652296538
 31
0.0
 11
133.7313304237271
 21
241.4957138249093
 31
0.0
 11
133.9369646339979
 21
241.290045768314
 31
0.0
 11
134.1236531075744
 21
241.0669939194899
 31
0.0
 11
134.2873307080985
 21
240.8315475416337
 31
0.0
 11
134.4289296462605
 21
240.5821608982832
 31
0.0
 11
134.5456596975353
 21
240.3239392602656
 31
0.0
 11
134.6378135192011
 21
240.0559345894365
 31
0.0
 11
134.7039507383402
 21
239.7826605548876
 31
0.0
 11
134.743888547804
 21
239.504333801154
 31
0.0
 11
134.7572704266855
 21
239.2242587065562
 31
0.0
 11
134.743888547804
 21
238.9441836119585
 31
0.0
  0
SPLINE
  5
1CF
330
4B
100
AcDbEntity
  8
0
  6
Continuous
 62
     7
100
AcDbSpline
210
0.0
220
0.0
230
1.0
 70
    11
 71
     3
 72
    79
 73
    75
 74
    73
 42
0.0000000001
 43
0.0000000001
 44
0.00000001
 40
0.0
 40
0.0
 40
0.0
 40
0.0
 40
0.3165105491713477
 40
0.6328929319855398
 40
0.9617431660633133
 40
1.290395356804432
 40
1.637286321305602
 40
1.983975457781562
 40
2.351816485593235
 40
2.719488759026633
 40
3.108422409521991
 40
3.497229809231774
 40
3.905017581393864
 40
4.31271838893923
 40
4.735267628544461
 40
5.157763077150525
 40
5.58967724861024
 40
6.02156583028417
 40
6.45667818577037
 40
6.89179054125657
 40
7.3236791229305
 40
7.755593294390159
 40
8.178088742996254
 40
8.600637982601489
 40
9.008338790146901
 40
9.416126562308953
 40
9.804933962018634
 40
10.19386761251402
 40
10.56153988594743
 40
10.92938091375908
 40
11.27607005023501
 40
11.62296101473619
 40
11.9516132054773
 40
12.28046343955511
 40
12.59684582236932
 40
12.91335637154065
 40
13.22542041382613
 40
13.53748445611154
 40
13.85399500528288
 40
14.17037738809708
 40
14.49922762217489
 40
14.82787981291598
 40
15.17477077741715
 40
15.52145991389307
 40
15.88930094170472
 40
16.25697321513814
 40
16.6459068656335
 40
17.03471426534322
 40
17.44250203750529
 40
17.85020284505068
 40
18.27275208465594
 40
18.69524753326202
 40
19.1271617047217
 40
19.5590502863956
 40
19.99416264188178
 40
20.429274997368
 40
20.86116357904193
 40
21.29307775050165
 40
21.71557319910775
 40
22.13812243871301
 40
22.54582324625842
 40
22.95361101842044
 40
23.34241841813016
 40
23.73135206862552
 40
24.09902434205889
 40
24.46686536987055
 40
24.81355450634651
 40
25.16044547084767
 40
25.48909766158883
 40
25.81794789566661
 40
26.13433027848076
 40
26.45084082765205
 40
26.76290486993753
 40
27.074968912223
 40
27.074968912223
 40
27.074968912223
 40
27.074968912223
 10
131.0071980513779
 20
232.9458117763932
 30
0.0
 10
130.902865766687
 20
232.9292464451792
 30
0.0
 10
130.694243445151
 20
232.8961224906417
 30
0.0
 10
130.3880593470729
 20
232.797363354435
 30
0.0
 10
130.0907705907717
 20
232.6656611566485
 30
0.0
 10
129.8015106784678
 20
232.4957037308664
 30
0.0
 10
129.5265424892136
 20
232.2934824206729
 30
0.0
 10
129.2633125444178
 20
232.0562820020006
 30
0.0
 10
129.0184025933309
 20
231.7907458025996
 30
0.0
 10
128.788993455265
 20
231.4937915871012
 30
0.0
 10
128.5809692895982
 20
231.1731325566008
 30
0.0
 10
128.3920410975608
 20
230.8256294398438
 30
0.0
 10
128.22679545889
 20
230.459390960342
 30
0.0
 10
128.0837960217465
 20
230.0719391122702
 30
0.0
 10
127.966134460912
 20
229.6709458357513
 30
0.0
 10
127.8731604671327
 20
229.2552719376125
 30
0.0
 10
127.806604479323
 20
228.8314082800653
 30
0.0
 10
127.766275485017
 20
228.4000388431983
 30
0.0
 10
127.7528993533282
 20
227.9659284573604
 30
0.0
 10
127.7662754850162
 20
227.5318180715111
 30
0.0
 10
127.8066044793264
 20
227.1004486346783
 30
0.0
 10
127.8731604671205
 20
226.6765849770065
 30
0.0
 10
127.9661344609563
 20
226.2609110793223
 30
0.0
 10
128.0837960215836
 20
225.8599178011349
 30
0.0
 10
128.2267954594746
 20
225.4724659590802
 30
0.0
 10
128.3920410954192
 20
225.1062274576343
 30
0.0
 10
128.5809692971793
 20
224.7587244191417
 30
0.0
 10
128.7889934275711
 20
224.4380651046905
 30
0.0
 10
129.0184026904452
 20
224.1411118938499
 30
0.0
 10
129.2633121899404
 20
223.8755720593095
 30
0.0
 10
129.5265437281922
 20
223.6383844673478
 30
0.0
 10
129.8015061453355
 20
223.4361166938709
 30
0.0
 10
130.0907865274578
 20
223.2663240422931
 30
0.0
 10
130.3880006779024
 20
223.1340212959126
 30
0.0
 10
130.6944532390453
 20
223.0374231846366
 30
0.0
 10
131.0049526613024
 20
222.9800017698952
 30
0.0
 10
131.3186623039069
 20
222.9601057758953
 30
0.0
 10
131.6323719465114
 20
222.9800017698952
 30
0.0
 10
131.9428713687684
 20
223.0374231846366
 30
0.0
 10
132.2493239299113
 20
223.1340212959126
 30
0.0
 10
132.5465380803559
 20
223.2663240422932
 30
0.0
 10
132.8358184624783
 20
223.4361166938709
 30
0.0
 10
133.1107808796216
 20
223.6383844673476
 30
0.0
 10
133.3740124178733
 20
223.8755720593096
 30
0.0
 10
133.6189219173686
 20
224.1411118938498
 30
0.0
 10
133.8483311802426
 20
224.4380651046906
 30
0.0
 10
134.0563553106343
 20
224.7587244191417
 30
0.0
 10
134.2452835123945
 20
225.1062274576343
 30
0.0
 10
134.4105291483392
 20
225.4724659590802
 30
0.0
 10
134.5535285862302
 20
225.8599178011351
 30
0.0
 10
134.6711901468574
 20
226.2609110793222
 30
0.0
 10
134.7641641406932
 20
226.6765849770066
 30
0.0
 10
134.8307201284874
 20
227.1004486346782
 30
0.0
 10
134.8710491227976
 20
227.5318180715115
 30
0.0
 10
134.8844252544853
 20
227.9659284573586
 30
0.0
 10
134.8710491227977
 20
228.4000388432049
 30
0.0
 10
134.8307201284872
 20
228.8314082800408
 30
0.0
 10
134.7641641406941
 20
229.2552719377035
 30
0.0
 10
134.6711901468543
 20
229.6709458354202
 30
0.0
 10
134.5535285862418
 20
230.0719391134886
 30
0.0
 10
134.4105291482975
 20
230.4593909559722
 30
0.0
 10
134.2452835125472
 20
230.8256294558541
 30
0.0
 10
134.0563553100939
 20
231.1731324999254
 30
0.0
 10
133.8483311822167
 20
231.4937917941351
 30
0.0
 10
133.6189219104458
 20
231.7907450765933
 30
0.0
 10
133.3740124431423
 20
232.0562846520013
 30
0.0
 10
133.1107807913005
 20
232.2934731583199
 30
0.0
 10
132.8358187856242
 20
232.4957376196448
 30
0.0
 10
132.5465369443035
 20
232.6655420172115
 30
0.0
 10
132.2493281121643
 20
232.7978019532675
 30
0.0
 10
131.9428564135346
 20
232.8945541139897
 30
0.0
 10
131.6324275259403
 20
232.9514077516888
 30
0.0
 10
131.3184581039128
 20
232.9733948706278
 30
0.0
 10
131.1109514022228
 20
232.9550061411381
 30
0.0
 10
131.0071980513779
 20
232.9458117763932
 30
0.0
 11
131.0071980513779
 21
232.9458117763932
 31
0.0
 11
130.6959849684673
 21
232.8881459740316
 31
0.0
 11
130.3940613828533
 21
232.7935946091279
 31
0.0
 11
130.0935499647164
 21
232.6600455019711
 31
0.0
 11
129.8098023145738
 21
232.4942156689571
 31
0.0
 11
129.5301299356662
 21
232.2889921280834
 31
0.0
 11
129.2722068213992
 21
232.0573263678225
 31
0.0
 11
129.022464460439
 21
231.787260126164
 31
0.0
 11
128.7973342239754
 21
231.4965725322052
 31
0.0
 11
128.5852745291137
 21
231.170535616653
 31
0.0
 11
128.3992690006345
 21
230.8291075313345
 31
0.0
 11
128.2312102438851
 21
230.4575606010487
 31
0.0
 11
128.0898318950245
 21
230.0751575271247
 31
0.0
 11
127.9705905529904
 21
229.6697819454219
 31
0.0
 11
127.8782474575224
 21
229.2575015107512
 31
0.0
 11
127.8110723154851
 21
228.8308431558582
 31
0.0
 11
127.7708452639133
 21
228.4008320730915
 31
0.0
 11
127.7573691027725
 21
227.9659284573585
 31
0.0
 11
127.7708452639133
 21
227.5310248416255
 31
0.0
 11
127.8110723154851
 21
227.1010137588588
 31
0.0
 11
127.8782474575224
 21
226.6743554039659
 31
0.0
 11
127.9705905529904
 21
226.2620749692952
 31
0.0
 11
128.0898318950245
 21
225.8566993875924
 31
0.0
 11
128.2312102438852
 21
225.4742963136683
 31
0.0
 11
128.3992690006346
 21
225.1027493833826
 31
0.0
 11
128.5852745291137
 21
224.7613212980642
 31
0.0
 11
128.7973342239754
 21
224.4352843825119
 31
0.0
 11
129.022464460439
 21
224.1445967885531
 31
0.0
 11
129.2722068213992
 21
223.8745305468946
 31
0.0
 11
129.5301299356662
 21
223.6428647866338
 31
0.0
 11
129.8098023145738
 21
223.4376412457601
 31
0.0
 11
130.0935499647164
 21
223.271811412746
 31
0.0
 11
130.3940613828533
 21
223.1382623055892
 31
0.0
 11
130.6959849684673
 21
223.0437109406854
 31
0.0
 11
131.0071980513779
 21
222.9860451383239
 31
0.0
 11
131.3186623039069
 21
222.9667064236788
 31
0.0
 11
131.6301265564358
 21
222.9860451383239
 31
0.0
 11
131.9413396393464
 21
223.0437109406854
 31
0.0
 11
132.2432632249605
 21
223.1382623055892
 31
0.0
 11
132.5437746430974
 21
223.271811412746
 31
0.0
 11
132.82752229324
 21
223.4376412457601
 31
0.0
 11
133.1071946721475
 21
223.6428647866337
 31
0.0
 11
133.3651177864145
 21
223.8745305468946
 31
0.0
 11
133.6148601473747
 21
224.1445967885531
 31
0.0
 11
133.8399903838383
 21
224.4352843825119
 31
0.0
 11
134.0520500787
 21
224.7613212980642
 31
0.0
 11
134.2380556071792
 21
225.1027493833826
 31
0.0
 11
134.4061143639286
 21
225.4742963136683
 31
0.0
 11
134.5474927127893
 21
225.8566993875924
 31
0.0
 11
134.6667340548233
 21
226.2620749692952
 31
0.0
 11
134.7590771502913
 21
226.6743554039659
 31
0.0
 11
134.8262522923287
 21
227.1010137588588
 31
0.0
 11
134.8664793439004
 21
227.5310248416255
 31
0.0
 11
134.8799555050412
 21
227.9659284573585
 31
0.0
 11
134.8664793439004
 21
228.4008320730915
 31
0.0
 11
134.8262522923287
 21
228.8308431558582
 31
0.0
 11
134.7590771502913
 21
229.2575015107512
 31
0.0
 11
134.6667340548233
 21
229.6697819454219
 31
0.0
 11
134.5474927127893
 21
230.0751575271247
 31
0.0
 11
134.4061143639286
 21
230.4575606010488
 31
0.0
 11
134.2380556071792
 21
230.8291075313345
 31
0.0
 11
134.0520500787
 21
231.1705356166529
 31
0.0
 11
133.8399903838383
 21
231.4965725322052
 31
0.0
 11
133.6148601473747
 21
231.7872601261639
 31
0.0
 11
133.3651177864145
 21
232.0573263678224
 31
0.0
 11
133.1071946721475
 21
232.2889921280833
 31
0.0
 11
132.82752229324
 21
232.494215668957
 31
0.0
 11
132.5437746430973
 21
232.6600455019711
 31
0.0
 11
132.2432632249604
 21
232.7935946091278
 31
0.0
 11
131.9413396393464
 21
232.8881459740316
 31
0.0
 11
131.6301265564359
 21
232.9458117763932
 31
0.0
 11
131.3186623039069
 21
232.9651504910384
 31
0.0
 11
131.0071980513779
 21
232.9458117763932
 31
0.0
  0
SPLINE
  5
1D0
330
4B
100
AcDbEntity
  8
0
  6
Continuous
 62
     7
100
AcDbSpline
210
0.0
220
0.0
230
1.0
 70
    11
 71
     3
 72
    79
 73
    75
 74
    73
 42
0.0000000001
 43
0.0000000001
 44
0.00000001
 40
0.0
 40
0.0
 40
0.0
 40
0.0
 40
0.2811775426108807
 40
0.5623408931992373
 40
0.8457466631367694
 40
1.129126830422895
 40
1.415908903032445
 40
1.702658539054714
 40
1.99352743294034
 40
2.284362055943429
 40
2.579517800564414
 40
2.874641782101918
 40
3.173769982296792
 40
3.472872122788187
 40
3.775199692337431
 40
4.077508957859764
 40
4.381905225139521
 40
4.686292091405534
 40
4.991400459519188
 40
5.296508827632756
 40
5.600895693898719
 40
5.905291961178449
 40
6.207601226700735
 40
6.509928796249954
 40
6.809030936741372
 40
7.108159136936266
 40
7.403283118473801
 40
7.69843886309475
 40
7.989273486097879
 40
8.280142379983465
 40
8.56689201600571
 40
8.85367408861527
 40
9.137054255901346
 40
9.420460025838825
 40
9.701623376427181
 40
9.982800919038093
 40
10.26319552186835
 40
10.5435901246986
 40
10.82476766730957
 40
11.10593101789786
 40
11.38933678783536
 40
11.67271695512152
 40
11.95949902773106
 40
12.24624866375331
 40
12.5371175576389
 40
12.82795218064201
 40
13.12310792526299
 40
13.41823190680054
 40
13.71736010699543
 40
14.01646224748684
 40
14.31878981703607
 40
14.62109908255836
 40
14.92549534983812
 40
15.22988221610408
 40
15.53499058421763
 40
15.84009895233125
 40
16.14448581859724
 40
16.44888208587706
 40
16.75119135139936
 40
17.05351892094858
 40
17.35262106143998
 40
17.65174926163489
 40
17.94687324317234
 40
18.24202898779332
 40
18.53286361079645
 40
18.82373250468206
 40
19.11048214070432
 40
19.39726421331391
 40
19.68064438059999
 40
19.96405015053753
 40
20.24521350112589
 40
20.5263910437368
 40
20.80678564656708
 40
21.08718024939725
 40
21.08718024939725
 40
21.08718024939725
 40
21.08718024939725
 10
134.743888547804
 20
216.9876733027586
 30
0.0
 10
134.7324374257141
 20
217.080769377849
 30
0.0
 10
134.7095357595129
 20
217.2669568291427
 30
0.0
 10
134.6414984684641
 20
217.5411942824488
 30
0.0
 10
134.5498763394905
 20
217.8089209497558
 30
0.0
 10
134.4322653517058
 20
218.0684814379241
 30
0.0
 10
134.2910470284866
 20
218.3172157302911
 30
0.0
 10
134.1262250577419
 20
218.5540298350817
 30
0.0
 10
133.9401477605771
 20
218.7762881991487
 30
0.0
 10
133.7331229109659
 20
218.9831435862838
 30
0.0
 10
133.5079241132518
 20
219.172257389797
 30
0.0
 10
133.2650592077223
 20
219.3429057739479
 30
0.0
 10
133.0075905767122
 20
219.4932230911978
 30
0.0
 10
132.7363126794407
 20
219.6225464265584
 30
0.0
 10
132.4543595255333
 20
219.7295793539968
 30
0.0
 10
132.1629223721637
 20
219.8137264916587
 30
0.0
 10
131.864984428706
 20
219.8742710003666
 30
0.0
 10
131.5622187639056
 20
219.9107581971057
 30
0.0
 10
131.2572704266863
 20
219.9229852534568
 30
0.0
 10
130.9523220894615
 20
219.910758197106
 30
0.0
 10
130.649556424678
 20
219.8742710003653
 30
0.0
 10
130.3516184811586
 20
219.8137264916633
 30
0.0
 10
130.060181328018
 20
219.7295793539795
 30
0.0
 10
129.7782281732604
 20
219.6225464266224
 30
0.0
 10
129.5069502791292
 20
219.4932230909615
 30
0.0
 10
129.2494816364771
 20
219.3429057748241
 30
0.0
 10
129.0066167738403
 20
219.1722573865753
 30
0.0
 10
128.7814178172633
 20
218.9831435982396
 30
0.0
 10
128.5743935522599
 20
218.7762881552516
 30
0.0
 10
128.3883140900758
 20
218.554029998029
 30
0.0
 10
128.223500090322
 20
218.3172151316961
 30
0.0
 10
128.0822522219082
 20
218.068483662054
 30
0.0
 10
127.9647502544541
 20
217.8089127581676
 30
0.0
 10
127.8727233070843
 20
217.5412247668974
 30
0.0
 10
127.8061854794642
 20
217.2668440560144
 30
0.0
 10
127.7662826958516
 20
216.9883530445508
 30
0.0
 10
127.7527705745223
 20
216.7075982081609
 30
0.0
 10
127.7662826958516
 20
216.4268433717709
 30
0.0
 10
127.8061854794642
 20
216.1483523603076
 30
0.0
 10
127.8727233070842
 20
215.8739716494243
 30
0.0
 10
127.9647502544541
 20
215.6062836581541
 30
0.0
 10
128.0822522219081
 20
215.3467127542676
 30
0.0
 10
128.2235000903221
 20
215.0979812846257
 30
0.0
 10
128.3883140900758
 20
214.8611664182926
 30
0.0
 10
128.5743935522599
 20
214.6389082610702
 30
0.0
 10
128.7814178172633
 20
214.432052818082
 30
0.0
 10
129.0066167738403
 20
214.2429390297463
 30
0.0
 10
129.2494816364771
 20
214.0722906414975
 30
0.0
 10
129.5069502791291
 20
213.92197332536
 30
0.0
 10
129.7782281732604
 20
213.7926499896994
 30
0.0
 10
130.0601813280179
 20
213.6856170623421
 30
0.0
 10
130.3516184811587
 20
213.6014699246586
 30
0.0
 10
130.649556424678
 20
213.5409254159563
 30
0.0
 10
130.9523220894618
 20
213.5044382192157
 30
0.0
 10
131.2572704266855
 20
213.4922111628649
 30
0.0
 10
131.5622187639089
 20
213.5044382192157
 30
0.0
 10
131.8649844286939
 20
213.5409254159565
 30
0.0
 10
132.1629223722089
 20
213.6014699246582
 30
0.0
 10
132.454359525366
 20
213.6856170623434
 30
0.0
 10
132.7363126800626
 20
213.7926499896947
 30
0.0
 10
133.007590574419
 20
213.9219733253771
 30
0.0
 10
133.2650592162362
 20
214.0722906414347
 30
0.0
 10
133.5079240819484
 20
214.2429390299773
 30
0.0
 10
133.7331230271354
 20
214.4320528172248
 30
0.0
 10
133.9401473340529
 20
214.6389082642174
 30
0.0
 10
134.126226641014
 20
214.8611664066101
 30
0.0
 10
134.2910412122548
 20
215.0979813275424
 30
0.0
 10
134.432286962401
 20
215.3467125948067
 30
0.0
 10
134.5497967461596
 20
215.6062842454569
 30
0.0
 10
134.6417946697332
 20
215.8739694638162
 30
0.0
 10
134.7084400026483
 20
216.1483604456719
 30
0.0
 10
134.747942588595
 20
216.4268132225599
 30
0.0
 10
134.7629443684123
 20
216.7077103797703
 30
0.0
 10
134.7502404880068
 20
216.8943523284292
 30
0.0
 10
134.743888547804
 20
216.9876733027586
 30
0.0
 11
134.743888547804
 21
216.9876733027586
 31
0.0
 11
134.7039507383401
 21
217.2660000564922
 31
0.0
 11
134.637813519201
 21
217.5392740910411
 31
0.0
 11
134.5456596975352
 21
217.8072787618703
 31
0.0
 11
134.4289296462605
 21
218.065500399888
 31
0.0
 11
134.2873307080985
 21
218.3148870432384
 31
0.0
 11
134.1236531075744
 21
218.5503334210946
 31
0.0
 11
133.9369646339978
 21
218.7733852699188
 31
0.0
 11
133.731330423727
 21
218.979053326514
 31
0.0
 11
133.5053362696006
 21
219.1689047312585
 31
0.0
 11
133.2639334604784
 21
219.33867766263
 31
0.0
 11
133.005634345255
 21
219.4895393450634
 31
0.0
 11
132.735684933837
 21
219.6183392119949
 31
0.0
 11
132.4530513348426
 21
219.7256714440086
 31
0.0
 11
132.1626258207821
 21
219.809599465571
 31
0.0
 11
131.8643297821412
 21
219.8702341162666
 31
0.0
 11
131.562134227899
 21
219.9066924671826
 31
0.0
 11
131.2572704266854
 21
219.9189063528271
 31
0.0
 11
130.9524066254718
 21
219.9066924671826
 31
0.0
 11
130.6502110712297
 21
219.8702341162665
 31
0.0
 11
130.3519150325888
 21
219.8095994655709
 31
0.0
 11
130.0614895185284
 21
219.7256714440085
 31
0.0
 11
129.7788559195341
 21
219.6183392119948
 31
0.0
 11
129.508906508116
 21
219.4895393450632
 31
0.0
 11
129.2506073928926
 21
219.3386776626299
 31
0.0
 11
129.0092045837703
 21
219.1689047312584
 31
0.0
 11
128.7832104296439
 21
218.979053326514
 31
0.0
 11
128.577576219373
 21
218.7733852699188
 31
0.0
 11
128.3908877457965
 21
218.5503334210946
 31
0.0
 11
128.2272101452724
 21
218.3148870432385
 31
0.0
 11
128.0856112071105
 21
218.065500399888
 31
0.0
 11
127.9688811558358
 21
217.8072787618704
 31
0.0
 11
127.87672733417
 21
217.5392740910412
 31
0.0
 11
127.8105901150309
 21
217.2660000564923
 31
0.0
 11
127.770652305567
 21
216.9876733027586
 31
0.0
 11
127.7572704266855
 21
216.7075982081609
 31
0.0
 11
127.770652305567
 21
216.4275231135631
 31
0.0
 11
127.8105901150309
 21
216.1491963598294
 31
0.0
 11
127.8767273341699
 21
215.8759223252806
 31
0.0
 11
127.9688811558357
 21
215.6079176544514
 31
0.0
 11
128.0856112071105
 21
215.3496960164337
 31
0.0
 11
128.2272101452725
 21
215.1003093730833
 31
0.0
 11
128.3908877457965
 21
214.8648629952271
 31
0.0
 11
128.5775762193731
 21
214.6418111464029
 31
0.0
 11
128.7832104296439
 21
214.4361430898077
 31
0.0
 11
129.0092045837703
 21
214.2462916850632
 31
0.0
 11
129.2506073928926
 21
214.0765187536917
 31
0.0
 11
129.508906508116
 21
213.9256570712584
 31
0.0
 11
129.7788559195341
 21
213.7968572043268
 31
0.0
 11
130.0614895185284
 21
213.6895249723131
 31
0.0
 11
130.3519150325888
 21
213.6055969507508
 31
0.0
 11
130.6502110712298
 21
213.5449623000552
 31
0.0
 11
130.9524066254719
 21
213.5085039491391
 31
0.0
 11
131.2572704266854
 21
213.4962900634945
 31
0.0
 11
131.562134227899
 21
213.5085039491391
 31
0.0
 11
131.8643297821412
 21
213.5449623000552
 31
0.0
 11
132.1626258207822
 21
213.6055969507508
 31
0.0
 11
132.4530513348426
 21
213.6895249723132
 31
0.0
 11
132.7356849338369
 21
213.7968572043268
 31
0.0
 11
133.005634345255
 21
213.9256570712584
 31
0.0
 11
133.2639334604784
 21
214.0765187536918
 31
0.0
 11
133.5053362696006
 21
214.2462916850632
 31
0.0
 11
133.731330423727
 21
214.4361430898077
 31
0.0
 11
133.9369646339979
 21
214.6418111464029
 31
0.0
 11
134.1236531075744
 21
214.8648629952271
 31
0.0
 11
134.2873307080985
 21
215.1003093730833
 31
0.0
 11
134.4289296462605
 21
215.3496960164338
 31
0.0
 11
134.5456596975353
 21
215.6079176544513
 31
0.0
 11
134.6378135192011
 21
215.8759223252806
 31
0.0
 11
134.7039507383402
 21
216.1491963598294
 31
0.0
 11
134.743888547804
 21
216.4275231135631
 31
0.0
 11
134.7572704266854
 21
216.7075982081609
 31
0.0
 11
134.743888547804
 21
216.9876733027586
 31
0.0
  0
ENDBLK
  5
4D
330
4B
100
AcDbEntity
  8
0
100
AcDbBlockEnd
  0
BLOCK
  5
4F
330
4E
100
AcDbEntity
  8
0
100
AcDbBlockBegin
  2
36-1A-13-M4
 70
     0
 71
     0
 10
14.6881444172493
 20
330.3480544667948
 30
0.0
  3
36-1A-13-M4
  1

  0
LINE
  5
1D1
330
4E
100
AcDbEntity
  8
1
  6
Continuous
 62
     7
100
AcDbLine
 10
143.7572604266856
 20
223.2159284573585
 30
0.0
 11
141.7572704266855
 21
223.2159284573585
 31
0.0
  0
LINE
  5
1D2
330
4E
100
AcDbEntity
  8
1
  6
Continuous
 62
     7
100
AcDbLine
 10
141.7572704266855
 20
232.7159284573586
 30
0.0
 11
143.7572604266856
 21
232.7159284573586
 31
0.0
  0
LINE
  5
1D3
330
4E
100
AcDbEntity
  8
1
  6
Continuous
 62
     7
100
AcDbLine
 10
143.7572604266856
 20
558.5576338397302
 30
0.0
 11
141.7572704266855
 21
558.5576338397302
 31
0.0
  0
LINE
  5
1D4
330
4E
100
AcDbEntity
  8
1
  6
Continuous
 62
     7
100
AcDbLine
 10
141.7572704266855
 20
568.0576338397302
 30
0.0
 11
143.7572604266856
 21
568.0576338397302
 31
0.0
  0
ENDBLK
  5
50
330
4E
100
AcDbEntity
  8
0
100
AcDbBlockEnd
  0
BLOCK
  5
55
330
51
100
AcDbEntity
  8
0
100
AcDbBlockBegin
  2
R10A-13
 70
     0
 71
     0
 10
158.2572704266855
 20
182.9659284573586
 30
0.0
  3
R10A-13
  1

  0
INSERT
  5
52
330
51
100
AcDbEntity
  8
0
100
AcDbBlockReference
  2
R20F
 10
167.355810212903
 20
209.5411541694329
 30
0.0
  0
INSERT
  5
53
330
51
100
AcDbEntity
  8
0
100
AcDbBlockReference
  2
37-1-13
 10
-4.23843546345902
 20
319.7671586741296
 30
0.0
  0
INSERT
  5
54
330
51
100
AcDbEntity
  8
0
100
AcDbBlockReference
  2
36-1A-13-M4
 10
14.6881444172493
 20
330.3480544667948
 30
0.0
  0
LINE
  5
1D5
330
51
100
AcDbEntity
  8
1
  6
PHANTOM
 62
     4
100
AcDbLine
 10
129.7572704266855
 20
227.9659284573586
 30
0.0
 11
140.7572704266855
 21
227.9659284573586
 31
0.0
  0
ENDBLK
  5
56
330
51
100
AcDbEntity
  8
0
100
AcDbBlockEnd
  0
BLOCK
  5
58
330
57
100
AcDbEntity
  8
0
100
AcDbBlockBegin
  2
21-9-M1
 70
     0
 71
     0
 10
627.7389713189832
 20
444.3283009256315
 30
0.0
  3
21-9-M1
  1

  0
LINE
  5
1D6
330
57
100
AcDbEntity
  8
_______C____
  6
Continuous
 62
     7
100
AcDbLine
 10
390.89759250601
 20
207.8143974573729
 30
0.0
 11
390.89759250601
 21
211.0662244573731
 31
0.0
  0
LINE
  5
1D7
330
57
100
AcDbEntity
  8
_______C____
  6
Continuous
 62
     7
100
AcDbLine
 10
167.7572704266855
 20
227.9637037863354
 30
0.0
 11
167.7572704266855
 21
218.9159287863353
 31
0.0
  0
LINE
  5
1D8
330
57
100
AcDbEntity
  8
_______C____
  6
Continuous
 62
     7
100
AcDbLine
 10
161.7572704266855
 20
248.1174597863353
 30
0.0
 11
161.7591564266855
 21
247.1174617863353
 31
0.0
  0
LINE
  5
1D9
330
57
100
AcDbEntity
  8
_______C____
  6
Continuous
 62
     7
100
AcDbLine
 10
167.7572704266855
 20
227.9681537863353
 30
0.0
 11
167.7572704266855
 21
237.4431537863352
 31
0.0
  0
LINE
  5
1DA
330
57
100
AcDbEntity
  8
_______C____
  6
Continuous
 62
     7
100
AcDbLine
 10
161.7572704266855
 20
207.8143977863355
 30
0.0
 11
161.7591564266855
 21
208.8143957863355
 31
0.0
  0
LINE
  5
1DB
330
57
100
AcDbEntity
  8
1
  6
PHANTOM
 62
     4
100
AcDbLine
 10
157.2572704266855
 20
189.9659297863353
 30
0.0
 11
157.2572704266855
 21
265.9659277863356
 31
0.0
  0
LINE
  5
1DC
330
57
100
AcDbEntity
  8
1
  6
PHANTOM
 62
     4
100
AcDbLine
 10
171.4572704266854
 20
227.9659281742404
 30
0.0
 11
140.7572604266856
 21
227.9659287863353
 31
0.0
  0
LINE
  5
1DD
330
57
100
AcDbEntity
  8
1
  6
Continuous
 62
     7
100
AcDbLine
 10
143.9572604266857
 20
239.4659277863356
 30
0.0
 11
146.7935984266856
 21
239.4659277863356
 31
0.0
  0
LINE
  5
1DE
330
57
100
AcDbEntity
  8
1
  6
Continuous
 62
     7
100
AcDbLine
 10
143.7572604266856
 20
239.2659277863354
 30
0.0
 11
143.7572604266856
 21
227.9659287265215
 31
0.0
  0
LINE
  5
1DF
330
57
100
AcDbEntity
  8
1
  6
Continuous
 62
     7
100
AcDbLine
 10
143.7572604266856
 20
227.965928651222
 30
0.0
 11
143.7572604266856
 21
216.6659295914081
 31
0.0
  0
LINE
  5
1E0
330
57
100
AcDbEntity
  8
1
  6
Continuous
 62
     7
100
AcDbLine
 10
146.7935984266856
 20
216.4659297863354
 30
0.0
 11
143.9572604266857
 21
216.465929591408
 31
0.0
  0
LINE
  5
1E1
330
57
100
AcDbEntity
  8
1
  6
Continuous
 62
     2
100
AcDbLine
 10
143.9572604266857
 20
239.4659277863356
 30
0.0
 11
143.7572604266856
 21
239.4659277863356
 31
0.0
  0
LINE
  5
1E2
330
57
100
AcDbEntity
  8
1
  6
Continuous
 62
     2
100
AcDbLine
 10
143.7572604266856
 20
239.4659277863356
 30
0.0
 11
143.7572604266856
 21
239.2659277863354
 31
0.0
  0
LINE
  5
1E3
330
57
100
AcDbEntity
  8
1
  6
Continuous
 62
     2
100
AcDbLine
 10
143.7572604266856
 20
216.6659297863354
 30
0.0
 11
143.7572604266856
 21
216.4659297863352
 31
0.0
  0
LINE
  5
1E4
330
57
100
AcDbEntity
  8
1
  6
Continuous
 62
     2
100
AcDbLine
 10
143.7572604266856
 20
216.4659297863352
 30
0.0
 11
143.9572604266857
 21
216.4659297863352
 31
0.0
  0
LINE
  5
1E5
330
57
100
AcDbEntity
  8
_______C____
  6
Continuous
 62
     7
100
AcDbLine
 10
167.7572704266855
 20
218.7159287863354
 30
0.0
 11
167.7572704266855
 21
218.4887037863354
 31
0.0
  0
LINE
  5
1E6
330
57
100
AcDbEntity
  8
1
  6
Continuous
 62
     7
100
AcDbLine
 10
167.7572704266855
 20
218.9159287863353
 30
0.0
 11
167.7572704266855
 21
218.7159287863354
 31
0.0
  0
LINE
  5
1E7
330
57
100
AcDbEntity
  8
1
  6
Continuous
 62
     7
100
AcDbLine
 10
167.7572704266855
 20
554.2576341687069
 30
0.0
 11
167.7572704266855
 21
554.0576341687071
 31
0.0
  0
LINE
  5
1E8
330
57
100
AcDbEntity
  8
_______C____
  6
Continuous
 62
     7
100
AcDbLine
 10
167.7572704266855
 20
554.0576341687071
 30
0.0
 11
167.7572704266855
 21
553.830409168707
 31
0.0
  0
LINE
  5
1E9
330
57
100
AcDbEntity
  8
1
  6
Continuous
 62
     2
100
AcDbLine
 10
143.7572604266856
 20
551.8076351687068
 30
0.0
 11
143.9572604266857
 21
551.8076351687068
 31
0.0
  0
LINE
  5
1EA
330
57
100
AcDbEntity
  8
1
  6
Continuous
 62
     2
100
AcDbLine
 10
143.7572604266856
 20
552.007635168707
 30
0.0
 11
143.7572604266856
 21
551.8076351687068
 31
0.0
  0
LINE
  5
1EB
330
57
100
AcDbEntity
  8
1
  6
Continuous
 62
     2
100
AcDbLine
 10
143.7572604266856
 20
574.8076331687072
 30
0.0
 11
143.7572604266856
 21
574.607633168707
 31
0.0
  0
LINE
  5
1EC
330
57
100
AcDbEntity
  8
1
  6
Continuous
 62
     2
100
AcDbLine
 10
143.9572604266857
 20
574.8076331687072
 30
0.0
 11
143.7572604266856
 21
574.8076331687072
 31
0.0
  0
LINE
  5
1ED
330
57
100
AcDbEntity
  8
1
  6
Continuous
 62
     7
100
AcDbLine
 10
146.7935984266856
 20
551.8076351687071
 30
0.0
 11
143.9572604266857
 21
551.8076349737796
 31
0.0
  0
LINE
  5
1EE
330
57
100
AcDbEntity
  8
1
  6
Continuous
 62
     7
100
AcDbLine
 10
143.7572604266856
 20
563.3076340335937
 30
0.0
 11
143.7572604266856
 21
552.0076349737798
 31
0.0
  0
LINE
  5
1EF
330
57
100
AcDbEntity
  8
1
  6
Continuous
 62
     7
100
AcDbLine
 10
143.7572604266856
 20
574.607633168707
 30
0.0
 11
143.7572604266856
 21
563.3076341088931
 31
0.0
  0
LINE
  5
1F0
330
57
100
AcDbEntity
  8
1
  6
Continuous
 62
     7
100
AcDbLine
 10
143.9572604266857
 20
574.8076331687072
 30
0.0
 11
146.7935984266856
 21
574.8076331687072
 31
0.0
  0
LINE
  5
1F1
330
57
100
AcDbEntity
  8
1
  6
PHANTOM
 62
     4
100
AcDbLine
 10
171.4572704266854
 20
563.307633556612
 30
0.0
 11
140.7572604266856
 21
563.307634168707
 31
0.0
  0
LINE
  5
1F2
330
57
100
AcDbEntity
  8
1
  6
PHANTOM
 62
     4
100
AcDbLine
 10
157.2572704266855
 20
525.307635168707
 30
0.0
 11
157.2572704266855
 21
601.3076331687072
 31
0.0
  0
LINE
  5
1F3
330
57
100
AcDbEntity
  8
_______C____
  6
Continuous
 62
     7
100
AcDbLine
 10
161.7572704266855
 20
543.1561031687071
 30
0.0
 11
161.7591564266855
 21
544.1561011687071
 31
0.0
  0
LINE
  5
1F4
330
57
100
AcDbEntity
  8
_______C____
  6
Continuous
 62
     7
100
AcDbLine
 10
167.7572704266855
 20
563.3098591687069
 30
0.0
 11
167.7572704266855
 21
572.7848591687068
 31
0.0
  0
LINE
  5
1F5
330
57
100
AcDbEntity
  8
_______C____
  6
Continuous
 62
     7
100
AcDbLine
 10
161.7572704266855
 20
583.4591651687069
 30
0.0
 11
161.7591564266855
 21
582.4591671687069
 31
0.0
  0
LINE
  5
1F6
330
57
100
AcDbEntity
  8
_______C____
  6
Continuous
 62
     7
100
AcDbLine
 10
167.7572704266855
 20
563.305409168707
 30
0.0
 11
167.7572704266855
 21
554.2576341687069
 31
0.0
  0
LINE
  5
1F7
330
57
100
AcDbEntity
  8
1
  6
Continuous
 62
     7
100
AcDbLine
 10
400.9111017811565
 20
234.8914671799691
 30
0.0
 11
401.016255102899
 21
234.9966205017115
 31
0.0
  0
LINE
  5
1F8
330
57
100
AcDbEntity
  8
1
  6
Continuous
 62
     7
100
AcDbLine
 10
402.3231312286162
 20
233.4794377325068
 30
0.0
 11
402.4282845503584
 21
233.5845910542491
 31
0.0
  0
LINE
  5
1F9
330
57
100
AcDbEntity
  8
1
  6
PHANTOM
 62
     4
100
AcDbLine
 10
357.3975925060101
 20
227.9659284573585
 30
0.0
 11
433.3975925060097
 21
227.9659284573585
 31
0.0
  0
LINE
  5
1FA
330
57
100
AcDbEntity
  8
1
  6
PHANTOM
 62
     4
100
AcDbLine
 10
395.3975925059946
 20
265.965928457373
 30
0.0
 11
395.3975925059946
 21
189.9659284573728
 31
0.0
  0
LINE
  5
1FB
330
57
100
AcDbEntity
  8
_______C____
  6
Continuous
 62
     7
100
AcDbLine
 10
415.5491235060099
 20
223.4659284573729
 30
0.0
 11
412.2972965060102
 21
223.4659284573729
 31
0.0
  0
LINE
  5
1FC
330
57
100
AcDbEntity
  8
_______C____
  6
Continuous
 62
     7
100
AcDbLine
 10
375.2460615060101
 20
223.4659284573729
 30
0.0
 11
378.49788850601
 21
223.4659284573729
 31
0.0
  0
LINE
  5
1FD
330
57
100
AcDbEntity
  8
_______C____
  6
Continuous
 62
     7
100
AcDbLine
 10
375.2460615060101
 20
232.4659284573729
 30
0.0
 11
378.49788850601
 21
232.4659284573729
 31
0.0
  0
LINE
  5
1FE
330
57
100
AcDbEntity
  8
_______C____
  6
Continuous
 62
     7
100
AcDbLine
 10
399.89759250601
 20
248.117459457373
 30
0.0
 11
399.89759250601
 21
244.8656324573732
 31
0.0
  0
LINE
  5
1FF
330
57
100
AcDbEntity
  8
_______C____
  6
Continuous
 62
     7
100
AcDbLine
 10
399.89759250601
 20
207.8143974573729
 30
0.0
 11
399.89759250601
 21
211.0662244573731
 31
0.0
  0
LINE
  5
200
330
57
100
AcDbEntity
  8
_______C____
  6
Continuous
 62
     7
100
AcDbLine
 10
415.5491235060099
 20
232.4659284573729
 30
0.0
 11
412.2972975060101
 21
232.4659284573729
 31
0.0
  0
LINE
  5
201
330
57
100
AcDbEntity
  8
_______C____
  6
Continuous
 62
     7
100
AcDbLine
 10
390.89759250601
 20
248.117459457373
 30
0.0
 11
390.89759250601
 21
244.8656324573732
 31
0.0
  0
ARC
  5
202
330
57
100
AcDbEntity
  8
_______C____
  6
Continuous
 62
     7
100
AcDbCircle
 10
415.5491235059798
 20
220.4659284573738
 30
0.0
 40
3.000000000000196
100
AcDbArc
 50
45.58469100000578
 51
90.0
  0
ARC
  5
203
330
57
100
AcDbEntity
  8
_______C____
  6
Continuous
 62
     7
100
AcDbCircle
 10
174.1591564266855
 20
247.1174617863353
 30
0.0
 40
12.40000000000001
100
AcDbArc
 50
180.0
 51
-148.6996239999986
  0
ARC
  5
204
330
57
100
AcDbEntity
  8
_______C____
  6
Continuous
 62
     7
100
AcDbCircle
 10
157.2575704266856
 20
258.9659297863356
 30
0.0
 40
42.49999999999999
100
AcDbArc
 50
-77.13188000000031
 51
-76.65806099999996
  0
ARC
  5
205
330
57
100
AcDbEntity
  8
_______C____
  6
Continuous
 62
     7
100
AcDbCircle
 10
174.1591564266855
 20
208.8143957863355
 30
0.0
 40
12.39999999999968
100
AcDbArc
 50
148.6996240000022
 51
180.0
  0
ARC
  5
206
330
57
100
AcDbEntity
  8
_______C____
  6
Continuous
 62
     7
100
AcDbCircle
 10
157.2572704266855
 20
255.4659277863356
 30
0.0
 40
7.5
100
AcDbArc
 50
90.0
 51
-135.5955179999965
  0
ARC
  5
207
330
57
100
AcDbEntity
  8
_______C____
  6
Continuous
 62
     7
100
AcDbCircle
 10
167.8361864266855
 20
243.2729777863355
 30
0.0
 40
5.000000000000106
100
AcDbArc
 50
-148.6996219999959
 51
-102.8681199999978
  0
ARC
  5
208
330
57
100
AcDbEntity
  8
_______C____
  6
Continuous
 62
     7
100
AcDbCircle
 10
166.8572704266854
 20
237.4431537863352
 30
0.0
 40
0.900000000000091
100
AcDbArc
 50
0.0
 51
76.65806099998834
  0
ARC
  5
209
330
57
100
AcDbEntity
  8
_______C____
  6
Continuous
 62
     7
100
AcDbCircle
 10
149.7572704266855
 20
248.1174597863353
 30
0.0
 40
3.0
100
AcDbArc
 50
0.0
 51
44.41530899999765
  0
ARC
  5
20A
330
57
100
AcDbEntity
  8
_______C____
  6
Continuous
 62
     7
100
AcDbCircle
 10
164.7572704266855
 20
248.1174597863353
 30
0.0
 40
2.999999999999912
100
AcDbArc
 50
135.5846909999997
 51
180.0
  0
ARC
  5
20B
330
57
100
AcDbEntity
  8
_______C____
  6
Continuous
 62
     7
100
AcDbCircle
 10
157.2575704266856
 20
196.9659277863356
 30
0.0
 40
42.49999999999993
100
AcDbArc
 50
76.65806099999989
 51
77.13187999999965
  0
ARC
  5
20C
330
57
100
AcDbEntity
  8
_______C____
  6
Continuous
 62
     7
100
AcDbCircle
 10
164.7572704266855
 20
207.8143977863355
 30
0.0
 40
3.0
100
AcDbArc
 50
180.0
 51
-135.5846910000024
  0
ARC
  5
20D
330
57
100
AcDbEntity
  8
_______C____
  6
Continuous
 62
     7
100
AcDbCircle
 10
149.7572704266855
 20
207.8143977863355
 30
0.0
 40
2.999999999999914
100
AcDbArc
 50
-44.41530899999494
 51
0.0
  0
ARC
  5
20E
330
57
100
AcDbEntity
  8
_______C____
  6
Continuous
 62
     7
100
AcDbCircle
 10
166.8572704266854
 20
218.4887037863354
 30
0.0
 40
0.9000000000000259
100
AcDbArc
 50
-76.65806099998542
 51
0.0
  0
ARC
  5
20F
330
57
100
AcDbEntity
  8
_______C____
  6
Continuous
 62
     7
100
AcDbCircle
 10
167.8361864266855
 20
212.6588797863354
 30
0.0
 40
5.000000000000372
100
AcDbArc
 50
102.868119999998
 51
148.699621999997
  0
ARC
  5
210
330
57
100
AcDbEntity
  8
_______C____
  6
Continuous
 62
     7
100
AcDbCircle
 10
157.2572704266855
 20
200.4659297863354
 30
0.0
 40
7.500000000000114
100
AcDbArc
 50
-90.0
 51
44.40448200000013
  0
ARC
  5
211
330
57
100
AcDbEntity
  8
_______C____
  6
Continuous
 62
     7
100
AcDbCircle
 10
140.3572704266854
 20
207.8143977863355
 30
0.0
 40
12.40000000000009
100
AcDbArc
 50
0.0
 51
32.78072599999812
  0
ARC
  5
212
330
57
100
AcDbEntity
  8
_______C____
  6
Continuous
 62
     7
100
AcDbCircle
 10
140.3572704266854
 20
207.8143977863355
 30
0.0
 40
12.40000000000009
100
AcDbArc
 50
0.0
 51
29.567605999999
  0
ARC
  5
213
330
57
100
AcDbEntity
  8
_______C____
  6
Continuous
 62
     7
100
AcDbCircle
 10
146.7935984266856
 20
211.4659297863354
 30
0.0
 40
4.999999999999756
100
AcDbArc
 50
29.56760599999653
 51
90.0
  0
ARC
  5
214
330
57
100
AcDbEntity
  8
_______C____
  6
Continuous
 62
     7
100
AcDbCircle
 10
146.7935984266856
 20
244.4659277863356
 30
0.0
 40
5.0
100
AcDbArc
 50
-90.0
 51
-29.56760599999879
  0
ARC
  5
215
330
57
100
AcDbEntity
  8
_______C____
  6
Continuous
 62
     7
100
AcDbCircle
 10
140.3572704266854
 20
248.1174597863353
 30
0.0
 40
12.40000000000015
100
AcDbArc
 50
-29.56760599999934
 51
0.0
  0
ARC
  5
216
330
57
100
AcDbEntity
  8
_______C____
  6
Continuous
 62
     7
100
AcDbCircle
 10
157.2572704266855
 20
255.4659277863356
 30
0.0
 40
7.500000000000499
100
AcDbArc
 50
-44.40448200000184
 51
90.0
  0
ARC
  5
217
330
57
100
AcDbEntity
  8
_______C____
  6
Continuous
 62
     7
100
AcDbCircle
 10
157.2572704266855
 20
200.4659297863354
 30
0.0
 40
7.500000000000057
100
AcDbArc
 50
135.5955179999982
 51
-90.0
  0
ARC
  5
218
330
57
100
AcDbEntity
  8
_______C____
  6
Continuous
 62
     7
100
AcDbCircle
 10
157.2572704266855
 20
535.8076351687071
 30
0.0
 40
7.500000000000057
100
AcDbArc
 50
135.5955179999982
 51
-90.0
  0
ARC
  5
219
330
57
100
AcDbEntity
  8
_______C____
  6
Continuous
 62
     7
100
AcDbCircle
 10
157.2572704266855
 20
590.8076331687072
 30
0.0
 40
7.50000000000044
100
AcDbArc
 50
-44.40448200000137
 51
90.0
  0
ARC
  5
21A
330
57
100
AcDbEntity
  8
_______C____
  6
Continuous
 62
     7
100
AcDbCircle
 10
140.3572704266854
 20
583.4591651687069
 30
0.0
 40
12.40000000000016
100
AcDbArc
 50
-29.56760599999946
 51
0.0
  0
ARC
  5
21B
330
57
100
AcDbEntity
  8
_______C____
  6
Continuous
 62
     7
100
AcDbCircle
 10
146.7935984266856
 20
579.8076331687072
 30
0.0
 40
5.0
100
AcDbArc
 50
-90.0
 51
-29.5676059999985
  0
ARC
  5
21C
330
57
100
AcDbEntity
  8
_______C____
  6
Continuous
 62
     7
100
AcDbCircle
 10
146.7935984266856
 20
546.8076351687071
 30
0.0
 40
4.999999999999742
100
AcDbArc
 50
29.56760599999624
 51
90.0
  0
ARC
  5
21D
330
57
100
AcDbEntity
  8
_______C____
  6
Continuous
 62
     7
100
AcDbCircle
 10
140.3572704266854
 20
543.1561031687071
 30
0.0
 40
12.40000000000009
100
AcDbArc
 50
0.0
 51
29.567605999999
  0
ARC
  5
21E
330
57
100
AcDbEntity
  8
_______C____
  6
Continuous
 62
     7
100
AcDbCircle
 10
140.3572704266854
 20
543.1561031687071
 30
0.0
 40
12.40000000000009
100
AcDbArc
 50
0.0
 51
32.78072599999834
  0
ARC
  5
21F
330
57
100
AcDbEntity
  8
_______C____
  6
Continuous
 62
     7
100
AcDbCircle
 10
157.2572704266855
 20
535.8076351687071
 30
0.0
 40
7.500000000000114
100
AcDbArc
 50
-90.0
 51
44.40448200000013
  0
ARC
  5
220
330
57
100
AcDbEntity
  8
_______C____
  6
Continuous
 62
     7
100
AcDbCircle
 10
167.8361864266855
 20
548.0005851687071
 30
0.0
 40
5.000000000000345
100
AcDbArc
 50
102.8681199999981
 51
148.6996219999973
  0
ARC
  5
221
330
57
100
AcDbEntity
  8
_______C____
  6
Continuous
 62
     7
100
AcDbCircle
 10
166.8572704266854
 20
553.830409168707
 30
0.0
 40
0.8999999999999706
100
AcDbArc
 50
-76.65806099998459
 51
0.0
  0
ARC
  5
222
330
57
100
AcDbEntity
  8
_______C____
  6
Continuous
 62
     7
100
AcDbCircle
 10
149.7572704266855
 20
543.1561031687071
 30
0.0
 40
2.999999999999874
100
AcDbArc
 50
-44.41530899999417
 51
0.0
  0
ARC
  5
223
330
57
100
AcDbEntity
  8
_______C____
  6
Continuous
 62
     7
100
AcDbCircle
 10
164.7572704266855
 20
543.1561031687071
 30
0.0
 40
3.0
100
AcDbArc
 50
180.0
 51
-135.5846910000032
  0
ARC
  5
224
330
57
100
AcDbEntity
  8
_______C____
  6
Continuous
 62
     7
100
AcDbCircle
 10
157.2575704266856
 20
532.3076331687072
 30
0.0
 40
42.49999999999993
100
AcDbArc
 50
76.65806099999989
 51
77.13187999999968
  0
ARC
  5
225
330
57
100
AcDbEntity
  8
_______C____
  6
Continuous
 62
     7
100
AcDbCircle
 10
164.7572704266855
 20
583.4591651687069
 30
0.0
 40
2.999999999999892
100
AcDbArc
 50
135.5846910000001
 51
180.0
  0
ARC
  5
226
330
57
100
AcDbEntity
  8
_______C____
  6
Continuous
 62
     7
100
AcDbCircle
 10
149.7572704266855
 20
583.4591651687069
 30
0.0
 40
3.0
100
AcDbArc
 50
0.0
 51
44.41530899999727
  0
ARC
  5
227
330
57
100
AcDbEntity
  8
_______C____
  6
Continuous
 62
     7
100
AcDbCircle
 10
166.8572704266854
 20
572.7848591687068
 30
0.0
 40
0.900000000000091
100
AcDbArc
 50
0.0
 51
76.65806099998794
  0
ARC
  5
228
330
57
100
AcDbEntity
  8
_______C____
  6
Continuous
 62
     7
100
AcDbCircle
 10
167.8361864266855
 20
578.6146831687071
 30
0.0
 40
5.000000000000091
100
AcDbArc
 50
-148.6996219999961
 51
-102.8681199999978
  0
ARC
  5
229
330
57
100
AcDbEntity
  8
_______C____
  6
Continuous
 62
     7
100
AcDbCircle
 10
157.2572704266855
 20
590.8076331687072
 30
0.0
 40
7.5
100
AcDbArc
 50
90.0
 51
-135.595517999997
  0
ARC
  5
22A
330
57
100
AcDbEntity
  8
_______C____
  6
Continuous
 62
     7
100
AcDbCircle
 10
174.1591564266855
 20
544.1561011687071
 30
0.0
 40
12.3999999999997
100
AcDbArc
 50
148.6996240000021
 51
180.0
  0
ARC
  5
22B
330
57
100
AcDbEntity
  8
_______C____
  6
Continuous
 62
     7
100
AcDbCircle
 10
157.2575704266856
 20
594.3076351687072
 30
0.0
 40
42.49999999999999
100
AcDbArc
 50
-77.13188000000031
 51
-76.65806099999993
  0
ARC
  5
22C
330
57
100
AcDbEntity
  8
_______C____
  6
Continuous
 62
     7
100
AcDbCircle
 10
174.1591564266855
 20
582.4591671687069
 30
0.0
 40
12.40000000000001
100
AcDbArc
 50
180.0
 51
-148.6996239999985
  0
ARC
  5
22D
330
57
100
AcDbEntity
  8
1
  6
Continuous
 62
     7
100
AcDbCircle
 10
401.7615535366859
 20
234.3298894880375
 30
0.0
 40
1.000000000000117
100
AcDbArc
 50
-48.18473853607282
 51
138.1847385359522
  0
ARC
  5
22E
330
57
100
AcDbEntity
  8
_______C____
  6
Continuous
 62
     7
100
AcDbCircle
 10
378.49788850601
 20
211.0659284573733
 30
0.0
 40
12.39999999999988
100
AcDbArc
 50
45.00050199999872
 51
90.0
  0
ARC
  5
22F
330
57
100
AcDbEntity
  8
_______C____
  6
Continuous
 62
     7
100
AcDbCircle
 10
378.49788850601
 20
244.8659284573731
 30
0.0
 40
12.40000000000018
100
AcDbArc
 50
-90.0
 51
-45.00050199999937
  0
ARC
  5
230
330
57
100
AcDbEntity
  8
_______C____
  6
Continuous
 62
     7
100
AcDbCircle
 10
412.2972965060102
 20
211.0659284573733
 30
0.0
 40
12.39999999999961
100
AcDbArc
 50
90.0
 51
134.9994980000019
  0
ARC
  5
231
330
57
100
AcDbEntity
  8
_______C____
  6
Continuous
 62
     7
100
AcDbCircle
 10
387.89759250601
 20
248.117459457373
 30
0.0
 40
3.0
100
AcDbArc
 50
0.0
 51
44.41530899999917
  0
ARC
  5
232
330
57
100
AcDbEntity
  8
_______C____
  6
Continuous
 62
     7
100
AcDbCircle
 10
375.2460615060101
 20
235.4659284573729
 30
0.0
 40
3.000000000000235
100
AcDbArc
 50
-134.4153089999981
 51
-90.0
  0
ARC
  5
233
330
57
100
AcDbEntity
  8
_______C____
  6
Continuous
 62
     7
100
AcDbCircle
 10
375.2460615060101
 20
220.4659284573729
 30
0.0
 40
3.0
100
AcDbArc
 50
90.0
 51
134.4153089999916
  0
ARC
  5
234
330
57
100
AcDbEntity
  8
_______C____
  6
Continuous
 62
     7
100
AcDbCircle
 10
387.89759250601
 20
207.8143974573729
 30
0.0
 40
2.999999999999774
100
AcDbArc
 50
-44.4153089999953
 51
0.0
  0
ARC
  5
235
330
57
100
AcDbEntity
  8
_______C____
  6
Continuous
 62
     7
100
AcDbCircle
 10
402.89759250601
 20
207.8143974573729
 30
0.0
 40
3.0
100
AcDbArc
 50
180.0
 51
-135.5846910000024
  0
ARC
  5
236
330
57
100
AcDbEntity
  8
_______C____
  6
Continuous
 62
     7
100
AcDbCircle
 10
412.29759250601
 20
244.8656324573732
 30
0.0
 40
12.39999999999998
100
AcDbArc
 50
180.0
 51
-135.0005020000007
  0
ARC
  5
237
330
57
100
AcDbEntity
  8
_______C____
  6
Continuous
 62
     7
100
AcDbCircle
 10
378.4975925060102
 20
244.8656324573732
 30
0.0
 40
12.39999999999965
100
AcDbArc
 50
-44.99949800000026
 51
0.0
  0
ARC
  5
238
330
57
100
AcDbEntity
  8
_______C____
  6
Continuous
 62
     7
100
AcDbCircle
 10
412.29759250601
 20
211.0662244573731
 30
0.0
 40
12.39999999999986
100
AcDbArc
 50
135.0005020000007
 51
180.0
  0
ARC
  5
239
330
57
100
AcDbEntity
  8
_______C____
  6
Continuous
 62
     7
100
AcDbCircle
 10
378.4975925060102
 20
211.0662244573731
 30
0.0
 40
12.39999999999981
100
AcDbArc
 50
0.0
 51
44.99949800000026
  0
ARC
  5
23A
330
57
100
AcDbEntity
  8
_______C____
  6
Continuous
 62
     7
100
AcDbCircle
 10
412.2972965060102
 20
244.8659284573731
 30
0.0
 40
12.40000000000014
100
AcDbArc
 50
-134.9994980000012
 51
-90.0
  0
ARC
  5
23B
330
57
100
AcDbEntity
  8
_______C____
  6
Continuous
 62
     7
100
AcDbCircle
 10
395.39759250601
 20
200.4659284573729
 30
0.0
 40
7.500000000000336
100
AcDbArc
 50
135.5846909999952
 51
44.41530800000345
  0
ARC
  5
23C
330
57
100
AcDbEntity
  8
_______C____
  6
Continuous
 62
     7
100
AcDbCircle
 10
367.89759250601
 20
227.9659284573729
 30
0.0
 40
7.500000000000338
100
AcDbArc
 50
45.58469400000358
 51
-45.5846929999998
  0
ARC
  5
23D
330
57
100
AcDbEntity
  8
_______C____
  6
Continuous
 62
     7
100
AcDbCircle
 10
395.39759250601
 20
255.4659284573729
 30
0.0
 40
7.499999999999586
100
AcDbArc
 50
-44.41531099999703
 51
-135.5846920000003
  0
ARC
  5
23E
330
57
100
AcDbEntity
  8
_______C____
  6
Continuous
 62
     7
100
AcDbCircle
 10
402.89759250601
 20
248.117459457373
 30
0.0
 40
2.999999999999851
100
AcDbArc
 50
135.5846909999986
 51
180.0
  0
ARC
  5
23F
330
57
100
AcDbEntity
  8
_______C____
  6
Continuous
 62
     7
100
AcDbCircle
 10
395.39759250601
 20
227.9659284573729
 30
0.0
 40
9.000000000000361
100
AcDbArc
 50
52.96415715515695
 51
0.0
  0
ARC
  5
240
330
57
100
AcDbEntity
  8
_______C____
  6
Continuous
 62
     7
100
AcDbCircle
 10
395.39759250601
 20
227.9659284573729
 30
0.0
 40
9.0
100
AcDbArc
 50
0.0
 51
37.03584284482948
  0
ARC
  5
241
330
57
100
AcDbEntity
  8
1
  6
Continuous
 62
     7
100
AcDbCircle
 10
395.3975925059946
 20
227.9659284573585
 30
0.0
 40
9.000000000021146
100
AcDbArc
 50
51.36947707337495
 51
52.96415715513393
  0
ARC
  5
242
330
57
100
AcDbEntity
  8
1
  6
Continuous
 62
     7
100
AcDbCircle
 10
395.3975925059946
 20
227.9659284573585
 30
0.0
 40
9.000000000021046
100
AcDbArc
 50
37.03584284484364
 51
38.63052292651383
  0
ARC
  5
243
330
57
100
AcDbEntity
  8
_______C____
  6
Continuous
 62
     7
100
AcDbCircle
 10
422.8975925059798
 20
227.9659284573741
 30
0.0
 40
7.500000000000059
100
AcDbArc
 50
-134.4153090000017
 51
134.4153080000022
  0
ARC
  5
244
330
57
100
AcDbEntity
  8
_______C____
  6
Continuous
 62
     7
100
AcDbCircle
 10
415.5491235059798
 20
235.4659284573741
 30
0.0
 40
3.0
100
AcDbArc
 50
-90.0
 51
-45.58469100000008
  0
CIRCLE
  5
245
330
57
100
AcDbEntity
  8
1
  6
Continuous
 62
     7
100
AcDbCircle
 10
157.2572704266855
 20
227.9659287863353
 30
0.0
 40
7.500000000000021
  0
CIRCLE
  5
246
330
57
100
AcDbEntity
  8
1
  6
Continuous
 62
     7
100
AcDbCircle
 10
157.2572704266855
 20
563.307634168707
 30
0.0
 40
7.500000000000021
  0
ARC
  5
247
330
57
100
AcDbEntity
  8
1
  6
Continuous
 62
     7
100
AcDbCircle
 10
143.9572604266857
 20
239.2659277863354
 30
0.0
 40
0.200000000000216
100
AcDbArc
 50
90.0
 51
180.0
  0
ARC
  5
248
330
57
100
AcDbEntity
  8
1
  6
Continuous
 62
     7
100
AcDbCircle
 10
143.9572604266857
 20
216.6659295914081
 30
0.0
 40
0.2000000000001023
100
AcDbArc
 50
180.0
 51
-90.0
  0
ARC
  5
249
330
57
100
AcDbEntity
  8
1
  6
Continuous
 62
     7
100
AcDbCircle
 10
143.9572604266857
 20
552.0076349737798
 30
0.0
 40
0.2000000000001023
100
AcDbArc
 50
180.0
 51
-90.0
  0
ARC
  5
24A
330
57
100
AcDbEntity
  8
1
  6
Continuous
 62
     7
100
AcDbCircle
 10
143.9572604266857
 20
574.607633168707
 30
0.0
 40
0.2000000000001592
100
AcDbArc
 50
90.0
 51
180.0
  0
ENDBLK
  5
59
330
57
100
AcDbEntity
  8
0
100
AcDbBlockEnd
  0
BLOCK
  5
5B
330
5A
100
AcDbEntity
  8
0
100
AcDbBlockBegin
  2
84-338
 70
     0
 71
     0
 10
614.6414680048572
 20
620.3690297494059
 30
0.0
  3
84-338
  1

  0
LINE
  5
24B
330
5A
100
AcDbEntity
  8
1
  6
PHANTOM
 62
     4
100
AcDbLine
 10
383.5453684280755
 20
227.9659284573586
 30
0.0
 11
407.2498165839137
 21
227.9659284573586
 31
0.0
  0
LINE
  5
24C
330
5A
100
AcDbEntity
  8
1
  6
PHANTOM
 62
     4
100
AcDbLine
 10
395.3975925059946
 20
216.1137043794395
 30
0.0
 11
395.3975925059946
 21
239.8181525352777
 31
0.0
  0
ARC
  5
24D
330
5A
100
AcDbEntity
  8
_______C____
  6
Continuous
 62
     7
100
AcDbCircle
 10
167.5447075348802
 20
221.006509120081
 30
0.0
 40
1.000000000000411
100
AcDbArc
 50
-32.72270600001746
 51
-6.77418000001114
  0
ARC
  5
24E
330
5A
100
AcDbEntity
  8
1
  6
Continuous
 62
     7
100
AcDbCircle
 10
108.9611023266167
 20
227.9659271200812
 30
0.0
 40
59.99552778043419
100
AcDbArc
 50
-6.77467342665275
 51
0.00000127710143
  0
ARC
  5
24F
330
5A
100
AcDbEntity
  8
1
  6
Continuous
 62
     7
100
AcDbCircle
 10
108.9611023266167
 20
227.965929794637
 30
0.0
 40
59.99552778043422
100
AcDbArc
 50
-0.0000012771016
 51
6.77467342665256
  0
ARC
  5
250
330
5A
100
AcDbEntity
  8
_______C____
  6
Continuous
 62
     7
100
AcDbCircle
 10
167.5447075348802
 20
234.9253477946369
 30
0.0
 40
1.00000000000024
100
AcDbArc
 50
6.77418000001599
 51
32.72270600001746
  0
ARC
  5
251
330
5A
100
AcDbEntity
  8
1
  6
DASH_CENTER
 62
     2
100
AcDbCircle
 10
108.8566214306635
 20
227.9659284573591
 30
0.0
 40
59.99997753533466
100
AcDbArc
 50
-7.18075184440851
 51
7.18075184440824
  0
ARC
  5
252
330
5A
100
AcDbEntity
  8
1
  6
Continuous
 62
     7
100
AcDbCircle
 10
108.8566214283038
 20
227.9659284576963
 30
0.0
 40
59.99997753771778
100
AcDbArc
 50
-7.81527970157337
 51
-7.18075184444632
  0
ARC
  5
253
330
5A
100
AcDbEntity
  8
1
  6
Continuous
 62
     7
100
AcDbCircle
 10
108.8566214302312
 20
227.9659284572969
 30
0.0
 40
59.9999775357713
100
AcDbArc
 50
7.18075184441556
 51
7.81527943696501
  0
ARC
  5
254
330
5A
100
AcDbEntity
  8
1
  6
Continuous
 62
     7
100
AcDbCircle
 10
108.8566214302312
 20
563.3076338396686
 30
0.0
 40
59.9999775357713
100
AcDbArc
 50
7.18075184441559
 51
7.81527943696503
  0
ARC
  5
255
330
5A
100
AcDbEntity
  8
1
  6
Continuous
 62
     7
100
AcDbCircle
 10
108.8566214283038
 20
563.3076338400681
 30
0.0
 40
59.99997753771779
100
AcDbArc
 50
-7.8152797015735
 51
-7.1807518444464
  0
ARC
  5
256
330
5A
100
AcDbEntity
  8
1
  6
DASH_CENTER
 62
     2
100
AcDbCircle
 10
108.8566214306635
 20
563.3076338397309
 30
0.0
 40
59.99997753533467
100
AcDbArc
 50
-7.18075184440859
 51
7.18075184440816
  0
ARC
  5
257
330
5A
100
AcDbEntity
  8
_______C____
  6
Continuous
 62
     7
100
AcDbCircle
 10
167.5447075348802
 20
570.2670531770086
 30
0.0
 40
1.000000000000246
100
AcDbArc
 50
6.77418000001922
 51
32.72270600001746
  0
ARC
  5
258
330
5A
100
AcDbEntity
  8
1
  6
Continuous
 62
     7
100
AcDbCircle
 10
108.9611023266167
 20
563.3076351770087
 30
0.0
 40
59.99552778043422
100
AcDbArc
 50
-0.00000127710165
 51
6.77467342665261
  0
ARC
  5
259
330
5A
100
AcDbEntity
  8
1
  6
Continuous
 62
     7
100
AcDbCircle
 10
108.9611023266167
 20
563.3076325024529
 30
0.0
 40
59.99552778043417
100
AcDbArc
 50
-6.77467342665261
 51
0.00000127710143
  0
ARC
  5
25A
330
5A
100
AcDbEntity
  8
_______C____
  6
Continuous
 62
     7
100
AcDbCircle
 10
167.5447075348802
 20
556.3482145024527
 30
0.0
 40
1.000000000000411
100
AcDbArc
 50
-32.72270600001746
 51
-6.77418000000629
  0
CIRCLE
  5
25B
330
5A
100
AcDbEntity
  8
1
  6
Continuous
 62
     7
100
AcDbCircle
 10
395.3975925059946
 20
227.9659284573586
 30
0.0
 40
8.852224077919061
  0
CIRCLE
  5
25C
330
5A
100
AcDbEntity
  8
1
  6
Continuous
 62
     7
100
AcDbCircle
 10
395.3975925059946
 20
227.9659284573586
 30
0.0
 40
7.500000000006764
  0
ARC
  5
25D
330
5A
100
AcDbEntity
  8
1
  6
Continuous
 62
     7
100
AcDbCircle
 10
167.5067266324795
 20
219.915928457359
 30
0.0
 40
0.7999999999999576
100
AcDbArc
 50
-71.74903855471526
 51
-7.81527970156594
  0
ARC
  5
25E
330
5A
100
AcDbEntity
  8
1
  6
Continuous
 62
     7
100
AcDbCircle
 10
167.5067266696555
 20
236.0159281865064
 30
0.0
 40
0.8000000000000525
100
AcDbArc
 50
7.81527943696315
 51
71.74904135829372
  0
ARC
  5
25F
330
5A
100
AcDbEntity
  8
1
  6
Continuous
 62
     7
100
AcDbCircle
 10
167.5067266696555
 20
571.3576335688781
 30
0.0
 40
0.8000000000000525
100
AcDbArc
 50
7.81527943696315
 51
71.74904135829245
  0
ARC
  5
260
330
5A
100
AcDbEntity
  8
1
  6
Continuous
 62
     7
100
AcDbCircle
 10
167.5067266324795
 20
555.2576338397307
 30
0.0
 40
0.7999999999999576
100
AcDbArc
 50
-71.74903855471526
 51
-7.81527970156997
  0
ENDBLK
  5
5C
330
5A
100
AcDbEntity
  8
0
100
AcDbBlockEnd
  0
BLOCK
  5
5F
330
5D
100
AcDbEntity
  8
0
100
AcDbBlockBegin
  2
84-338X
 70
     0
 71
     0
 10
245.789769663454
 20
315.206756427137
 30
0.0
  3
84-338X
  1

  0
INSERT
  5
5E
330
5D
100
AcDbEntity
  8
1
100
AcDbBlockReference
  2
84-338
 10
244.1861644905411
 20
403.8178296918745
 30
0.0
 41
0.4
 42
0.40000000000001
  0
LINE
  5
261
330
5D
100
AcDbEntity
  8
1
  6
PHANTOM
 62
     4
100
AcDbLine
 10
156.409319049407
 20
246.8565891750556
 30
0.0
 11
156.4886142909961
 21
246.8565891750556
 31
0.0
  0
ENDBLK
  5
60
330
5D
100
AcDbEntity
  8
0
100
AcDbBlockEnd
  0
BLOCK
  5
281
330
27A
100
AcDbEntity
  8
0
100
AcDbBlockBegin
  2
*D013
 70
     1
 71
     0
 10
0.0
 20
0.0
 30
0.0
  3
*D013
  1

  0
LINE
  5
27B
330
27A
100
AcDbEntity
  8
1
  6
Continuous
 62
     2
100
AcDbLine
 10
484.397592505994
 20
250.9659284573587
 30
0.0
 11
484.397592505994
 21
204.9659284573588
 31
0.0
  0
LINE
  5
27C
330
27A
100
AcDbEntity
  8
1
  6
Continuous
 62
     2
100
AcDbLine
 10
440.397592505994
 20
204.9659284573588
 30
0.0
 11
486.897592505994
 21
204.9659284573588
 31
0.0
  0
LINE
  5
27D
330
27A
100
AcDbEntity
  8
1
  6
Continuous
 62
     2
100
AcDbLine
 10
440.397592505994
 20
250.9659284573587
 30
0.0
 11
486.897592505994
 21
250.9659284573587
 31
0.0
  0
SOLID
  5
27E
330
27A
100
AcDbEntity
  8
1
 62
     2
100
AcDbTrace
 10
485.5495518598837
 20
242.2159284573587
 30
0.0
 11
483.2456331521043
 21
242.2159284573587
 31
0.0
 12
484.397592505994
 22
250.9659284573587
 32
0.0
 13
484.397592505994
 23
250.9659284573587
 33
0.0
  0
SOLID
  5
27F
330
27A
100
AcDbEntity
  8
1
 62
     2
100
AcDbTrace
 10
483.2456331521043
 20
213.7159284573588
 30
0.0
 11
485.5495518598837
 21
213.7159284573588
 31
0.0
 12
484.397592505994
 22
204.9659284573588
 32
0.0
 13
484.397592505994
 23
204.9659284573588
 33
0.0
  0
MTEXT
  5
280
330
27A
100
AcDbEntity
  8
1
 62
     7
100
AcDbMText
 10
481.897592505994
 20
212.3034284573589
 30
0.0
 40
8.75
 41
0.0
 71
     7
 72
     1
  1
\C7;{\Fgdt;n}\C7;46
  7
CONVERTER_2
 11
0.0
 21
1.0
 31
0.0
 73
     1
 44
0.60024009603842
  0
ENDBLK
  5
282
330
27A
100
AcDbEntity
  8
0
100
AcDbBlockEnd
  0
BLOCK
  5
28C
330
285
100
AcDbEntity
  8
0
100
AcDbBlockBegin
  2
*D114
 70
     1
 71
     0
 10
0.0
 20
0.0
 30
0.0
  3
*D114
  1

  0
LINE
  5
286
330
285
100
AcDbEntity
  8
1
  6
Continuous
 62
     2
100
AcDbLine
 10
225.397592505994
 20
162.9659284573726
 30
0.0
 11
395.3975925059946
 21
162.9659284573726
 31
0.0
  0
LINE
  5
287
330
285
100
AcDbEntity
  8
1
  6
Continuous
 62
     2
100
AcDbLine
 10
395.3975925059946
 20
189.9659284573726
 30
0.0
 11
395.3975925059946
 21
160.4659284573726
 31
0.0
  0
LINE
  5
288
330
285
100
AcDbEntity
  8
1
  6
Continuous
 62
     2
100
AcDbLine
 10
225.397592505994
 20
259.4659284573587
 30
0.0
 11
225.397592505994
 21
160.4659284573726
 31
0.0
  0
SOLID
  5
289
330
285
100
AcDbEntity
  8
1
 62
     2
100
AcDbTrace
 10
234.147592505994
 20
164.1178878112623
 30
0.0
 11
234.147592505994
 21
161.8139691034829
 31
0.0
 12
225.397592505994
 22
162.9659284573726
 32
0.0
 13
225.397592505994
 23
162.9659284573726
 33
0.0
  0
SOLID
  5
28A
330
285
100
AcDbEntity
  8
1
 62
     2
100
AcDbTrace
 10
386.6475925059946
 20
161.8139691034829
 30
0.0
 11
386.6475925059946
 21
164.1178878112623
 31
0.0
 12
395.3975925059946
 22
162.9659284573726
 32
0.0
 13
395.3975925059946
 23
162.9659284573726
 33
0.0
  0
MTEXT
  5
28B
330
285
100
AcDbEntity
  8
1
 62
     7
100
AcDbMText
 10
301.210092505994
 20
165.4659284573726
 30
0.0
 40
8.75
 41
0.0
 71
     7
 72
     1
  1
170
  7
CONVERTER_2
 11
0.9999999999970621
 21
2.424068405545307E-6
 31
0.0
 73
     1
 44
0.60024009603842
  0
ENDBLK
  5
28D
330
285
100
AcDbEntity
  8
0
100
AcDbBlockEnd
  0
BLOCK
  5
297
330
290
100
AcDbEntity
  8
0
100
AcDbBlockBegin
  2
*D215
 70
     1
 71
     0
 10
0.0
 20
0.0
 30
0.0
  3
*D215
  1

  0
LINE
  5
291
330
290
100
AcDbEntity
  8
1
  6
Continuous
 62
     2
100
AcDbLine
 10
395.3975925059946
 20
162.9659284573726
 30
0.0
 11
440.397592505994
 21
162.9659284573726
 31
0.0
  0
LINE
  5
292
330
290
100
AcDbEntity
  8
1
  6
Continuous
 62
     2
100
AcDbLine
 10
440.397592505994
 20
204.9659284573588
 30
0.0
 11
440.397592505994
 21
160.4659284573726
 31
0.0
  0
LINE
  5
293
330
290
100
AcDbEntity
  8
1
  6
Continuous
 62
     2
100
AcDbLine
 10
395.3975925059946
 20
189.9659284573726
 30
0.0
 11
395.3975925059946
 21
160.4659284573726
 31
0.0
  0
SOLID
  5
294
330
290
100
AcDbEntity
  8
1
 62
     2
100
AcDbTrace
 10
404.1475925059946
 20
164.1178878112623
 30
0.0
 11
404.1475925059946
 21
161.8139691034829
 31
0.0
 12
395.3975925059946
 22
162.9659284573726
 32
0.0
 13
395.3975925059946
 23
162.9659284573726
 33
0.0
  0
SOLID
  5
295
330
290
100
AcDbEntity
  8
1
 62
     2
100
AcDbTrace
 10
431.647592505994
 20
161.8139691034829
 30
0.0
 11
431.647592505994
 21
164.1178878112623
 31
0.0
 12
440.397592505994
 22
162.9659284573726
 32
0.0
 13
440.397592505994
 23
162.9659284573726
 33
0.0
  0
MTEXT
  5
296
330
290
100
AcDbEntity
  8
1
 62
     7
100
AcDbMText
 10
411.335092505994
 20
165.4659284573726
 30
0.0
 40
8.75
 41
0.0
 71
     7
 72
     1
  1
45
  7
CONVERTER_2
 11
0.9999999999970621
 21
2.424068405545307E-6
 31
0.0
 73
     1
 44
0.60024009603842
  0
ENDBLK
  5
298
330
290
100
AcDbEntity
  8
0
100
AcDbBlockEnd
  0
BLOCK
  5
2A2
330
29B
100
AcDbEntity
  8
0
100
AcDbBlockBegin
  2
*D316
 70
     1
 71
     0
 10
0.0
 20
0.0
 30
0.0
  3
*D316
  1

  0
LINE
  5
29C
330
29B
100
AcDbEntity
  8
0
  6
Continuous
 62
     2
100
AcDbLine
 10
259.047592505994
 20
227.9659284573584
 30
0.0
 11
259.047592505994
 21
262.4659284573586
 31
0.0
  0
LINE
  5
29D
330
29B
100
AcDbEntity
  8
0
  6
Continuous
 62
     2
100
AcDbLine
 10
232.7839995119801
 20
262.4659284573586
 30
0.0
 11
261.547592505994
 21
262.4659284573586
 31
0.0
  0
LINE
  5
29E
330
29B
100
AcDbEntity
  8
0
  6
Continuous
 62
     2
100
AcDbLine
 10
357.3975925060102
 20
227.9659284573584
 30
0.0
 11
256.547592505994
 21
227.9659284573584
 31
0.0
  0
SOLID
  5
29F
330
29B
100
AcDbEntity
  8
0
 62
     2
100
AcDbTrace
 10
257.8956331521043
 20
236.7159284573584
 30
0.0
 11
260.1995518598837
 21
236.7159284573584
 31
0.0
 12
259.047592505994
 22
227.9659284573584
 32
0.0
 13
259.047592505994
 23
227.9659284573584
 33
0.0
  0
SOLID
  5
2A0
330
29B
100
AcDbEntity
  8
0
 62
     2
100
AcDbTrace
 10
260.1995518598837
 20
253.7159284573586
 30
0.0
 11
257.8956331521043
 21
253.7159284573586
 31
0.0
 12
259.047592505994
 22
262.4659284573586
 32
0.0
 13
259.047592505994
 23
262.4659284573586
 33
0.0
  0
MTEXT
  5
2A1
330
29B
100
AcDbEntity
  8
0
 62
     7
100
AcDbMText
 10
256.547592505994
 20
238.6534284573586
 30
0.0
 40
8.75
 41
0.0
 71
     7
 72
     1
  1
35
  7
CONVERTER_2
 11
0.0
 21
1.0
 31
0.0
 73
     1
 44
0.60024009603842
  0
ENDBLK
  5
2A3
330
29B
100
AcDbEntity
  8
0
100
AcDbBlockEnd
  0
BLOCK
  5
2AD
330
2A6
100
AcDbEntity
  8
0
100
AcDbBlockBegin
  2
*D417
 70
     1
 71
     0
 10
0.0
 20
0.0
 30
0.0
  3
*D417
  1

  0
LINE
  5
2A7
330
2A6
100
AcDbEntity
  8
0
  6
Continuous
 62
     2
100
AcDbLine
 10
191.747592505994
 20
227.9659284573584
 30
0.0
 11
191.747592505994
 21
295.4659284573588
 31
0.0
  0
LINE
  5
2A8
330
2A6
100
AcDbEntity
  8
0
  6
Continuous
 62
     2
100
AcDbLine
 10
252.397592505994
 20
295.4659284573588
 30
0.0
 11
189.247592505994
 21
295.4659284573588
 31
0.0
  0
LINE
  5
2A9
330
2A6
100
AcDbEntity
  8
0
  6
Continuous
 62
     2
100
AcDbLine
 10
357.3975925060102
 20
227.9659284573584
 30
0.0
 11
189.247592505994
 21
227.9659284573584
 31
0.0
  0
SOLID
  5
2AA
330
2A6
100
AcDbEntity
  8
0
 62
     2
100
AcDbTrace
 10
190.5956331521043
 20
236.7159284573584
 30
0.0
 11
192.8995518598837
 21
236.7159284573584
 31
0.0
 12
191.747592505994
 22
227.9659284573584
 32
0.0
 13
191.747592505994
 23
227.9659284573584
 33
0.0
  0
SOLID
  5
2AB
330
2A6
100
AcDbEntity
  8
0
 62
     2
100
AcDbTrace
 10
192.8995518598837
 20
286.7159284573588
 30
0.0
 11
190.5956331521043
 21
286.7159284573588
 31
0.0
 12
191.747592505994
 22
295.4659284573588
 32
0.0
 13
191.747592505994
 23
295.4659284573588
 33
0.0
  0
MTEXT
  5
2AC
330
2A6
100
AcDbEntity
  8
0
 62
     7
100
AcDbMText
 10
189.247592505994
 20
255.1534284573586
 30
0.0
 40
8.75
 41
0.0
 71
     7
 72
     1
  1
68
  7
CONVERTER_2
 11
0.0
 21
1.0
 31
0.0
 73
     1
 44
0.60024009603842
  0
ENDBLK
  5
2AE
330
2A6
100
AcDbEntity
  8
0
100
AcDbBlockEnd
  0
BLOCK
  5
2B8
330
2B1
100
AcDbEntity
  8
0
100
AcDbBlockBegin
  2
*D518
 70
     1
 71
     0
 10
0.0
 20
0.0
 30
0.0
  3
*D518
  1

  0
LINE
  5
2B2
330
2B1
100
AcDbEntity
  8
1
  6
Continuous
 62
     2
100
AcDbLine
 10
102.2572704266855
 20
162.9659284573726
 30
0.0
 11
168.9566301070508
 21
162.9659284573726
 31
0.0
  0
LINE
  5
2B3
330
2B1
100
AcDbEntity
  8
1
  6
Continuous
 62
     2
100
AcDbLine
 10
102.2572704266855
 20
201.9659284573586
 30
0.0
 11
102.2572704266855
 21
160.4659284573726
 31
0.0
  0
LINE
  5
2B4
330
2B1
100
AcDbEntity
  8
1
  6
Continuous
 62
     2
100
AcDbLine
 10
168.9566301070508
 20
227.9659284573588
 30
0.0
 11
168.9566301070508
 21
160.4659284573726
 31
0.0
  0
SOLID
  5
2B5
330
2B1
100
AcDbEntity
  8
1
 62
     2
100
AcDbTrace
 10
111.0072704266855
 20
164.1178878112623
 30
0.0
 11
111.0072704266855
 21
161.8139691034829
 31
0.0
 12
102.2572704266855
 22
162.9659284573726
 32
0.0
 13
102.2572704266855
 23
162.9659284573726
 33
0.0
  0
SOLID
  5
2B6
330
2B1
100
AcDbEntity
  8
1
 62
     2
100
AcDbTrace
 10
160.2066301070508
 20
161.8139691034829
 30
0.0
 11
160.2066301070508
 21
164.1178878112623
 31
0.0
 12
168.9566301070508
 22
162.9659284573726
 32
0.0
 13
168.9566301070508
 23
162.9659284573726
 33
0.0
  0
MTEXT
  5
2B7
330
2B1
100
AcDbEntity
  8
1
 62
     7
100
AcDbMText
 10
111.9819502668682
 20
165.4659284573726
 30
0.0
 40
8.75
 41
0.0
 71
     7
 72
     1
  1
67リフト5
  7
CONVERTER_1
 11
0.9999999999970621
 21
2.424068405545307E-6
 31
0.0
 73
     1
 44
0.60024009603842
  0
ENDBLK
  5
2B9
330
2B1
100
AcDbEntity
  8
0
100
AcDbBlockEnd
  0
BLOCK
  5
2C3
330
2BC
100
AcDbEntity
  8
0
100
AcDbBlockBegin
  2
*D619
 70
     1
 71
     0
 10
0.0
 20
0.0
 30
0.0
  3
*D619
  1

  0
LINE
  5
2BD
330
2BC
100
AcDbEntity
  8
1
  6
Continuous
 62
     2
100
AcDbLine
 10
471.8975925059941
 20
162.9659284573726
 30
0.0
 11
454.3975925059941
 21
162.9659284573726
 31
0.0
  0
LINE
  5
2BE
330
2BC
100
AcDbEntity
  8
1
  6
Continuous
 62
     2
100
AcDbLine
 10
454.3975925059941
 20
162.9659284573726
 30
0.0
 11
440.3975925059941
 21
162.9659284573726
 31
0.0
  0
LINE
  5
2BF
330
2BC
100
AcDbEntity
  8
1
  6
Continuous
 62
     2
100
AcDbLine
 10
440.3975925059941
 20
204.9659284573588
 30
0.0
 11
440.3975925059941
 21
160.4659284573726
 31
0.0
  0
LINE
  5
2C0
330
2BC
100
AcDbEntity
  8
1
  6
Continuous
 62
     2
100
AcDbLine
 10
454.3975925059941
 20
218.4659284573587
 30
0.0
 11
454.3975925059941
 21
160.4659284573726
 31
0.0
  0
SOLID
  5
2C1
330
2BC
100
AcDbEntity
  8
1
 62
     2
100
AcDbTrace
 10
463.1475925059941
 20
164.1178878112623
 30
0.0
 11
463.1475925059941
 21
161.8139691034829
 31
0.0
 12
454.3975925059941
 22
162.9659284573726
 32
0.0
 13
454.3975925059941
 23
162.9659284573726
 33
0.0
  0
MTEXT
  5
2C2
330
2BC
100
AcDbEntity
  8
1
 62
     7
100
AcDbMText
 10
442.1475925059941
 20
165.4659284573726
 30
0.0
 40
8.75
 41
0.0
 71
     7
 72
     1
  1
14
  7
CONVERTER_2
 11
0.9999999999970621
 21
2.424068405545307E-6
 31
0.0
 73
     1
 44
0.60024009603842
  0
ENDBLK
  5
2C4
330
2BC
100
AcDbEntity
  8
0
100
AcDbBlockEnd
  0
BLOCK
  5
2C6
330
2C5
100
AcDbEntity
  8
0
100
AcDbBlockBegin
  2
_None
 70
     0
 71
     0
 10
0.0
 20
0.0
 30
0.0
  3
_None
  1

  0
ENDBLK
  5
2C7
330
2C5
100
AcDbEntity
  8
0
100
AcDbBlockEnd
  0
ENDSEC
  0
SECTION
  2
ENTITIES
  0
INSERT
  5
61
330
1F
100
AcDbEntity
  8
1
100
AcDbBlockReference
  2
_J__A4
 10
0.0
 20
0.0
 30
0.0
 41
2.5
 42
2.5
 43
2.5
  0
INSERT
  5
62
330
1F
100
AcDbEntity
  8
1
100
AcDbBlockReference
  2
A20-0-13
 10
135.2572704266855
 20
204.9659284573584
 30
0.0
  0
INSERT
  5
63
330
1F
100
AcDbEntity
  8
1
100
AcDbBlockReference
  2
A20J-60X-16
 10
59.36579310158329
 20
245.4659284573585
 30
0.0
  0
INSERT
  5
64
330
1F
100
AcDbEntity
  8
0
100
AcDbBlockReference
  2
R10A-13
 10
158.2572704266855
 20
182.9659284573586
 30
0.0
  0
INSERT
  5
65
330
1F
100
AcDbEntity
  8
1
100
AcDbBlockReference
  2
21-9-M1
 10
627.7389713189832
 20
444.3283009256315
 30
0.0
  0
INSERT
  5
66
330
1F
100
AcDbEntity
  8
1
100
AcDbBlockReference
  2
84-338X
 10
618.6504809371395
 20
398.841346587562
 30
0.0
 41
2.5
 42
2.5
 43
2.5
  0
LINE
  5
262
330
1F
100
AcDbEntity
  8
1
  6
DASH_CENTER
 62
     2
100
AcDbLine
 10
225.397592505994
 20
268.4659284573587
 30
0.0
 11
225.397592505994
 21
259.4659284573587
 31
0.0
  0
LINE
  5
263
330
1F
100
AcDbEntity
  8
1
  6
DASH_CENTER
 62
     2
100
AcDbLine
 10
252.397592505994
 20
295.4659284573588
 30
0.0
 11
368.397592505994
 21
295.4659284573588
 31
0.0
  0
LINE
  5
264
330
1F
100
AcDbEntity
  8
1
  6
DASH_CENTER
 62
     2
100
AcDbLine
 10
102.2572704266855
 20
307.617409450079
 30
0.0
 11
102.2572704266855
 21
246.4659284573585
 31
0.0
  0
LINE
  5
265
330
1F
100
AcDbEntity
  8
1
  6
DASH_CENTER
 62
     2
100
AcDbLine
 10
91.74405001732652
 20
295.4659284573588
 30
0.0
 11
113.1499864351131
 21
295.4659284573588
 31
0.0
  0
LINE
  5
266
330
1F
100
AcDbEntity
  8
1
  6
DASH_CENTER
 62
     2
100
AcDbLine
 10
91.27931921446461
 20
393.30763383973
 30
0.0
 11
113.6314926205475
 21
393.30763383973
 31
0.0
  0
LINE
  5
267
330
1F
100
AcDbEntity
  8
1
  6
DASH_CENTER
 62
     2
100
AcDbLine
 10
82.5977831766993
 20
563.3076338397302
 30
0.0
 11
171.9566301070509
 21
563.3076338397302
 31
0.0
  0
LINE
  5
268
330
1F
100
AcDbEntity
  8
0
  6
DASH_CENTER
 62
     2
100
AcDbLine
 10
171.9566301070509
 20
227.9659284573585
 30
0.0
 11
76.25727042668549
 21
227.9659284573585
 31
0.0
  0
LINE
  5
269
330
1F
100
AcDbEntity
  8
1
  6
DASH_CENTER
 62
     2
100
AcDbLine
 10
102.2572704266855
 20
246.4659284573585
 30
0.0
 11
102.2572704266855
 21
201.9659284573586
 31
0.0
  0
LINE
  5
26A
330
1F
100
AcDbEntity
  8
1
  6
DASH_CENTER
 62
     2
100
AcDbLine
 10
457.397592505994
 20
227.9659284573588
 30
0.0
 11
357.3975925060102
 21
227.9659284573585
 31
0.0
  0
LINE
  5
26B
330
1F
100
AcDbEntity
  8
1
  6
DASH_CENTER
 62
     2
100
AcDbLine
 10
395.3975925059946
 20
189.9659284573726
 30
0.0
 11
395.397592505994
 21
268.4659284573587
 31
0.0
  0
LINE
  5
26C
330
1F
100
AcDbEntity
  8
1
  6
DASH_CENTER
 62
     2
100
AcDbLine
 10
102.2572704266855
 20
628.0312514382845
 30
0.0
 11
102.2572704266855
 21
381.3314365741755
 31
0.0
  0
LINE
  5
26D
330
1F
100
AcDbEntity
  8
1
  6
DASH_CENTER
 62
     2
100
AcDbLine
 10
157.2572704266855
 20
265.9659277863356
 30
0.0
 11
157.2572704266855
 21
189.9659284573726
 31
0.0
  0
LINE
  5
26E
330
1F
100
AcDbEntity
  8
1
  6
DASH_CENTER
 62
     2
100
AcDbLine
 10
157.2572704266855
 20
525.307635168707
 30
0.0
 11
157.2572704266855
 21
601.3076331687074
 31
0.0
  0
ARC
  5
26F
330
1F
100
AcDbEntity
  8
1
  6
DASH_CENTER
 62
     2
100
AcDbCircle
 10
252.397592505994
 20
268.4659284573587
 30
0.0
 40
27.00000000000011
100
AcDbArc
 50
90.0
 51
180.0
  0
ARC
  5
270
330
1F
100
AcDbEntity
  8
1
  6
DASH_CENTER
 62
     2
100
AcDbCircle
 10
368.397592505994
 20
268.4659284573588
 30
0.0
 40
27.0
100
AcDbArc
 50
-0.00000000000024
 51
90.0
  0
SOLID
  5
271
330
1F
100
AcDbEntity
  8
1
 62
     2
100
AcDbTrace
 10
116.1346443620905
 20
622.9613357997882
 30
0.0
 11
118.1298964912817
 21
621.8093764458985
 31
0.0
 12
112.757270426686
 22
614.8076338397295
 32
0.0
 13
112.757270426686
 23
614.8076338397295
 33
0.0
  0
LEADER
  5
272
330
1F
100
AcDbEntity
  8
1
  6
Continuous
 62
     2
100
AcDbLeader
  3
Standard
 71
     0
 76
     3
 10
112.757270426686
 20
614.8076338397295
 30
0.0
 10
125.2918607485995
 20
636.5181811293448
 30
0.0
 10
160.373464907703
 20
636.5181811293448
 30
0.0
  0
MTEXT
  5
274
330
1F
100
AcDbEntity
  8
1
 62
     7
100
AcDbMText
 10
234.375
 20
42.5
 30
0.0
 40
8.75
 41
0.0
 71
     5
 72
     1
  1
2,5
  7
CONVERTER_2
 73
     1
 44
0.7202881152461
  0
MTEXT
  5
275
330
1F
100
AcDbEntity
  8
1
 62
     7
100
AcDbMText
 10
213.125
 20
42.5
 30
0.0
 40
8.75
 41
0.0
 71
     5
 72
     1
  1
1
  7
CONVERTER_2
 73
     1
 44
0.7202881152461
  0
MTEXT
  5
276
330
1F
100
AcDbEntity
  8
0
 62
     7
100
AcDbMText
 10
142.5
 20
56.87500000000004
 30
0.0
 40
8.75
 41
0.0
 71
     5
 72
     1
  1
横形自在水栓
  7
CONVERTER_1
 73
     1
 44
1.32052821128451
  0
MTEXT
  5
277
330
1F
100
AcDbEntity
  8
0
 62
     7
100
AcDbMText
 10
142.5
 20
35.625
 30
0.0
 40
8.75
 41
0.0
 71
     5
 72
     1
  1
A20YK-13
  7
CONVERTER_2
 73
     1
 44
1.32052821128451
  0
MTEXT
  5
278
330
1F
100
AcDbEntity
  8
1
 62
     7
100
AcDbMText
 10
142.8326628281513
 20
644.0181811293448
 30
0.0
 40
8.75
 41
0.0
 71
     5
 72
     1
  1
PJ1/2
  7
CONVERTER_2
 73
     1
 44
1.32052821128451
  0
MTEXT
  5
279
330
1F
100
AcDbEntity
  8
0
 62
     7
100
AcDbMText
 10
85.0
 20
85.00000000000003
 30
0.0
 40
8.75
 41
0.0
 71
     4
 72
     1
  1
JIS
  7
CONVERTER_2
 73
     1
 44
1.32052821128451
  0
DIMENSION
  5
284
330
1F
100
AcDbEntity
  8
1
100
AcDbDimension
  2
*D013
 10
484.397592505994
 20
250.9659284573587
 30
0.0
 11
477.522592505994
 21
227.9659284573589
 31
0.0
  1
<>
 71
     5
 42
0.0
 53
90.0
  3
ME10_DIM_0
100
AcDbAlignedDimension
 13
440.397592505994
 23
204.9659284573588
 33
0.0
 14
440.397592505994
 24
250.9659284573587
 34
0.0
 50
90.0
100
AcDbRotatedDimension
  0
DIMENSION
  5
28F
330
1F
100
AcDbEntity
  8
1
100
AcDbDimension
  2
*D114
 10
225.397592505994
 20
162.9659284573726
 30
0.0
 11
310.397592505994
 21
169.8409284573726
 31
0.0
  1
<>
 71
     5
 42
0.0
 53
0.00013888888889
  3
ME10_DIM_1
100
AcDbAlignedDimension
 13
395.3975925059946
 23
189.9659284573726
 33
0.0
 14
225.397592505994
 24
259.4659284573587
 34
0.0
100
AcDbRotatedDimension
  0
DIMENSION
  5
29A
330
1F
100
AcDbEntity
  8
1
100
AcDbDimension
  2
*D215
 10
395.3975925059946
 20
162.9659284573726
 30
0.0
 11
417.897592505994
 21
169.8409284573726
 31
0.0
  1
<>
 71
     5
 42
0.0
 53
0.00013888888889
  3
ME10_DIM_2
100
AcDbAlignedDimension
 13
440.397592505994
 23
204.9659284573588
 33
0.0
 14
395.3975925059946
 24
189.9659284573726
 34
0.0
100
AcDbRotatedDimension
  0
DIMENSION
  5
2A5
330
1F
100
AcDbEntity
  8
0
100
AcDbDimension
  2
*D316
 10
259.047592505994
 20
227.9659284573584
 30
0.0
 11
252.172592505994
 21
245.2159284573586
 31
0.0
  1
35
 71
     5
 42
0.0
 53
90.0
  3
ME10_DIM_3
100
AcDbAlignedDimension
 13
232.7839995119801
 23
262.4659284573587
 33
0.0
 14
357.3975925060102
 24
227.9659284573585
 34
0.0
 50
90.0
100
AcDbRotatedDimension
  0
DIMENSION
  5
2B0
330
1F
100
AcDbEntity
  8
0
100
AcDbDimension
  2
*D417
 10
191.747592505994
 20
227.9659284573584
 30
0.0
 11
184.872592505994
 21
261.7159284573586
 31
0.0
  1
68
 71
     5
 42
0.0
 53
90.0
  3
ME10_DIM_4
100
AcDbAlignedDimension
 13
252.397592505994
 23
295.4659284573588
 33
0.0
 14
357.3975925060102
 24
227.9659284573585
 34
0.0
 50
90.0
100
AcDbRotatedDimension
  0
DIMENSION
  5
2BB
330
1F
100
AcDbEntity
  8
1
100
AcDbDimension
  2
*D518
 10
102.2572704266855
 20
162.9659284573726
 30
0.0
 11
135.6069502668682
 21
169.8409284573726
 31
0.0
  1
67リフト5
 71
     5
 42
0.0
 53
0.00013888888889
  3
ME10_DIM_5
100
AcDbAlignedDimension
 13
168.9566301070509
 23
227.965928457359
 33
0.0
 14
102.2572704266855
 24
201.9659284573586
 34
0.0
100
AcDbRotatedDimension
  0
DIMENSION
  5
2C9
330
1F
100
AcDbEntity
  8
1
100
AcDbDimension
  2
*D619
 10
454.3975925059941
 20
162.9659284573726
 30
0.0
 11
447.3975925059941
 21
169.8409284573726
 31
0.0
  1
<>
 71
     5
 42
0.0
 53
0.00013888888889
  3
ME10_DIM_6
100
AcDbAlignedDimension
 13
440.397592505994
 23
204.9659284573588
 33
0.0
 14
454.397592505994
 24
218.4659284573587
 34
0.0
100
AcDbRotatedDimension
  0
ENDSEC
  0
SECTION
  2
OBJECTS
  0
DICTIONARY
  5
C
330
0
100
AcDbDictionary
281
     1
  3
ACAD_GROUP
350
D
  3
ACAD_LAYOUT
350
1A
  3
ACAD_MLINESTYLE
350
17
  3
ACAD_PLOTSETTINGS
350
19
  3
ACAD_PLOTSTYLENAME
350
E
  3
ACAD_TABLESTYLE
350
2A
  3
AcDbVariableDictionary
350
2C
  0
DICTIONARY
  5
D
102
{ACAD_REACTORS
330
C
102
}
330
C
100
AcDbDictionary
281
     1
  0
DICTIONARY
  5
1A
102
{ACAD_REACTORS
330
C
102
}
330
C
100
AcDbDictionary
281
     1
  3
Layout1
350
1E
  3
Layout2
350
26
  3
Model
350
22
  0
DICTIONARY
  5
17
102
{ACAD_REACTORS
330
C
102
}
330
C
100
AcDbDictionary
281
     1
  3
Standard
350
18
  0
DICTIONARY
  5
19
102
{ACAD_REACTORS
330
C
102
}
330
C
100
AcDbDictionary
281
     1
  0
ACDBDICTIONARYWDFLT
  5
E
102
{ACAD_REACTORS
330
C
102
}
330
C
100
AcDbDictionary
281
     1
  3
Normal
350
F
100
AcDbDictionaryWithDefault
340
F
  0
DICTIONARY
  5
2A
102
{ACAD_REACTORS
330
C
102
}
330
C
100
AcDbDictionary
281
     1
  3
Standard
350
2B
  0
DICTIONARY
  5
2C
102
{ACAD_REACTORS
330
C
102
}
330
C
100
AcDbDictionary
281
     1
  3
CTABLESTYLE
350
2D
  0
LAYOUT
  5
1E
102
{ACAD_REACTORS
330
1A
102
}
330
1A
100
AcDbPlotSettings
  1

  2

  4

  6

 40
0.0
 41
0.0
 42
0.0
 43
0.0
 44
0.0
 45
0.0
 46
0.0
 47
0.0
 48
0.0
 49
0.0
140
0.0
141
0.0
142
1.0
143
1.0
 70
   688
 72
     0
 73
     0
 74
     5
  7

 75
    16
147
1.0
148
0.0
149
0.0
100
AcDbLayout
  1
Layout1
 70
     1
 71
     1
 10
0.0
 20
0.0
 11
12.0
 21
9.0
 12
0.0
 22
0.0
 32
0.0
 14
1.00000000000000E+20
 24
1.00000000000000E+20
 34
1.00000000000000E+20
 15
-1.00000000000000E+20
 25
-1.00000000000000E+20
 35
-1.00000000000000E+20
146
0.0
 13
0.0
 23
0.0
 33
0.0
 16
1.0
 26
0.0
 36
0.0
 17
0.0
 27
1.0
 37
0.0
 76
     0
330
1B
  0
LAYOUT
  5
26
102
{ACAD_REACTORS
330
1A
102
}
330
1A
100
AcDbPlotSettings
  1

  2

  4

  6

 40
0.0
 41
0.0
 42
0.0
 43
0.0
 44
0.0
 45
0.0
 46
0.0
 47
0.0
 48
0.0
 49
0.0
140
0.0
141
0.0
142
1.0
143
1.0
 70
   688
 72
     0
 73
     0
 74
     5
  7

 75
    16
147
1.0
148
0.0
149
0.0
100
AcDbLayout
  1
Layout2
 70
     1
 71
     2
 10
0.0
 20
0.0
 11
0.0
 21
0.0
 12
0.0
 22
0.0
 32
0.0
 14
0.0
 24
0.0
 34
0.0
 15
0.0
 25
0.0
 35
0.0
146
0.0
 13
0.0
 23
0.0
 33
0.0
 16
1.0
 26
0.0
 36
0.0
 17
0.0
 27
1.0
 37
0.0
 76
     0
330
23
  0
LAYOUT
  5
22
102
{ACAD_REACTORS
330
1A
102
}
330
1A
100
AcDbPlotSettings
  1

  2

  4

  6

 40
0.0
 41
0.0
 42
0.0
 43
0.0
 44
0.0
 45
0.0
 46
0.0
 47
0.0
 48
0.0
 49
0.0
140
0.0
141
0.0
142
1.0
143
1.0
 70
  1712
 72
     0
 73
     0
 74
     0
  7

 75
     0
147
1.0
148
0.0
149
0.0
100
AcDbLayout
  1
Model
 70
     1
 71
     0
 10
0.0
 20
0.0
 11
0.0
 21
0.0
 12
0.0
 22
0.0
 32
0.0
 14
0.0
 24
0.0
 34
0.0
 15
525.0
 25
742.5
 35
0.0
146
0.0
 13
0.0
 23
0.0
 33
0.0
 16
1.0
 26
0.0
 36
0.0
 17
0.0
 27
1.0
 37
0.0
 76
     0
330
1F
  0
MLINESTYLE
  5
18
102
{ACAD_REACTORS
330
17
102
}
330
17
100
AcDbMlineStyle
  2
Standard
 70
     0
  3

 62
   256
 51
90.0
 52
90.0
 71
     2
 49
0.5
 62
   256
  6
BYLAYER
 49
-0.5
 62
   256
  6
BYLAYER
  0
ACDBPLACEHOLDER
  5
F
102
{ACAD_REACTORS
330
E
102
}
330
E
  0
TABLESTYLE
  5
2B
102
{ACAD_REACTORS
330
2A
102
}
330
2A
100
AcDbTableStyle
  3
Standard
 70
     0
 71
     0
 40
0.06
 41
0.06
280
     0
281
     0
  7
Standard
140
0.18
170
     2
 62
     0
 63
     7
283
     0
274
    -2
284
     1
 64
     0
275
    -2
285
     1
 65
     0
276
    -2
286
     1
 66
     0
277
    -2
287
     1
 67
     0
278
    -2
288
     1
 68
     0
279
    -2
289
     1
 69
     0
  7
Standard
140
0.25
170
     5
 62
     0
 63
     7
283
     0
274
    -2
284
     1
 64
     0
275
    -2
285
     1
 65
     0
276
    -2
286
     1
 66
     0
277
    -2
287
     1
 67
     0
278
    -2
288
     1
 68
     0
279
    -2
289
     1
 69
     0
  7
Standard
140
0.18
170
     5
 62
     0
 63
     7
283
     0
274
    -2
284
     1
 64
     0
275
    -2
285
     1
 65
     0
276
    -2
286
     1
 66
     0
277
    -2
287
     1
 67
     0
278
    -2
288
     1
 68
     0
279
    -2
289
     1
 69
     0
  0
DICTIONARYVAR
  5
2D
102
{ACAD_REACTORS
330
2C
102
}
330
2C
100
DictionaryVariables
280
     0
  1
Standard
  0
ENDSEC
  0
EOF
