  0
SECTION
  2
HEADER
  9
$ACADVER
  1
AC1015
  9
$ACADMAINTVER
 70
     6
  9
$DWGCODEPAGE
  3
ANSI_932
  9
$INSBASE
 10
0.0
 20
0.0
 30
0.0
  9
$EXTMIN
 10
0.0
 20
0.0
 30
0.0
  9
$EXTMAX
 10
315.0
 20
445.5
 30
0.0
  9
$LIMMIN
 10
0.0
 20
0.0
  9
$LIMMAX
 10
12.0
 20
9.0
  9
$ORTHOMODE
 70
     0
  9
$REGENMODE
 70
     1
  9
$FILLMODE
 70
     1
  9
$QTEXTMODE
 70
     0
  9
$MIRRTEXT
 70
     1
  9
$LTSCALE
 40
1.0
  9
$ATTMODE
 70
     1
  9
$TEXTSIZE
 40
0.2
  9
$TRACEWID
 40
0.05
  9
$TEXTSTYLE
  7
Standard
  9
$CLAYER
  8
0
  9
$CELTYPE
  6
ByLayer
  9
$CECOLOR
 62
   256
  9
$CELTSCALE
 40
1.0
  9
$DISPSILH
 70
     0
  9
$DIMSCALE
 40
1.0
  9
$DIMASZ
 40
0.18
  9
$DIMEXO
 40
0.0625
  9
$DIMDLI
 40
0.38
  9
$DIMRND
 40
0.0
  9
$DIMDLE
 40
0.0
  9
$DIMEXE
 40
0.18
  9
$DIMTP
 40
0.0
  9
$DIMTM
 40
0.0
  9
$DIMTXT
 40
0.18
  9
$DIMCEN
 40
0.09
  9
$DIMTSZ
 40
0.0
  9
$DIMTOL
 70
     0
  9
$DIMLIM
 70
     0
  9
$DIMTIH
 70
     1
  9
$DIMTOH
 70
     1
  9
$DIMSE1
 70
     0
  9
$DIMSE2
 70
     0
  9
$DIMTAD
 70
     0
  9
$DIMZIN
 70
     0
  9
$DIMBLK
  1

  9
$DIMASO
 70
     1
  9
$DIMSHO
 70
     1
  9
$DIMPOST
  1

  9
$DIMAPOST
  1

  9
$DIMALT
 70
     0
  9
$DIMALTD
 70
     2
  9
$DIMALTF
 40
25.4
  9
$DIMLFAC
 40
1.0
  9
$DIMTOFL
 70
     0
  9
$DIMTVP
 40
0.0
  9
$DIMTIX
 70
     0
  9
$DIMSOXD
 70
     0
  9
$DIMSAH
 70
     0
  9
$DIMBLK1
  1

  9
$DIMBLK2
  1

  9
$DIMSTYLE
  2
Standard
  9
$DIMCLRD
 70
     0
  9
$DIMCLRE
 70
     0
  9
$DIMCLRT
 70
     0
  9
$DIMTFAC
 40
1.0
  9
$DIMGAP
 40
0.09
  9
$DIMJUST
 70
     0
  9
$DIMSD1
 70
     0
  9
$DIMSD2
 70
     0
  9
$DIMTOLJ
 70
     1
  9
$DIMTZIN
 70
     0
  9
$DIMALTZ
 70
     0
  9
$DIMALTTZ
 70
     0
  9
$DIMUPT
 70
     0
  9
$DIMDEC
 70
     4
  9
$DIMTDEC
 70
     4
  9
$DIMALTU
 70
     2
  9
$DIMALTTD
 70
     2
  9
$DIMTXSTY
  7
Standard
  9
$DIMAUNIT
 70
     0
  9
$DIMADEC
 70
     0
  9
$DIMALTRND
 40
0.0
  9
$DIMAZIN
 70
     0
  9
$DIMDSEP
 70
    46
  9
$DIMATFIT
 70
     3
  9
$DIMFRAC
 70
     0
  9
$DIMLDRBLK
  1

  9
$DIMLUNIT
 70
     2
  9
$DIMLWD
 70
    -2
  9
$DIMLWE
 70
    -2
  9
$DIMTMOVE
 70
     0
  9
$LUNITS
 70
     2
  9
$LUPREC
 70
     4
  9
$SKETCHINC
 40
0.1
  9
$FILLETRAD
 40
0.5
  9
$AUNITS
 70
     0
  9
$AUPREC
 70
     0
  9
$MENU
  1
.
  9
$ELEVATION
 40
0.0
  9
$PELEVATION
 40
0.0
  9
$THICKNESS
 40
0.0
  9
$LIMCHECK
 70
     0
  9
$CHAMFERA
 40
0.5
  9
$CHAMFERB
 40
0.5
  9
$CHAMFERC
 40
1.0
  9
$CHAMFERD
 40
0.0
  9
$SKPOLY
 70
     0
  9
$TDCREATE
 40
2457186.581877373
  9
$TDUCREATE
 40
2457186.206877373
  9
$TDUPDATE
 40
2457186.581878808
  9
$TDUUPDATE
 40
2457186.206878808
  9
$TDINDWG
 40
0.0000000116
  9
$TDUSRTIMER
 40
0.0000000116
  9
$USRTIMER
 70
     1
  9
$ANGBASE
 50
0.0
  9
$ANGDIR
 70
     0
  9
$PDMODE
 70
     0
  9
$PDSIZE
 40
0.0
  9
$PLINEWID
 40
0.0
  9
$SPLFRAME
 70
     0
  9
$SPLINETYPE
 70
     6
  9
$SPLINESEGS
 70
     8
  9
$HANDSEED
  5
377
  9
$SURFTAB1
 70
     6
  9
$SURFTAB2
 70
     6
  9
$SURFTYPE
 70
     6
  9
$SURFU
 70
     6
  9
$SURFV
 70
     6
  9
$UCSBASE
  2

  9
$UCSNAME
  2

  9
$UCSORG
 10
0.0
 20
0.0
 30
0.0
  9
$UCSXDIR
 10
1.0
 20
0.0
 30
0.0
  9
$UCSYDIR
 10
0.0
 20
1.0
 30
0.0
  9
$UCSORTHOREF
  2

  9
$UCSORTHOVIEW
 70
     0
  9
$UCSORGTOP
 10
0.0
 20
0.0
 30
0.0
  9
$UCSORGBOTTOM
 10
0.0
 20
0.0
 30
0.0
  9
$UCSORGLEFT
 10
0.0
 20
0.0
 30
0.0
  9
$UCSORGRIGHT
 10
0.0
 20
0.0
 30
0.0
  9
$UCSORGFRONT
 10
0.0
 20
0.0
 30
0.0
  9
$UCSORGBACK
 10
0.0
 20
0.0
 30
0.0
  9
$PUCSBASE
  2

  9
$PUCSNAME
  2

  9
$PUCSORG
 10
0.0
 20
0.0
 30
0.0
  9
$PUCSXDIR
 10
1.0
 20
0.0
 30
0.0
  9
$PUCSYDIR
 10
0.0
 20
1.0
 30
0.0
  9
$PUCSORTHOREF
  2

  9
$PUCSORTHOVIEW
 70
     0
  9
$PUCSORGTOP
 10
0.0
 20
0.0
 30
0.0
  9
$PUCSORGBOTTOM
 10
0.0
 20
0.0
 30
0.0
  9
$PUCSORGLEFT
 10
0.0
 20
0.0
 30
0.0
  9
$PUCSORGRIGHT
 10
0.0
 20
0.0
 30
0.0
  9
$PUCSORGFRONT
 10
0.0
 20
0.0
 30
0.0
  9
$PUCSORGBACK
 10
0.0
 20
0.0
 30
0.0
  9
$USERI1
 70
     0
  9
$USERI2
 70
     0
  9
$USERI3
 70
     0
  9
$USERI4
 70
     0
  9
$USERI5
 70
     0
  9
$USERR1
 40
18.1
  9
$USERR2
 40
0.0
  9
$USERR3
 40
0.0
  9
$USERR4
 40
0.0
  9
$USERR5
 40
0.0
  9
$WORLDVIEW
 70
     1
  9
$SHADEDGE
 70
     3
  9
$SHADEDIF
 70
    70
  9
$TILEMODE
 70
     1
  9
$MAXACTVP
 70
    64
  9
$PINSBASE
 10
0.0
 20
0.0
 30
0.0
  9
$PLIMCHECK
 70
     0
  9
$PEXTMIN
 10
1.00000000000000E+20
 20
1.00000000000000E+20
 30
1.00000000000000E+20
  9
$PEXTMAX
 10
-1.00000000000000E+20
 20
-1.00000000000000E+20
 30
-1.00000000000000E+20
  9
$PLIMMIN
 10
0.0
 20
0.0
  9
$PLIMMAX
 10
12.0
 20
9.0
  9
$UNITMODE
 70
     0
  9
$VISRETAIN
 70
     1
  9
$PLINEGEN
 70
     0
  9
$PSLTSCALE
 70
     1
  9
$TREEDEPTH
 70
  3020
  9
$CMLSTYLE
  2
Standard
  9
$CMLJUST
 70
     0
  9
$CMLSCALE
 40
1.0
  9
$PROXYGRAPHICS
 70
     1
  9
$MEASUREMENT
 70
     1
  9
$CELWEIGHT
370
    -1
  9
$ENDCAPS
280
     0
  9
$JOINSTYLE
280
     0
  9
$LWDISPLAY
290
     0
  9
$INSUNITS
 70
     4
  9
$HYPERLINKBASE
  1

  9
$STYLESHEET
  1

  9
$XEDIT
290
     1
  9
$CEPSNTYPE
380
     0
  9
$PSTYLEMODE
290
     1
  9
$FINGERPRINTGUID
  2
{77A936E5-975B-45ED-9546-19F6CAF602B3}
  9
$VERSIONGUID
  2
{FAEB1C32-E019-11D5-929B-00C0DF256EC4}
  9
$EXTNAMES
290
     1
  9
$PSVPSCALE
 40
0.0
  9
$OLESTARTUP
290
     0
  0
ENDSEC
  0
SECTION
  2
CLASSES
  0
CLASS
  1
ACDBDICTIONARYWDFLT
  2
AcDbDictionaryWithDefault
  3
ObjectDBX Classes
 90
        0
280
     0
281
     0
  0
CLASS
  1
VISUALSTYLE
  2
AcDbVisualStyle
  3
ObjectDBX Classes
 90
     4095
280
     0
281
     0
  0
CLASS
  1
MATERIAL
  2
AcDbMaterial
  3
ObjectDBX Classes
 90
     1153
280
     0
281
     0
  0
CLASS
  1
DICTIONARYVAR
  2
AcDbDictionaryVar
  3
ObjectDBX Classes
 90
        0
280
     0
281
     0
  0
CLASS
  1
ACDBPLACEHOLDER
  2
AcDbPlaceHolder
  3
ObjectDBX Classes
 90
        0
280
     0
281
     0
  0
CLASS
  1
LAYOUT
  2
AcDbLayout
  3
ObjectDBX Classes
 90
        0
280
     0
281
     0
  0
ENDSEC
  0
SECTION
  2
TABLES
  0
TABLE
  2
VPORT
  5
8
330
0
100
AcDbSymbolTable
 70
     1
  0
VPORT
  5
29
330
8
100
AcDbSymbolTableRecord
100
AcDbViewportTableRecord
  2
*Active
 70
     0
 10
0.0
 20
0.0
 11
1.0
 21
1.0
 12
157.5
 22
222.75
 13
0.0
 23
0.0
 14
0.5
 24
0.5
 15
0.5
 25
0.5
 16
0.0
 26
0.0
 36
1.0
 17
0.0
 27
0.0
 37
0.0
 40
490.05
 41
1.60267857142857
 42
50.0
 43
0.0
 44
0.0
 50
0.0
 51
0.0
 71
     0
 72
   100
 73
     1
 74
     3
 75
     0
 76
     0
 77
     0
 78
     0
281
     0
 65
     1
110
0.0
120
0.0
130
0.0
111
1.0
121
0.0
131
0.0
112
0.0
122
1.0
132
0.0
 79
     0
146
0.0
  0
ENDTAB
  0
TABLE
  2
LTYPE
  5
5
330
0
100
AcDbSymbolTable
 70
     8
  0
LTYPE
  5
14
330
5
100
AcDbSymbolTableRecord
100
AcDbLinetypeTableRecord
  2
ByBlock
 70
     0
  3

 72
    65
 73
     0
 40
0.0
  0
LTYPE
  5
15
330
5
100
AcDbSymbolTableRecord
100
AcDbLinetypeTableRecord
  2
ByLayer
 70
     0
  3

 72
    65
 73
     0
 40
0.0
  0
LTYPE
  5
16
330
5
100
AcDbSymbolTableRecord
100
AcDbLinetypeTableRecord
  2
Continuous
 70
     0
  3
Solid line
 72
    65
 73
     0
 40
0.0
  0
LTYPE
  5
3F
330
5
100
AcDbSymbolTableRecord
100
AcDbLinetypeTableRecord
  2
DASHED
 70
     0
  3
Dashed
 72
    65
 73
     2
 40
15.0
 49
7.0
 74
     0
 49
-8.0
 74
     0
  0
LTYPE
  5
40
330
5
100
AcDbSymbolTableRecord
100
AcDbLinetypeTableRecord
  2
DOTTED
 70
     0
  3
Dotted
 72
    65
 73
     2
 40
1.0
 49
0.0
 74
     0
 49
-1.0
 74
     0
  0
LTYPE
  5
41
330
5
100
AcDbSymbolTableRecord
100
AcDbLinetypeTableRecord
  2
DOT_CENTER
 70
     0
  3
Dot_Center
 72
    65
 73
     4
 40
14.0
 49
12.0
 74
     0
 49
-1.0
 74
     0
 49
0.0
 74
     0
 49
-1.0
 74
     0
  0
LTYPE
  5
42
330
5
100
AcDbSymbolTableRecord
100
AcDbLinetypeTableRecord
  2
LONG_DASHED
 70
     0
  3
Long_Dashed
 72
    65
 73
     2
 40
15.0
 49
10.0
 74
     0
 49
-5.0
 74
     0
  0
LTYPE
  5
43
330
5
100
AcDbSymbolTableRecord
100
AcDbLinetypeTableRecord
  2
DASH_CENTER
 70
     0
  3
Dash_Center
 72
    65
 73
     4
 40
14.0
 49
11.0
 74
     0
 49
-1.0
 74
     0
 49
1.0
 74
     0
 49
-1.0
 74
     0
  0
LTYPE
  5
44
330
5
100
AcDbSymbolTableRecord
100
AcDbLinetypeTableRecord
  2
PHANTOM
 70
     0
  3
Phantom
 72
    65
 73
     6
 40
13.0
 49
10.0
 74
     0
 49
-1.0
 74
     0
 49
0.0
 74
     0
 49
-1.0
 74
     0
 49
0.0
 74
     0
 49
-1.0
 74
     0
  0
LTYPE
  5
45
330
5
100
AcDbSymbolTableRecord
100
AcDbLinetypeTableRecord
  2
CENTER_DASH_DASH
 70
     0
  3
Center_Dash_Dash
 72
    65
 73
     6
 40
14.0
 49
9.0
 74
     0
 49
-1.0
 74
     0
 49
1.0
 74
     0
 49
-1.0
 74
     0
 49
1.0
 74
     0
 49
-1.0
 74
     0
  0
ENDTAB
  0
TABLE
  2
LAYER
  5
2
330
0
100
AcDbSymbolTable
 70
     2
  0
LAYER
  5
10
330
2
100
AcDbSymbolTableRecord
100
AcDbLayerTableRecord
  2
0
 70
     0
 62
     7
  6
Continuous
370
    -3
390
F
  0
LAYER
  5
46
330
2
100
AcDbSymbolTableRecord
100
AcDbLayerTableRecord
  2
1
 70
     0
 62
     7
  6
Continuous
370
    -3
390
F
  0
ENDTAB
  0
TABLE
  2
STYLE
  5
3
330
0
100
AcDbSymbolTable
 70
     3
  0
STYLE
  5
11
330
3
100
AcDbSymbolTableRecord
100
AcDbTextStyleTableRecord
  2
Standard
 70
     0
 40
0.0
 41
1.0
 50
0.0
 71
     0
 42
0.2
  3
txt
  4

  0
STYLE
  5
BA
330
3
100
AcDbSymbolTableRecord
100
AcDbTextStyleTableRecord
  2
CONVERTER_11
 70
     0
 40
0.0
 41
0.89
 50
0.0
 71
     0
 42
0.2
  3
MS Mincho.ttf
  4

1001
ACAD
1000
MS Mincho
1071
    32785
  0
STYLE
  5
2DB
330
3
100
AcDbSymbolTableRecord
100
AcDbTextStyleTableRecord
  2
CONVERTER_12
 70
     0
 40
0.0
 41
0.9
 50
0.0
 71
     0
 42
0.2
  3
txt.shx
  4

  0
ENDTAB
  0
TABLE
  2
VIEW
  5
6
330
0
100
AcDbSymbolTable
 70
     0
  0
ENDTAB
  0
TABLE
  2
UCS
  5
7
330
0
100
AcDbSymbolTable
 70
     0
  0
ENDTAB
  0
TABLE
  2
APPID
  5
9
330
0
100
AcDbSymbolTable
 70
     1
  0
APPID
  5
12
330
9
100
AcDbSymbolTableRecord
100
AcDbRegAppTableRecord
  2
ACAD
 70
     0
  0
ENDTAB
  0
TABLE
  2
DIMSTYLE
  5
A
330
0
100
AcDbSymbolTable
 70
    10
100
AcDbDimStyleTable
  0
DIMSTYLE
105
27
330
A
100
AcDbSymbolTableRecord
100
AcDbDimStyleTableRecord
  2
Standard
 70
     0
178
     0
340
11
  0
DIMSTYLE
105
2EC
102
{ACAD_REACTORS
330
2ED
102
}
330
A
100
AcDbSymbolTableRecord
100
AcDbDimStyleTableRecord
  2
ME10_DIM_10
 70
     0
  3
{\Fgdt;n}<>
 41
5.25
 42
0.0
 44
1.5
 73
     0
 74
     0
 77
     1
 78
     8
140
5.25
147
1.5
172
     1
173
     1
174
     1
175
     1
176
     2
177
     2
271
     2
178
     7
271
     2
340
2DB
  0
DIMSTYLE
105
2F7
102
{ACAD_REACTORS
330
2F8
102
}
330
A
100
AcDbSymbolTableRecord
100
AcDbDimStyleTableRecord
  2
ME10_DIM_11
 70
     0
 41
5.25
 42
0.0
 44
1.5
 73
     0
 74
     0
 77
     1
 78
     8
140
5.25
147
1.5
172
     1
173
     1
174
     1
175
     1
176
     2
177
     2
271
     2
178
     7
271
     2
340
2DB
  0
DIMSTYLE
105
305
102
{ACAD_REACTORS
330
306
102
}
330
A
100
AcDbSymbolTableRecord
100
AcDbDimStyleTableRecord
  2
ME10_DIM_12
 70
     0
 41
5.25
 42
0.0
 44
1.5
 73
     0
 74
     0
 77
     1
 78
     8
140
5.25
147
1.5
172
     1
173
     1
174
     1
175
     1
176
     2
177
     2
271
     2
178
     7
271
     2
340
2DB
344
302
  0
DIMSTYLE
105
310
102
{ACAD_REACTORS
330
311
102
}
330
A
100
AcDbSymbolTableRecord
100
AcDbDimStyleTableRecord
  2
ME10_DIM_13
 70
     0
  3
{\Fgdt;n}<>
 41
5.25
 42
0.0
 44
1.5
 73
     0
 74
     0
 77
     1
 78
     8
140
5.25
147
1.5
172
     1
173
     1
174
     1
175
     1
176
     2
177
     2
271
     2
178
     7
271
     2
340
2DB
  0
DIMSTYLE
105
31C
102
{ACAD_REACTORS
330
31D
102
}
330
A
100
AcDbSymbolTableRecord
100
AcDbDimStyleTableRecord
  2
ME10_DIM_14
 70
     0
 41
5.25
 42
0.0
 44
1.5
 73
     0
 74
     0
 77
     1
 78
     8
140
5.25
147
1.5
172
     1
173
     1
174
     1
175
     1
176
     2
177
     2
271
     2
178
     7
271
     2
340
2DB
  0
DIMSTYLE
105
327
102
{ACAD_REACTORS
330
328
102
}
330
A
100
AcDbSymbolTableRecord
100
AcDbDimStyleTableRecord
  2
ME10_DIM_15
 70
     0
 41
5.25
 42
0.0
 44
1.5
 73
     0
 74
     0
 77
     1
 78
     8
140
5.25
147
1.5
172
     1
173
     1
174
     1
175
     1
176
     2
177
     2
271
     2
178
     7
271
     2
340
2DB
  0
DIMSTYLE
105
332
102
{ACAD_REACTORS
330
333
102
}
330
A
100
AcDbSymbolTableRecord
100
AcDbDimStyleTableRecord
  2
ME10_DIM_16
 70
     0
 41
5.25
 42
0.0
 44
1.5
 73
     0
 74
     0
 77
     1
 78
     8
140
5.25
147
1.5
172
     1
173
     1
174
     1
175
     1
176
     2
177
     2
271
     2
178
     7
271
     2
340
2DB
  0
DIMSTYLE
105
33D
102
{ACAD_REACTORS
330
33E
102
}
330
A
100
AcDbSymbolTableRecord
100
AcDbDimStyleTableRecord
  2
ME10_DIM_17
 70
     0
 41
5.25
 42
0.0
 44
1.5
 73
     0
 74
     0
 77
     1
 78
     8
140
5.25
147
1.5
172
     1
173
     1
174
     1
175
     1
176
     2
177
     2
271
     2
178
     7
271
     2
340
BA
  0
DIMSTYLE
105
34A
102
{ACAD_REACTORS
330
34B
102
}
330
A
100
AcDbSymbolTableRecord
100
AcDbDimStyleTableRecord
  2
ME10_DIM_18
 70
     0
 41
5.25
 42
0.0
 44
1.5
 73
     0
 74
     0
 77
     1
 78
     8
140
5.25
147
1.5
172
     1
173
     1
174
     1
175
     1
176
     2
177
     2
271
     2
178
     7
271
     2
340
2DB
  0
ENDTAB
  0
TABLE
  2
BLOCK_RECORD
  5
1
330
0
100
AcDbSymbolTable
 70
    21
  0
BLOCK_RECORD
  5
1F
330
1
100
AcDbSymbolTableRecord
100
AcDbBlockTableRecord
  2
*Model_Space
340
22
  0
BLOCK_RECORD
  5
1B
330
1
100
AcDbSymbolTableRecord
100
AcDbBlockTableRecord
  2
*Paper_Space
340
1E
  0
BLOCK_RECORD
  5
23
330
1
100
AcDbSymbolTableRecord
100
AcDbBlockTableRecord
  2
*Paper_Space0
340
26
  0
BLOCK_RECORD
  5
47
330
1
100
AcDbSymbolTableRecord
100
AcDbBlockTableRecord
  2
開示A4
340
0
102
{BLKREFS
331
67
102
}
  0
BLOCK_RECORD
  5
4A
330
1
100
AcDbSymbolTableRecord
100
AcDbBlockTableRecord
  2
32-1-16
340
0
102
{BLKREFS
331
51
102
}
  0
BLOCK_RECORD
  5
4D
330
1
100
AcDbSymbolTableRecord
100
AcDbBlockTableRecord
  2
75-2
340
0
102
{BLKREFS
331
52
102
}
  0
BLOCK_RECORD
  5
50
330
1
100
AcDbSymbolTableRecord
100
AcDbBlockTableRecord
  2
Y12J-64X
340
0
102
{BLKREFS
331
68
102
}
  0
BLOCK_RECORD
  5
55
330
1
100
AcDbSymbolTableRecord
100
AcDbBlockTableRecord
  2
Y12-0-13
340
0
102
{BLKREFS
331
69
102
}
  0
BLOCK_RECORD
  5
58
330
1
100
AcDbSymbolTableRecord
100
AcDbBlockTableRecord
  2
62-1A
340
0
102
{BLKREFS
331
6A
102
}
  0
BLOCK_RECORD
  5
5B
330
1
100
AcDbSymbolTableRecord
100
AcDbBlockTableRecord
  2
21-1C
340
0
102
{BLKREFS
331
6B
102
}
  0
BLOCK_RECORD
  5
5E
330
1
100
AcDbSymbolTableRecord
100
AcDbBlockTableRecord
  2
42-1
340
0
102
{BLKREFS
331
6C
102
}
  0
BLOCK_RECORD
  5
61
330
1
100
AcDbSymbolTableRecord
100
AcDbBlockTableRecord
  2
36-54-M11
340
0
102
{BLKREFS
331
6D
102
}
  0
BLOCK_RECORD
  5
64
330
1
100
AcDbSymbolTableRecord
100
AcDbBlockTableRecord
  2
37-1-13
340
0
102
{BLKREFS
331
6E
102
}
  0
BLOCK_RECORD
  5
2E2
330
1
100
AcDbSymbolTableRecord
100
AcDbBlockTableRecord
  2
*D11
340
0
  0
BLOCK_RECORD
  5
2EE
330
1
100
AcDbSymbolTableRecord
100
AcDbBlockTableRecord
  2
*D12
340
0
  0
BLOCK_RECORD
  5
2F9
330
1
100
AcDbSymbolTableRecord
100
AcDbBlockTableRecord
  2
*D13
340
0
  0
BLOCK_RECORD
  5
302
330
1
100
AcDbSymbolTableRecord
100
AcDbBlockTableRecord
  2
_NONE
340
0
  0
BLOCK_RECORD
  5
307
330
1
100
AcDbSymbolTableRecord
100
AcDbBlockTableRecord
  2
*D15
340
0
  0
BLOCK_RECORD
  5
312
330
1
100
AcDbSymbolTableRecord
100
AcDbBlockTableRecord
  2
*D16
340
0
  0
BLOCK_RECORD
  5
31E
330
1
100
AcDbSymbolTableRecord
100
AcDbBlockTableRecord
  2
*D17
340
0
  0
BLOCK_RECORD
  5
329
330
1
100
AcDbSymbolTableRecord
100
AcDbBlockTableRecord
  2
*D18
340
0
  0
BLOCK_RECORD
  5
334
330
1
100
AcDbSymbolTableRecord
100
AcDbBlockTableRecord
  2
*D19
340
0
  0
BLOCK_RECORD
  5
33F
330
1
100
AcDbSymbolTableRecord
100
AcDbBlockTableRecord
  2
*D20
340
0
  0
ENDTAB
  0
ENDSEC
  0
SECTION
  2
BLOCKS
  0
BLOCK
  5
20
330
1F
100
AcDbEntity
  8
0
100
AcDbBlockBegin
  2
*Model_Space
 70
     0
 10
0.0
 20
0.0
 30
0.0
  3
*Model_Space
  1

  0
ENDBLK
  5
21
330
1F
100
AcDbEntity
  8
0
100
AcDbBlockEnd
  0
BLOCK
  5
1C
330
1B
100
AcDbEntity
 67
     1
  8
0
100
AcDbBlockBegin
  2
*Paper_Space
 70
     0
 10
0.0
 20
0.0
 30
0.0
  3
*Paper_Space
  1

  0
ENDBLK
  5
1D
330
1B
100
AcDbEntity
 67
     1
  8
0
100
AcDbBlockEnd
  0
BLOCK
  5
24
330
23
100
AcDbEntity
  8
0
100
AcDbBlockBegin
  2
*Paper_Space0
 70
     0
 10
0.0
 20
0.0
 30
0.0
  3
*Paper_Space0
  1

  0
ENDBLK
  5
25
330
23
100
AcDbEntity
  8
0
100
AcDbBlockEnd
  0
BLOCK
  5
48
330
47
100
AcDbEntity
  8
0
100
AcDbBlockBegin
  2
開示A4
 70
     0
 10
0.0
 20
0.0
 30
0.0
  3
開示A4
  1

  0
POINT
  5
6F
330
47
100
AcDbEntity
  8
1
 62
     4
100
AcDbPoint
 10
34.0
 20
34.00000000000001
 30
0.0
  0
POINT
  5
70
330
47
100
AcDbEntity
  8
1
 62
     4
100
AcDbPoint
 10
57.0
 20
12.25
 30
0.0
  0
POINT
  5
71
330
47
100
AcDbEntity
  8
1
 62
     4
100
AcDbPoint
 10
57.0
 20
20.75000000000001
 30
0.0
  0
POINT
  5
72
330
47
100
AcDbEntity
  8
1
 62
     4
100
AcDbPoint
 10
57.0
 20
24.75000000000001
 30
0.0
  0
POINT
  5
73
330
47
100
AcDbEntity
  8
1
 62
     4
100
AcDbPoint
 10
57.0
 20
16.25
 30
0.0
  0
POINT
  5
74
330
47
100
AcDbEntity
  8
1
 62
     4
100
AcDbPoint
 10
157.5
 20
19.00000000000001
 30
0.0
  0
POINT
  5
75
330
47
100
AcDbEntity
  8
1
 62
     4
100
AcDbPoint
 10
47.5
 20
282.0000000000003
 30
0.0
  0
POINT
  5
76
330
47
100
AcDbEntity
  8
1
 62
     4
100
AcDbPoint
 10
57.0
 20
22.75000000000001
 30
0.0
  0
POINT
  5
77
330
47
100
AcDbEntity
  8
1
 62
     4
100
AcDbPoint
 10
57.0
 20
14.25
 30
0.0
  0
POINT
  5
78
330
47
100
AcDbEntity
  8
1
 62
     4
100
AcDbPoint
 10
157.5
 20
12.5
 30
0.0
  0
POINT
  5
79
330
47
100
AcDbEntity
  8
1
 62
     4
100
AcDbPoint
 10
163.25
 20
12.5
 30
0.0
  0
POINT
  5
7A
330
47
100
AcDbEntity
  8
1
 62
     4
100
AcDbPoint
 10
151.75
 20
12.5
 30
0.0
  0
POINT
  5
7B
330
47
100
AcDbEntity
  8
1
 62
     4
100
AcDbPoint
 10
134.75
 20
12.5
 30
0.0
  0
POINT
  5
7C
330
47
100
AcDbEntity
  8
1
 62
     4
100
AcDbPoint
 10
146.25
 20
12.5
 30
0.0
  0
POINT
  5
7D
330
47
100
AcDbEntity
  8
1
 62
     4
100
AcDbPoint
 10
140.5
 20
12.5
 30
0.0
  0
POINT
  5
7E
330
47
100
AcDbEntity
  8
1
 62
     4
100
AcDbPoint
 10
140.5
 20
19.00000000000001
 30
0.0
  0
POINT
  5
7F
330
47
100
AcDbEntity
  8
1
 62
     4
100
AcDbPoint
 10
117.75
 20
12.5
 30
0.0
  0
POINT
  5
80
330
47
100
AcDbEntity
  8
1
 62
     4
100
AcDbPoint
 10
129.25
 20
12.5
 30
0.0
  0
POINT
  5
81
330
47
100
AcDbEntity
  8
1
 62
     4
100
AcDbPoint
 10
123.5
 20
12.5
 30
0.0
  0
POINT
  5
82
330
47
100
AcDbEntity
  8
1
 62
     4
100
AcDbPoint
 10
123.5
 20
19.00000000000001
 30
0.0
  0
POINT
  5
83
330
47
100
AcDbEntity
  8
1
 62
     4
100
AcDbPoint
 10
100.75
 20
12.5
 30
0.0
  0
POINT
  5
84
330
47
100
AcDbEntity
  8
1
 62
     4
100
AcDbPoint
 10
112.25
 20
12.5
 30
0.0
  0
POINT
  5
85
330
47
100
AcDbEntity
  8
1
 62
     4
100
AcDbPoint
 10
106.5
 20
12.5
 30
0.0
  0
POINT
  5
86
330
47
100
AcDbEntity
  8
1
 62
     4
100
AcDbPoint
 10
106.5
 20
19.00000000000001
 30
0.0
  0
POINT
  5
87
330
47
100
AcDbEntity
  8
1
 62
     4
100
AcDbPoint
 10
85.25
 20
17.0
 30
0.0
  0
POINT
  5
88
330
47
100
AcDbEntity
  8
1
 62
     4
100
AcDbPoint
 10
93.75
 20
17.0
 30
0.0
  0
LINE
  5
89
330
47
100
AcDbEntity
  8
1
  6
Continuous
 62
     2
100
AcDbLine
 10
81.0
 20
27.00000000000001
 30
0.0
 11
81.0
 21
10.0
 31
0.0
  0
LINE
  5
8A
330
47
100
AcDbEntity
  8
1
  6
DOT_CENTER
 62
     2
100
AcDbLine
 10
187.0
 20
26.50000000000001
 30
0.0
 11
187.0
 21
20.50000000000001
 31
0.0
  0
LINE
  5
8B
330
47
100
AcDbEntity
  8
1
  6
DOT_CENTER
 62
     2
100
AcDbLine
 10
184.0
 20
23.50000000000001
 30
0.0
 11
197.0
 21
23.50000000000001
 31
0.0
  0
LINE
  5
8C
330
47
100
AcDbEntity
  8
1
  6
Continuous
 62
     7
100
AcDbLine
 10
196.0
 20
21.50000000000001
 30
0.0
 11
191.0
 21
22.30000000000001
 31
0.0
  0
LINE
  5
8D
330
47
100
AcDbEntity
  8
1
  6
Continuous
 62
     7
100
AcDbLine
 10
196.0
 20
25.50000000000001
 30
0.0
 11
196.0
 21
21.50000000000001
 31
0.0
  0
LINE
  5
8E
330
47
100
AcDbEntity
  8
1
  6
Continuous
 62
     7
100
AcDbLine
 10
191.0
 20
24.70000000000001
 30
0.0
 11
196.0
 21
25.50000000000001
 31
0.0
  0
LINE
  5
8F
330
47
100
AcDbEntity
  8
1
  6
Continuous
 62
     7
100
AcDbLine
 10
191.0
 20
24.70000000000001
 30
0.0
 11
191.0
 21
22.30000000000001
 31
0.0
  0
LINE
  5
90
330
47
100
AcDbEntity
  8
1
  6
Continuous
 62
     2
100
AcDbLine
 10
33.0
 20
27.0
 30
0.0
 11
33.0
 21
10.0
 31
0.0
  0
LINE
  5
91
330
47
100
AcDbEntity
  8
1
  6
Continuous
 62
     2
100
AcDbLine
 10
25.0
 20
18.50000000000001
 30
0.0
 11
81.0
 21
18.50000000000001
 31
0.0
  0
LINE
  5
92
330
47
100
AcDbEntity
  8
1
  6
Continuous
 62
     7
100
AcDbLine
 10
200.0
 20
287.0000000000003
 30
0.0
 11
105.0
 21
287.0000000000003
 31
0.0
  0
LINE
  5
93
330
47
100
AcDbEntity
  8
1
  6
Continuous
 62
     7
100
AcDbLine
 10
200.0
 20
10.0
 30
0.0
 11
200.0
 21
148.5
 31
0.0
  0
LINE
  5
94
330
47
100
AcDbEntity
  8
1
  6
Continuous
 62
     7
100
AcDbLine
 10
25.0
 20
10.0
 30
0.0
 11
105.0
 21
10.0
 31
0.0
  0
LINE
  5
95
330
47
100
AcDbEntity
  8
1
  6
PHANTOM
 62
     4
100
AcDbLine
 10
0.0
 20
297.0
 30
0.0
 11
0.0
 21
0.0
 31
0.0
  0
LINE
  5
96
330
47
100
AcDbEntity
  8
1
  6
PHANTOM
 62
     4
100
AcDbLine
 10
210.0
 20
297.0
 30
0.0
 11
0.0
 21
297.0
 31
0.0
  0
LINE
  5
97
330
47
100
AcDbEntity
  8
1
  6
PHANTOM
 62
     4
100
AcDbLine
 10
210.0
 20
0.0
 30
0.0
 11
210.0
 21
297.0
 31
0.0
  0
LINE
  5
98
330
47
100
AcDbEntity
  8
1
  6
PHANTOM
 62
     4
100
AcDbLine
 10
0.0
 20
0.0
 30
0.0
 11
210.0
 21
0.0
 31
0.0
  0
LINE
  5
99
330
47
100
AcDbEntity
  8
1
  6
Continuous
 62
     7
100
AcDbLine
 10
25.0
 20
41.0
 30
0.0
 11
200.0
 21
41.0
 31
0.0
  0
LINE
  5
9A
330
47
100
AcDbEntity
  8
1
  6
Continuous
 62
     7
100
AcDbLine
 10
200.0
 20
27.00000000000001
 30
0.0
 11
25.0
 21
27.00000000000001
 31
0.0
  0
LINE
  5
9B
330
47
100
AcDbEntity
  8
1
  6
Continuous
 62
     2
100
AcDbLine
 10
33.0
 20
41.00000000000001
 30
0.0
 11
33.0
 21
27.0
 31
0.0
  0
LINE
  5
9C
330
47
100
AcDbEntity
  8
1
  6
Continuous
 62
     2
100
AcDbLine
 10
55.0
 20
287.0000000000003
 30
0.0
 11
55.0
 21
277.0000000000003
 31
0.0
  0
LINE
  5
9D
330
47
100
AcDbEntity
  8
1
  6
Continuous
 62
     2
100
AcDbLine
 10
40.0
 20
287.0000000000003
 30
0.0
 11
40.0
 21
277.0000000000003
 31
0.0
  0
LINE
  5
9E
330
47
100
AcDbEntity
  8
1
  6
Continuous
 62
     7
100
AcDbLine
 10
25.0
 20
10.0
 30
0.0
 11
25.0
 21
148.5
 31
0.0
  0
LINE
  5
9F
330
47
100
AcDbEntity
  8
1
  6
Continuous
 62
     2
100
AcDbLine
 10
55.0
 20
277.0000000000003
 30
0.0
 11
25.0
 21
277.0000000000003
 31
0.0
  0
LINE
  5
A0
330
47
100
AcDbEntity
  8
1
  6
Continuous
 62
     2
100
AcDbLine
 10
166.0
 20
27.00000000000001
 30
0.0
 11
166.0
 21
10.0
 31
0.0
  0
LINE
  5
A1
330
47
100
AcDbEntity
  8
1
  6
Continuous
 62
     2
100
AcDbLine
 10
132.0
 20
27.00000000000001
 30
0.0
 11
132.0
 21
9.99999999999999
 31
0.0
  0
LINE
  5
A2
330
47
100
AcDbEntity
  8
1
  6
Continuous
 62
     2
100
AcDbLine
 10
149.0
 20
27.00000000000001
 30
0.0
 11
149.0
 21
10.0
 31
0.0
  0
LINE
  5
A3
330
47
100
AcDbEntity
  8
1
  6
Continuous
 62
     2
100
AcDbLine
 10
115.0
 20
27.00000000000001
 30
0.0
 11
115.0
 21
9.99999999999999
 31
0.0
  0
LINE
  5
A4
330
47
100
AcDbEntity
  8
1
  6
Continuous
 62
     2
100
AcDbLine
 10
98.0
 20
27.00000000000001
 30
0.0
 11
98.0
 21
9.99999999999999
 31
0.0
  0
LINE
  5
A5
330
47
100
AcDbEntity
  8
1
  6
Continuous
 62
     2
100
AcDbLine
 10
166.0
 20
20.00000000000001
 30
0.0
 11
200.0
 21
20.00000000000001
 31
0.0
  0
LINE
  5
A6
330
47
100
AcDbEntity
  8
1
  6
Continuous
 62
     2
100
AcDbLine
 10
105.0
 20
287.0000000000003
 30
0.0
 11
105.0
 21
292.0000000000003
 31
0.0
  0
LINE
  5
A7
330
47
100
AcDbEntity
  8
1
  6
Continuous
 62
     7
100
AcDbLine
 10
105.0
 20
287.0000000000003
 30
0.0
 11
25.0
 21
287.0000000000003
 31
0.0
  0
LINE
  5
A8
330
47
100
AcDbEntity
  8
1
  6
Continuous
 62
     2
100
AcDbLine
 10
25.0
 20
148.5
 30
0.0
 11
20.0
 21
148.5
 31
0.0
  0
LINE
  5
A9
330
47
100
AcDbEntity
  8
1
  6
Continuous
 62
     7
100
AcDbLine
 10
25.0
 20
148.5
 30
0.0
 11
25.0
 21
287.0000000000003
 31
0.0
  0
LINE
  5
AA
330
47
100
AcDbEntity
  8
1
  6
Continuous
 62
     2
100
AcDbLine
 10
200.0
 20
148.5
 30
0.0
 11
205.0
 21
148.5
 31
0.0
  0
LINE
  5
AB
330
47
100
AcDbEntity
  8
1
  6
Continuous
 62
     7
100
AcDbLine
 10
200.0
 20
148.5
 30
0.0
 11
200.0
 21
287.0000000000003
 31
0.0
  0
LINE
  5
AC
330
47
100
AcDbEntity
  8
1
  6
Continuous
 62
     2
100
AcDbLine
 10
105.0
 20
10.0
 30
0.0
 11
105.0
 21
5.0
 31
0.0
  0
LINE
  5
AD
330
47
100
AcDbEntity
  8
1
  6
Continuous
 62
     7
100
AcDbLine
 10
105.0
 20
10.0
 30
0.0
 11
200.0
 21
10.0
 31
0.0
  0
CIRCLE
  5
AE
330
47
100
AcDbEntity
  8
1
  6
DOT_CENTER
 62
     7
100
AcDbCircle
 10
89.5
 20
18.0
 30
0.0
 40
0.1000000000000227
  0
CIRCLE
  5
AF
330
47
100
AcDbEntity
  8
1
  6
DOT_CENTER
 62
     7
100
AcDbCircle
 10
89.5
 20
16.0
 30
0.0
 40
0.1000000000000227
  0
CIRCLE
  5
B0
330
47
100
AcDbEntity
  8
1
  6
Continuous
 62
     7
100
AcDbCircle
 10
187.0
 20
23.50000000000001
 30
0.0
 40
2.0
  0
CIRCLE
  5
B1
330
47
100
AcDbEntity
  8
1
  6
Continuous
 62
     7
100
AcDbCircle
 10
187.0
 20
23.50000000000001
 30
0.0
 40
1.200000000000102
  0
CIRCLE
  5
B2
330
47
100
AcDbEntity
  8
1
  6
Continuous
 62
     7
100
AcDbCircle
 10
154.5
 20
12.5
 30
0.0
 40
0.3000000000000114
  0
CIRCLE
  5
B3
330
47
100
AcDbEntity
  8
1
  6
Continuous
 62
     7
100
AcDbCircle
 10
160.5
 20
12.5
 30
0.0
 40
0.3000000000000114
  0
CIRCLE
  5
B4
330
47
100
AcDbEntity
  8
1
  6
Continuous
 62
     7
100
AcDbCircle
 10
143.5
 20
12.5
 30
0.0
 40
0.3000000000000114
  0
CIRCLE
  5
B5
330
47
100
AcDbEntity
  8
1
  6
Continuous
 62
     7
100
AcDbCircle
 10
137.5
 20
12.5
 30
0.0
 40
0.3000000000000114
  0
CIRCLE
  5
B6
330
47
100
AcDbEntity
  8
1
  6
Continuous
 62
     7
100
AcDbCircle
 10
126.5
 20
12.5
 30
0.0
 40
0.2999999999999972
  0
CIRCLE
  5
B7
330
47
100
AcDbEntity
  8
1
  6
Continuous
 62
     7
100
AcDbCircle
 10
120.5
 20
12.5
 30
0.0
 40
0.2999999999999972
  0
CIRCLE
  5
B8
330
47
100
AcDbEntity
  8
1
  6
Continuous
 62
     7
100
AcDbCircle
 10
109.5
 20
12.5
 30
0.0
 40
0.2999999999999972
  0
CIRCLE
  5
B9
330
47
100
AcDbEntity
  8
1
  6
Continuous
 62
     7
100
AcDbCircle
 10
103.5
 20
12.5
 30
0.0
 40
0.2999999999999972
  0
MTEXT
  5
BB
330
47
100
AcDbEntity
  8
1
 62
   250
100
AcDbMText
 10
25.0
 20
5.0
 30
0.0
 40
3.5
 41
0.0
 71
     4
 72
     1
  1
備考欄の文字列 原点位置=4
  7
CONVERTER_11
 73
     1
 44
0.54545454545455
  0
MTEXT
  5
BC
330
47
100
AcDbEntity
  8
1
 62
     2
100
AcDbMText
 10
89.5
 20
24.00000000000001
 30
0.0
 40
3.5
 41
0.0
 71
     5
 72
     1
  1
尺度
  7
CONVERTER_11
 73
     1
 44
0.54545454545455
  0
MTEXT
  5
BD
330
47
100
AcDbEntity
  8
1
 62
     2
100
AcDbMText
 10
135.5
 20
25.00000000000001
 30
0.0
 40
3.0
 41
0.0
 71
     5
 72
     1
  1
製図
  7
CONVERTER_11
 73
     1
 44
0.59090909090909
  0
MTEXT
  5
BE
330
47
100
AcDbEntity
  8
1
 62
     2
100
AcDbMText
 10
152.5
 20
25.00000000000001
 30
0.0
 40
3.0
 41
0.0
 71
     5
 72
     1
  1
設計
  7
CONVERTER_11
 73
     1
 44
0.59090909090909
  0
MTEXT
  5
BF
330
47
100
AcDbEntity
  8
1
 62
     2
100
AcDbMText
 10
118.5
 20
25.00000000000001
 30
0.0
 40
3.0
 41
0.0
 71
     5
 72
     1
  1
検図
  7
CONVERTER_11
 73
     1
 44
0.59090909090909
  0
MTEXT
  5
C0
330
47
100
AcDbEntity
  8
1
 62
     2
100
AcDbMText
 10
175.0
 20
23.50000000000001
 30
0.0
 40
3.5
 41
0.0
 71
     5
 72
     1
  1
第三角法
  7
CONVERTER_11
 73
     1
 44
0.54545454545455
  0
MTEXT
  5
C1
330
47
100
AcDbEntity
  8
1
 62
     2
100
AcDbMText
 10
101.5
 20
25.00000000000001
 30
0.0
 40
3.0
 41
0.0
 71
     5
 72
     1
  1
承認
  7
CONVERTER_11
 73
     1
 44
0.59090909090909
  0
MTEXT
  5
C2
330
47
100
AcDbEntity
  8
1
 62
     2
100
AcDbMText
 10
29.0
 20
14.25
 30
0.0
 40
3.5
 41
0.0
 71
     5
 72
     1
  1
品番
  7
CONVERTER_11
 73
     1
 44
0.72727272727273
  0
MTEXT
  5
C3
330
47
100
AcDbEntity
  8
1
 62
     2
100
AcDbMText
 10
29.0
 20
22.75
 30
0.0
 40
3.5
 41
0.0
 71
     5
 72
     1
  1
品名
  7
CONVERTER_11
 73
     1
 44
0.72727272727273
  0
MTEXT
  5
C4
330
47
100
AcDbEntity
  8
1
 62
     2
100
AcDbMText
 10
29.0
 20
34.00000000000001
 30
0.0
 40
3.5
 41
0.0
 71
     5
 72
     1
  1
備考
  7
CONVERTER_11
 73
     1
 44
0.45454545454545
  0
MTEXT
  5
C5
330
47
100
AcDbEntity
  8
1
 62
     2
100
AcDbMText
 10
32.5
 20
282.0000000000003
 30
0.0
 40
5.0
 41
0.0
 71
     5
 72
     1
  1
図番
  7
CONVERTER_11
 73
     1
 44
0.45454545454545
  0
MTEXT
  5
C6
330
47
100
AcDbEntity
  8
1
 62
     7
100
AcDbMText
 10
171.5
 20
15.0
 30
0.0
 40
2.5
 41
0.0
 71
     5
 72
     1
  1
株式会社
  7
CONVERTER_11
 73
     1
 44
1.0
  0
MTEXT
  5
C7
330
47
100
AcDbEntity
  8
1
 62
     7
100
AcDbMText
 10
188.5
 20
15.0
 30
0.0
 40
3.0
 41
0.0
 71
     5
 72
     1
  1
三栄水栓製作所
  7
CONVERTER_11
 73
     1
 44
1.0
  0
ENDBLK
  5
49
330
47
100
AcDbEntity
  8
0
100
AcDbBlockEnd
  0
BLOCK
  5
4B
330
4A
100
AcDbEntity
  8
0
100
AcDbBlockBegin
  2
32-1-16
 70
     0
 10
207.5838464598908
 20
-131.8890861160926
 30
0.0
  3
32-1-16
  1

  0
LINE
  5
C8
330
4A
100
AcDbEntity
  8
1
  6
Continuous
 62
     7
100
AcDbLine
 10
180.0677307778073
 20
132.6883419286554
 30
0.0
 11
180.0677307778073
 21
132.8753419286554
 31
0.0
  0
LINE
  5
C9
330
4A
100
AcDbEntity
  8
1
  6
Continuous
 62
     7
100
AcDbLine
 10
180.0677307778073
 20
159.0623419286555
 30
0.0
 11
180.0677307778073
 21
132.8753419286554
 31
0.0
  0
LINE
  5
CA
330
4A
100
AcDbEntity
  8
1
  6
Continuous
 62
     7
100
AcDbLine
 10
84.33583102122864
 20
295.2515055386111
 30
0.0
 11
85.90378021365984
 21
295.2515055386111
 31
0.0
  0
LINE
  5
CB
330
4A
100
AcDbEntity
  8
1
  6
Continuous
 62
     7
100
AcDbLine
 10
89.43583102122867
 20
305.2515055386111
 30
0.0
 11
82.34748810368916
 21
305.2515055386111
 31
0.0
  0
LINE
  5
CC
330
4A
100
AcDbEntity
  8
1
  6
Continuous
 62
     7
100
AcDbLine
 10
89.32283102122867
 20
305.2515055386111
 30
0.0
 11
89.43583102122867
 21
305.2515055386111
 31
0.0
  0
LINE
  5
CD
330
4A
100
AcDbEntity
  8
1
  6
Continuous
 62
     7
100
AcDbLine
 10
87.69385208295927
 20
296.2515055386111
 30
0.0
 11
87.63583102122877
 21
296.2515055386111
 31
0.0
  0
LINE
  5
CE
330
4A
100
AcDbEntity
  8
1
  6
Continuous
 62
     7
100
AcDbLine
 10
76.13583102122877
 20
295.2515055386111
 30
0.0
 11
84.33583102122864
 21
295.2515055386111
 31
0.0
  0
LINE
  5
CF
330
4A
100
AcDbEntity
  8
1
  6
Continuous
 62
     7
100
AcDbLine
 10
66.36788182879755
 20
295.2515055386111
 30
0.0
 11
67.93583102122875
 21
295.2515055386111
 31
0.0
  0
LINE
  5
D0
330
4A
100
AcDbEntity
  8
1
  6
Continuous
 62
     7
100
AcDbLine
 10
62.83583102122864
 20
305.2515055386111
 30
0.0
 11
62.94883102122864
 21
305.2515055386111
 31
0.0
  0
LINE
  5
D1
330
4A
100
AcDbEntity
  8
1
  6
Continuous
 62
     7
100
AcDbLine
 10
64.63583102122877
 20
296.2515055386111
 30
0.0
 11
64.57780995949815
 21
296.2515055386111
 31
0.0
  0
LINE
  5
D2
330
4A
100
AcDbEntity
  8
1
  6
Continuous
 62
     7
100
AcDbLine
 10
67.93583102122875
 20
295.2515055386111
 30
0.0
 11
76.13583102122877
 21
295.2515055386111
 31
0.0
  0
LINE
  5
D3
330
4A
100
AcDbEntity
  8
1
  6
Continuous
 62
     7
100
AcDbLine
 10
69.92417393876815
 20
305.2515055386111
 30
0.0
 11
62.83583102122864
 21
305.2515055386111
 31
0.0
  0
LINE
  5
D4
330
4A
100
AcDbEntity
  8
1
  6
Continuous
 62
     7
100
AcDbLine
 10
170.0677307778072
 20
153.7753419286555
 30
0.0
 11
170.0677307778072
 21
155.6432911210866
 31
0.0
  0
LINE
  5
D5
330
4A
100
AcDbEntity
  8
1
  6
Continuous
 62
     7
100
AcDbLine
 10
170.0677307778072
 20
136.1073927362243
 30
0.0
 11
170.0677307778072
 21
153.7753419286555
 31
0.0
  0
LINE
  5
D6
330
4A
100
AcDbEntity
  8
1
  6
Continuous
 62
     7
100
AcDbLine
 10
180.0677307778073
 20
132.6883419286554
 30
0.0
 11
180.0677307778073
 21
132.5753419286554
 31
0.0
  0
LINE
  5
D7
330
4A
100
AcDbEntity
  8
1
  6
Continuous
 62
     7
100
AcDbLine
 10
171.0677307778072
 20
134.3173208669248
 30
0.0
 11
171.0677307778072
 21
134.3753419286554
 31
0.0
  0
LINE
  5
D8
330
4A
100
AcDbEntity
  8
1
  6
Continuous
 62
     7
100
AcDbLine
 10
180.0677307778073
 20
159.1753419286555
 30
0.0
 11
180.0677307778073
 21
159.0623419286555
 31
0.0
  0
LINE
  5
D9
330
4A
100
AcDbEntity
  8
1
  6
Continuous
 62
     7
100
AcDbLine
 10
171.0677307778072
 20
157.3753419286554
 30
0.0
 11
171.0677307778072
 21
157.4333629903861
 31
0.0
  0
LINE
  5
DA
330
4A
100
AcDbEntity
  8
1
  6
Continuous
 62
     7
100
AcDbLine
 10
69.48376367340364
 20
159.8753419286554
 30
0.0
 11
82.78789836905366
 21
159.8753419286554
 31
0.0
  0
LINE
  5
DB
330
4A
100
AcDbEntity
  8
1
  6
Continuous
 62
     7
100
AcDbLine
 10
84.93415300029827
 20
158.636201239557
 30
0.0
 11
91.58622034812325
 21
147.1144826177541
 31
0.0
  0
LINE
  5
DC
330
4A
100
AcDbEntity
  8
1
  6
Continuous
 62
     7
100
AcDbLine
 10
84.93415300029827
 20
133.1144826177541
 30
0.0
 11
91.58622034812325
 21
144.636201239557
 31
0.0
  0
LINE
  5
DD
330
4A
100
AcDbEntity
  8
1
  6
Continuous
 62
     7
100
AcDbLine
 10
60.68544169433395
 20
144.636201239557
 30
0.0
 11
67.33750904215904
 21
133.1144826177541
 31
0.0
  0
LINE
  5
DE
330
4A
100
AcDbEntity
  8
1
  6
Continuous
 62
     7
100
AcDbLine
 10
67.33750904215904
 20
158.636201239557
 30
0.0
 11
60.68544169433395
 21
147.1144826177541
 31
0.0
  0
LINE
  5
DF
330
4A
100
AcDbEntity
  8
0
  6
Continuous
 62
     7
100
AcDbLine
 10
172.3545535280942
 20
159.8753419286554
 30
0.0
 11
179.4959819566371
 21
159.8753419286554
 31
0.0
  0
LINE
  5
E0
330
4A
100
AcDbEntity
  8
0
  6
Continuous
 62
     7
100
AcDbLine
 10
172.3545535280942
 20
131.8753419286554
 30
0.0
 11
179.4959819566372
 21
131.8753419286554
 31
0.0
  0
ARC
  5
E1
330
4A
100
AcDbEntity
  8
1
  6
Continuous
 62
     7
100
AcDbCircle
 10
86.63583102122877
 20
301.1090425031696
 30
0.0
 40
4.999999999999955
100
AcDbArc
 50
285.3375576695528
 51
55.94420225743278
  0
ARC
  5
E2
330
4A
100
AcDbEntity
  8
1
  6
Continuous
 62
     7
100
AcDbCircle
 10
80.90265960107484
 20
301.1088732608425
 30
0.0
 40
1.885238775575461
100
AcDbArc
 50
0.00514357714082
 51
3.83791798967272
  0
ARC
  5
E3
330
4A
100
AcDbEntity
  8
1
  6
Continuous
 62
     7
100
AcDbCircle
 10
80.82884262089485
 20
301.1039212731332
 30
0.0
 40
1.959221670525301
100
AcDbArc
 50
3.83791798967063
 51
9.37260108640078
  0
ARC
  5
E4
330
4A
100
AcDbEntity
  8
1
  6
Continuous
 62
     7
100
AcDbCircle
 10
80.74460918348134
 20
301.0900178992052
 30
0.0
 40
2.044594826640681
100
AcDbArc
 50
9.37260108640259
 51
14.67807157129019
  0
ARC
  5
E5
330
4A
100
AcDbEntity
  8
1
  6
Continuous
 62
     7
100
AcDbCircle
 10
80.70190307567555
 20
301.078831629343
 30
0.0
 40
2.088741675648854
100
AcDbArc
 50
14.67807157129077
 51
19.98794307346523
  0
ARC
  5
E6
330
4A
100
AcDbEntity
  8
1
  6
Continuous
 62
     7
100
AcDbCircle
 10
80.56761029976275
 20
301.0299850571008
 30
0.0
 40
2.23164212100216
100
AcDbArc
 50
19.98794307346333
 51
23.44839996530436
  0
ARC
  5
E7
330
4A
100
AcDbEntity
  8
1
  6
Continuous
 62
     7
100
AcDbCircle
 10
80.46967366203185
 20
300.9875058302382
 30
0.0
 40
2.338394496736264
100
AcDbArc
 50
23.44839996530393
 51
26.75137744777113
  0
ARC
  5
E8
330
4A
100
AcDbEntity
  8
1
  6
Continuous
 62
     7
100
AcDbCircle
 10
80.30921418881155
 20
300.906622759858
 30
0.0
 40
2.518086771529235
100
AcDbArc
 50
26.75137744777192
 51
29.81983142576776
  0
ARC
  5
E9
330
4A
100
AcDbEntity
  8
1
  6
Continuous
 62
     7
100
AcDbCircle
 10
80.20721253815304
 20
300.8481589694392
 30
0.0
 40
2.635655268700735
100
AcDbArc
 50
29.81983142576385
 51
32.75164132976182
  0
ARC
  5
EA
330
4A
100
AcDbEntity
  8
1
  6
Continuous
 62
     7
100
AcDbCircle
 10
80.03967605288244
 20
300.7403890958444
 30
0.0
 40
2.83486073938734
100
AcDbArc
 50
32.75164132976659
 51
35.62806700317074
  0
ARC
  5
EB
330
4A
100
AcDbEntity
  8
1
  6
Continuous
 62
     7
100
AcDbCircle
 10
79.93076911238225
 20
300.6623386623201
 30
0.0
 40
2.968848021852643
100
AcDbArc
 50
35.62806700316688
 51
38.51810528404838
  0
ARC
  5
EC
330
4A
100
AcDbEntity
  8
1
  6
Continuous
 62
     7
100
AcDbCircle
 10
79.72731182230305
 20
300.5003964293977
 30
0.0
 40
3.228886779906743
100
AcDbArc
 50
38.51810528405071
 51
41.17514053461989
  0
ARC
  5
ED
330
4A
100
AcDbEntity
  8
1
  6
Continuous
 62
     7
100
AcDbCircle
 10
79.59402263445367
 20
300.3838126799128
 30
0.0
 40
3.4059680557139
100
AcDbArc
 50
41.17514053461956
 51
43.69457626015178
  0
ARC
  5
EE
330
4A
100
AcDbEntity
  8
1
  6
Continuous
 62
     7
100
AcDbCircle
 10
79.35393783304136
 20
300.1544261377953
 30
0.0
 40
3.738020608141702
100
AcDbArc
 50
43.69457626015163
 51
45.99039746615586
  0
ARC
  5
EF
330
4A
100
AcDbEntity
  8
1
  6
Continuous
 62
     7
100
AcDbCircle
 10
79.20606870403725
 20
300.0013545201537
 30
0.0
 40
3.950849646197772
100
AcDbArc
 50
45.99039746615508
 51
48.29355234314033
  0
ARC
  5
F0
330
4A
100
AcDbEntity
  8
1
  6
Continuous
 62
     7
100
AcDbCircle
 10
78.98806178558556
 20
299.7567243496033
 30
0.0
 40
4.2785246938231
100
AcDbArc
 50
48.2935523431407
 51
50.54097616601267
  0
ARC
  5
F1
330
4A
100
AcDbEntity
  8
1
  6
Continuous
 62
     7
100
AcDbCircle
 10
76.14510336472324
 20
309.6554051902998
 30
0.0
 40
12.1171832637499
100
AcDbArc
 50
269.9561559655645
 51
276.4967731826918
  0
ARC
  5
F2
330
4A
100
AcDbEntity
  8
1
  6
Continuous
 62
     7
100
AcDbCircle
 10
76.19029247825367
 20
309.2585867379889
 30
0.0
 40
11.71780006420821
100
AcDbArc
 50
276.4967731826917
 51
278.7108014309692
  0
ARC
  5
F3
330
4A
100
AcDbEntity
  8
1
  6
Continuous
 62
     7
100
AcDbCircle
 10
76.29060032265795
 20
308.6038975182426
 30
0.0
 40
11.05547111413808
100
AcDbArc
 50
278.7108014309696
 51
281.0574916643675
  0
ARC
  5
F4
330
4A
100
AcDbEntity
  8
1
  6
Continuous
 62
     7
100
AcDbCircle
 10
76.32163849434477
 20
308.4450709971334
 30
0.0
 40
10.89364023973748
100
AcDbArc
 50
281.0574916643675
 51
282.1975878865726
  0
ARC
  5
F5
330
4A
100
AcDbEntity
  8
1
  6
Continuous
 62
     7
100
AcDbCircle
 10
76.44733001545876
 20
307.8636061750315
 30
0.0
 40
10.29874554500408
100
AcDbArc
 50
282.1975878865725
 51
283.4035534297088
  0
ARC
  5
F6
330
4A
100
AcDbEntity
  8
1
  6
Continuous
 62
     7
100
AcDbCircle
 10
76.47229157135607
 20
307.7588573476932
 30
0.0
 40
10.19106362404428
100
AcDbArc
 50
283.4035534297083
 51
284.6222356444771
  0
ARC
  5
F7
330
4A
100
AcDbEntity
  8
1
  6
Continuous
 62
     7
100
AcDbCircle
 10
76.60641570749016
 20
307.2447648474995
 30
0.0
 40
9.65976297220111
100
AcDbArc
 50
284.6222356444771
 51
285.9079391252777
  0
ARC
  5
F8
330
4A
100
AcDbEntity
  8
1
  6
Continuous
 62
     7
100
AcDbCircle
 10
76.65195924052645
 20
307.0849670740421
 30
0.0
 40
9.493601779970868
100
AcDbArc
 50
285.9079391252782
 51
287.8289763758415
  0
ARC
  5
F9
330
4A
100
AcDbEntity
  8
1
  6
Continuous
 62
     7
100
AcDbCircle
 10
76.90204997198404
 20
306.307376968963
 30
0.0
 40
8.67678371854095
100
AcDbArc
 50
287.828976375842
 51
289.1699312060536
  0
ARC
  5
FA
330
4A
100
AcDbEntity
  8
1
  6
Continuous
 62
     7
100
AcDbCircle
 10
76.90534416879714
 20
306.2979013154895
 30
0.0
 40
8.666751782467058
100
AcDbArc
 50
289.1699312060531
 51
290.512411970026
  0
ARC
  5
FB
330
4A
100
AcDbEntity
  8
1
  6
Continuous
 62
     7
100
AcDbCircle
 10
77.16379392360915
 20
305.6071022848132
 30
0.0
 40
7.929188512946511
100
AcDbArc
 50
290.5124119700259
 51
291.9797207566676
  0
ARC
  5
FC
330
4A
100
AcDbEntity
  8
1
  6
Continuous
 62
     7
100
AcDbCircle
 10
77.16982638423246
 20
305.5921561924606
 30
0.0
 40
7.913070936894786
100
AcDbArc
 50
291.9797207566683
 51
293.4500581114125
  0
ARC
  5
FD
330
4A
100
AcDbEntity
  8
1
  6
Continuous
 62
     7
100
AcDbCircle
 10
77.42196818857457
 20
305.0108847121413
 30
0.0
 40
7.279468519499338
100
AcDbArc
 50
293.4500581114119
 51
294.9823606023692
  0
ARC
  5
FE
330
4A
100
AcDbEntity
  8
1
  6
Continuous
 62
     7
100
AcDbCircle
 10
77.48648565361145
 20
304.8724152788998
 30
0.0
 40
7.126706327720552
100
AcDbArc
 50
294.9823606023688
 51
296.4800021356232
  0
ARC
  5
FF
330
4A
100
AcDbEntity
  8
1
  6
Continuous
 62
     7
100
AcDbCircle
 10
77.78619512941574
 20
304.2707652797333
 30
0.0
 40
6.454539316194566
100
AcDbArc
 50
296.4800021356232
 51
298.1335589234616
  0
ARC
  5
100
330
4A
100
AcDbEntity
  8
1
  6
Continuous
 62
     7
100
AcDbCircle
 10
77.84903614066565
 20
304.153240249164
 30
0.0
 40
6.321268443513226
100
AcDbArc
 50
298.1335589234624
 51
299.8218682100322
  0
ARC
  5
101
330
4A
100
AcDbEntity
  8
1
  6
Continuous
 62
     7
100
AcDbCircle
 10
78.11846109227724
 20
303.6832138392124
 30
0.0
 40
5.779498537923274
100
AcDbArc
 50
299.8218682100311
 51
301.668542670461
  0
ARC
  5
102
330
4A
100
AcDbEntity
  8
1
  6
Continuous
 62
     7
100
AcDbCircle
 10
78.17526380501835
 20
303.5911293632473
 30
0.0
 40
5.671303811210201
100
AcDbArc
 50
301.6685426704622
 51
303.4573887050719
  0
ARC
  5
103
330
4A
100
AcDbEntity
  8
1
  6
Continuous
 62
     7
100
AcDbCircle
 10
78.53437900220337
 20
303.0476877865413
 30
0.0
 40
5.019926445820529
100
AcDbArc
 50
303.4573887050715
 51
304.4152098167251
  0
ARC
  5
104
330
4A
100
AcDbEntity
  8
1
  6
Continuous
 62
     7
100
AcDbCircle
 10
78.44751633692727
 20
303.1744752958755
 30
0.0
 40
5.173615076311088
100
AcDbArc
 50
304.4152098167247
 51
306.2739527965231
  0
ARC
  5
105
330
4A
100
AcDbEntity
  8
1
  6
Continuous
 62
     7
100
AcDbCircle
 10
78.82951524147586
 20
302.6539510030543
 30
0.0
 40
4.527961374630847
100
AcDbArc
 50
306.2739527965233
 51
308.3975050043334
  0
ARC
  5
106
330
4A
100
AcDbEntity
  8
1
  6
Continuous
 62
     7
100
AcDbCircle
 10
78.84576057813535
 20
302.6334526556291
 30
0.0
 40
4.501806199037073
100
AcDbArc
 50
308.397505004334
 51
310.5332751770279
  0
ARC
  5
107
330
4A
100
AcDbEntity
  8
1
  6
Continuous
 62
     7
100
AcDbCircle
 10
79.17130876864326
 20
302.252732647499
 30
0.0
 40
4.000877712191325
100
AcDbArc
 50
310.5332751770277
 51
312.937167076027
  0
ARC
  5
108
330
4A
100
AcDbEntity
  8
1
  6
Continuous
 62
     7
100
AcDbCircle
 10
79.19622202119567
 20
302.2259576465629
 30
0.0
 40
3.964304896769601
100
AcDbArc
 50
312.9371670760265
 51
315.1016581317792
  0
ARC
  5
109
330
4A
100
AcDbEntity
  8
1
  6
Continuous
 62
     7
100
AcDbCircle
 10
79.54813883368746
 20
301.8752874138712
 30
0.0
 40
3.467500050768211
100
AcDbArc
 50
315.1016581317796
 51
317.5766003475916
  0
ARC
  5
10A
330
4A
100
AcDbEntity
  8
1
  6
Continuous
 62
     7
100
AcDbCircle
 10
79.59390276718645
 20
301.8334649135749
 30
0.0
 40
3.405504412693325
100
AcDbArc
 50
317.5766003475915
 51
320.0960707231214
  0
ARC
  5
10B
330
4A
100
AcDbEntity
  8
1
  6
Continuous
 62
     7
100
AcDbCircle
 10
79.89016696143867
 20
301.585715073636
 30
0.0
 40
3.019301802673946
100
AcDbArc
 50
320.096070723121
 51
322.9375036232103
  0
ARC
  5
10C
330
4A
100
AcDbEntity
  8
1
  6
Continuous
 62
     7
100
AcDbCircle
 10
79.93197876021614
 20
301.5541360599005
 30
0.0
 40
2.966904659378588
100
AcDbArc
 50
322.937503623212
 51
325.8303028980631
  0
ARC
  5
10D
330
4A
100
AcDbEntity
  8
1
  6
Continuous
 62
     7
100
AcDbCircle
 10
80.18174652785817
 20
301.3845870998229
 30
0.0
 40
2.665025896269637
100
AcDbArc
 50
325.8303028980602
 51
328.7291301953103
  0
ARC
  5
10E
330
4A
100
AcDbEntity
  8
1
  6
Continuous
 62
     7
100
AcDbCircle
 10
80.20197534015966
 20
301.372301871494
 30
0.0
 40
2.641358795006042
100
AcDbArc
 50
328.7291301953121
 51
331.6546868768891
  0
ARC
  5
10F
330
4A
100
AcDbEntity
  8
1
  6
Continuous
 62
     7
100
AcDbCircle
 10
80.43931159905415
 20
301.2442672403572
 30
0.0
 40
2.371689800576933
100
AcDbArc
 50
331.6546868768884
 51
334.9119595528072
  0
ARC
  5
110
330
4A
100
AcDbEntity
  8
1
  6
Continuous
 62
     7
100
AcDbCircle
 10
80.47300088396454
 20
301.2284946004346
 30
0.0
 40
2.334491089740249
100
AcDbArc
 50
334.9119595528081
 51
338.2199681822736
  0
ARC
  5
111
330
4A
100
AcDbEntity
  8
1
  6
Continuous
 62
     7
100
AcDbCircle
 10
80.67933718500365
 20
301.1460493707847
 30
0.0
 40
2.112293238673985
100
AcDbArc
 50
338.219968182274
 51
341.8767361300662
  0
ARC
  5
112
330
4A
100
AcDbEntity
  8
1
  6
Continuous
 62
     7
100
AcDbCircle
 10
80.70119578604044
 20
301.1388950539613
 30
0.0
 40
2.089293615014041
100
AcDbArc
 50
341.8767361300661
 51
348.7976217525938
  0
ARC
  5
113
330
4A
100
AcDbEntity
  8
1
  6
Continuous
 62
     7
100
AcDbCircle
 10
80.82861878834345
 20
301.1136591235688
 30
0.0
 40
1.959395679315718
100
AcDbArc
 50
348.7976217525938
 51
354.3329218835777
  0
ARC
  5
114
330
4A
100
AcDbEntity
  8
1
  6
Continuous
 62
     7
100
AcDbCircle
 10
80.83361401782125
 20
301.1131634320474
 30
0.0
 40
1.954375915614166
100
AcDbArc
 50
354.3329218835791
 51
358.0306705209282
  0
ARC
  5
115
330
4A
100
AcDbEntity
  8
1
  6
Continuous
 62
     7
100
AcDbCircle
 10
80.98789087981797
 20
301.1078586491298
 30
0.0
 40
1.80000787854245
100
AcDbArc
 50
358.0306705209222
 51
0.03768308224469
  0
ARC
  5
116
330
4A
100
AcDbEntity
  8
1
  6
Continuous
 62
     7
100
AcDbCircle
 10
65.63583102122877
 20
301.1090425031696
 30
0.0
 40
5.000000000000033
100
AcDbArc
 50
124.0557977425694
 51
254.6624423304434
  0
ARC
  5
117
330
4A
100
AcDbEntity
  8
1
  6
Continuous
 62
     7
100
AcDbCircle
 10
71.36900244138246
 20
301.1088732608425
 30
0.0
 40
1.885238775575521
100
AcDbArc
 50
176.1620820103275
 51
179.9948564228592
  0
ARC
  5
118
330
4A
100
AcDbEntity
  8
1
  6
Continuous
 62
     7
100
AcDbCircle
 10
71.44281942156235
 20
301.1039212731332
 30
0.0
 40
1.959221670525329
100
AcDbArc
 50
170.6273989135987
 51
176.1620820103294
  0
ARC
  5
119
330
4A
100
AcDbEntity
  8
1
  6
Continuous
 62
     7
100
AcDbCircle
 10
71.52705285897585
 20
301.0900178992052
 30
0.0
 40
2.044594826640568
100
AcDbArc
 50
165.321928428709
 51
170.6273989135969
  0
ARC
  5
11A
330
4A
100
AcDbEntity
  8
1
  6
Continuous
 62
     7
100
AcDbCircle
 10
71.56975896678185
 20
301.078831629343
 30
0.0
 40
2.088741675648935
100
AcDbArc
 50
160.0120569265356
 51
165.3219284287098
  0
ARC
  5
11B
330
4A
100
AcDbEntity
  8
1
  6
Continuous
 62
     7
100
AcDbCircle
 10
71.70405174269456
 20
301.0299850571008
 30
0.0
 40
2.231642121002147
100
AcDbArc
 50
156.5516000346956
 51
160.0120569265367
  0
ARC
  5
11C
330
4A
100
AcDbEntity
  8
1
  6
Continuous
 62
     7
100
AcDbCircle
 10
71.80198838042554
 20
300.9875058302382
 30
0.0
 40
2.338394496736365
100
AcDbArc
 50
153.2486225522298
 51
156.5516000346969
  0
ARC
  5
11D
330
4A
100
AcDbEntity
  8
1
  6
Continuous
 62
     7
100
AcDbCircle
 10
71.96244785364576
 20
300.906622759858
 30
0.0
 40
2.518086771529219
100
AcDbArc
 50
150.1801685742335
 51
153.2486225522281
  0
ARC
  5
11E
330
4A
100
AcDbEntity
  8
1
  6
Continuous
 62
     7
100
AcDbCircle
 10
72.06444950430415
 20
300.8481589694392
 30
0.0
 40
2.635655268700652
100
AcDbArc
 50
147.2483586702368
 51
150.1801685742361
  0
ARC
  5
11F
330
4A
100
AcDbEntity
  8
1
  6
Continuous
 62
     7
100
AcDbCircle
 10
72.23198598957495
 20
300.7403890958444
 30
0.0
 40
2.834860739387379
100
AcDbArc
 50
144.3719329968303
 51
147.2483586702343
  0
ARC
  5
120
330
4A
100
AcDbEntity
  8
1
  6
Continuous
 62
     7
100
AcDbCircle
 10
72.34089293007494
 20
300.6623386623201
 30
0.0
 40
2.968848021852658
100
AcDbArc
 50
141.4818947159502
 51
144.3719329968318
  0
ARC
  5
121
330
4A
100
AcDbEntity
  8
1
  6
Continuous
 62
     7
100
AcDbCircle
 10
72.54435022015434
 20
300.5003964293977
 30
0.0
 40
3.228886779906845
100
AcDbArc
 50
138.8248594653824
 51
141.4818947159502
  0
ARC
  5
122
330
4A
100
AcDbEntity
  8
1
  6
Continuous
 62
     7
100
AcDbCircle
 10
72.67763940800376
 20
300.3838126799128
 30
0.0
 40
3.405968055714006
100
AcDbArc
 50
136.3054237398495
 51
138.824859465383
  0
ARC
  5
123
330
4A
100
AcDbEntity
  8
1
  6
Continuous
 62
     7
100
AcDbCircle
 10
72.91772420941595
 20
300.1544261377953
 30
0.0
 40
3.738020608141824
100
AcDbArc
 50
134.0096025338454
 51
136.3054237398484
  0
ARC
  5
124
330
4A
100
AcDbEntity
  8
1
  6
Continuous
 62
     7
100
AcDbCircle
 10
73.06559333842006
 20
300.0013545201537
 30
0.0
 40
3.950849646197751
100
AcDbArc
 50
131.7064476568609
 51
134.0096025338461
  0
ARC
  5
125
330
4A
100
AcDbEntity
  8
1
  6
Continuous
 62
     7
100
AcDbCircle
 10
73.28360025687175
 20
299.7567243496033
 30
0.0
 40
4.278524693823244
100
AcDbArc
 50
129.4590238339885
 51
131.7064476568604
  0
ARC
  5
126
330
4A
100
AcDbEntity
  8
1
  6
Continuous
 62
     7
100
AcDbCircle
 10
76.12655867773407
 20
309.6554051902998
 30
0.0
 40
12.11718326374983
100
AcDbArc
 50
263.5032268173086
 51
270.0438440344366
  0
ARC
  5
127
330
4A
100
AcDbEntity
  8
1
  6
Continuous
 62
     7
100
AcDbCircle
 10
76.08136956420364
 20
309.2585867379889
 30
0.0
 40
11.71780006420825
100
AcDbArc
 50
261.2891985690302
 51
263.5032268173087
  0
ARC
  5
128
330
4A
100
AcDbEntity
  8
1
  6
Continuous
 62
     7
100
AcDbCircle
 10
75.98106171979936
 20
308.6038975182426
 30
0.0
 40
11.05547111413819
100
AcDbArc
 50
258.942508335633
 51
261.2891985690297
  0
ARC
  5
129
330
4A
100
AcDbEntity
  8
1
  6
Continuous
 62
     7
100
AcDbCircle
 10
75.95002354811254
 20
308.4450709971334
 30
0.0
 40
10.89364023973751
100
AcDbArc
 50
257.8024121134268
 51
258.9425083356329
  0
ARC
  5
12A
330
4A
100
AcDbEntity
  8
1
  6
Continuous
 62
     7
100
AcDbCircle
 10
75.82433202699855
 20
307.8636061750315
 30
0.0
 40
10.29874554500395
100
AcDbArc
 50
256.5964465702912
 51
257.8024121134268
  0
ARC
  5
12B
330
4A
100
AcDbEntity
  8
1
  6
Continuous
 62
     7
100
AcDbCircle
 10
75.79937047110124
 20
307.7588573476932
 30
0.0
 40
10.19106362404447
100
AcDbArc
 50
255.3777643555223
 51
256.5964465702917
  0
ARC
  5
12C
330
4A
100
AcDbEntity
  8
1
  6
Continuous
 62
     7
100
AcDbCircle
 10
75.66524633496715
 20
307.2447648474995
 30
0.0
 40
9.659762972201095
100
AcDbArc
 50
254.0920608747224
 51
255.3777643555222
  0
ARC
  5
12D
330
4A
100
AcDbEntity
  8
1
  6
Continuous
 62
     7
100
AcDbCircle
 10
75.61970280193074
 20
307.0849670740421
 30
0.0
 40
9.493601779970648
100
AcDbArc
 50
252.1710236241596
 51
254.0920608747225
  0
ARC
  5
12E
330
4A
100
AcDbEntity
  8
1
  6
Continuous
 62
     7
100
AcDbCircle
 10
75.36961207047327
 20
306.307376968963
 30
0.0
 40
8.676783718541069
100
AcDbArc
 50
250.8300687939464
 51
252.1710236241585
  0
ARC
  5
12F
330
4A
100
AcDbEntity
  8
1
  6
Continuous
 62
     7
100
AcDbCircle
 10
75.36631787366025
 20
306.2979013154895
 30
0.0
 40
8.666751782467049
100
AcDbArc
 50
249.4875880299728
 51
250.8300687939464
  0
ARC
  5
130
330
4A
100
AcDbEntity
  8
1
  6
Continuous
 62
     7
100
AcDbCircle
 10
75.10786811884816
 20
305.6071022848132
 30
0.0
 40
7.929188512946581
100
AcDbArc
 50
248.0202792433318
 51
249.4875880299734
  0
ARC
  5
131
330
4A
100
AcDbEntity
  8
1
  6
Continuous
 62
     7
100
AcDbCircle
 10
75.10183565822484
 20
305.5921561924606
 30
0.0
 40
7.913070936894874
100
AcDbArc
 50
246.5499418885875
 51
248.0202792433311
  0
ARC
  5
132
330
4A
100
AcDbEntity
  8
1
  6
Continuous
 62
     7
100
AcDbCircle
 10
74.84969385388285
 20
305.0108847121413
 30
0.0
 40
7.279468519499305
100
AcDbArc
 50
245.0176393976292
 51
246.5499418885873
  0
ARC
  5
133
330
4A
100
AcDbEntity
  8
1
  6
Continuous
 62
     7
100
AcDbCircle
 10
74.78517638884594
 20
304.8724152788998
 30
0.0
 40
7.126706327720718
100
AcDbArc
 50
243.5199978643753
 51
245.0176393976297
  0
ARC
  5
134
330
4A
100
AcDbEntity
  8
1
  6
Continuous
 62
     7
100
AcDbCircle
 10
74.48546691304165
 20
304.2707652797333
 30
0.0
 40
6.454539316194592
100
AcDbArc
 50
241.8664410765368
 51
243.5199978643752
  0
ARC
  5
135
330
4A
100
AcDbEntity
  8
1
  6
Continuous
 62
     7
100
AcDbCircle
 10
74.42262590179155
 20
304.153240249164
 30
0.0
 40
6.32126844351321
100
AcDbArc
 50
240.1781317899679
 51
241.8664410765376
  0
ARC
  5
136
330
4A
100
AcDbEntity
  8
1
  6
Continuous
 62
     7
100
AcDbCircle
 10
74.15320095018015
 20
303.6832138392124
 30
0.0
 40
5.779498537923284
100
AcDbArc
 50
238.3314573295382
 51
240.1781317899671
  0
ARC
  5
137
330
4A
100
AcDbEntity
  8
1
  6
Continuous
 62
     7
100
AcDbCircle
 10
74.09639823743896
 20
303.5911293632473
 30
0.0
 40
5.671303811210175
100
AcDbArc
 50
236.5426112949281
 51
238.3314573295378
  0
ARC
  5
138
330
4A
100
AcDbEntity
  8
1
  6
Continuous
 62
     7
100
AcDbCircle
 10
73.73728304025394
 20
303.0476877865413
 30
0.0
 40
5.01992644582063
100
AcDbArc
 50
235.5847901832749
 51
236.5426112949285
  0
ARC
  5
139
330
4A
100
AcDbEntity
  8
1
  6
Continuous
 62
     7
100
AcDbCircle
 10
73.82414570553016
 20
303.1744752958755
 30
0.0
 40
5.173615076311147
100
AcDbArc
 50
233.7260472034748
 51
235.5847901832742
  0
ARC
  5
13A
330
4A
100
AcDbEntity
  8
1
  6
Continuous
 62
     7
100
AcDbCircle
 10
73.44214680098145
 20
302.6539510030543
 30
0.0
 40
4.527961374630956
100
AcDbArc
 50
231.6024949956658
 51
233.7260472034755
  0
ARC
  5
13B
330
4A
100
AcDbEntity
  8
1
  6
Continuous
 62
     7
100
AcDbCircle
 10
73.42590146432195
 20
302.6334526556291
 30
0.0
 40
4.50180619903703
100
AcDbArc
 50
229.466724822973
 51
231.6024949956652
  0
ARC
  5
13C
330
4A
100
AcDbEntity
  8
1
  6
Continuous
 62
     7
100
AcDbCircle
 10
73.10035327381405
 20
302.252732647499
 30
0.0
 40
4.000877712191346
100
AcDbArc
 50
227.0628329239718
 51
229.4667248229732
  0
ARC
  5
13D
330
4A
100
AcDbEntity
  8
1
  6
Continuous
 62
     7
100
AcDbCircle
 10
73.07544002126156
 20
302.2259576465629
 30
0.0
 40
3.96430489676951
100
AcDbArc
 50
224.8983418682216
 51
227.0628329239733
  0
ARC
  5
13E
330
4A
100
AcDbEntity
  8
1
  6
Continuous
 62
     7
100
AcDbCircle
 10
72.72352320876985
 20
301.8752874138712
 30
0.0
 40
3.46750005076838
100
AcDbArc
 50
222.4233996524084
 51
224.8983418682203
  0
ARC
  5
13F
330
4A
100
AcDbEntity
  8
1
  6
Continuous
 62
     7
100
AcDbCircle
 10
72.67775927527074
 20
301.8334649135749
 30
0.0
 40
3.405504412693198
100
AcDbArc
 50
219.9039292768786
 51
222.4233996524098
  0
ARC
  5
140
330
4A
100
AcDbEntity
  8
1
  6
Continuous
 62
     7
100
AcDbCircle
 10
72.38149508101864
 20
301.585715073636
 30
0.0
 40
3.019301802673949
100
AcDbArc
 50
217.0624963767897
 51
219.9039292768776
  0
ARC
  5
141
330
4A
100
AcDbEntity
  8
1
  6
Continuous
 62
     7
100
AcDbCircle
 10
72.33968328224125
 20
301.5541360599005
 30
0.0
 40
2.966904659378789
100
AcDbArc
 50
214.1696971019359
 51
217.062496376787
  0
ARC
  5
142
330
4A
100
AcDbEntity
  8
1
  6
Continuous
 62
     7
100
AcDbCircle
 10
72.08991551459914
 20
301.3845870998229
 30
0.0
 40
2.665025896269657
100
AcDbArc
 50
211.2708698046897
 51
214.1696971019399
  0
ARC
  5
143
330
4A
100
AcDbEntity
  8
1
  6
Continuous
 62
     7
100
AcDbCircle
 10
72.06968670229764
 20
301.372301871494
 30
0.0
 40
2.641358795006076
100
AcDbArc
 50
208.3453131231097
 51
211.2708698046879
  0
ARC
  5
144
330
4A
100
AcDbEntity
  8
1
  6
Continuous
 62
     7
100
AcDbCircle
 10
71.83235044340304
 20
301.2442672403572
 30
0.0
 40
2.371689800576806
100
AcDbArc
 50
205.0880404471929
 51
208.3453131231116
  0
ARC
  5
145
330
4A
100
AcDbEntity
  8
1
  6
Continuous
 62
     7
100
AcDbCircle
 10
71.79866115849265
 20
301.2284946004346
 30
0.0
 40
2.334491089740281
100
AcDbArc
 50
201.7800318177273
 51
205.0880404471919
  0
ARC
  5
146
330
4A
100
AcDbEntity
  8
1
  6
Continuous
 62
     7
100
AcDbCircle
 10
71.59232485745355
 20
301.1460493707847
 30
0.0
 40
2.11229323867388
100
AcDbArc
 50
198.123263869934
 51
201.7800318177271
  0
ARC
  5
147
330
4A
100
AcDbEntity
  8
1
  6
Continuous
 62
     7
100
AcDbCircle
 10
71.57046625641695
 20
301.1388950539613
 30
0.0
 40
2.089293615014119
100
AcDbArc
 50
191.2023782474058
 51
198.1232638699324
  0
ARC
  5
148
330
4A
100
AcDbEntity
  8
1
  6
Continuous
 62
     7
100
AcDbCircle
 10
71.44304325411375
 20
301.1136591235688
 30
0.0
 40
1.959395679315609
100
AcDbArc
 50
185.6670781164229
 51
191.2023782474068
  0
ARC
  5
149
330
4A
100
AcDbEntity
  8
1
  6
Continuous
 62
     7
100
AcDbCircle
 10
71.43804802463595
 20
301.1131634320474
 30
0.0
 40
1.954375915614111
100
AcDbArc
 50
181.9693294790718
 51
185.6670781164214
  0
ARC
  5
14A
330
4A
100
AcDbEntity
  8
1
  6
Continuous
 62
     7
100
AcDbCircle
 10
71.28377116263934
 20
301.1078586491298
 30
0.0
 40
1.800007878542475
100
AcDbArc
 50
179.9623169177553
 51
181.9693294790777
  0
ARC
  5
14B
330
4A
100
AcDbEntity
  8
1
  6
Continuous
 62
     7
100
AcDbCircle
 10
175.9252677423657
 20
135.3753419286554
 30
0.0
 40
5.000000000000057
100
AcDbArc
 50
315.572995999195
 51
325.9442022574323
  0
ARC
  5
14C
330
4A
100
AcDbEntity
  8
1
  6
Continuous
 62
     7
100
AcDbCircle
 10
175.9252677423657
 20
156.3753419286555
 30
0.0
 40
4.999999999999977
100
AcDbArc
 50
135.5729959991959
 51
164.6624423304459
  0
ARC
  5
14D
330
4A
100
AcDbEntity
  8
1
  6
Continuous
 62
     7
100
AcDbCircle
 10
76.13583102122865
 20
145.8753419286554
 30
0.0
 40
15.49999999999985
100
AcDbArc
 50
235.4146209151606
 51
240.670375354516
  0
ARC
  5
14E
330
4A
100
AcDbEntity
  8
1
  6
Continuous
 62
     7
100
AcDbCircle
 10
76.13583102122865
 20
145.8753419286554
 30
0.0
 40
10.49999999999999
100
AcDbArc
 50
316.3099599792354
 51
0.0
  0
ARC
  5
14F
330
4A
100
AcDbEntity
  8
1
  6
Continuous
 62
     7
100
AcDbCircle
 10
76.13583102122865
 20
145.8753419286554
 30
0.0
 40
10.5
100
AcDbArc
 50
0.0
 51
223.6900400207646
  0
ARC
  5
150
330
4A
100
AcDbEntity
  8
1
  6
Continuous
 62
     7
100
AcDbCircle
 10
76.13583102122865
 20
145.8753419286554
 30
0.0
 40
8.199999999999934
100
AcDbArc
 50
337.8051260494287
 51
0.0
  0
ARC
  5
151
330
4A
100
AcDbEntity
  8
1
  6
Continuous
 62
     7
100
AcDbCircle
 10
76.13583102122865
 20
145.8753419286554
 30
0.0
 40
8.199999999999989
100
AcDbArc
 50
0.0
 51
202.1948739505718
  0
ARC
  5
152
330
4A
100
AcDbEntity
  8
1
  6
Continuous
 62
     7
100
AcDbCircle
 10
76.13583102122865
 20
145.8753419286554
 30
0.0
 40
15.50000000000013
100
AcDbArc
 50
55.41462091516136
 51
64.5853790848391
  0
ARC
  5
153
330
4A
100
AcDbEntity
  8
1
  6
Continuous
 62
     7
100
AcDbCircle
 10
76.13583102122865
 20
145.8753419286554
 30
0.0
 40
15.5
100
AcDbArc
 50
0.0
 51
4.58537908483969
  0
ARC
  5
154
330
4A
100
AcDbEntity
  8
1
  6
Continuous
 62
     7
100
AcDbCircle
 10
76.13583102122865
 20
145.8753419286554
 30
0.0
 40
15.49999999999994
100
AcDbArc
 50
299.329624645484
 51
304.5853790848394
  0
ARC
  5
155
330
4A
100
AcDbEntity
  8
1
  6
Continuous
 62
     7
100
AcDbCircle
 10
76.13583102122865
 20
145.8753419286554
 30
0.0
 40
15.50000000000001
100
AcDbArc
 50
180.0
 51
184.5853790848384
  0
ARC
  5
156
330
4A
100
AcDbEntity
  8
1
  6
Continuous
 62
     7
100
AcDbCircle
 10
76.13583102122865
 20
145.8753419286554
 30
0.0
 40
15.49999999999999
100
AcDbArc
 50
115.4146209151609
 51
124.5853790848386
  0
ARC
  5
157
330
4A
100
AcDbEntity
  8
1
  6
Continuous
 62
     7
100
AcDbCircle
 10
76.13583102122865
 20
145.8753419286554
 30
0.0
 40
15.50000000000006
100
AcDbArc
 50
175.4146209151604
 51
180.0
  0
ARC
  5
158
330
4A
100
AcDbEntity
  8
1
  6
Continuous
 62
     7
100
AcDbCircle
 10
76.13583102122865
 20
145.8753419286554
 30
0.0
 40
15.49999999999992
100
AcDbArc
 50
355.4146209151616
 51
0.0
  0
ARC
  5
159
330
4A
100
AcDbEntity
  8
1
  6
Continuous
 62
     7
100
AcDbCircle
 10
175.9252677423657
 20
156.3753419286555
 30
0.0
 40
5.000000000000017
100
AcDbArc
 50
34.05579774256793
 51
44.42700400080482
  0
ARC
  5
15A
330
4A
100
AcDbEntity
  8
1
  6
Continuous
 62
     7
100
AcDbCircle
 10
175.9252677423657
 20
135.3753419286554
 30
0.0
 40
4.999999999999985
100
AcDbArc
 50
195.3375576695541
 51
224.4270040008051
  0
SPLINE
  5
15B
330
4A
100
AcDbEntity
  8
1
  6
Continuous
 62
     7
100
AcDbSpline
210
0.0
220
0.0
230
1.0
 70
    11
 71
     3
 72
    79
 73
    75
 74
    73
 42
0.000000001
 43
0.0000000001
 44
0.00000001
 40
0.0
 40
0.0
 40
0.0
 40
0.0
 40
0.2903672471831696
 40
0.5807357518971556
 40
0.8724070977358243
 40
1.164081911023942
 40
1.458189924522253
 40
1.752302920472793
 40
2.049663201046358
 40
2.347029106415298
 40
2.64804578611582
 40
2.949067936325196
 40
3.253697746552332
 40
3.55833227533001
 40
3.86610485778009
 40
4.173881019539952
 40
4.483966061108287
 40
4.794053321447611
 40
5.105362217358586
 40
5.416671863434737
 40
5.727981509499974
 40
6.039290405378451
 40
6.3493776656634
 40
6.659462707155247
 40
6.967238868816534
 40
7.275011451144451
 40
7.579645979777192
 40
7.8842757898342
 40
8.185297939849542
 40
8.486314619328407
 40
8.78368052444882
 40
9.081040804740889
 40
9.375153800374111
 40
9.669261813502207
 40
9.96093662633718
 40
10.25260797152393
 40
10.54297647485859
 40
10.83334373090408
 40
11.12371098694961
 40
11.41407949028433
 40
11.7057508354711
 40
11.99742564830605
 40
12.29153366143417
 40
12.58564665706744
 40
12.8830069373595
 40
13.18037284247992
 40
13.48138952195876
 40
13.78241167197414
 40
14.08704148203107
 40
14.39167601066377
 40
14.69944859299172
 40
15.00722475465306
 40
15.31730979614481
 40
15.62739705642985
 40
15.93870595230837
 40
16.25001559837355
 40
16.5613252444497
 40
16.87263414036066
 40
17.18272140069993
 40
17.49280644226832
 40
17.80058260402824
 40
18.10835518647827
 40
18.41298971525598
 40
18.71761952548308
 40
19.01864167569241
 40
19.31965835539297
 40
19.61702426076192
 40
19.91438454133548
 40
20.20849753728606
 40
20.50260555078442
 40
20.7942803640725
 40
21.08595170991119
 40
21.37632021462522
 40
21.66668746180843
 40
21.66668746180843
 40
21.66668746180843
 40
21.66668746180843
 10
64.01147536824647
 20
297.5383282888981
 30
0.0
 10
63.91465156153679
 20
297.5409598862187
 30
0.0
 10
63.72100352862113
 20
297.546223087037
 30
0.0
 10
63.4326426523143
 20
297.5885181592191
 30
0.0
 10
63.14893050833513
 20
297.6557290517125
 30
0.0
 10
62.8715054455494
 20
297.7497842169818
 30
0.0
 10
62.60318453416831
 20
297.8692156746654
 30
0.0
 10
62.3451847707974
 20
298.0134911701516
 30
0.0
 10
62.10038276754113
 20
298.1810952453547
 30
0.0
 10
61.86968654247895
 20
298.3712577995145
 30
0.0
 10
61.65579083520223
 20
298.5818805198262
 30
0.0
 10
61.45941729262267
 20
298.8121021356578
 30
0.0
 10
61.28286794745925
 20
299.0593385590558
 30
0.0
 10
61.1267651507889
 20
299.3225727333027
 30
0.0
 10
60.99287613617961
 20
299.5989362878844
 30
0.0
 10
60.88174811917642
 20
299.8871497317458
 30
0.0
 10
60.79455735919441
 20
300.1842881748988
 30
0.0
 10
60.73173175255417
 20
300.4887113289305
 30
0.0
 10
60.69388320259898
 20
300.7976479412229
 30
0.0
 10
60.68122094046059
 20
301.1090424937973
 30
0.0
 10
60.69388320223741
 20
301.420437046374
 30
0.0
 10
60.73173175183023
 20
301.7293736586827
 30
0.0
 10
60.79455735810625
 20
302.0337968127168
 30
0.0
 10
60.88174811772164
 20
302.3309352559603
 30
0.0
 10
60.99287613435422
 20
302.6191486996264
 30
0.0
 10
61.1267651485892
 20
302.8955122551147
 30
0.0
 10
61.2828679448792
 20
303.1587464262363
 30
0.0
 10
61.45941728965649
 20
303.4059828615007
 30
0.0
 10
61.65579083184139
 20
303.636204433877
 30
0.0
 10
61.86968653871428
 20
303.8468273156938
 30
0.0
 10
62.10038276335953
 20
304.0369892745708
 30
0.0
 10
62.34518476618165
 20
304.2045955581643
 30
0.0
 10
62.60318452908978
 20
304.3488628986257
 30
0.0
 10
62.87150543996232
 20
304.4683246379641
 30
0.0
 10
63.14893050211744
 20
304.5622676850184
 30
0.0
 10
63.43264264515795
 20
304.6298956574556
 30
0.0
 10
63.7210035233396
 20
304.6706407822978
 30
0.0
 10
64.0114753682465
 20
304.684314660223
 30
0.0
 10
64.30194721315334
 20
304.6706407822979
 30
0.0
 10
64.59030809133509
 20
304.6298956574556
 30
0.0
 10
64.87402023437555
 20
304.5622676850183
 30
0.0
 10
65.15144529653071
 20
304.4683246379641
 30
0.0
 10
65.41976620740327
 20
304.3488628986258
 30
0.0
 10
65.67776597031143
 20
304.2045955581643
 30
0.0
 10
65.92256797313357
 20
304.0369892745709
 30
0.0
 10
66.1532641977788
 20
303.8468273156938
 30
0.0
 10
66.36715990465176
 20
303.636204433877
 30
0.0
 10
66.5635334468366
 20
303.4059828615007
 30
0.0
 10
66.74008279161377
 20
303.1587464262363
 30
0.0
 10
66.89618558790369
 20
302.8955122551147
 30
0.0
 10
67.03007460213874
 20
302.6191486996264
 30
0.0
 10
67.14120261877146
 20
302.3309352559602
 30
0.0
 10
67.22839337838693
 20
302.033796812717
 30
0.0
 10
67.29121898466289
 20
301.7293736586827
 30
0.0
 10
67.32906753425554
 20
301.4204370463741
 30
0.0
 10
67.3417297960323
 20
301.1090424937973
 30
0.0
 10
67.32906753389398
 20
300.7976479412229
 30
0.0
 10
67.29121898393899
 20
300.4887113289304
 30
0.0
 10
67.22839337729872
 20
300.1842881748989
 30
0.0
 10
67.14120261731665
 20
299.8871497317459
 30
0.0
 10
67.03007460031351
 20
299.5989362878843
 30
0.0
 10
66.89618558570416
 20
299.3225727333027
 30
0.0
 10
66.74008278903392
 20
299.0593385590559
 30
0.0
 10
66.56353344387044
 20
298.8121021356579
 30
0.0
 10
66.36715990129086
 20
298.5818805198263
 30
0.0
 10
66.15326419401416
 20
298.3712577995145
 30
0.0
 10
65.92256796895198
 20
298.1810952453546
 30
0.0
 10
65.67776596569571
 20
298.0134911701517
 30
0.0
 10
65.41976620232472
 20
297.8692156746653
 30
0.0
 10
65.15144529094364
 20
297.749784216982
 30
0.0
 10
64.87402022815786
 20
297.6557290517125
 30
0.0
 10
64.59030808417873
 20
297.5885181592191
 30
0.0
 10
64.30194720787185
 20
297.546223087037
 30
0.0
 10
64.10829917495617
 20
297.5409598862187
 30
0.0
 10
64.01147536824647
 20
297.5383282888981
 30
0.0
 11
64.01147536824647
 21
297.5383282888981
 31
0.0
 11
63.72142760644844
 21
297.5519459017505
 31
0.0
 11
63.43391568191277
 21
297.5925754611641
 31
0.0
 11
63.15017837204419
 21
297.6601425590026
 31
0.0
 11
62.87390485438897
 21
297.7536687050833
 31
0.0
 11
62.6051877922902
 21
297.8732122705211
 31
0.0
 11
62.34845853129025
 21
298.0167132839563
 31
0.0
 11
62.10304124150815
 21
298.1846224566631
 31
0.0
 11
61.87354213325546
 21
298.373716721361
 31
0.0
 11
61.65898757421859
 21
298.5848502871906
 31
0.0
 11
61.46358575471925
 21
298.8138316485042
 31
0.0
 11
61.28648234957896
 21
299.0616898845018
 31
0.0
 11
61.13104571279575
 21
299.3236853960339
 31
0.0
 11
60.99679248417269
 21
299.6006331043009
 31
0.0
 11
60.88602606838555
 21
299.8877863158294
 31
0.0
 11
60.79866831291256
 21
300.1853117022767
 31
0.0
 11
60.73597161939784
 21
300.488994486892
 31
0.0
 11
60.69808919942865
 21
300.7979898767644
 31
0.0
 11
60.68544169433395
 21
301.1090425031696
 31
0.0
 11
60.69808919942864
 21
301.4200951295747
 31
0.0
 11
60.73597161939784
 21
301.7290905194471
 31
0.0
 11
60.79866831291257
 21
302.0327733040622
 31
0.0
 11
60.88602606838555
 21
302.3302986905096
 31
0.0
 11
60.99679248417269
 21
302.6174519020382
 31
0.0
 11
61.13104571279575
 21
302.8943996103052
 31
0.0
 11
61.28648234957897
 21
303.1563951218374
 31
0.0
 11
61.46358575471925
 21
303.4042533578348
 31
0.0
 11
61.65898757421859
 21
303.6332347191486
 31
0.0
 11
61.87354213325546
 21
303.8443682849782
 31
0.0
 11
62.10304124150814
 21
304.0334625496761
 31
0.0
 11
62.34845853129025
 21
304.2013717223828
 31
0.0
 11
62.6051877922902
 21
304.344872735818
 31
0.0
 11
62.87390485438897
 21
304.4644163012557
 31
0.0
 11
63.15017837204419
 21
304.5579424473365
 31
0.0
 11
63.43391568191277
 21
304.625509545175
 31
0.0
 11
63.72142760644844
 21
304.6661391045885
 31
0.0
 11
64.01147536824647
 21
304.6797567174409
 31
0.0
 11
64.30152313004453
 21
304.6661391045885
 31
0.0
 11
64.58903505458025
 21
304.625509545175
 31
0.0
 11
64.87277236444883
 21
304.5579424473365
 31
0.0
 11
65.14904588210405
 21
304.4644163012557
 31
0.0
 11
65.41776294420285
 21
304.344872735818
 31
0.0
 11
65.67449220520285
 21
304.2013717223828
 31
0.0
 11
65.91990949498495
 21
304.0334625496761
 31
0.0
 11
66.14940860323765
 21
303.8443682849782
 31
0.0
 11
66.36396316227453
 21
303.6332347191486
 31
0.0
 11
66.55936498177385
 21
303.4042533578348
 31
0.0
 11
66.73646838691401
 21
303.1563951218374
 31
0.0
 11
66.89190502369715
 21
302.8943996103052
 31
0.0
 11
67.0261582523203
 21
302.6174519020382
 31
0.0
 11
67.13692466810755
 21
302.3302986905096
 31
0.0
 11
67.22428242358058
 21
302.0327733040623
 31
0.0
 11
67.28697911709526
 21
301.7290905194471
 31
0.0
 11
67.32486153706434
 21
301.4200951295746
 31
0.0
 11
67.33750904215896
 21
301.1090425031696
 31
0.0
 11
67.32486153706434
 21
300.7979898767644
 31
0.0
 11
67.28697911709526
 21
300.488994486892
 31
0.0
 11
67.22428242358058
 21
300.1853117022767
 31
0.0
 11
67.13692466810755
 21
299.8877863158294
 31
0.0
 11
67.0261582523204
 21
299.6006331043008
 31
0.0
 11
66.89190502369735
 21
299.3236853960339
 31
0.0
 11
66.73646838691415
 21
299.0616898845017
 31
0.0
 11
66.55936498177385
 21
298.8138316485042
 31
0.0
 11
66.36396316227453
 21
298.5848502871906
 31
0.0
 11
66.14940860323765
 21
298.373716721361
 31
0.0
 11
65.91990949498495
 21
298.1846224566631
 31
0.0
 11
65.67449220520285
 21
298.0167132839563
 31
0.0
 11
65.41776294420286
 21
297.8732122705211
 31
0.0
 11
65.14904588210405
 21
297.7536687050833
 31
0.0
 11
64.87277236444883
 21
297.6601425590026
 31
0.0
 11
64.58903505458025
 21
297.5925754611641
 31
0.0
 11
64.30152313004453
 21
297.5519459017505
 31
0.0
 11
64.01147536824647
 21
297.5383282888981
 31
0.0
  0
SPLINE
  5
15C
330
4A
100
AcDbEntity
  8
1
  6
Continuous
 62
     7
100
AcDbSpline
210
0.0
220
0.0
230
1.0
 70
    11
 71
     3
 72
    79
 73
    75
 74
    73
 42
0.000000001
 43
0.0000000001
 44
0.00000001
 40
0.0
 40
0.0
 40
0.0
 40
0.0
 40
0.2903672471831696
 40
0.5807357518971628
 40
0.8724070977358384
 40
1.164081911023935
 40
1.458189924522202
 40
1.752302920472692
 40
2.04966320104635
 40
2.347029106415384
 40
2.64804578611587
 40
2.9490679363252
 40
3.25369774655229
 40
3.558332275329946
 40
3.86610485778007
 40
4.17388101953997
 40
4.483966061108318
 40
4.794053321447633
 40
5.105362217358594
 40
5.416671863434742
 40
5.727981509499976
 40
6.039290405378441
 40
6.349377665663435
 40
6.65946270715524
 40
6.967238868816571
 40
7.275011451144521
 40
7.579645979777244
 40
7.884275789834202
 40
8.18529793984954
 40
8.48631461932834
 40
8.783680524448782
 40
9.081040804740919
 40
9.375153800374175
 40
9.669261813502233
 40
9.960936626337231
 40
10.25260797152396
 40
10.54297647485862
 40
10.83334373090412
 40
11.1237109869496
 40
11.41407949028428
 40
11.70575083547104
 40
11.997425648306
 40
12.29153366143411
 40
12.58564665706738
 40
12.88300693735952
 40
13.18037284248003
 40
13.48138952195883
 40
13.78241167197409
 40
14.08704148203109
 40
14.39167601066385
 40
14.69944859299179
 40
15.00722475465309
 40
15.31730979614483
 40
15.62739705642989
 40
15.93870595230841
 40
16.25001559837359
 40
16.56132524444974
 40
16.87263414036071
 40
17.18272140070003
 40
17.49280644226837
 40
17.8005826040283
 40
18.10835518647835
 40
18.41298971525601
 40
18.71761952548311
 40
19.01864167569249
 40
19.31965835539293
 40
19.61702426076194
 40
19.9143845413356
 40
20.20849753728619
 40
20.50260555078454
 40
20.79428036407263
 40
21.08595170991131
 40
21.37632021462528
 40
21.66668746180847
 40
21.66668746180847
 40
21.66668746180847
 40
21.66668746180847
 10
88.26018667421084
 20
297.5383282888981
 30
0.0
 10
88.35701048092052
 20
297.5409598862186
 30
0.0
 10
88.5506585138362
 20
297.5462230870371
 30
0.0
 10
88.839019390143
 20
297.588518159219
 30
0.0
 10
89.12273153412221
 20
297.6557290517126
 30
0.0
 10
89.40015659690789
 20
297.7497842169819
 30
0.0
 10
89.66847750828893
 20
297.8692156746653
 30
0.0
 10
89.92647727165983
 20
298.0134911701517
 30
0.0
 10
90.17127927491617
 20
298.1810952453546
 30
0.0
 10
90.40197549997846
 20
298.3712577995145
 30
0.0
 10
90.61587120725514
 20
298.5818805198261
 30
0.0
 10
90.81224474983466
 20
298.8121021356579
 30
0.0
 10
90.98879409499797
 20
299.0593385590558
 30
0.0
 10
91.14489689166828
 20
299.3225727333028
 30
0.0
 10
91.2787859062777
 20
299.5989362878844
 30
0.0
 10
91.38991392328097
 20
299.8871497317458
 30
0.0
 10
91.47710468326305
 20
300.1842881748988
 30
0.0
 10
91.53993028990325
 20
300.4887113289304
 30
0.0
 10
91.57777883985828
 20
300.7976479412228
 30
0.0
 10
91.59044110199657
 20
301.1090424937973
 30
0.0
 10
91.57777884021988
 20
301.4204370463741
 30
0.0
 10
91.53993029062717
 20
301.7293736586826
 30
0.0
 10
91.47710468435122
 20
302.033796812717
 30
0.0
 10
91.38991392473575
 20
302.3309352559602
 30
0.0
 10
91.27878590810302
 20
302.6191486996264
 30
0.0
 10
91.14489689386801
 20
302.8955122551147
 30
0.0
 10
90.98879409757802
 20
303.1587464262364
 30
0.0
 10
90.81224475280081
 20
303.4059828615005
 30
0.0
 10
90.61587121061604
 20
303.6362044338771
 30
0.0
 10
90.40197550374309
 20
303.8468273156938
 30
0.0
 10
90.17127927909787
 20
304.0369892745709
 30
0.0
 10
89.9264772762756
 20
304.2045955581642
 30
0.0
 10
89.66847751336756
 20
304.3488628986258
 30
0.0
 10
89.40015660249497
 20
304.4683246379642
 30
0.0
 10
89.12273154033987
 20
304.5622676850184
 30
0.0
 10
88.83901939729938
 20
304.6298956574555
 30
0.0
 10
88.55065851911769
 20
304.6706407822979
 30
0.0
 10
88.26018667421084
 20
304.6843146602229
 30
0.0
 10
87.969714829304
 20
304.670640782298
 30
0.0
 10
87.68135395112232
 20
304.6298956574556
 30
0.0
 10
87.39764180808186
 20
304.5622676850183
 30
0.0
 10
87.12021674592668
 20
304.4683246379641
 30
0.0
 10
86.85189583505414
 20
304.3488628986258
 30
0.0
 10
86.59389607214598
 20
304.2045955581643
 30
0.0
 10
86.34909406932367
 20
304.0369892745709
 30
0.0
 10
86.11839784467841
 20
303.8468273156939
 30
0.0
 10
85.90450213780557
 20
303.636204433877
 30
0.0
 10
85.7081285956208
 20
303.4059828615006
 30
0.0
 10
85.53157925084352
 20
303.1587464262364
 30
0.0
 10
85.3754764545535
 20
302.8955122551147
 30
0.0
 10
85.24158744031844
 20
302.6191486996264
 30
0.0
 10
85.13045942368586
 20
302.3309352559603
 30
0.0
 10
85.04326866407041
 20
302.033796812717
 30
0.0
 10
84.98044305779443
 20
301.7293736586827
 30
0.0
 10
84.9425945082017
 20
301.4204370463741
 30
0.0
 10
84.92993224642493
 20
301.1090424937973
 30
0.0
 10
84.94259450856327
 20
300.7976479412228
 30
0.0
 10
84.98044305851833
 20
300.4887113289304
 30
0.0
 10
85.04326866515862
 20
300.1842881748988
 30
0.0
 10
85.13045942514064
 20
299.8871497317458
 30
0.0
 10
85.2415874421438
 20
299.5989362878843
 30
0.0
 10
85.37547645675323
 20
299.3225727333027
 30
0.0
 10
85.53157925342352
 20
299.0593385590559
 30
0.0
 10
85.70812859858688
 20
298.8121021356578
 30
0.0
 10
85.90450214116632
 20
298.5818805198261
 30
0.0
 10
86.11839784844307
 20
298.3712577995146
 30
0.0
 10
86.34909407350531
 20
298.1810952453545
 30
0.0
 10
86.59389607676171
 20
298.0134911701517
 30
0.0
 10
86.85189584013267
 20
297.8692156746654
 30
0.0
 10
87.12021675151378
 20
297.7497842169819
 30
0.0
 10
87.39764181429953
 20
297.6557290517126
 30
0.0
 10
87.68135395827866
 20
297.5885181592191
 30
0.0
 10
87.96971483458549
 20
297.5462230870372
 30
0.0
 10
88.16336286750116
 20
297.5409598862186
 30
0.0
 10
88.26018667421084
 20
297.5383282888981
 30
0.0
 11
88.26018667421084
 21
297.5383282888981
 31
0.0
 11
88.55023443600886
 21
297.5519459017505
 31
0.0
 11
88.83774636054454
 21
297.5925754611641
 31
0.0
 11
89.12148367041313
 21
297.6601425590026
 31
0.0
 11
89.39775718806834
 21
297.7536687050833
 31
0.0
 11
89.66647425016706
 21
297.8732122705211
 31
0.0
 11
89.92320351116695
 21
298.0167132839563
 31
0.0
 11
90.16862080094916
 21
298.1846224566631
 31
0.0
 11
90.39811990920197
 21
298.373716721361
 31
0.0
 11
90.6126744682388
 21
298.5848502871906
 31
0.0
 11
90.80807628773806
 21
298.8138316485042
 31
0.0
 11
90.98517969287826
 21
299.0616898845018
 31
0.0
 11
91.14061632966144
 21
299.3236853960339
 31
0.0
 11
91.27486955828459
 21
299.6006331043009
 31
0.0
 11
91.38563597407185
 21
299.8877863158294
 31
0.0
 11
91.47299372954488
 21
300.1853117022767
 31
0.0
 11
91.53569042305955
 21
300.488994486892
 31
0.0
 11
91.57357284302863
 21
300.7979898767644
 31
0.0
 11
91.58622034812325
 21
301.1090425031696
 31
0.0
 11
91.57357284302864
 21
301.4200951295747
 31
0.0
 11
91.53569042305955
 21
301.7290905194471
 31
0.0
 11
91.47299372954487
 21
302.0327733040623
 31
0.0
 11
91.38563597407185
 21
302.3302986905096
 31
0.0
 11
91.27486955828459
 21
302.6174519020382
 31
0.0
 11
91.14061632966144
 21
302.8943996103052
 31
0.0
 11
90.98517969287826
 21
303.1563951218374
 31
0.0
 11
90.80807628773806
 21
303.4042533578348
 31
0.0
 11
90.6126744682388
 21
303.6332347191486
 31
0.0
 11
90.39811990920197
 21
303.8443682849782
 31
0.0
 11
90.16862080094924
 21
304.0334625496761
 31
0.0
 11
89.92320351116706
 21
304.2013717223828
 31
0.0
 11
89.6664742501671
 21
304.3448727358181
 31
0.0
 11
89.39775718806834
 21
304.4644163012557
 31
0.0
 11
89.12148367041311
 21
304.5579424473366
 31
0.0
 11
88.83774636054454
 21
304.625509545175
 31
0.0
 11
88.55023443600888
 21
304.6661391045885
 31
0.0
 11
88.26018667421084
 21
304.6797567174409
 31
0.0
 11
87.97013891241282
 21
304.6661391045885
 31
0.0
 11
87.68262698787714
 21
304.625509545175
 31
0.0
 11
87.39888967800857
 21
304.5579424473365
 31
0.0
 11
87.12261616035335
 21
304.4644163012557
 31
0.0
 11
86.85389909825456
 21
304.344872735818
 31
0.0
 11
86.59716983725454
 21
304.2013717223828
 31
0.0
 11
86.35175254747232
 21
304.0334625496761
 31
0.0
 11
86.12225343921955
 21
303.8443682849782
 31
0.0
 11
85.90769888018278
 21
303.6332347191486
 31
0.0
 11
85.71229706068357
 21
303.4042533578348
 31
0.0
 11
85.5351936555433
 21
303.1563951218374
 31
0.0
 11
85.37975701876005
 21
302.8943996103052
 31
0.0
 11
85.24550379013692
 21
302.6174519020382
 31
0.0
 11
85.13473737434975
 21
302.3302986905096
 31
0.0
 11
85.04737961887676
 21
302.0327733040623
 31
0.0
 11
84.98468292536205
 21
301.7290905194471
 31
0.0
 11
84.94680050539291
 21
301.4200951295746
 31
0.0
 11
84.93415300029827
 21
301.1090425031696
 31
0.0
 11
84.94680050539293
 21
300.7979898767644
 31
0.0
 11
84.98468292536205
 21
300.488994486892
 31
0.0
 11
85.04737961887673
 21
300.1853117022767
 31
0.0
 11
85.13473737434975
 21
299.8877863158294
 31
0.0
 11
85.24550379013695
 21
299.6006331043008
 31
0.0
 11
85.37975701876005
 21
299.3236853960339
 31
0.0
 11
85.53519365554322
 21
299.0616898845018
 31
0.0
 11
85.71229706068345
 21
298.8138316485042
 31
0.0
 11
85.90769888018272
 21
298.5848502871905
 31
0.0
 11
86.12225343921955
 21
298.373716721361
 31
0.0
 11
86.35175254747233
 21
298.1846224566631
 31
0.0
 11
86.59716983725454
 21
298.0167132839563
 31
0.0
 11
86.85389909825454
 21
297.8732122705211
 31
0.0
 11
87.12261616035335
 21
297.7536687050833
 31
0.0
 11
87.39888967800857
 21
297.6601425590026
 31
0.0
 11
87.68262698787714
 21
297.5925754611641
 31
0.0
 11
87.9701389124128
 21
297.5519459017505
 31
0.0
 11
88.26018667421084
 21
297.5383282888981
 31
0.0
  0
SPLINE
  5
15D
330
4A
100
AcDbEntity
  8
0
  6
Continuous
 62
     7
100
AcDbSpline
210
0.0
220
0.0
230
1.0
 70
    11
 71
     3
 72
    79
 73
    75
 74
    73
 42
0.000000001
 43
0.0000000001
 44
0.00000001
 40
0.0
 40
0.0
 40
0.0
 40
0.0
 40
0.3210775470639841
 40
0.6418876090884766
 40
0.9828881272070049
 40
1.323517043608603
 40
1.692950500189953
 40
2.062056068345012
 40
2.463712899767401
 40
2.865130060311431
 40
3.298540763297999
 40
3.731789993374737
 40
4.193105329273882
 40
4.654317535684945
 40
5.137214007865724
 40
5.620049814545912
 40
6.116532140550135
 40
6.612986419268374
 40
7.114093722209523
 40
7.615201025150437
 40
8.111655303867439
 40
8.608137629868514
 40
9.09097343654205
 40
9.573869908710009
 40
10.03508211509957
 40
10.49639745096304
 40
10.92964668098715
 40
11.36305738389372
 40
11.76447454432876
 40
12.16613137559335
 40
12.53523694354127
 40
12.90467039982527
 40
13.24529931581411
 40
13.58629983322849
 40
13.90710989320163
 40
14.22818744758319
 40
14.54194546559206
 40
14.85570348359974
 40
15.17678103797798
 40
15.49759109794582
 40
15.83859161535309
 40
16.17922053133382
 40
16.54865398760836
 40
16.91775955554667
 40
17.31941638680095
 40
17.72083354722596
 40
18.15424425012223
 40
18.58749348013661
 40
19.04880881599044
 40
19.51002102237108
 40
19.99291749453053
 40
20.4757533011963
 40
20.97223562719023
 40
21.46868990590094
 40
21.96979720883641
 40
22.47090451177308
 40
22.96735879048789
 40
23.46384111648975
 40
23.94667692316873
 40
24.4295733953492
 40
24.89078560176091
 40
25.35210093766116
 40
25.78535016773898
 40
26.2187608707256
 40
26.62017803126731
 40
27.02183486268166
 40
27.39094043081847
 40
27.7603738873572
 40
28.10100280365927
 40
28.44200332148649
 40
28.76281338199423
 40
29.0838909371729
 40
29.39764895732428
 40
29.71140696825805
 40
29.71140696825805
 40
29.71140696825805
 40
29.71140696825805
 10
176.2380696118065
 20
144.6137102360318
 30
0.0
 10
176.343529420124
 20
144.5944303651716
 30
0.0
 10
176.5543611814614
 20
144.5558866938867
 30
0.0
 10
176.8626969462335
 20
144.44083325806
 30
0.0
 10
177.1607811745964
 20
144.2884447323546
 30
0.0
 10
177.4514495515799
 20
144.0913679782101
 30
0.0
 10
177.7262114717545
 20
143.8581814618494
 30
0.0
 10
177.9902370032483
 20
143.5840129296308
 30
0.0
 10
178.2346177006729
 20
143.2784697803534
 30
0.0
 10
178.4644862846272
 20
142.9358521607378
 30
0.0
 10
178.6720507585691
 20
142.5671560228279
 30
0.0
 10
178.8612652509355
 20
142.1666012765891
 30
0.0
 10
179.0262276693842
 20
141.7454968625981
 30
0.0
 10
179.1694098223277
 20
141.2991385693448
 30
0.0
 10
179.2869354915671
 20
140.8379427870012
 30
0.0
 10
179.3800180828269
 20
140.3592477166104
 30
0.0
 10
179.4465200023912
 20
139.8715804710796
 30
0.0
 10
179.4869050383999
 20
139.3749627035349
 30
0.0
 10
179.5002483405097
 20
138.8753419386121
 30
0.0
 10
179.4869050384029
 20
138.3757211736737
 30
0.0
 10
179.4465200023937
 20
137.8791034061778
 30
0.0
 10
179.3800180828695
 20
137.391436160476
 30
0.0
 10
179.2869354915481
 20
136.9127410907147
 30
0.0
 10
179.1694098226859
 20
136.4515453060821
 30
0.0
 10
179.0262276686339
 20
136.0051870210162
 30
0.0
 10
178.861265254554
 20
135.584082577385
 30
0.0
 10
178.6720507473073
 20
135.1835279353622
 30
0.0
 10
178.464486327478
 20
134.8148314230315
 30
0.0
 10
178.2346175565433
 20
134.4722151028511
 30
0.0
 10
177.9902375283647
 20
134.1666673099774
 30
0.0
 10
177.726209692059
 20
133.8925147787575
 30
0.0
 10
177.4514560063403
 20
133.6592711068759
 30
0.0
 10
177.1607591613403
 20
133.4623919645144
 30
0.0
 10
176.8627773745618
 20
133.3092923604913
 30
0.0
 10
176.5540806082163
 20
133.1967447678602
 30
0.0
 10
176.2415138854739
 20
133.1301932175876
 30
0.0
 10
175.9251187395057
 20
133.106717902922
 30
0.0
 10
175.608723593538
 20
133.1301932175766
 30
0.0
 10
175.2961568707965
 20
133.1967447678385
 30
0.0
 10
174.9874601044527
 20
133.309292360459
 30
0.0
 10
174.6894783176766
 20
133.4623919644721
 30
0.0
 10
174.39878147268
 20
133.6592711068239
 30
0.0
 10
174.1240277869653
 20
133.8925147786965
 30
0.0
 10
173.8599999506649
 20
134.1666673099077
 30
0.0
 10
173.6156199224921
 20
134.4722151027735
 30
0.0
 10
173.3857511515645
 20
134.8148314229464
 30
0.0
 10
173.1781867317434
 20
135.1835279352702
 30
0.0
 10
172.9889722245061
 20
135.5840825772867
 30
0.0
 10
172.824009810437
 20
136.0051870209119
 30
0.0
 10
172.6808276563973
 20
136.4515453059724
 30
0.0
 10
172.5633019875496
 20
136.9127410906
 30
0.0
 10
172.4702193962443
 20
137.3914361603566
 30
0.0
 10
172.4037174767388
 20
137.8791034060536
 30
0.0
 10
172.3633324407504
 20
138.3757211735457
 30
0.0
 10
172.3499891386683
 20
138.8753419384764
 30
0.0
 10
172.3633324408026
 20
139.3749627034058
 30
0.0
 10
172.4037174768485
 20
139.8715804709012
 30
0.0
 10
172.4702193964191
 20
140.3592477165856
 30
0.0
 10
172.5633019878116
 20
140.8379427863856
 30
0.0
 10
172.6808276567361
 20
141.299138570848
 30
0.0
 10
172.8240098109836
 20
141.7454968564845
 30
0.0
 10
172.9889722249018
 20
142.166601297998
 30
0.0
 10
173.1781867333913
 20
142.5671559473966
 30
0.0
 10
173.3857511496078
 20
142.9358524331294
 30
0.0
 10
173.6156199340882
 20
143.2784688454849
 30
0.0
 10
173.8599999151001
 20
143.5840163087789
 30
0.0
 10
174.1240279153529
 20
143.8581699754232
 30
0.0
 10
174.3987810171676
 20
144.091409591226
 30
0.0
 10
174.6894798829083
 20
144.2883027567859
 30
0.0
 10
174.9874544006626
 20
144.4413518996544
 30
0.0
 10
175.296176785805
 20
144.5540773168836
 30
0.0
 10
175.6086497871974
 20
144.6199783023275
 30
0.0
 10
175.9253872630038
 20
144.6458298665938
 30
0.0
 10
176.1338421629692
 20
144.6244167763828
 30
0.0
 10
176.2380696118065
 20
144.6137102360318
 30
0.0
 11
176.2380696118065
 21
144.6137102360318
 31
0.0
 11
176.5520797801736
 21
144.5467146378417
 31
0.0
 11
176.8538212919782
 21
144.4377598090673
 31
0.0
 11
177.1573413348316
 21
144.2823347900311
 31
0.0
 11
177.4398983417106
 21
144.0920991563056
 31
0.0
 11
177.7220364943853
 21
143.85360567318
 31
0.0
 11
177.9786202272344
 21
143.5882687018
 31
0.0
 11
178.2301317923355
 21
143.2751071735555
 31
0.0
 11
178.4542496032424
 21
142.9420802323552
 31
0.0
 11
178.6674819679865
 21
142.5647517334922
 31
0.0
 11
178.8528998310143
 21
142.1731842279302
 31
0.0
 11
179.0216737308843
 21
141.7438507796107
 31
0.0
 11
179.1628034158808
 21
141.304761823533
 31
0.0
 11
179.2824243680415
 21
140.8369158759754
 31
0.0
 11
179.3747224711509
 21
140.3629839437593
 31
0.0
 11
179.4420449155905
 21
139.8710872183086
 31
0.0
 11
179.4823005770029
 21
139.3762677233593
 31
0.0
 11
179.4957867647979
 21
138.8753419286554
 31
0.0
 11
179.4823005770028
 21
138.3744161339515
 31
0.0
 11
179.4420449155905
 21
137.8795966390021
 31
0.0
 11
179.3747224711509
 21
137.3876999135515
 31
0.0
 11
179.2824243680415
 21
136.9137679813354
 31
0.0
 11
179.1628034158808
 21
136.4459220337778
 31
0.0
 11
179.0216737308843
 21
136.0068330777001
 31
0.0
 11
178.8528998310143
 21
135.5774996293806
 31
0.0
 11
178.6674819679864
 21
135.1859321238185
 31
0.0
 11
178.4542496032424
 21
134.8086036249555
 31
0.0
 11
178.2301317923356
 21
134.4755766837552
 31
0.0
 11
177.9786202272344
 21
134.1624151555108
 31
0.0
 11
177.7220364943854
 21
133.8970781841307
 31
0.0
 11
177.4398983417106
 21
133.6585847010051
 31
0.0
 11
177.1573413348317
 21
133.4683490672797
 31
0.0
 11
176.8538212919782
 21
133.3129240482435
 31
0.0
 11
176.5520797801736
 21
133.203969219469
 31
0.0
 11
176.2380696118065
 21
133.1369736212789
 31
0.0
 11
175.9251187391241
 21
133.1144826177539
 31
0.0
 11
175.6121678664416
 21
133.1369736212789
 31
0.0
 11
175.2981576980745
 21
133.203969219469
 31
0.0
 11
174.9964161862699
 21
133.3129240482435
 31
0.0
 11
174.6928961434164
 21
133.4683490672797
 31
0.0
 11
174.4103391365375
 21
133.6585847010051
 31
0.0
 11
174.1282009838627
 21
133.8970781841307
 31
0.0
 11
173.8716172510137
 21
134.1624151555108
 31
0.0
 11
173.6201056859124
 21
134.4755766837552
 31
0.0
 11
173.3959878750056
 21
134.8086036249555
 31
0.0
 11
173.1827555102616
 21
135.1859321238185
 31
0.0
 11
172.9973376472338
 21
135.5774996293806
 31
0.0
 11
172.8285637473638
 21
136.0068330777001
 31
0.0
 11
172.6874340623673
 21
136.4459220337778
 31
0.0
 11
172.5678131102066
 21
136.9137679813354
 31
0.0
 11
172.4755150070972
 21
137.3876999135515
 31
0.0
 11
172.4081925626576
 21
137.8795966390022
 31
0.0
 11
172.3679369012452
 21
138.3744161339515
 31
0.0
 11
172.3544507134503
 21
138.8753419286554
 31
0.0
 11
172.3679369012452
 21
139.3762677233593
 31
0.0
 11
172.4081925626576
 21
139.8710872183086
 31
0.0
 11
172.4755150070973
 21
140.3629839437593
 31
0.0
 11
172.5678131102067
 21
140.8369158759754
 31
0.0
 11
172.6874340623674
 21
141.304761823533
 31
0.0
 11
172.8285637473638
 21
141.7438507796107
 31
0.0
 11
172.9973376472338
 21
142.1731842279302
 31
0.0
 11
173.1827555102616
 21
142.5647517334922
 31
0.0
 11
173.3959878750056
 21
142.9420802323552
 31
0.0
 11
173.6201056859125
 21
143.2751071735555
 31
0.0
 11
173.8716172510136
 21
143.5882687018
 31
0.0
 11
174.1282009838627
 21
143.85360567318
 31
0.0
 11
174.4103391365375
 21
144.0920991563057
 31
0.0
 11
174.6928961434164
 21
144.2823347900311
 31
0.0
 11
174.9964161862699
 21
144.4377598090673
 31
0.0
 11
175.2981576980745
 21
144.5467146378417
 31
0.0
 11
175.6121678664416
 21
144.6137102360318
 31
0.0
 11
175.925118739124
 21
144.6362012395568
 31
0.0
 11
176.2380696118065
 21
144.6137102360318
 31
0.0
  0
SPLINE
  5
15E
330
4A
100
AcDbEntity
  8
0
  6
Continuous
 62
     7
100
AcDbSpline
210
0.0
220
0.0
230
1.0
 70
    11
 71
     3
 72
    79
 73
    75
 74
    73
 42
0.000000001
 43
0.0000000001
 44
0.00000001
 40
0.0
 40
0.0
 40
0.0
 40
0.0
 40
0.3210775470639959
 40
0.6418876090884982
 40
0.9828881272070134
 40
1.32351704360858
 40
1.69295050018993
 40
2.06205606834503
 40
2.463712899767396
 40
2.865130060311473
 40
3.298540763298017
 40
3.731789993374754
 40
4.1931053292739
 40
4.65431753568499
 40
5.13721400786577
 40
5.62004981454593
 40
6.116532140550153
 40
6.612986419268392
 40
7.114093722209569
 40
7.615201025150455
 40
8.111655303867456
 40
8.60813762986856
 40
9.090973436542068
 40
9.573869908710027
 40
10.03508211509959
 40
10.49639745096306
 40
10.92964668098717
 40
11.36305738389372
 40
11.7644745443288
 40
12.16613137559337
 40
12.5352369435413
 40
12.90467039982529
 40
13.24529931581413
 40
13.58629983322848
 40
13.90710989320161
 40
14.22818744758318
 40
14.54194546559205
 40
14.85570348359973
 40
15.17678103797798
 40
15.4975910979458
 40
15.83859161535305
 40
16.17922053133378
 40
16.5486539876083
 40
16.91775955554664
 40
17.31941638680087
 40
17.7208335472259
 40
18.15424425012218
 40
18.58749348013658
 40
19.04880881599044
 40
19.51002102237105
 40
19.99291749453044
 40
20.47575330119624
 40
20.97223562719017
 40
21.46868990590091
 40
21.96979720883635
 40
22.47090451177305
 40
22.96735879048786
 40
23.46384111648972
 40
23.94667692316864
 40
24.42957339534914
 40
24.8907856017609
 40
25.35210093766112
 40
25.78535016773893
 40
26.21876087072554
 40
26.62017803126728
 40
27.02183486268163
 40
27.3909404308185
 40
27.76037388735717
 40
28.10100280365925
 40
28.44200332148648
 40
28.76281338199423
 40
29.0838909371729
 40
29.39764895732429
 40
29.71140696825806
 40
29.71140696825806
 40
29.71140696825806
 40
29.71140696825806
 10
176.2380696118065
 20
147.136973621279
 30
0.0
 10
176.343529420124
 20
147.1562534921392
 30
0.0
 10
176.5543611814614
 20
147.1947971634241
 30
0.0
 10
176.8626969462334
 20
147.309850599251
 30
0.0
 10
177.1607811745963
 20
147.4622391249563
 30
0.0
 10
177.4514495515799
 20
147.6593158791007
 30
0.0
 10
177.7262114717545
 20
147.8925023954614
 30
0.0
 10
177.9902370032482
 20
148.1666709276801
 30
0.0
 10
178.234617700673
 20
148.4722140769575
 30
0.0
 10
178.4644862846272
 20
148.8148316965731
 30
0.0
 10
178.6720507585691
 20
149.183527834483
 30
0.0
 10
178.8612652509355
 20
149.5840825807218
 30
0.0
 10
179.0262276693843
 20
150.0051869947129
 30
0.0
 10
179.1694098223277
 20
150.4515452879662
 30
0.0
 10
179.2869354915671
 20
150.9127410703097
 30
0.0
 10
179.3800180828269
 20
151.3914361407005
 30
0.0
 10
179.4465200023912
 20
151.8791033862313
 30
0.0
 10
179.4869050384
 20
152.375721153776
 30
0.0
 10
179.5002483405097
 20
152.8753419186988
 30
0.0
 10
179.4869050384029
 20
153.3749626836372
 30
0.0
 10
179.4465200023938
 20
153.8715804511331
 30
0.0
 10
179.3800180828695
 20
154.3592476968349
 30
0.0
 10
179.2869354915481
 20
154.8379427665962
 30
0.0
 10
179.1694098226859
 20
155.2991385512288
 30
0.0
 10
179.0262276686339
 20
155.7454968362946
 30
0.0
 10
178.8612652545541
 20
156.1666012799259
 30
0.0
 10
178.6720507473073
 20
156.5671559219487
 30
0.0
 10
178.464486327478
 20
156.9358524342794
 30
0.0
 10
178.2346175565434
 20
157.2784687544598
 30
0.0
 10
177.9902375283647
 20
157.5840165473336
 30
0.0
 10
177.7262096920591
 20
157.8581690785534
 30
0.0
 10
177.4514560063403
 20
158.091412750435
 30
0.0
 10
177.1607591613404
 20
158.2882918927965
 30
0.0
 10
176.8627773745618
 20
158.4413914968195
 30
0.0
 10
176.5540806082163
 20
158.5539390894506
 30
0.0
 10
176.2415138854738
 20
158.6204906397233
 30
0.0
 10
175.9251187395058
 20
158.6439659543889
 30
0.0
 10
175.6087235935379
 20
158.6204906397342
 30
0.0
 10
175.2961568707966
 20
158.5539390894724
 30
0.0
 10
174.9874601044527
 20
158.4413914968518
 30
0.0
 10
174.6894783176766
 20
158.2882918928389
 30
0.0
 10
174.39878147268
 20
158.0914127504869
 30
0.0
 10
174.1240277869653
 20
157.8581690786145
 30
0.0
 10
173.8599999506649
 20
157.5840165474032
 30
0.0
 10
173.615619922492
 20
157.2784687545375
 30
0.0
 10
173.3857511515645
 20
156.9358524343645
 30
0.0
 10
173.1781867317434
 20
156.5671559220407
 30
0.0
 10
172.988972224506
 20
156.1666012800243
 30
0.0
 10
172.8240098104371
 20
155.7454968363989
 30
0.0
 10
172.6808276563974
 20
155.2991385513384
 30
0.0
 10
172.5633019875496
 20
154.8379427667109
 30
0.0
 10
172.4702193962443
 20
154.3592476969543
 30
0.0
 10
172.4037174767388
 20
153.8715804512573
 30
0.0
 10
172.3633324407504
 20
153.3749626837651
 30
0.0
 10
172.3499891386683
 20
152.8753419188346
 30
0.0
 10
172.3633324408025
 20
152.3757211539051
 30
0.0
 10
172.4037174768486
 20
151.8791033864097
 30
0.0
 10
172.470219396419
 20
151.3914361407253
 30
0.0
 10
172.5633019878117
 20
150.9127410709253
 30
0.0
 10
172.680827656736
 20
150.4515452864629
 30
0.0
 10
172.8240098109836
 20
150.0051870008264
 30
0.0
 10
172.9889722249018
 20
149.5840825593129
 30
0.0
 10
173.1781867333913
 20
149.1835279099143
 30
0.0
 10
173.3857511496079
 20
148.8148314241816
 30
0.0
 10
173.6156199340882
 20
148.472215011826
 30
0.0
 10
173.8599999151002
 20
148.166667548532
 30
0.0
 10
174.1240279153529
 20
147.8925138818876
 30
0.0
 10
174.3987810171677
 20
147.6592742660849
 30
0.0
 10
174.6894798829083
 20
147.462381100525
 30
0.0
 10
174.9874544006626
 20
147.3093319576565
 30
0.0
 10
175.296176785805
 20
147.1966065404272
 30
0.0
 10
175.6086497871973
 20
147.1307055549833
 30
0.0
 10
175.9253872630039
 20
147.104853990717
 30
0.0
 10
176.1338421629692
 20
147.126267080928
 30
0.0
 10
176.2380696118065
 20
147.136973621279
 30
0.0
 11
176.2380696118065
 21
147.136973621279
 31
0.0
 11
176.5520797801736
 21
147.2039692194691
 31
0.0
 11
176.8538212919782
 21
147.3129240482436
 31
0.0
 11
177.1573413348316
 21
147.4683490672798
 31
0.0
 11
177.4398983417106
 21
147.6585847010052
 31
0.0
 11
177.7220364943853
 21
147.8970781841308
 31
0.0
 11
177.9786202272344
 21
148.1624151555109
 31
0.0
 11
178.2301317923355
 21
148.4755766837553
 31
0.0
 11
178.4542496032424
 21
148.8086036249557
 31
0.0
 11
178.6674819679865
 21
149.1859321238186
 31
0.0
 11
178.8528998310143
 21
149.5774996293807
 31
0.0
 11
179.0216737308843
 21
150.0068330777002
 31
0.0
 11
179.1628034158808
 21
150.4459220337779
 31
0.0
 11
179.2824243680415
 21
150.9137679813355
 31
0.0
 11
179.3747224711509
 21
151.3876999135516
 31
0.0
 11
179.4420449155905
 21
151.8795966390023
 31
0.0
 11
179.4823005770029
 21
152.3744161339516
 31
0.0
 11
179.4957867647979
 21
152.8753419286555
 31
0.0
 11
179.4823005770028
 21
153.3762677233594
 31
0.0
 11
179.4420449155905
 21
153.8710872183088
 31
0.0
 11
179.3747224711509
 21
154.3629839437594
 31
0.0
 11
179.2824243680415
 21
154.8369158759755
 31
0.0
 11
179.1628034158808
 21
155.3047618235331
 31
0.0
 11
179.0216737308843
 21
155.7438507796108
 31
0.0
 11
178.8528998310143
 21
156.1731842279303
 31
0.0
 11
178.6674819679864
 21
156.5647517334924
 31
0.0
 11
178.4542496032424
 21
156.9420802323554
 31
0.0
 11
178.2301317923356
 21
157.2751071735557
 31
0.0
 11
177.9786202272344
 21
157.5882687018001
 31
0.0
 11
177.7220364943854
 21
157.8536056731802
 31
0.0
 11
177.4398983417106
 21
158.0920991563058
 31
0.0
 11
177.1573413348317
 21
158.2823347900312
 31
0.0
 11
176.8538212919782
 21
158.4377598090674
 31
0.0
 11
176.5520797801736
 21
158.5467146378418
 31
0.0
 11
176.2380696118065
 21
158.6137102360319
 31
0.0
 11
175.9251187391241
 21
158.6362012395569
 31
0.0
 11
175.6121678664416
 21
158.6137102360319
 31
0.0
 11
175.2981576980745
 21
158.5467146378418
 31
0.0
 11
174.9964161862699
 21
158.4377598090674
 31
0.0
 11
174.6928961434164
 21
158.2823347900312
 31
0.0
 11
174.4103391365375
 21
158.0920991563058
 31
0.0
 11
174.1282009838627
 21
157.8536056731802
 31
0.0
 11
173.8716172510137
 21
157.5882687018001
 31
0.0
 11
173.6201056859124
 21
157.2751071735558
 31
0.0
 11
173.3959878750056
 21
156.9420802323554
 31
0.0
 11
173.1827555102616
 21
156.5647517334924
 31
0.0
 11
172.9973376472338
 21
156.1731842279303
 31
0.0
 11
172.8285637473638
 21
155.7438507796108
 31
0.0
 11
172.6874340623673
 21
155.3047618235331
 31
0.0
 11
172.5678131102066
 21
154.8369158759756
 31
0.0
 11
172.4755150070972
 21
154.3629839437594
 31
0.0
 11
172.4081925626576
 21
153.8710872183088
 31
0.0
 11
172.3679369012452
 21
153.3762677233594
 31
0.0
 11
172.3544507134503
 21
152.8753419286555
 31
0.0
 11
172.3679369012452
 21
152.3744161339516
 31
0.0
 11
172.4081925626576
 21
151.8795966390023
 31
0.0
 11
172.4755150070973
 21
151.3876999135516
 31
0.0
 11
172.5678131102067
 21
150.9137679813355
 31
0.0
 11
172.6874340623674
 21
150.4459220337779
 31
0.0
 11
172.8285637473638
 21
150.0068330777002
 31
0.0
 11
172.9973376472338
 21
149.5774996293807
 31
0.0
 11
173.1827555102616
 21
149.1859321238187
 31
0.0
 11
173.3959878750056
 21
148.8086036249557
 31
0.0
 11
173.6201056859125
 21
148.4755766837553
 31
0.0
 11
173.8716172510136
 21
148.1624151555109
 31
0.0
 11
174.1282009838627
 21
147.8970781841308
 31
0.0
 11
174.4103391365375
 21
147.6585847010052
 31
0.0
 11
174.6928961434164
 21
147.4683490672798
 31
0.0
 11
174.9964161862699
 21
147.3129240482436
 31
0.0
 11
175.2981576980745
 21
147.2039692194692
 31
0.0
 11
175.6121678664416
 21
147.136973621279
 31
0.0
 11
175.925118739124
 21
147.114482617754
 31
0.0
 11
176.2380696118065
 21
147.136973621279
 31
0.0
  0
ARC
  5
15F
330
4A
100
AcDbEntity
  8
1
  6
Continuous
 62
     7
100
AcDbCircle
 10
85.90378021365984
 20
296.2515055386111
 30
0.0
 40
1.0
100
AcDbArc
 50
270.0
 51
317.0585971351245
  0
ARC
  5
160
330
4A
100
AcDbEntity
  8
1
  6
Continuous
 62
     7
100
AcDbCircle
 10
87.69385208295927
 20
297.2515055386111
 30
0.0
 40
1.0
100
AcDbArc
 50
270.0
 51
285.3375576695514
  0
ARC
  5
161
330
4A
100
AcDbEntity
  8
1
  6
Continuous
 62
     7
100
AcDbCircle
 10
85.90378021365984
 20
296.2515055386111
 30
0.0
 40
0.9999999999999931
100
AcDbArc
 50
317.0585971351245
 51
329.9999999999962
  0
ARC
  5
162
330
4A
100
AcDbEntity
  8
1
  6
Continuous
 62
     7
100
AcDbCircle
 10
87.63583102122877
 20
295.2515055386111
 30
0.0
 40
1.0
100
AcDbArc
 50
90.0
 51
150.0000000000052
  0
ARC
  5
163
330
4A
100
AcDbEntity
  8
1
  6
Continuous
 62
     7
100
AcDbCircle
 10
66.36788182879755
 20
296.2515055386111
 30
0.0
 40
0.999999999999889
100
AcDbArc
 50
222.941402864881
 51
270.0
  0
ARC
  5
164
330
4A
100
AcDbEntity
  8
1
  6
Continuous
 62
     7
100
AcDbCircle
 10
64.57780995949815
 20
297.2515055386111
 30
0.0
 40
0.9999999999999967
100
AcDbArc
 50
254.6624423304361
 51
270.0
  0
ARC
  5
165
330
4A
100
AcDbEntity
  8
1
  6
Continuous
 62
     7
100
AcDbCircle
 10
66.36788182879755
 20
296.2515055386111
 30
0.0
 40
1.000000000000058
100
AcDbArc
 50
209.9999999999981
 51
222.941402864881
  0
ARC
  5
166
330
4A
100
AcDbEntity
  8
1
  6
Continuous
 62
     7
100
AcDbCircle
 10
64.63583102122877
 20
295.2515055386111
 30
0.0
 40
0.9999999999998606
100
AcDbArc
 50
30.00000000000461
 51
90.0
  0
ARC
  5
167
330
4A
100
AcDbEntity
  8
1
  6
Continuous
 62
     7
100
AcDbCircle
 10
172.0677307778072
 20
134.3173208669248
 30
0.0
 40
1.0
100
AcDbArc
 50
180.0
 51
195.3375576695533
  0
ARC
  5
168
330
4A
100
AcDbEntity
  8
1
  6
Continuous
 62
     7
100
AcDbCircle
 10
171.0677307778072
 20
136.1073927362243
 30
0.0
 40
1.0
100
AcDbArc
 50
180.0
 51
227.0585971351221
  0
ARC
  5
169
330
4A
100
AcDbEntity
  8
1
  6
Continuous
 62
     7
100
AcDbCircle
 10
170.0677307778072
 20
134.3753419286554
 30
0.0
 40
1.0
100
AcDbArc
 50
0.0
 51
59.99999999999946
  0
ARC
  5
16A
330
4A
100
AcDbEntity
  8
1
  6
Continuous
 62
     7
100
AcDbCircle
 10
171.0677307778072
 20
136.1073927362243
 30
0.0
 40
1.000000000000032
100
AcDbArc
 50
227.0585971351221
 51
240.0000000000019
  0
ARC
  5
16B
330
4A
100
AcDbEntity
  8
1
  6
Continuous
 62
     7
100
AcDbCircle
 10
172.0677307778072
 20
157.4333629903861
 30
0.0
 40
0.9999999999999166
100
AcDbArc
 50
164.6624423304467
 51
180.0
  0
ARC
  5
16C
330
4A
100
AcDbEntity
  8
1
  6
Continuous
 62
     7
100
AcDbCircle
 10
171.0677307778072
 20
155.6432911210866
 30
0.0
 40
0.9999999999999277
100
AcDbArc
 50
132.9414028648834
 51
180.0
  0
ARC
  5
16D
330
4A
100
AcDbEntity
  8
1
  6
Continuous
 62
     7
100
AcDbCircle
 10
170.0677307778072
 20
157.3753419286554
 30
0.0
 40
0.9999999999999589
100
AcDbArc
 50
300.0000000000013
 51
0.0
  0
ARC
  5
16E
330
4A
100
AcDbEntity
  8
1
  6
Continuous
 62
     7
100
AcDbCircle
 10
171.0677307778072
 20
155.6432911210866
 30
0.0
 40
0.9999999999999589
100
AcDbArc
 50
120.0000000000014
 51
132.9414028648834
  0
ENDBLK
  5
4C
330
4A
100
AcDbEntity
  8
0
100
AcDbBlockEnd
  0
BLOCK
  5
4E
330
4D
100
AcDbEntity
  8
0
100
AcDbBlockBegin
  2
75-2
 70
     0
 10
179.1249847831937
 20
56.63301065802246
 30
0.0
  3
75-2
  1

  0
LINE
  5
16F
330
4D
100
AcDbEntity
  8
1
  6
Continuous
 62
     7
100
AcDbLine
 10
77.66818992780435
 20
109.0180117162585
 30
0.0
 11
77.03598351355194
 21
108.3858053020062
 31
0.0
  0
LINE
  5
170
330
4D
100
AcDbEntity
  8
1
  6
Continuous
 62
     7
100
AcDbLine
 10
77.03598351355194
 20
109.0614169206656
 30
0.0
 11
77.03598351355194
 21
108.3858053020062
 31
0.0
  0
LINE
  5
171
330
4D
100
AcDbEntity
  8
1
  6
Continuous
 62
     7
100
AcDbLine
 10
75.23598348231025
 20
109.0614323170286
 30
0.0
 11
75.23598348231025
 21
108.3855003486012
 31
0.0
  0
LINE
  5
172
330
4D
100
AcDbEntity
  8
1
  6
Continuous
 62
     7
100
AcDbLine
 10
73.22724758039536
 20
107.2817912645844
 30
0.0
 11
73.22724758039536
 21
104.9567568192995
 31
0.0
  0
LINE
  5
173
330
4D
100
AcDbEntity
  8
1
  6
Continuous
 62
     7
100
AcDbLine
 10
79.04441446206195
 20
107.3249074383024
 30
0.0
 11
79.04441446206195
 21
104.9567568192995
 31
0.0
  0
LINE
  5
174
330
4D
100
AcDbEntity
  8
1
  6
Continuous
 62
     7
100
AcDbLine
 10
77.03598351355194
 20
103.8855957417116
 30
0.0
 11
77.03598351355194
 21
108.1656728258027
 31
0.0
  0
LINE
  5
175
330
4D
100
AcDbEntity
  8
1
  6
Continuous
 62
     7
100
AcDbLine
 10
79.31289403300656
 20
108.7109249612573
 30
0.0
 11
79.37863980035604
 21
108.7766707286069
 31
0.0
  0
LINE
  5
176
330
4D
100
AcDbEntity
  8
1
  6
Continuous
 62
     7
100
AcDbLine
 10
71.63829322958125
 20
106.1293473753463
 30
0.0
 11
69.92598290291346
 21
106.1293473753463
 31
0.0
  0
LINE
  5
177
330
4D
100
AcDbEntity
  8
1
  6
Continuous
 62
     7
100
AcDbLine
 10
79.31289403300656
 20
104.3085897979049
 30
0.0
 11
79.44303659602616
 21
104.1784472348853
 31
0.0
  0
LINE
  5
178
330
4D
100
AcDbEntity
  8
1
  6
Continuous
 62
     7
100
AcDbLine
 10
82.34637482906035
 20
106.1293473753463
 30
0.0
 11
80.63336881287606
 21
106.1293473753463
 31
0.0
  0
LINE
  5
179
330
4D
100
AcDbEntity
  8
1
  6
Continuous
 62
     7
100
AcDbLine
 10
80.63336881287606
 20
106.890167383816
 30
0.0
 11
82.34637482906035
 21
106.890167383816
 31
0.0
  0
LINE
  5
17A
330
4D
100
AcDbEntity
  8
1
  6
Continuous
 62
     7
100
AcDbLine
 10
72.95876800945086
 20
108.7109249612573
 30
0.0
 11
72.89302224210417
 21
108.776670728604
 31
0.0
  0
LINE
  5
17B
330
4D
100
AcDbEntity
  8
1
  6
Continuous
 62
     7
100
AcDbLine
 10
75.23598348231025
 20
108.3855003486012
 30
0.0
 11
74.60347211465296
 21
109.0180117162585
 31
0.0
  0
LINE
  5
17C
330
4D
100
AcDbEntity
  8
1
  6
Continuous
 62
     7
100
AcDbLine
 10
69.92528721339696
 20
106.890167383816
 30
0.0
 11
71.63829322958125
 21
106.890167383816
 31
0.0
  0
LINE
  5
17D
330
4D
100
AcDbEntity
  8
1
  6
Continuous
 62
     7
100
AcDbLine
 10
77.03598351355194
 20
104.6337094571561
 30
0.0
 11
77.75161540790825
 21
103.9180775627998
 31
0.0
  0
LINE
  5
17E
330
4D
100
AcDbEntity
  8
1
  6
Continuous
 62
     7
100
AcDbLine
 10
75.23598348231025
 20
103.8855957417116
 30
0.0
 11
75.23598348231025
 21
108.1656728258027
 31
0.0
  0
LINE
  5
17F
330
4D
100
AcDbEntity
  8
1
  6
Continuous
 62
     7
100
AcDbLine
 10
74.52004663454906
 20
103.9180775627998
 30
0.0
 11
75.23598348231025
 21
104.634014410561
 31
0.0
  0
LINE
  5
180
330
4D
100
AcDbEntity
  8
1
  6
Continuous
 62
     7
100
AcDbLine
 10
72.82862544643115
 20
104.1784472348853
 30
0.0
 11
72.95876800945086
 21
104.3085897979049
 31
0.0
  0
ARC
  5
181
330
4D
100
AcDbEntity
  8
1
  6
Continuous
 62
     7
100
AcDbCircle
 10
80.63336881287606
 20
104.2103527506538
 30
0.0
 40
1.918994624692502
100
AcDbArc
 50
90.0
 51
134.629699151785
  0
ARC
  5
182
330
4D
100
AcDbEntity
  8
1
  6
Continuous
 62
     7
100
AcDbCircle
 10
79.96106105440106
 20
104.9567568192995
 30
0.0
 40
0.9166465923391882
100
AcDbArc
 50
137.5005082888386
 51
225.0000000000044
  0
ARC
  5
183
330
4D
100
AcDbEntity
  8
1
  6
Continuous
 62
     7
100
AcDbCircle
 10
72.31060098805625
 20
104.9567568192995
 30
0.0
 40
0.916646592339224
100
AcDbArc
 50
315.0000000000006
 51
42.49949171116143
  0
ARC
  5
184
330
4D
100
AcDbEntity
  8
1
  6
Continuous
 62
     7
100
AcDbCircle
 10
71.63829322958125
 20
104.2103527506538
 30
0.0
 40
1.918994624692486
100
AcDbArc
 50
45.37030084821506
 51
90.0
  0
ARC
  5
185
330
4D
100
AcDbEntity
  8
1
  6
Continuous
 62
     7
100
AcDbCircle
 10
80.63336881287606
 20
108.8091620085084
 30
0.0
 40
1.918994624692405
100
AcDbArc
 50
225.3703008482127
 51
270.0
  0
ARC
  5
186
330
4D
100
AcDbEntity
  8
1
  6
Continuous
 62
     7
100
AcDbCircle
 10
79.96106105440106
 20
108.0627579398628
 30
0.0
 40
0.9166465923390732
100
AcDbArc
 50
135.0
 51
222.4994917111614
  0
ARC
  5
187
330
4D
100
AcDbEntity
  8
1
  6
Continuous
 62
     7
100
AcDbCircle
 10
71.63829322958125
 20
108.8091620085084
 30
0.0
 40
1.918994624692388
100
AcDbArc
 50
270.0
 51
314.6296991517873
  0
ARC
  5
188
330
4D
100
AcDbEntity
  8
1
  6
Continuous
 62
     7
100
AcDbCircle
 10
72.31060098805625
 20
108.0627579398628
 30
0.0
 40
0.9166465923391882
100
AcDbArc
 50
317.5005082888385
 51
44.99999999999498
  0
SPLINE
  5
189
330
4D
100
AcDbEntity
  8
1
  6
Continuous
 62
     7
100
AcDbSpline
210
0.0
220
0.0
230
1.0
 70
     8
 71
     3
 72
    41
 73
    37
 74
    35
 42
0.000000001
 43
0.0000000001
 44
0.00000001
 40
0.0
 40
0.0
 40
0.0
 40
0.0
 40
0.0729288036756673
 40
0.1458278634705054
 40
0.2220831371645063
 40
0.2983654586368685
 40
0.3708466255314002
 40
0.4433152243474971
 40
0.5103449923836045
 40
0.577377152983642
 40
0.63762458047006
 40
0.6978691614447583
 40
0.750469365567754
 40
0.8030639565728255
 40
0.8478791180745274
 40
0.8926919057563548
 40
0.9307529080024287
 40
0.9687649982675983
 40
1.002688508119359
 40
1.036543066964909
 40
1.070397470691142
 40
1.104321114879363
 40
1.142333938195944
 40
1.180394324779475
 40
1.222230617126805
 40
1.264055526364896
 40
1.31019171164814
 40
1.3563334546973
 40
1.426004524433065
 40
1.495712726976112
 40
1.625131683998875
 40
1.754651194938301
 40
1.840966285748859
 40
1.927202321083009
 40
2.000131704865313
 40
2.073101510382904
 40
2.073101510382904
 40
2.073101510382904
 40
2.073101510382904
 10
82.34637482906035
 20
106.1293473753463
 30
0.0
 10
82.37067659502826
 20
106.1299635231068
 30
0.0
 10
82.41927021523276
 20
106.1311955776055
 30
0.0
 10
82.49323046384156
 20
106.1346932542202
 30
0.0
 10
82.56808494372608
 20
106.1416071312067
 30
0.0
 10
82.64243365054676
 20
106.1516600846905
 30
0.0
 10
82.71510377717598
 20
106.1643073876111
 30
0.0
 10
82.7841634373493
 20
106.1793757152084
 30
0.0
 10
82.85069809402637
 20
106.1971543778932
 30
0.0
 10
82.91237098168016
 20
106.2170465257388
 30
0.0
 10
82.97075784078899
 20
106.2394589335078
 30
0.0
 10
83.0232605451736
 20
106.2634942442507
 30
0.0
 10
83.07173288324107
 20
106.2898907464351
 30
0.0
 10
83.11358265183077
 20
106.3173863718376
 30
0.0
 10
83.15066678202508
 20
106.3470381451909
 30
0.0
 10
83.18075219191653
 20
106.3773147546875
 30
0.0
 10
83.20523663743577
 20
106.4094698278898
 30
0.0
 10
83.22266706328165
 20
106.4419618997413
 30
0.0
 10
83.23330327836526
 20
106.4757885784773
 30
0.0
 10
83.2370919525937
 20
106.5097118331181
 30
0.0
 10
83.23330984573192
 20
106.5436358670088
 30
0.0
 10
83.22268012023503
 20
106.5774648239587
 30
0.0
 10
83.20525722669532
 20
106.6099607928817
 30
0.0
 10
83.18138065052426
 20
106.641329232499
 30
0.0
 10
83.15285092984362
 20
106.6703175081659
 30
0.0
 10
83.11930346572063
 20
106.6977388110245
 30
0.0
 10
83.08231713684222
 20
106.7229355063652
 30
0.0
 10
83.0354871205614
 20
106.7498671019258
 30
0.0
 10
82.97961252520541
 20
106.7765493988771
 30
0.0
 10
82.89603185900557
 20
106.8089945411025
 30
0.0
 10
82.79074474957069
 20
106.8399589417642
 30
0.0
 10
82.67780998848616
 20
106.8626491049771
 30
0.0
 10
82.57811724154962
 20
106.8769831865616
 30
0.0
 10
82.4966171513358
 20
106.8847221527411
 30
0.0
 10
82.4193084837625
 20
106.8883464192031
 30
0.0
 10
82.3706905373008
 20
106.8895602869293
 30
0.0
 10
82.34637482906035
 20
106.890167383816
 30
0.0
 11
82.34637482906035
 21
106.1293473753463
 31
0.0
 11
82.41927297328768
 21
106.1314620925863
 31
0.0
 11
82.49207757397846
 21
106.1351719591142
 31
0.0
 11
82.56801379432297
 21
106.1421402645916
 31
0.0
 11
82.64361403139466
 21
106.1523185149035
 31
0.0
 11
82.71501025278845
 21
106.1648124799923
 31
0.0
 11
82.78579865738985
 21
106.1803269771891
 31
0.0
 11
82.85053784649787
 21
106.1977001526698
 31
0.0
 11
82.91431124405216
 21
106.2183463230173
 31
0.0
 11
82.97051670829146
 21
106.2400419063254
 31
0.0
 11
83.02524700146625
 21
106.265221353804
 31
0.0
 11
83.07136601119485
 21
106.2905159864507
 31
0.0
 11
83.11523520277936
 21
106.3195277954585
 31
0.0
 11
83.15010423997566
 21
106.3476800417301
 31
0.0
 11
83.18154160203076
 21
106.3796155742317
 31
0.0
 11
83.20440717873828
 21
106.410042623363
 31
0.0
 11
83.22215151283194
 21
106.4436589533712
 31
0.0
 11
83.23223608611838
 21
106.4760488581073
 31
0.0
 11
83.23583102359277
 21
106.5097120072096
 31
0.0
 11
83.23224262450418
 21
106.5433756979154
 31
0.0
 11
83.22216448930087
 21
106.5757677471304
 31
0.0
 11
83.2044270224571
 21
106.6093885299257
 31
0.0
 11
83.18156716068515
 21
106.6398191029019
 31
0.0
 11
83.15234459472015
 21
106.6697576569996
 31
0.0
 11
83.12007281148536
 21
106.6963632026894
 31
0.0
 11
83.08201051979555
 21
106.7224363606652
 31
0.0
 11
83.04207017921235
 21
106.7455411148494
 31
0.0
 11
82.97928362620821
 21
106.7757389088171
 31
0.0
 11
82.91436848940916
 21
106.8011408487421
 31
0.0
 11
82.7903409315668
 21
106.8381061222515
 31
0.0
 11
82.66345023887834
 21
106.8640687095303
 31
0.0
 11
82.57800605472411
 21
106.8762992599611
 31
0.0
 11
82.49215116719085
 21
106.8843981593723
 31
0.0
 11
82.41931477793415
 21
106.8880799376505
 31
0.0
 11
82.34637482906035
 21
106.890167383816
 31
0.0
  0
SPLINE
  5
18A
330
4D
100
AcDbEntity
  8
1
  6
Continuous
 62
     7
100
AcDbSpline
210
0.0
220
0.0
230
1.0
 70
     8
 71
     3
 72
    41
 73
    37
 74
    35
 42
0.000000001
 43
0.0000000001
 44
0.00000001
 40
0.0
 40
0.0
 40
0.0
 40
0.0
 40
0.0729288036756531
 40
0.1458278634705054
 40
0.2220831371645063
 40
0.2983654586368685
 40
0.3708466255314002
 40
0.4433152243474971
 40
0.5103449923835909
 40
0.5773771529836419
 40
0.6376245804700599
 40
0.6978691614447582
 40
0.7504693655677539
 40
0.8030639565728254
 40
0.8478791180745273
 40
0.8926919057563547
 40
0.9307529080024286
 40
0.9687649982675982
 40
1.002688508119359
 40
1.036543066964909
 40
1.070397470691137
 40
1.104321114879346
 40
1.14233393819592
 40
1.180394324779443
 40
1.222230617126832
 40
1.264055526364949
 40
1.310191711648158
 40
1.356333454697257
 40
1.42600452443306
 40
1.495712726976173
 40
1.625131683998887
 40
1.754651194938249
 40
1.840966285748864
 40
1.92720232108307
 40
2.000131704865388
 40
2.073101510382965
 40
2.073101510382965
 40
2.073101510382965
 40
2.073101510382965
 10
69.92528721339696
 20
106.1293473753463
 30
0.0
 10
69.90098544742904
 20
106.1299635231068
 30
0.0
 10
69.85239182722458
 20
106.1311955776055
 30
0.0
 10
69.77843157861571
 20
106.1346932542201
 30
0.0
 10
69.70357709873124
 20
106.1416071312067
 30
0.0
 10
69.62922839191049
 20
106.1516600846904
 30
0.0
 10
69.55655826528135
 20
106.164307387611
 30
0.0
 10
69.48749860510802
 20
106.1793757152084
 30
0.0
 10
69.42096394843092
 20
106.1971543778932
 30
0.0
 10
69.35929106077715
 20
106.2170465257388
 30
0.0
 10
69.30090420166832
 20
106.2394589335078
 30
0.0
 10
69.24840149728368
 20
106.2634942442508
 30
0.0
 10
69.19992915921627
 20
106.2898907464351
 30
0.0
 10
69.15807939062651
 20
106.3173863718376
 30
0.0
 10
69.12099526043224
 20
106.3470381451909
 30
0.0
 10
69.0909098505408
 20
106.3773147546875
 30
0.0
 10
69.06642540502152
 20
106.4094698278898
 30
0.0
 10
69.0489949791757
 20
106.4419618997413
 30
0.0
 10
69.03835876409202
 20
106.4757885784773
 30
0.0
 10
69.03457008986366
 20
106.5097118331181
 30
0.0
 10
69.03835219672531
 20
106.5436358670088
 30
0.0
 10
69.0489819222222
 20
106.5774648239587
 30
0.0
 10
69.0664048157619
 20
106.6099607928816
 30
0.0
 10
69.09028139193296
 20
106.6413292324991
 30
0.0
 10
69.11881111261359
 20
106.6703175081659
 30
0.0
 10
69.15235857673666
 20
106.6977388110245
 30
0.0
 10
69.18934490561504
 20
106.7229355063652
 30
0.0
 10
69.23617492189582
 20
106.7498671019258
 30
0.0
 10
69.29204951725184
 20
106.7765493988771
 30
0.0
 10
69.37563018345172
 20
106.8089945411025
 30
0.0
 10
69.48091729288655
 20
106.8399589417641
 30
0.0
 10
69.59385205397106
 20
106.8626491049771
 30
0.0
 10
69.69354480090767
 20
106.8769831865616
 30
0.0
 10
69.77504489112152
 20
106.8847221527411
 30
0.0
 10
69.85235355869477
 20
106.8883464192031
 30
0.0
 10
69.90097150515649
 20
106.8895602869293
 30
0.0
 10
69.92528721339696
 20
106.890167383816
 30
0.0
 11
69.92528721339696
 21
106.1293473753463
 31
0.0
 11
69.85238906916965
 21
106.1314620925863
 31
0.0
 11
69.77958446847884
 21
106.1351719591142
 31
0.0
 11
69.70364824813434
 21
106.1421402645916
 31
0.0
 11
69.62804801106265
 21
106.1523185149035
 31
0.0
 11
69.55665178966886
 21
106.1648124799923
 31
0.0
 11
69.48586338506746
 21
106.1803269771891
 31
0.0
 11
69.42112419595945
 21
106.1977001526698
 31
0.0
 11
69.35735079840515
 21
106.2183463230173
 31
0.0
 11
69.30114533416585
 21
106.2400419063254
 31
0.0
 11
69.24641504099105
 21
106.265221353804
 31
0.0
 11
69.20029603126245
 21
106.2905159864507
 31
0.0
 11
69.15642683967795
 21
106.3195277954585
 31
0.0
 11
69.12155780248165
 21
106.3476800417301
 31
0.0
 11
69.09012044042655
 21
106.3796155742317
 31
0.0
 11
69.06725486371903
 21
106.410042623363
 31
0.0
 11
69.04951052962537
 21
106.4436589533712
 31
0.0
 11
69.03942595633893
 21
106.4760488581073
 31
0.0
 11
69.03583101886454
 21
106.5097120072096
 31
0.0
 11
69.03941941795308
 21
106.5433756979154
 31
0.0
 11
69.04949755315636
 21
106.5757677471304
 31
0.0
 11
69.06723502000011
 21
106.6093885299257
 31
0.0
 11
69.09009488177205
 21
106.6398191029019
 31
0.0
 11
69.1193174477371
 21
106.6697576569996
 31
0.0
 11
69.15158923097195
 21
106.6963632026894
 31
0.0
 11
69.18965152266172
 21
106.7224363606652
 31
0.0
 11
69.22959186324485
 21
106.7455411148494
 31
0.0
 11
69.29237841624902
 21
106.7757389088171
 31
0.0
 11
69.35729355304815
 21
106.8011408487421
 31
0.0
 11
69.48132111089046
 21
106.8381061222514
 31
0.0
 11
69.60821180357885
 21
106.8640687095303
 31
0.0
 11
69.69365598773314
 21
106.8762992599611
 31
0.0
 11
69.77951087526645
 21
106.8843981593723
 31
0.0
 11
69.85234726452317
 21
106.8880799376505
 31
0.0
 11
69.92528721339696
 21
106.890167383816
 31
0.0
  0
SPLINE
  5
18B
330
4D
100
AcDbEntity
  8
1
  6
Continuous
 62
     7
100
AcDbSpline
210
0.0
220
0.0
230
1.0
 70
     8
 71
     3
 72
    43
 73
    39
 74
    37
 42
0.000000001
 43
0.0000000001
 44
0.00000001
 40
0.0
 40
0.0
 40
0.0
 40
0.0
 40
0.0448557901637436
 40
0.0895229444510293
 40
0.1420251082514717
 40
0.1947532401613352
 40
0.2550487154288489
 40
0.3152379064368182
 40
0.3822477338289486
 40
0.4493013354606125
 40
0.5217835067269947
 40
0.5942519415060754
 40
0.6705157160779217
 40
0.7467846702037803
 40
0.8249938919558888
 40
0.9032018536927011
 40
0.9814103232139201
 40
1.059619074000584
 40
1.135885763744169
 40
1.212151681689516
 40
1.284627294180513
 40
1.357102770454489
 40
1.424135757138301
 40
1.49116419102456
 40
1.551405676236687
 40
1.611656884965273
 40
1.664277407453741
 40
1.716849526799821
 40
1.761592188488713
 40
1.80648476455927
 40
1.857965131830085
 40
1.908967480764643
 40
1.929576319566419
 40
1.950229041233155
 40
1.972260135517622
 40
1.994167368541317
 40
2.043389227994378
 40
2.093764128064839
 40
2.093764128064839
 40
2.093764128064839
 40
2.093764128064839
 10
77.75161540790114
 20
103.9180775628069
 30
0.0
 10
77.76228280561259
 20
103.9076013371081
 30
0.0
 10
77.78357275015001
 20
103.8866929522589
 30
0.0
 10
77.81934038212897
 20
103.8555570721961
 30
0.0
 10
77.86113942601092
 20
103.8279155899871
 30
0.0
 10
77.90992869602884
 20
103.8020705296658
 30
0.0
 10
77.96247527563756
 20
103.7780618569328
 30
0.0
 10
78.0207840910937
 20
103.7554710930279
 30
0.0
 10
78.08244159210541
 20
103.7355813966956
 30
0.0
 10
78.14899410632636
 20
103.7178542665085
 30
0.0
 10
78.21805179495482
 20
103.7027429173653
 30
0.0
 10
78.29071754751875
 20
103.6900922647529
 30
0.0
 10
78.36508699266639
 20
103.6802275893843
 30
0.0
 10
78.44168893583439
 20
103.6731062640775
 30
0.0
 10
78.51915037505785
 20
103.6688156239322
 30
0.0
 10
78.59736358702983
 20
103.66739410255
 30
0.0
 10
78.67557639168756
 20
103.6688296910908
 30
0.0
 10
78.75303626257937
 20
103.6731360927055
 30
0.0
 10
78.82963618907067
 20
103.6802771932154
 30
0.0
 10
78.90400597118052
 20
103.6901556088936
 30
0.0
 10
78.97667301962188
 20
103.7028033728938
 30
0.0
 10
79.04572111412676
 20
103.7179310208368
 30
0.0
 10
79.11225176095886
 20
103.7357306387376
 30
0.0
 10
79.17392219347964
 20
103.7556227047823
 30
0.0
 10
79.232309572458
 20
103.7780312207909
 30
0.0
 10
79.2848117874366
 20
103.8020865752433
 30
0.0
 10
79.33325961161295
 20
103.8285323480667
 30
0.0
 10
79.37508727049422
 20
103.856007472712
 30
0.0
 10
79.4122359791273
 20
103.8855750490747
 30
0.0
 10
79.44543585648353
 20
103.9190864629856
 30
0.0
 10
79.47430274225142
 20
103.9591704162307
 30
0.0
 10
79.49055075898005
 20
103.9974328916186
 30
0.0
 10
79.49638865045381
 20
104.0277016031002
 30
0.0
 10
79.49779789708563
 20
104.0488092868674
 30
0.0
 10
79.496384345917
 20
104.0703577536353
 30
0.0
 10
79.49006810746938
 20
104.1008887502618
 30
0.0
 10
79.47210062213342
 20
104.1377947094389
 30
0.0
 10
79.45279909198524
 20
104.1647922102591
 30
0.0
 10
79.44303659601906
 20
104.1784472348924
 30
0.0
 11
77.75161540790114
 21
103.9180775628069
 31
0.0
 11
77.78393280893162
 21
103.8869708559774
 31
0.0
 11
77.81792180715254
 21
103.8579897840338
 31
0.0
 11
77.86149296306749
 21
103.8286976130159
 31
0.0
 11
77.90791000846576
 21
103.8036833423792
 31
0.0
 11
77.9627375949816
 21
103.7785939001879
 31
0.0
 11
78.01884576587986
 21
103.7568083115926
 31
0.0
 11
78.08258873499803
 21
103.7361406837409
 31
0.0
 11
78.14735835254206
 21
103.7187889657643
 31
0.0
 11
78.21815587175637
 21
103.7032526726844
 31
0.0
 11
78.28954297853736
 21
103.6907805034788
 31
0.0
 11
78.36514063077212
 21
103.6807227567629
 31
0.0
 11
78.44107943595355
 21
103.6736339476895
 31
0.0
 11
78.51916846945156
 21
103.6692997581747
 31
0.0
 11
78.59736336621324
 21
103.6678702878176
 31
0.0
 11
78.67555850648468
 21
103.6693141472493
 31
0.0
 11
78.75364616117906
 21
103.6736646497517
 31
0.0
 11
78.82958103410482
 21
103.6807711979464
 31
0.0
 11
78.90517924720885
 21
103.6908409747365
 31
0.0
 11
78.97657287138742
 21
103.7033175456766
 31
0.0
 11
79.04735836816295
 21
103.7188773688291
 31
0.0
 11
79.11209462914084
 21
103.7362738572143
 31
0.0
 11
79.17586348339745
 21
103.7569219603819
 31
0.0
 11
79.2320631269412
 21
103.7786161207739
 31
0.0
 11
79.28679003001244
 21
103.8038187837322
 31
0.0
 11
79.33290884138536
 21
103.829156001652
 31
0.0
 11
79.37676756102076
 21
103.8581429026334
 31
0.0
 11
79.41161697700127
 21
103.8862039782687
 31
0.0
 11
79.44306215467344
 21
103.9182437062221
 31
0.0
 11
79.47274457298863
 21
103.9603053540785
 31
0.0
 11
79.49206625886265
 21
104.0075061167944
 31
0.0
 11
79.49596375402282
 21
104.027743057229
 31
0.0
 11
79.49732601758095
 21
104.0483508019144
 31
0.0
 11
79.49587443055101
 21
104.0703340229155
 31
0.0
 11
79.49137974324415
 21
104.091775213499
 31
0.0
 11
79.4711540603805
 21
104.1366496310629
 31
0.0
 11
79.44303659601906
 21
104.1784472348924
 31
0.0
  0
SPLINE
  5
18C
330
4D
100
AcDbEntity
  8
1
  6
Continuous
 62
     7
100
AcDbSpline
210
0.0
220
0.0
230
1.0
 70
     8
 71
     3
 72
    27
 73
    23
 74
    21
 42
0.000000001
 43
0.0000000001
 44
0.00000001
 40
0.0
 40
0.0
 40
0.0
 40
0.0
 40
0.0340794409749838
 40
0.0675402528098791
 40
0.1486179150034311
 40
0.2331829782177667
 40
0.3468645482931793
 40
0.4587323364806237
 40
0.5978897934231613
 40
0.7376658409656343
 40
0.8922263830692643
 40
1.046563329381471
 40
1.200901780637775
 40
1.355460863749554
 40
1.495230670999071
 40
1.634394107566055
 40
1.746277737395577
 40
1.859945121254401
 40
1.94448208746546
 40
2.025576304278982
 40
2.058971125347569
 40
2.092973121985957
 40
2.092973121985957
 40
2.092973121985957
 40
2.092973121985957
 10
75.23583100560776
 20
103.8854189355822
 30
0.0
 10
75.23739135221007
 20
103.8741701089017
 30
0.0
 10
75.24048373505929
 20
103.8518766527464
 30
0.0
 10
75.25210640009051
 20
103.8034441889871
 30
0.0
 10
75.2906527527402
 20
103.7467890135256
 30
0.0
 10
75.36288419529276
 20
103.6875632118725
 30
0.0
 10
75.45229338754828
 20
103.6346860206668
 30
0.0
 10
75.5652590115983
 20
103.5890323731663
 30
0.0
 10
75.69057612829391
 20
103.5526921688395
 30
0.0
 10
75.83263380384966
 20
103.5253762529031
 30
0.0
 10
75.98141739313036
 20
103.5087135351472
 30
0.0
 10
76.13586906196073
 20
103.503309937993
 30
0.0
 10
76.29031919532703
 20
103.5087432149199
 30
0.0
 10
76.43909753143728
 20
103.5254348892545
 30
0.0
 10
76.58114862123578
 20
103.552782527909
 30
0.0
 10
76.70646310869148
 20
103.5891487087118
 30
0.0
 10
76.81942805374067
 20
103.6348097516939
 30
0.0
 10
76.90882160653211
 20
103.6877007971216
 30
0.0
 10
76.98099751657566
 20
103.746987104017
 30
0.0
 10
77.01951389338308
 20
103.8036044399689
 30
0.0
 10
77.03123929030426
 20
103.8519635378311
 30
0.0
 10
77.03439264100899
 20
103.8742003586704
 30
0.0
 10
77.03598351355194
 20
103.8854189355822
 30
0.0
 11
75.23583100560776
 21
103.8854189355822
 31
0.0
 11
75.24106952593344
 21
103.8517445161377
 31
0.0
 11
75.24951051636856
 21
103.8193658817438
 31
0.0
 11
75.29255691005831
 21
103.7506592972822
 31
0.0
 11
75.35642682642114
 21
103.6952347238311
 31
0.0
 11
75.45404441219839
 21
103.6369740511615
 31
0.0
 11
75.55735078514834
 21
103.5940532513899
 31
0.0
 11
75.69086629648027
 21
103.5548307373342
 31
0.0
 11
75.82804799780587
 21
103.5280254432761
 31
0.0
 11
75.98163162332865
 21
103.5106752139602
 31
0.0
 11
76.13586838548176
 21
103.5051152276149
 31
0.0
 11
76.29010557603523
 21
103.5107050250218
 31
0.0
 11
76.44368426647736
 21
103.5280859145338
 31
0.0
 11
76.58085409014018
 21
103.5549194381877
 31
0.0
 11
76.71436850266596
 21
103.5941669001792
 31
0.0
 11
76.81768504532133
 21
103.6371045101006
 31
0.0
 11
76.91527258028935
 21
103.6953878424308
 31
0.0
 11
76.97908718566705
 21
103.7508332609731
 31
0.0
 11
77.02216450255764
 21
103.8195400017909
 31
0.0
 11
77.03065894035025
 21
103.8518364250425
 31
0.0
 11
77.03598351355194
 21
103.8854189355822
 31
0.0
  0
SPLINE
  5
18D
330
4D
100
AcDbEntity
  8
1
  6
Continuous
 62
     7
100
AcDbSpline
210
0.0
220
0.0
230
1.0
 70
     8
 71
     3
 72
    43
 73
    39
 74
    37
 42
0.000000001
 43
0.0000000001
 44
0.00000001
 40
0.0
 40
0.0
 40
0.0
 40
0.0
 40
0.0448557901637538
 40
0.0895229444510287
 40
0.1420251082514199
 40
0.1947532401612343
 40
0.255048715428748
 40
0.3152379064367173
 40
0.3822477338288883
 40
0.4493013354605934
 40
0.5217835067269249
 40
0.5942519415059709
 40
0.6705157160778313
 40
0.7467846702036758
 40
0.8249938919557843
 40
0.9032018536925966
 40
0.9814103232138014
 40
1.05961907400048
 40
1.135885763744064
 40
1.212151681689411
 40
1.284627294180464
 40
1.357102770454496
 40
1.424135757138253
 40
1.491164191024458
 40
1.551405676236585
 40
1.61165688496517
 40
1.664277407453628
 40
1.716849526799715
 40
1.761592188488663
 40
1.80648476455925
 40
1.857965131830007
 40
1.90896748076456
 40
1.929576319566347
 40
1.950229041233086
 40
1.972260135517551
 40
1.994167368541252
 40
2.043389227994337
 40
2.093764128064829
 40
2.093764128064829
 40
2.093764128064829
 40
2.093764128064829
 10
74.52004663455605
 20
103.9180775628069
 30
0.0
 10
74.50937923684462
 20
103.9076013371081
 30
0.0
 10
74.48808929230717
 20
103.886692952259
 30
0.0
 10
74.45232166032824
 20
103.8555570721961
 30
0.0
 10
74.41052261644633
 20
103.8279155899871
 30
0.0
 10
74.36173334642844
 20
103.8020705296659
 30
0.0
 10
74.30918676681976
 20
103.7780618569328
 30
0.0
 10
74.25087795136358
 20
103.755471093028
 30
0.0
 10
74.18922045035185
 20
103.7355813966955
 30
0.0
 10
74.1226679361309
 20
103.7178542665085
 30
0.0
 10
74.05361024750246
 20
103.7027429173654
 30
0.0
 10
73.98094449493854
 20
103.6900922647529
 30
0.0
 10
73.9065750497909
 20
103.6802275893844
 30
0.0
 10
73.82997310662292
 20
103.6731062640775
 30
0.0
 10
73.75251166739949
 20
103.6688156239322
 30
0.0
 10
73.67429845542746
 20
103.66739410255
 30
0.0
 10
73.59608565076977
 20
103.6688296910908
 30
0.0
 10
73.51862577987794
 20
103.6731360927055
 30
0.0
 10
73.44202585338665
 20
103.6802771932154
 30
0.0
 10
73.36765607127676
 20
103.6901556088936
 30
0.0
 10
73.29498902283537
 20
103.7028033728938
 30
0.0
 10
73.22594092833049
 20
103.7179310208368
 30
0.0
 10
73.1594102814984
 20
103.7357306387376
 30
0.0
 10
73.09773984897767
 20
103.7556227047823
 30
0.0
 10
73.0393524699993
 20
103.7780312207909
 30
0.0
 10
72.98685025502073
 20
103.8020865752433
 30
0.0
 10
72.93840243084438
 20
103.8285323480668
 30
0.0
 10
72.89657477196307
 20
103.856007472712
 30
0.0
 10
72.8594260633299
 20
103.8855750490747
 30
0.0
 10
72.8262261859737
 20
103.9190864629855
 30
0.0
 10
72.79735930020585
 20
103.9591704162308
 30
0.0
 10
72.78111128347729
 20
103.9974328916187
 30
0.0
 10
72.77527339200346
 20
104.0277016031002
 30
0.0
 10
72.77386414537158
 20
104.0488092868674
 30
0.0
 10
72.77527769654017
 20
104.0703577536354
 30
0.0
 10
72.78159393498781
 20
104.1008887502618
 30
0.0
 10
72.79956142032381
 20
104.1377947094389
 30
0.0
 10
72.81886295047207
 20
104.1647922102591
 30
0.0
 10
72.82862544643825
 20
104.1784472348924
 30
0.0
 11
74.52004663455605
 21
103.9180775628069
 31
0.0
 11
74.48772923352556
 21
103.8869708559774
 31
0.0
 11
74.45374023530465
 21
103.8579897840338
 31
0.0
 11
74.41016907938975
 21
103.828697613016
 31
0.0
 11
74.36375203399155
 21
103.8036833423792
 31
0.0
 11
74.3089244474757
 21
103.7785939001879
 31
0.0
 11
74.25281627657745
 21
103.7568083115926
 31
0.0
 11
74.18907330745924
 21
103.7361406837409
 31
0.0
 11
74.12430368991517
 21
103.7187889657643
 31
0.0
 11
74.0535061707009
 21
103.7032526726844
 31
0.0
 11
73.98211906391995
 21
103.6907805034788
 31
0.0
 11
73.90652141168518
 21
103.6807227567629
 31
0.0
 11
73.83058260650375
 21
103.6736339476895
 31
0.0
 11
73.75249357300575
 21
103.6692997581747
 31
0.0
 11
73.67429867624406
 21
103.6678702878176
 31
0.0
 11
73.59610353597265
 21
103.6693141472493
 31
0.0
 11
73.51801588127825
 21
103.6736646497517
 31
0.0
 11
73.44208100835249
 21
103.6807711979464
 31
0.0
 11
73.36648279524846
 21
103.6908409747365
 31
0.0
 11
73.29508917106983
 21
103.7033175456766
 31
0.0
 11
73.22430367429425
 21
103.7188773688291
 31
0.0
 11
73.15956741331641
 21
103.7362738572143
 31
0.0
 11
73.09579855905986
 21
103.7569219603819
 31
0.0
 11
73.03959891551611
 21
103.7786161207739
 31
0.0
 11
72.98487201244487
 21
103.8038187837322
 31
0.0
 11
72.93875320107198
 21
103.829156001652
 31
0.0
 11
72.89489448143655
 21
103.8581429026334
 31
0.0
 11
72.86004506545596
 21
103.8862039782687
 31
0.0
 11
72.82859988778375
 21
103.9182437062221
 31
0.0
 11
72.79891746946866
 21
103.9603053540785
 31
0.0
 11
72.77959578359466
 21
104.0075061167944
 31
0.0
 11
72.77569828843443
 21
104.027743057229
 31
0.0
 11
72.77433602487625
 21
104.0483508019144
 31
0.0
 11
72.77578761190615
 21
104.0703340229155
 31
0.0
 11
72.78028229921304
 21
104.091775213499
 31
0.0
 11
72.80050798207675
 21
104.1366496310629
 31
0.0
 11
72.82862544643825
 21
104.1784472348924
 31
0.0
  0
ENDBLK
  5
4F
330
4D
100
AcDbEntity
  8
0
100
AcDbBlockEnd
  0
BLOCK
  5
53
330
50
100
AcDbEntity
  8
0
100
AcDbBlockBegin
  2
Y12J-64X
 70
     0
 10
126.5783790553684
 20
119.324553696341
 30
0.0
  3
Y12J-64X
  1

  0
INSERT
  5
51
330
50
100
AcDbEntity
  8
0
100
AcDbBlockReference
  2
32-1-16
 10
207.5838464598908
 20
-131.8890861160926
 30
0.0
  0
INSERT
  5
52
330
50
100
AcDbEntity
  8
0
100
AcDbBlockReference
  2
75-2
 10
179.1249847831937
 20
56.63301065802246
 30
0.0
  0
ENDBLK
  5
54
330
50
100
AcDbEntity
  8
0
100
AcDbBlockEnd
  0
BLOCK
  5
56
330
55
100
AcDbEntity
  8
0
100
AcDbBlockBegin
  2
Y12-0-13
 70
     0
 10
251.0677307778072
 20
165.8753419286554
 30
0.0
  3
Y12-0-13
  1

  0
LINE
  5
18E
330
55
100
AcDbEntity
  8
1
  6
Continuous
 62
     2
100
AcDbLine
 10
181.5677307778072
 20
133.6883419286554
 30
0.0
 11
182.9761123110336
 21
133.6883419286554
 31
0.0
  0
LINE
  5
18F
330
55
100
AcDbEntity
  8
1
  6
Continuous
 62
     2
100
AcDbLine
 10
181.5677307778072
 20
158.0623419286555
 30
0.0
 11
180.0677307778072
 21
158.0623419286555
 31
0.0
  0
LINE
  5
190
330
55
100
AcDbEntity
  8
0
  6
Continuous
 62
     7
100
AcDbLine
 10
181.5677307778072
 20
158.0623419286555
 30
0.0
 11
181.5677307778072
 21
133.6883419286554
 31
0.0
  0
LINE
  5
191
330
55
100
AcDbEntity
  8
1
  6
Continuous
 62
     7
100
AcDbLine
 10
194.0677307778072
 20
171.3050332168404
 30
0.0
 11
194.0677307778072
 21
169.8753419286554
 31
0.0
  0
LINE
  5
192
330
55
100
AcDbEntity
  8
1
  6
Continuous
 62
     2
100
AcDbLine
 10
217.0677307778072
 20
171.3163915327841
 30
0.0
 11
217.0677307778072
 21
169.8753419286554
 31
0.0
  0
LINE
  5
193
330
55
100
AcDbEntity
  8
1
  6
Continuous
 62
     2
100
AcDbLine
 10
217.0677307778072
 20
169.8753419286554
 30
0.0
 11
218.0677307778072
 21
168.1432911210866
 31
0.0
  0
LINE
  5
194
330
55
100
AcDbEntity
  8
0
  6
Continuous
 62
     7
100
AcDbLine
 10
217.0677307778072
 20
169.8753419286554
 30
0.0
 11
195.0677307778072
 21
169.8753419286554
 31
0.0
  0
LINE
  5
195
330
55
100
AcDbEntity
  8
0
  6
Continuous
 62
     7
100
AcDbLine
 10
264.0677307778072
 20
136.3753419286554
 30
0.0
 11
264.0677307778072
 21
155.3753419286554
 31
0.0
  0
LINE
  5
196
330
55
100
AcDbEntity
  8
0
  6
Continuous
 62
     7
100
AcDbLine
 10
252.7997815853761
 20
155.3753419286554
 30
0.0
 11
252.7997815853761
 21
136.3753419286554
 31
0.0
  0
LINE
  5
197
330
55
100
AcDbEntity
  8
1
  6
Continuous
 62
     7
100
AcDbLine
 10
64.13583102122865
 20
162.5779006655486
 30
0.0
 11
64.13583102122865
 21
171.3050332168405
 31
0.0
  0
LINE
  5
198
330
55
100
AcDbEntity
  8
1
  6
Continuous
 62
     7
100
AcDbLine
 10
64.13583102122865
 20
169.8774710520818
 30
0.0
 11
88.13583102122865
 21
169.8774710520818
 31
0.0
  0
LINE
  5
199
330
55
100
AcDbEntity
  8
1
  6
Continuous
 62
     2
100
AcDbLine
 10
65.13583102122865
 20
169.8774710520818
 30
0.0
 11
65.13583102122865
 21
171.3050332168405
 31
0.0
  0
LINE
  5
19A
330
55
100
AcDbEntity
  8
1
  6
Continuous
 62
     2
100
AcDbLine
 10
87.13583102122865
 20
169.8774710520818
 30
0.0
 11
87.13583102122865
 21
171.3050332168405
 31
0.0
  0
LINE
  5
19B
330
55
100
AcDbEntity
  8
1
  6
Continuous
 62
     2
100
AcDbLine
 10
180.0677307778072
 20
133.6883419286554
 30
0.0
 11
181.5677307778072
 21
133.6883419286554
 31
0.0
  0
LINE
  5
19C
330
55
100
AcDbEntity
  8
1
  6
Continuous
 62
     2
100
AcDbLine
 10
264.0677307778072
 20
136.3753419286554
 30
0.0
 11
252.7997815853761
 21
136.3753419286554
 31
0.0
  0
LINE
  5
19D
330
55
100
AcDbEntity
  8
1
  6
Continuous
 62
     7
100
AcDbLine
 10
264.0677307778072
 20
135.3753419286554
 30
0.0
 11
264.0677307778072
 21
136.3753419286554
 31
0.0
  0
LINE
  5
19E
330
55
100
AcDbEntity
  8
1
  6
Continuous
 62
     2
100
AcDbLine
 10
264.0677307778072
 20
155.3753419286554
 30
0.0
 11
265.0677307778072
 21
155.3753419286554
 31
0.0
  0
LINE
  5
19F
330
55
100
AcDbEntity
  8
1
  6
Continuous
 62
     7
100
AcDbLine
 10
264.0677307778072
 20
156.3753419286554
 30
0.0
 11
264.0677307778072
 21
155.3753419286554
 31
0.0
  0
LINE
  5
1A0
330
55
100
AcDbEntity
  8
1
  6
Continuous
 62
     2
100
AcDbLine
 10
63.94883102122864
 20
305.2515055386111
 30
0.0
 11
63.94883102122864
 21
308.1598870718376
 31
0.0
  0
LINE
  5
1A1
330
55
100
AcDbEntity
  8
1
  6
Continuous
 62
     2
100
AcDbLine
 10
88.32283102122867
 20
308.1598870718376
 30
0.0
 11
88.32283102122867
 21
305.2515055386111
 31
0.0
  0
LINE
  5
1A2
330
55
100
AcDbEntity
  8
1
  6
Continuous
 62
     7
100
AcDbLine
 10
89.13583102122865
 20
306.7515055386112
 30
0.0
 11
82.48146269990465
 21
306.7515055386112
 31
0.0
  0
LINE
  5
1A3
330
55
100
AcDbEntity
  8
1
  6
Continuous
 62
     7
100
AcDbLine
 10
63.13583102122865
 20
305.2515055386111
 30
0.0
 11
63.13583102122865
 21
306.7515055386112
 31
0.0
  0
LINE
  5
1A4
330
55
100
AcDbEntity
  8
1
  6
Continuous
 62
     7
100
AcDbLine
 10
89.13583102122865
 20
306.7515055386112
 30
0.0
 11
89.13583102122865
 21
305.2515055386111
 31
0.0
  0
LINE
  5
1A5
330
55
100
AcDbEntity
  8
1
  6
Continuous
 62
     7
100
AcDbLine
 10
194.0677307778072
 20
161.453184645924
 30
0.0
 11
194.0677307778072
 21
168.1432911210866
 31
0.0
  0
LINE
  5
1A6
330
55
100
AcDbEntity
  8
1
  6
Continuous
 62
     7
100
AcDbLine
 10
180.0677307778072
 20
158.8753419286554
 30
0.0
 11
181.5677307778072
 21
158.8753419286554
 31
0.0
  0
LINE
  5
1A7
330
55
100
AcDbEntity
  8
1
  6
Continuous
 62
     2
100
AcDbLine
 10
182.9761123110336
 20
158.0623419286555
 30
0.0
 11
181.5677307778072
 21
158.0623419286555
 31
0.0
  0
LINE
  5
1A8
330
55
100
AcDbEntity
  8
1
  6
Continuous
 62
     7
100
AcDbLine
 10
181.5677307778072
 20
158.0623419286555
 30
0.0
 11
181.5677307778072
 21
158.8753419286554
 31
0.0
  0
LINE
  5
1A9
330
55
100
AcDbEntity
  8
1
  6
Continuous
 62
     7
100
AcDbLine
 10
181.5677307778072
 20
132.8753419286554
 30
0.0
 11
181.5677307778072
 21
133.6883419286554
 31
0.0
  0
LINE
  5
1AA
330
55
100
AcDbEntity
  8
1
  6
Continuous
 62
     7
100
AcDbLine
 10
181.5677307778072
 20
132.8753419286554
 30
0.0
 11
180.0677307778072
 21
132.8753419286554
 31
0.0
  0
LINE
  5
1AB
330
55
100
AcDbEntity
  8
1
  6
Continuous
 62
     7
100
AcDbLine
 10
230.0872540869822
 20
137.1253419286554
 30
0.0
 11
244.5800614428748
 21
137.1253419286554
 31
0.0
  0
LINE
  5
1AC
330
55
100
AcDbEntity
  8
1
  6
Continuous
 62
     7
100
AcDbLine
 10
194.0677307778072
 20
169.8753419286554
 30
0.0
 11
194.0677307778072
 21
168.1432911210866
 31
0.0
  0
LINE
  5
1AD
330
55
100
AcDbEntity
  8
1
  6
Continuous
 62
     2
100
AcDbLine
 10
194.0677307778072
 20
168.1432911210866
 30
0.0
 11
195.0677307778072
 21
169.8753419286554
 31
0.0
  0
LINE
  5
1AE
330
55
100
AcDbEntity
  8
1
  6
Continuous
 62
     2
100
AcDbLine
 10
195.0677307778072
 20
169.8753419286554
 30
0.0
 11
195.0677307778072
 21
171.3050332168404
 31
0.0
  0
LINE
  5
1AF
330
55
100
AcDbEntity
  8
1
  6
Continuous
 62
     7
100
AcDbLine
 10
194.0677307778072
 20
169.8753419286554
 30
0.0
 11
195.0677307778072
 21
169.8753419286554
 31
0.0
  0
LINE
  5
1B0
330
55
100
AcDbEntity
  8
1
  6
Continuous
 62
     7
100
AcDbLine
 10
218.0677307778072
 20
169.8753419286554
 30
0.0
 11
218.0677307778072
 21
171.3050332168404
 31
0.0
  0
LINE
  5
1B1
330
55
100
AcDbEntity
  8
1
  6
Continuous
 62
     7
100
AcDbLine
 10
217.0677307778072
 20
169.8753419286554
 30
0.0
 11
218.0677307778072
 21
169.8753419286554
 31
0.0
  0
LINE
  5
1B2
330
55
100
AcDbEntity
  8
1
  6
Continuous
 62
     7
100
AcDbLine
 10
218.0677307778072
 20
169.8753419286554
 30
0.0
 11
218.0677307778072
 21
161.2073629056889
 31
0.0
  0
LINE
  5
1B3
330
55
100
AcDbEntity
  8
1
  6
Continuous
 62
     7
100
AcDbLine
 10
244.5800614428748
 20
154.6253419286554
 30
0.0
 11
230.0872540869822
 21
154.6253419286555
 31
0.0
  0
LINE
  5
1B4
330
55
100
AcDbEntity
  8
1
  6
Continuous
 62
     7
100
AcDbLine
 10
265.0677307778072
 20
139.8753419286554
 30
0.0
 11
265.0677307778072
 21
136.3753419286554
 31
0.0
  0
LINE
  5
1B5
330
55
100
AcDbEntity
  8
1
  6
Continuous
 62
     7
100
AcDbLine
 10
248.5677307778072
 20
158.3115055457441
 30
0.0
 11
248.5677307778072
 21
123.3361123807915
 31
0.0
  0
LINE
  5
1B6
330
55
100
AcDbEntity
  8
1
  6
Continuous
 62
     7
100
AcDbLine
 10
249.0661894446738
 20
122.8753419286555
 30
0.0
 11
251.0677307778072
 21
122.8753419286555
 31
0.0
  0
LINE
  5
1B7
330
55
100
AcDbEntity
  8
1
  6
Continuous
 62
     7
100
AcDbLine
 10
251.0677307778072
 20
135.3753419286554
 30
0.0
 11
251.0677307778072
 21
122.8753419286555
 31
0.0
  0
LINE
  5
1B8
330
55
100
AcDbEntity
  8
1
  6
Continuous
 62
     7
100
AcDbLine
 10
252.7997815853761
 20
135.3753419286554
 30
0.0
 11
251.0677307778072
 21
135.3753419286554
 31
0.0
  0
LINE
  5
1B9
330
55
100
AcDbEntity
  8
1
  6
Continuous
 62
     2
100
AcDbLine
 10
252.7997815853761
 20
136.3753419286554
 30
0.0
 11
251.0677307778072
 21
135.3753419286554
 31
0.0
  0
LINE
  5
1BA
330
55
100
AcDbEntity
  8
1
  6
Continuous
 62
     7
100
AcDbLine
 10
265.0677307778072
 20
139.8753419286554
 30
0.0
 11
265.0677307778072
 21
155.3753419286554
 31
0.0
  0
LINE
  5
1BB
330
55
100
AcDbEntity
  8
1
  6
Continuous
 62
     7
100
AcDbLine
 10
264.0677307778072
 20
135.3753419286554
 30
0.0
 11
265.0677307778072
 21
136.3753419286554
 31
0.0
  0
LINE
  5
1BC
330
55
100
AcDbEntity
  8
1
  6
Continuous
 62
     7
100
AcDbLine
 10
252.7997815853761
 20
135.3753419286554
 30
0.0
 11
252.7997815853761
 21
136.3753419286554
 31
0.0
  0
LINE
  5
1BD
330
55
100
AcDbEntity
  8
1
  6
Continuous
 62
     7
100
AcDbLine
 10
264.0677307778072
 20
135.3753419286554
 30
0.0
 11
252.7997815853761
 21
135.3753419286554
 31
0.0
  0
LINE
  5
1BE
330
55
100
AcDbEntity
  8
1
  6
Continuous
 62
     2
100
AcDbLine
 10
265.0677307778072
 20
136.3753419286554
 30
0.0
 11
264.0677307778072
 21
136.3753419286554
 31
0.0
  0
LINE
  5
1BF
330
55
100
AcDbEntity
  8
1
  6
Continuous
 62
     7
100
AcDbLine
 10
252.7997815853761
 20
156.3753419286554
 30
0.0
 11
264.0677307778072
 21
156.3753419286554
 31
0.0
  0
LINE
  5
1C0
330
55
100
AcDbEntity
  8
1
  6
Continuous
 62
     7
100
AcDbLine
 10
252.7997815853761
 20
155.3753419286554
 30
0.0
 11
252.7997815853761
 21
156.3753419286554
 31
0.0
  0
LINE
  5
1C1
330
55
100
AcDbEntity
  8
1
  6
Continuous
 62
     7
100
AcDbLine
 10
265.0677307778072
 20
155.3753419286554
 30
0.0
 11
264.0677307778072
 21
156.3753419286554
 31
0.0
  0
LINE
  5
1C2
330
55
100
AcDbEntity
  8
1
  6
Continuous
 62
     2
100
AcDbLine
 10
252.7997815853761
 20
155.3753419286554
 30
0.0
 11
264.0677307778072
 21
155.3753419286554
 31
0.0
  0
LINE
  5
1C3
330
55
100
AcDbEntity
  8
1
  6
Continuous
 62
     2
100
AcDbLine
 10
251.0677307778072
 20
156.3753419286554
 30
0.0
 11
252.7997815853761
 21
155.3753419286554
 31
0.0
  0
LINE
  5
1C4
330
55
100
AcDbEntity
  8
1
  6
Continuous
 62
     7
100
AcDbLine
 10
251.0677307778072
 20
156.3753419286554
 30
0.0
 11
252.7997815853761
 21
156.3753419286554
 31
0.0
  0
LINE
  5
1C5
330
55
100
AcDbEntity
  8
1
  6
Continuous
 62
     7
100
AcDbLine
 10
251.0677307778072
 20
168.8753419286554
 30
0.0
 11
251.0677307778072
 21
135.3753419286554
 31
0.0
  0
LINE
  5
1C6
330
55
100
AcDbEntity
  8
1
  6
Continuous
 62
     7
100
AcDbLine
 10
251.0677307778072
 20
168.8753419286554
 30
0.0
 11
249.0661894446738
 21
168.8753419286554
 31
0.0
  0
LINE
  5
1C7
330
55
100
AcDbEntity
  8
1
  6
Continuous
 62
     7
100
AcDbLine
 10
248.5677307778072
 20
168.4145714765194
 30
0.0
 11
248.5677307778072
 21
158.3115055457441
 31
0.0
  0
LINE
  5
1C8
330
55
100
AcDbEntity
  8
1
  6
Continuous
 62
     2
100
AcDbLine
 10
85.63583102122865
 20
390.2515055386112
 30
0.0
 11
85.63583102122865
 21
389.2515055386112
 31
0.0
  0
LINE
  5
1C9
330
55
100
AcDbEntity
  8
1
  6
Continuous
 62
     2
100
AcDbLine
 10
85.63583102122865
 20
389.2515055386112
 30
0.0
 11
85.63583102122865
 21
377.9835563461801
 31
0.0
  0
LINE
  5
1CA
330
55
100
AcDbEntity
  8
1
  6
Continuous
 62
     2
100
AcDbLine
 10
85.63583102122865
 20
377.9835563461801
 30
0.0
 11
86.63583102122865
 21
376.2515055386112
 31
0.0
  0
LINE
  5
1CB
330
55
100
AcDbEntity
  8
1
  6
Continuous
 62
     7
100
AcDbLine
 10
86.63583102122865
 20
376.2515055386112
 30
0.0
 11
99.13583102122865
 21
376.2515055386112
 31
0.0
  0
LINE
  5
1CC
330
55
100
AcDbEntity
  8
1
  6
Continuous
 62
     7
100
AcDbLine
 10
99.13583102122865
 20
374.2137007844403
 30
0.0
 11
99.13583102122865
 21
376.2515055386112
 31
0.0
  0
LINE
  5
1CD
330
55
100
AcDbEntity
  8
1
  6
Continuous
 62
     7
100
AcDbLine
 10
53.13583102122865
 20
376.2515055386112
 30
0.0
 11
53.13583102122865
 21
374.2137007844403
 31
0.0
  0
LINE
  5
1CE
330
55
100
AcDbEntity
  8
1
  6
Continuous
 62
     7
100
AcDbLine
 10
53.13583102122865
 20
376.2515055386112
 30
0.0
 11
65.63583102122865
 21
376.2515055386112
 31
0.0
  0
LINE
  5
1CF
330
55
100
AcDbEntity
  8
1
  6
Continuous
 62
     2
100
AcDbLine
 10
65.63583102122865
 20
376.2515055386112
 30
0.0
 11
66.63583102122865
 21
377.9835563461801
 31
0.0
  0
LINE
  5
1D0
330
55
100
AcDbEntity
  8
1
  6
Continuous
 62
     2
100
AcDbLine
 10
66.63583102122865
 20
377.9835563461801
 30
0.0
 11
66.63583102122865
 21
389.2515055386112
 31
0.0
  0
LINE
  5
1D1
330
55
100
AcDbEntity
  8
1
  6
Continuous
 62
     2
100
AcDbLine
 10
66.63583102122865
 20
389.2515055386112
 30
0.0
 11
66.63583102122865
 21
390.2515055386112
 31
0.0
  0
LINE
  5
1D2
330
55
100
AcDbEntity
  8
1
  6
Continuous
 62
     7
100
AcDbLine
 10
65.63583102122865
 20
376.2515055386112
 30
0.0
 11
65.63583102122865
 21
377.9835563461801
 31
0.0
  0
LINE
  5
1D3
330
55
100
AcDbEntity
  8
1
  6
Continuous
 62
     7
100
AcDbLine
 10
66.63583102122865
 20
390.2515055386112
 30
0.0
 11
65.63583102122865
 21
389.2515055386112
 31
0.0
  0
LINE
  5
1D4
330
55
100
AcDbEntity
  8
1
  6
Continuous
 62
     7
100
AcDbLine
 10
66.63583102122865
 20
377.9835563461801
 30
0.0
 11
65.63583102122865
 21
377.9835563461801
 31
0.0
  0
LINE
  5
1D5
330
55
100
AcDbEntity
  8
1
  6
Continuous
 62
     7
100
AcDbLine
 10
65.63583102122865
 20
377.9835563461801
 30
0.0
 11
65.63583102122865
 21
389.2515055386112
 31
0.0
  0
LINE
  5
1D6
330
55
100
AcDbEntity
  8
1
  6
Continuous
 62
     7
100
AcDbLine
 10
65.63583102122865
 20
389.2515055386112
 30
0.0
 11
66.63583102122865
 21
389.2515055386112
 31
0.0
  0
LINE
  5
1D7
330
55
100
AcDbEntity
  8
1
  6
Continuous
 62
     7
100
AcDbLine
 10
85.63583102122865
 20
389.2515055386112
 30
0.0
 11
86.63583102122865
 21
389.2515055386112
 31
0.0
  0
LINE
  5
1D8
330
55
100
AcDbEntity
  8
1
  6
Continuous
 62
     7
100
AcDbLine
 10
86.63583102122865
 20
389.2515055386112
 30
0.0
 11
86.63583102122865
 21
377.9835563461801
 31
0.0
  0
LINE
  5
1D9
330
55
100
AcDbEntity
  8
1
  6
Continuous
 62
     7
100
AcDbLine
 10
86.63583102122865
 20
377.9835563461801
 30
0.0
 11
85.63583102122865
 21
377.9835563461801
 31
0.0
  0
LINE
  5
1DA
330
55
100
AcDbEntity
  8
1
  6
Continuous
 62
     7
100
AcDbLine
 10
86.63583102122865
 20
389.2515055386112
 30
0.0
 11
85.63583102122865
 21
390.2515055386112
 31
0.0
  0
LINE
  5
1DB
330
55
100
AcDbEntity
  8
1
  6
Continuous
 62
     7
100
AcDbLine
 10
85.63583102122865
 20
390.2515055386112
 30
0.0
 11
66.63583102122865
 21
390.2515055386112
 31
0.0
  0
LINE
  5
1DC
330
55
100
AcDbEntity
  8
1
  6
Continuous
 62
     7
100
AcDbLine
 10
86.63583102122865
 20
377.9835563461801
 30
0.0
 11
86.63583102122865
 21
376.2515055386112
 31
0.0
  0
LINE
  5
1DD
330
55
100
AcDbEntity
  8
1
  6
Continuous
 62
     7
100
AcDbLine
 10
65.63583102122865
 20
376.2515055386112
 30
0.0
 11
86.63583102122865
 21
376.2515055386112
 31
0.0
  0
LINE
  5
1DE
330
55
100
AcDbEntity
  8
1
  6
Continuous
 62
     7
100
AcDbLine
 10
66.63583102122865
 20
377.9835563461801
 30
0.0
 11
85.63583102122865
 21
377.9835563461801
 31
0.0
  0
LINE
  5
1DF
330
55
100
AcDbEntity
  8
1
  6
Continuous
 62
     7
100
AcDbLine
 10
66.63583102122865
 20
389.2515055386112
 30
0.0
 11
85.63583102122865
 21
389.2515055386112
 31
0.0
  0
LINE
  5
1E0
330
55
100
AcDbEntity
  8
1
  6
Continuous
 62
     7
100
AcDbLine
 10
67.38583102122865
 20
369.7152421175738
 30
0.0
 11
67.38583102122865
 21
355.2710288477862
 31
0.0
  0
LINE
  5
1E1
330
55
100
AcDbEntity
  8
1
  6
Continuous
 62
     7
100
AcDbLine
 10
98.67506056909255
 20
373.7152421175738
 30
0.0
 11
53.59660147336476
 21
373.7152421175738
 31
0.0
  0
LINE
  5
1E2
330
55
100
AcDbEntity
  8
1
  6
Continuous
 62
     7
100
AcDbLine
 10
84.88583102122865
 20
369.7152421175738
 30
0.0
 11
84.88583102122865
 21
355.2710288477862
 31
0.0
  0
LINE
  5
1E3
330
55
100
AcDbEntity
  8
1
  6
Continuous
 62
     7
100
AcDbLine
 10
69.79019934255254
 20
306.7515055386112
 30
0.0
 11
63.13583102122865
 21
306.7515055386112
 31
0.0
  0
LINE
  5
1E4
330
55
100
AcDbEntity
  8
1
  6
Continuous
 62
     2
100
AcDbLine
 10
64.13583102122865
 20
168.1454202445129
 30
0.0
 11
65.13583102122865
 21
169.8774710520818
 31
0.0
  0
LINE
  5
1E5
330
55
100
AcDbEntity
  8
1
  6
Continuous
 62
     2
100
AcDbLine
 10
87.13583102122865
 20
169.8774710520818
 30
0.0
 11
88.13583102122865
 21
168.1454202445129
 31
0.0
  0
LINE
  5
1E6
330
55
100
AcDbEntity
  8
1
  6
Continuous
 62
     7
100
AcDbLine
 10
88.13583102122865
 20
171.3050332168405
 30
0.0
 11
88.13583102122865
 21
162.5779006655486
 31
0.0
  0
ARC
  5
1E7
330
55
100
AcDbEntity
  8
1
  6
Continuous
 62
     7
100
AcDbCircle
 10
49.13583102122865
 20
331.2515055386112
 30
0.0
 40
40.00000000000004
100
AcDbArc
 50
342.8522708431301
 51
348.78456002735
  0
ARC
  5
1E8
330
55
100
AcDbEntity
  8
1
  6
Continuous
 62
     7
100
AcDbCircle
 10
103.1358310212287
 20
331.2515055386112
 30
0.0
 40
39.99999999999992
100
AcDbArc
 50
191.2154399726499
 51
197.1477291568699
  0
ARC
  5
1E9
330
55
100
AcDbEntity
  8
1
  6
Continuous
 62
     7
100
AcDbCircle
 10
50.47052489877976
 20
315.0015055386112
 30
0.0
 40
15.11530612244887
100
AcDbArc
 50
333.087548191808
 51
17.14772915687034
  0
ARC
  5
1EA
330
55
100
AcDbEntity
  8
1
  6
Continuous
 62
     7
100
AcDbCircle
 10
50.47052489877976
 20
315.0015055386112
 30
0.0
 40
15.1153061224489
100
AcDbArc
 50
326.920351997542
 51
333.087548191808
  0
ARC
  5
1EB
330
55
100
AcDbEntity
  8
1
  6
Continuous
 62
     7
100
AcDbCircle
 10
101.8011371436776
 20
315.0015055386112
 30
0.0
 40
15.11530612244891
100
AcDbArc
 50
206.9124518081919
 51
213.0796480024579
  0
ARC
  5
1EC
330
55
100
AcDbEntity
  8
1
  6
Continuous
 62
     7
100
AcDbCircle
 10
101.8011371436776
 20
315.0015055386112
 30
0.0
 40
15.11530612244891
100
AcDbArc
 50
162.8522708431296
 51
206.9124518081919
  0
ARC
  5
1ED
330
55
100
AcDbEntity
  8
1
  6
Continuous
 62
     7
100
AcDbCircle
 10
189.8177307778072
 20
171.5406480511044
 30
0.0
 40
15.11530612244889
100
AcDbArc
 50
243.0875481918079
 51
265.7478988069223
  0
ARC
  5
1EE
330
55
100
AcDbEntity
  8
1
  6
Continuous
 62
     7
100
AcDbCircle
 10
189.0677307778072
 20
161.453184645924
 30
0.0
 40
4.999999999999965
100
AcDbArc
 50
265.7478988069224
 51
0.0
  0
ARC
  5
1EF
330
55
100
AcDbEntity
  8
1
  6
Continuous
 62
     7
100
AcDbCircle
 10
189.8177307778072
 20
171.5406480511044
 30
0.0
 40
15.115306122449
100
AcDbArc
 50
236.9203519975422
 51
243.0875481918079
  0
ARC
  5
1F0
330
55
100
AcDbEntity
  8
1
  6
Continuous
 62
     7
100
AcDbCircle
 10
189.8177307778072
 20
120.2100358062065
 30
0.0
 40
15.11530612244896
100
AcDbArc
 50
72.85227084312976
 51
116.912451808192
  0
ARC
  5
1F1
330
55
100
AcDbEntity
  8
1
  6
Continuous
 62
     7
100
AcDbCircle
 10
189.8177307778072
 20
120.2100358062065
 30
0.0
 40
15.1153061224489
100
AcDbArc
 50
116.912451808192
 51
123.0796480024581
  0
ARC
  5
1F2
330
55
100
AcDbEntity
  8
1
  6
Continuous
 62
     7
100
AcDbCircle
 10
206.0677307778072
 20
172.8753419286554
 30
0.0
 40
39.99999999999993
100
AcDbArc
 50
252.85227084313
 51
290.0680546208193
  0
ARC
  5
1F3
330
55
100
AcDbEntity
  8
1
  6
Continuous
 62
     7
100
AcDbCircle
 10
63.38583102122865
 20
369.7152421175738
 30
0.0
 40
4.000000000000007
100
AcDbArc
 50
0.0
 51
90.0
  0
ARC
  5
1F4
330
55
100
AcDbEntity
  8
1
  6
Continuous
 62
     7
100
AcDbCircle
 10
88.88583102122865
 20
369.7152421175738
 30
0.0
 40
4.0
100
AcDbArc
 50
90.0
 51
180.0
  0
ARC
  5
1F5
330
55
100
AcDbEntity
  8
0
  6
Continuous
 62
     7
100
AcDbCircle
 10
135.1317424144564
 20
159.7941408760663
 30
0.0
 40
47.0782859314743
100
AcDbArc
 50
176.6100979388006
 51
186.873642659634
  0
ARC
  5
1F6
330
55
100
AcDbEntity
  8
0
  6
Continuous
 62
     7
100
AcDbCircle
 10
42.63991962800054
 20
145.8753419286554
 30
0.0
 40
46.49591139322808
100
AcDbArc
 50
7.66703232726326
 51
10.26354472083356
  0
ARC
  5
1F7
330
55
100
AcDbEntity
  8
0
  6
Continuous
 62
     7
100
AcDbCircle
 10
109.6317424144568
 20
145.8753419286554
 30
0.0
 40
46.49591139322815
100
AcDbArc
 50
169.7364552791664
 51
172.3329676727367
  0
ARC
  5
1F8
330
55
100
AcDbEntity
  8
0
  6
Continuous
 62
     7
100
AcDbCircle
 10
17.13991962800074
 20
159.7941408760663
 30
0.0
 40
47.07828593147446
100
AcDbArc
 50
353.1263573403659
 51
3.38990206119939
  0
ARC
  5
1F9
330
55
100
AcDbEntity
  8
1
  6
Continuous
 62
     7
100
AcDbCircle
 10
76.13583102122865
 20
145.8753419286554
 30
0.0
 40
22.99999999999995
100
AcDbArc
 50
289.2751512150713
 51
0.0
  0
ARC
  5
1FA
330
55
100
AcDbEntity
  8
1
  6
Continuous
 62
     7
100
AcDbCircle
 10
76.13583102122865
 20
145.8753419286554
 30
0.0
 40
23.00000000000012
100
AcDbArc
 50
121.4489813893794
 51
250.7248487849286
  0
ARC
  5
1FB
330
55
100
AcDbEntity
  8
1
  6
Continuous
 62
     7
100
AcDbCircle
 10
76.13583102122865
 20
145.8753419286554
 30
0.0
 40
23.0
100
AcDbArc
 50
0.0
 51
58.55101861062062
  0
ARC
  5
1FC
330
55
100
AcDbEntity
  8
1
  6
Continuous
 62
     7
100
AcDbCircle
 10
249.0661894446738
 20
123.3753419286554
 30
0.0
 40
0.5000000000000167
100
AcDbArc
 50
184.4999999999969
 51
270.0
  0
ARC
  5
1FD
330
55
100
AcDbEntity
  8
1
  6
Continuous
 62
     7
100
AcDbCircle
 10
244.5800614428748
 20
133.1253419286554
 30
0.0
 40
3.999999999999896
100
AcDbArc
 50
4.50000000000047
 51
90.0
  0
ARC
  5
1FE
330
55
100
AcDbEntity
  8
1
  6
Continuous
 62
     7
100
AcDbCircle
 10
244.5800614428748
 20
158.6253419286554
 30
0.0
 40
4.0
100
AcDbArc
 50
270.0
 51
355.5000000000011
  0
ARC
  5
1FF
330
55
100
AcDbEntity
  8
1
  6
Continuous
 62
     7
100
AcDbCircle
 10
249.0661894446738
 20
168.3753419286554
 30
0.0
 40
0.5
100
AcDbArc
 50
90.0
 51
175.4999999999901
  0
ARC
  5
200
330
55
100
AcDbEntity
  8
1
  6
Continuous
 62
     7
100
AcDbCircle
 10
98.63583102122865
 20
374.2137007844403
 30
0.0
 40
0.4999999999999316
100
AcDbArc
 50
274.4999999999977
 51
0.0
  0
ARC
  5
201
330
55
100
AcDbEntity
  8
1
  6
Continuous
 62
     7
100
AcDbCircle
 10
53.63583102122865
 20
374.2137007844403
 30
0.0
 40
0.5
100
AcDbArc
 50
180.0
 51
265.5000000000031
  0
ARC
  5
202
330
55
100
AcDbEntity
  8
1
  6
Continuous
 62
     7
100
AcDbCircle
 10
37.38583102122865
 20
355.2710288477863
 30
0.0
 40
30.00000000000002
100
AcDbArc
 50
343.6603718092953
 51
359.9999999999999
  0
ARC
  5
203
330
55
100
AcDbEntity
  8
1
  6
Continuous
 62
     7
100
AcDbCircle
 10
230.0872540869822
 20
107.1253419286554
 30
0.0
 40
29.99999999999999
100
AcDbArc
 50
90.0
 51
110.068054620819
  0
ARC
  5
204
330
55
100
AcDbEntity
  8
1
  6
Continuous
 62
     7
100
AcDbCircle
 10
230.0872540869822
 20
184.6253419286554
 30
0.0
 40
29.9999999999999
100
AcDbArc
 50
252.4872952996483
 51
270.0
  0
ARC
  5
205
330
55
100
AcDbEntity
  8
1
  6
Continuous
 62
     7
100
AcDbCircle
 10
224.0677307778072
 20
161.2073629056889
 30
0.0
 40
6.0
100
AcDbArc
 50
180.0
 51
239.9118061840574
  0
ARC
  5
206
330
55
100
AcDbEntity
  8
1
  6
Continuous
 62
     7
100
AcDbCircle
 10
114.8858310212287
 20
355.2710288477862
 30
0.0
 40
30.00000000000004
100
AcDbArc
 50
180.0
 51
196.3396281907045
  0
ENDBLK
  5
57
330
55
100
AcDbEntity
  8
0
100
AcDbBlockEnd
  0
BLOCK
  5
59
330
58
100
AcDbEntity
  8
0
100
AcDbBlockBegin
  2
62-1A
 70
     0
 10
-146.7483480989493
 20
52.90590852880975
 30
0.0
  3
62-1A
  1

  0
LINE
  5
207
330
58
100
AcDbEntity
  8
1
  6
Continuous
 62
     7
100
AcDbLine
 10
68.54341506279664
 20
256.3315055386112
 30
0.0
 11
68.54341506279664
 21
295.2515055386111
 31
0.0
  0
LINE
  5
208
330
58
100
AcDbEntity
  8
1
  6
Continuous
 62
     7
100
AcDbLine
 10
83.72824697966067
 20
256.3315055386112
 30
0.0
 11
83.72824697966067
 21
295.2515055386111
 31
0.0
  0
LINE
  5
209
330
58
100
AcDbEntity
  8
1
  6
Continuous
 62
     7
100
AcDbLine
 10
68.54341506279664
 20
110.9900253903437
 30
0.0
 11
68.54341506279664
 21
145.8753419286554
 31
0.0
  0
LINE
  5
20A
330
58
100
AcDbEntity
  8
1
  6
Continuous
 62
     7
100
AcDbLine
 10
83.72824697966067
 20
110.9900253903437
 30
0.0
 11
83.72824697966067
 21
145.8753419286554
 31
0.0
  0
LINE
  5
20B
330
58
100
AcDbEntity
  8
1
  6
Continuous
 62
     7
100
AcDbLine
 10
166.8031578149881
 20
137.8753419286554
 30
0.0
 11
170.0677307778072
 21
137.8753419286554
 31
0.0
  0
LINE
  5
20C
330
58
100
AcDbEntity
  8
0
  6
Continuous
 62
     7
100
AcDbLine
 10
146.8643865001818
 20
125.1729436869508
 30
0.0
 11
138.40229726956
 21
107.025934769913
 31
0.0
  0
LINE
  5
20D
330
58
100
AcDbEntity
  8
1
  6
Continuous
 62
     7
100
AcDbLine
 10
121.7882813682701
 20
109.2562880225813
 30
0.0
 11
136.2892059608565
 21
102.4943958347298
 31
0.0
  0
LINE
  5
20E
330
58
100
AcDbEntity
  8
0
  6
Continuous
 62
     7
100
AcDbLine
 10
132.3634619075954
 20
131.934835874802
 30
0.0
 11
123.9013726769736
 21
113.7878269577643
 31
0.0
  0
LINE
  5
20F
330
58
100
AcDbEntity
  8
1
  6
Continuous
 62
     7
100
AcDbLine
 10
166.8031578149881
 20
153.8753419286554
 30
0.0
 11
170.0677307778072
 21
153.8753419286554
 31
0.0
  0
LINE
  5
210
330
58
100
AcDbEntity
  8
1
  6
Continuous
 62
     7
100
AcDbLine
 10
138.40229726956
 20
107.025934769913
 30
0.0
 11
123.9013726769736
 21
113.7878269577643
 31
0.0
  0
ARC
  5
211
330
58
100
AcDbEntity
  8
1
  6
Continuous
 62
     7
100
AcDbCircle
 10
76.13583102122865
 20
145.8753419286554
 30
0.0
 40
7.592415958432014
100
AcDbArc
 50
0.0
 51
180.0
  0
ARC
  5
212
330
58
100
AcDbEntity
  8
1
  6
Continuous
 62
     7
100
AcDbCircle
 10
75.01043359054935
 20
108.4326836594996
 30
0.0
 40
7.074602569320723
100
AcDbArc
 50
156.0807198663521
 51
208.3723264163737
  0
ARC
  5
213
330
58
100
AcDbEntity
  8
1
  6
Continuous
 62
     7
100
AcDbCircle
 10
77.26122845190795
 20
108.4326836594996
 30
0.0
 40
7.074602569320692
100
AcDbArc
 50
331.6276735836262
 51
23.91928013364714
  0
ARC
  5
214
330
58
100
AcDbEntity
  8
0
  6
Continuous
 62
     7
100
AcDbCircle
 10
166.8031578149881
 20
115.8753419286554
 30
0.0
 40
37.99999999999999
100
AcDbArc
 50
90.0
 51
155.0
  0
ARC
  5
215
330
58
100
AcDbEntity
  8
0
  6
Continuous
 62
     7
100
AcDbCircle
 10
166.8031578149881
 20
115.8753419286554
 30
0.0
 40
21.99999999999999
100
AcDbArc
 50
90.0
 51
155.0
  0
ARC
  5
216
330
58
100
AcDbEntity
  8
0
  6
Continuous
 62
     7
100
AcDbCircle
 10
123.2753232214624
 20
111.3213138158467
 30
0.0
 40
15.72500000000204
100
AcDbArc
 50
325.8521574801993
 51
335.0000000000003
  0
ARC
  5
217
330
58
100
AcDbEntity
  8
0
  6
Continuous
 62
     7
100
AcDbCircle
 10
123.2753232214624
 20
111.3213138158467
 30
0.0
 40
15.72500000000204
100
AcDbArc
 50
335.0000000000003
 51
344.1478425198002
  0
ARC
  5
218
330
58
100
AcDbEntity
  8
0
  6
Continuous
 62
     7
100
AcDbCircle
 10
136.9152554163676
 20
104.9609089766473
 30
0.0
 40
15.72500000000197
100
AcDbArc
 50
154.9999999999998
 51
164.147842519799
  0
ARC
  5
219
330
58
100
AcDbEntity
  8
0
  6
Continuous
 62
     7
100
AcDbCircle
 10
136.9152554163676
 20
104.9609089766473
 30
0.0
 40
15.72500000000201
100
AcDbArc
 50
145.8521574801988
 51
154.9999999999998
  0
ARC
  5
21A
330
58
100
AcDbEntity
  8
1
  6
Continuous
 62
     7
100
AcDbCircle
 10
76.13583102122865
 20
256.6820076134975
 30
0.0
 40
7.600502074886414
100
AcDbArc
 50
182.6431693898927
 51
357.3568306101073
  0
SPLINE
  5
21B
330
58
100
AcDbEntity
  8
1
  6
Continuous
 62
     7
100
AcDbSpline
210
0.0
220
0.0
230
1.0
 70
     8
 71
     3
 72
    33
 73
    29
 74
    27
 42
0.000000001
 43
0.0000000001
 44
0.00000001
 40
0.0
 40
0.0
 40
0.0
 40
0.0
 40
0.2870784893954217
 40
0.5699261059353755
 40
0.8888087431487917
 40
1.212179210377056
 40
1.591137264253519
 40
1.968155542866412
 40
2.411410441170531
 40
2.855565247711976
 40
3.927988818640809
 40
5.00223641157148
 40
6.25731481229204
 40
7.511290368990914
 40
8.171063159834665
 40
8.830825268752234
 40
10.13328149336229
 40
11.43667449669893
 40
12.61401952536047
 40
13.78983874935547
 40
14.29814947440319
 40
14.80630127004048
 40
15.48777326894442
 40
16.17206483598568
 40
16.49538740142722
 40
16.81337677956682
 40
17.22934564013779
 40
17.65606988184208
 40
17.65606988184208
 40
17.65606988184208
 40
17.65606988184208
 10
68.54341506279664
 20
110.9900253903437
 30
0.0
 10
68.55566832554622
 20
111.0849135785864
 30
0.0
 10
68.57999428125721
 20
111.2732915202852
 30
0.0
 10
68.65125978780243
 20
111.562754867212
 30
0.0
 10
68.79773221061149
 20
111.8375278690676
 30
0.0
 10
69.00840313923705
 20
112.105922947008
 30
0.0
 10
69.26266047547159
 20
112.3616860780232
 30
0.0
 10
69.57453492246681
 20
112.6127767963394
 30
0.0
 10
69.92741908342761
 20
112.8444187859108
 30
0.0
 10
70.50172018984917
 20
113.1567819633962
 30
0.0
 10
71.30251122149487
 20
113.487793881903
 30
0.0
 10
72.39436762289326
 20
113.7992042719567
 30
0.0
 10
73.56833949893178
 20
114.0273163528326
 30
0.0
 10
74.61934372937819
 20
114.1431422111679
 30
0.0
 10
75.47602833528157
 20
114.1905730784002
 30
0.0
 10
76.35004281329184
 20
114.2066464897261
 30
0.0
 10
77.43895277752907
 20
114.167964141268
 30
0.0
 10
78.69341653366484
 20
114.0272764050135
 30
0.0
 10
79.89188668160139
 20
113.7985085021514
 30
0.0
 10
80.80973088237802
 20
113.5317561238727
 30
0.0
 10
81.49236678479815
 20
113.2699655230295
 30
0.0
 10
82.00735160194213
 20
113.0342402193164
 30
0.0
 10
82.55132814166672
 20
112.7242829921417
 30
0.0
 10
82.99799542242715
 20
112.3770410234196
 30
0.0
 10
83.3088738546205
 20
112.0622236824928
 30
0.0
 10
83.51676553895119
 20
111.7740285031186
 30
0.0
 10
83.64824716757043
 20
111.4053624075416
 30
0.0
 10
83.70135444240611
 20
111.1296440710932
 30
0.0
 10
83.72824697966067
 20
110.9900253903437
 30
0.0
 11
68.54341506279664
 21
110.9900253903437
 31
0.0
 11
68.58559728988268
 21
111.2739879265199
 31
0.0
 11
68.65876092127115
 21
111.5472091927121
 31
0.0
 11
68.80461563771522
 21
111.8307802332191
 31
0.0
 11
69.00129377115294
 21
112.0874632471942
 31
0.0
 11
69.26777082661037
 21
112.3569056060014
 31
0.0
 11
69.56060592512816
 21
112.5943722077261
 31
0.0
 11
69.93025643856984
 21
112.8389808791985
 31
0.0
 11
70.31970296642396
 21
113.0525339020506
 31
0.0
 11
71.30831325717833
 21
113.4681563336802
 31
0.0
 11
72.33962304201265
 21
113.7688355910115
 31
0.0
 11
73.57124150458765
 21
114.0103676807963
 31
0.0
 11
74.81742182595755
 21
114.1499717589011
 31
0.0
 11
75.47618178527979
 21
114.186515569143
 31
0.0
 11
76.13583102122865
 21
114.1987190251086
 31
0.0
 11
77.43743021447861
 21
114.1514776136148
 31
0.0
 11
78.73259021551965
 21
114.005211121295
 31
0.0
 11
79.88826336857497
 21
113.7803536659727
 31
0.0
 11
81.01614192689505
 21
113.4480273189266
 31
0.0
 11
81.49036218729299
 21
113.2650110982334
 31
0.0
 11
81.95195907603335
 21
113.0525339020506
 31
0.0
 11
82.54172130462938
 21
112.7110890348027
 31
0.0
 11
83.07954467135275
 21
112.2880039695608
 31
0.0
 11
83.30394832708446
 21
112.0552369635744
 31
0.0
 11
83.48601698698997
 21
111.7945297605801
 31
0.0
 11
83.63670919891672
 21
111.4068160054561
 31
0.0
 11
83.72824697966067
 21
110.9900253903437
 31
0.0
  0
SPLINE
  5
21C
330
58
100
AcDbEntity
  8
1
  6
Continuous
 62
     7
100
AcDbSpline
210
0.0
220
0.0
230
1.0
 70
    11
 71
     3
 72
    79
 73
    75
 74
    73
 42
0.000000001
 43
0.0000000001
 44
0.00000001
 40
0.0
 40
0.0
 40
0.0
 40
0.0
 40
0.2855726084442765
 40
0.571726009042157
 40
0.8923749886569987
 40
1.213437199824059
 40
1.591463198323406
 40
1.969508218243984
 40
2.413184301792514
 40
2.856910861124613
 40
3.365133719223801
 40
3.873369850375324
 40
4.438831337852739
 40
5.004307077531912
 40
5.615706132905485
 40
6.227112309965614
 40
6.870493293562361
 40
7.513878598420973
 40
8.17364702462185
 40
8.833416719800395
 40
9.493186414985328
 40
10.1529548412051
 40
10.7963401460932
 40
11.43972112972832
 40
12.05112730683019
 40
12.66252636224664
 40
13.22800210196085
 40
13.7934635894612
 40
14.30169972061274
 40
14.80992257867842
 40
15.25364913793497
 40
15.69732522133922
 40
16.07537024104693
 40
16.45339623920338
 40
16.7744584498965
 40
17.09510742871105
 40
17.38126082725689
 40
17.6668334403406
 40
17.95240605342433
 40
18.23855945197016
 40
18.55920843078466
 40
18.88027064147775
 40
19.25829663963421
 40
19.63634165934191
 40
20.08001774274617
 40
20.52374430200276
 40
21.03196716006842
 40
21.54020329121998
 40
22.10566477872031
 40
22.67114051843451
 40
23.28253957385098
 40
23.89394575095286
 40
24.53732673458798
 40
25.18071203947608
 40
25.84048046569586
 40
26.50025016088078
 40
27.16001985605933
 40
27.81978828226021
 40
28.46317358711882
 40
29.10655457071557
 40
29.71796074777569
 40
30.32935980314929
 40
30.89483554282844
 40
31.46029703030585
 40
31.96853316145739
 40
32.47675601955656
 40
32.92048257888868
 40
33.36415866243725
 40
33.7422036823578
 40
34.12022968085716
 40
34.4412918920242
 40
34.76194087163898
 40
35.04809427223681
 40
35.33366688068114
 40
35.33366688068114
 40
35.33366688068114
 40
35.33366688068114
 10
68.54341506279664
 20
105.8753419286555
 30
0.0
 10
68.54956107918953
 20
105.7800214165782
 30
0.0
 10
68.561865599401
 20
105.5891865301632
 30
0.0
 10
68.65527721952901
 20
105.3038407400505
 30
0.0
 10
68.80118609931455
 20
105.0297486830707
 30
0.0
 10
69.00803154504722
 20
104.7584928642652
 30
0.0
 10
69.26170670173227
 20
104.5030780678735
 30
0.0
 10
69.57455390496456
 20
104.252928488612
 30
0.0
 10
69.92756868868554
 20
104.0209658817178
 30
0.0
 10
70.33646403852251
 20
103.7982639368229
 30
0.0
 10
70.77934898453906
 20
103.5954597605179
 30
0.0
 10
71.27188065372421
 20
103.4063637110602
 30
0.0
 10
71.79216265663396
 20
103.2386036117364
 30
0.0
 10
72.35344138909336
 20
103.0885565555924
 30
0.0
 10
72.93594090536484
 20
102.9610134461857
 30
0.0
 10
73.54896991125034
 20
102.8543738908251
 30
0.0
 10
74.17636354558688
 20
102.7711071557608
 30
0.0
 10
74.82256751289135
 20
102.7109378477529
 30
0.0
 10
75.4760234728673
 20
102.6746791577171
 30
0.0
 10
76.13583101123456
 20
102.6626328578246
 30
0.0
 10
76.79563854959223
 20
102.6746791579747
 30
0.0
 10
77.44909450960583
 20
102.7109378482607
 30
0.0
 10
78.09529847679767
 20
102.7711071565056
 30
0.0
 10
78.72269211157774
 20
102.8543738917847
 30
0.0
 10
79.33572111592404
 20
102.9610134473337
 30
0.0
 10
79.91822063777282
 20
103.0885565568921
 30
0.0
 10
80.47949935093837
 20
103.2386036131464
 30
0.0
 10
80.99978142227258
 20
103.4063637125302
 30
0.0
 10
81.49231286065539
 20
103.5954597619889
 30
0.0
 10
81.9351986124419
 20
103.79826393823
 30
0.0
 10
82.34409131666511
 20
104.0209658829783
 30
0.0
 10
82.69711520652851
 20
104.2529284896431
 30
0.0
 10
83.00993317443366
 20
104.5030780685577
 30
0.0
 10
83.26370828218035
 20
104.7584928644779
 30
0.0
 10
83.47023384839969
 20
105.0297486826269
 30
0.0
 10
83.61725070001359
 20
105.3038407383061
 30
0.0
 10
83.70695059026525
 20
105.589186528962
 30
0.0
 10
83.73888434243972
 20
105.8753419286555
 30
0.0
 10
83.70695059026524
 20
106.161497328349
 30
0.0
 10
83.6172507000136
 20
106.4468431190049
 30
0.0
 10
83.47023384839972
 20
106.720935174684
 30
0.0
 10
83.26370828218029
 20
106.992190992833
 30
0.0
 10
83.00993317443368
 20
107.2476057887531
 30
0.0
 10
82.6971152065285
 20
107.4977553676678
 30
0.0
 10
82.34409131666513
 20
107.7297179743327
 30
0.0
 10
81.9351986124419
 20
107.9524199190809
 30
0.0
 10
81.4923128606554
 20
108.1552240953221
 30
0.0
 10
80.9997814222726
 20
108.3443201447808
 30
0.0
 10
80.47949935093835
 20
108.5120802441646
 30
0.0
 10
79.91822063777279
 20
108.6621273004188
 30
0.0
 10
79.33572111592406
 20
108.7896704099772
 30
0.0
 10
78.72269211157774
 20
108.8963099655262
 30
0.0
 10
78.09529847679767
 20
108.9795767008055
 30
0.0
 10
77.44909450960583
 20
109.0397460090503
 30
0.0
 10
76.79563854959221
 20
109.0760046993363
 30
0.0
 10
76.13583101123459
 20
109.0880509994864
 30
0.0
 10
75.47602347286728
 20
109.076004699594
 30
0.0
 10
74.82256751289137
 20
109.0397460095581
 30
0.0
 10
74.17636354558687
 20
108.9795767015503
 30
0.0
 10
73.54896991125031
 20
108.8963099664859
 30
0.0
 10
72.93594090536484
 20
108.7896704111252
 30
0.0
 10
72.3534413890934
 20
108.6621273017185
 30
0.0
 10
71.79216265663393
 20
108.5120802455747
 30
0.0
 10
71.2718806537242
 20
108.3443201462508
 30
0.0
 10
70.77934898453907
 20
108.155224096793
 30
0.0
 10
70.3364640385225
 20
107.9524199204881
 30
0.0
 10
69.9275686886855
 20
107.7297179755931
 30
0.0
 10
69.57455390496463
 20
107.4977553686988
 30
0.0
 10
69.26170670173225
 20
107.2476057894374
 30
0.0
 10
69.00803154504723
 20
106.9921909930457
 30
0.0
 10
68.80118609931456
 20
106.7209351742402
 30
0.0
 10
68.65527721952901
 20
106.4468431172605
 30
0.0
 10
68.56186559940097
 20
106.1614973271478
 30
0.0
 10
68.5495610791895
 20
105.9706624407328
 30
0.0
 10
68.54341506279664
 20
105.8753419286555
 30
0.0
 11
68.54341506279664
 21
105.8753419286555
 31
0.0
 11
68.57371456140164
 21
105.5913812662695
 31
0.0
 11
68.65876092127115
 21
105.3181581262871
 31
0.0
 11
68.80842554624184
 21
105.0345805042895
 31
0.0
 11
69.00129377115294
 21
104.777904071805
 31
0.0
 11
69.26647495718436
 21
104.5084925020934
 31
0.0
 11
69.56060592512816
 21
104.270995111273
 31
0.0
 11
69.93066443860015
 21
104.0262397975175
 31
0.0
 11
70.31970296642396
 21
103.8128334169486
 31
0.0
 11
70.78138879934441
 21
103.6003795039626
 31
0.0
 11
71.25552011556226
 21
103.4173400000726
 31
0.0
 11
71.79349723379445
 21
103.2431926082102
 31
0.0
 11
72.33962304201265
 21
103.0965317279876
 31
0.0
 11
72.93678275062503
 21
102.9653483168637
 31
0.0
 11
73.53907182693766
 21
102.8601561977042
 31
0.0
 11
74.17682905960655
 21
102.7752750910746
 31
0.0
 11
74.81742182595755
 21
102.7153955600981
 31
0.0
 11
75.47617259763155
 21
102.6787650121042
 31
0.0
 11
76.13583102122865
 21
102.6666482938906
 31
0.0
 11
76.79548944482572
 21
102.6787650121042
 31
0.0
 11
77.45424021649964
 21
102.7153955600981
 31
0.0
 11
78.0948329828507
 21
102.7752750910746
 31
0.0
 11
78.73259021551965
 21
102.8601561977042
 31
0.0
 11
79.33487929183227
 21
102.9653483168637
 31
0.0
 11
79.93203900044466
 21
103.0965317279876
 31
0.0
 11
80.47816480866285
 21
103.2431926082101
 31
0.0
 11
81.01614192689505
 21
103.4173400000726
 31
0.0
 11
81.49027324311288
 21
103.6003795039626
 31
0.0
 11
81.95195907603335
 21
103.8128334169486
 31
0.0
 11
82.34099760385716
 21
104.0262397975175
 31
0.0
 11
82.71105611732915
 21
104.270995111273
 31
0.0
 11
83.00518708527296
 21
104.5084925020934
 31
0.0
 11
83.27036827130436
 21
104.777904071805
 31
0.0
 11
83.46323649621539
 21
105.0345805042895
 31
0.0
 11
83.61290112118604
 21
105.3181581262871
 31
0.0
 11
83.69794748105562
 21
105.5913812662695
 31
0.0
 11
83.72824697966067
 21
105.8753419286555
 31
0.0
 11
83.69794748105562
 21
106.1593025910415
 31
0.0
 11
83.61290112118604
 21
106.4325257310239
 31
0.0
 11
83.4632364962154
 21
106.7161033530215
 31
0.0
 11
83.27036827130436
 21
106.9727797855059
 31
0.0
 11
83.00518708527295
 21
107.2421913552175
 31
0.0
 11
82.71105611732915
 21
107.4796887460379
 31
0.0
 11
82.34099760385718
 21
107.7244440597935
 31
0.0
 11
81.95195907603335
 21
107.9378504403624
 31
0.0
 11
81.49027324311291
 21
108.1503043533484
 31
0.0
 11
81.01614192689505
 21
108.3333438572384
 31
0.0
 11
80.47816480866285
 21
108.5074912491008
 31
0.0
 11
79.93203900044466
 21
108.6541521293233
 31
0.0
 11
79.33487929183227
 21
108.7853355404472
 31
0.0
 11
78.73259021551965
 21
108.8905276596068
 31
0.0
 11
78.0948329828507
 21
108.9754087662365
 31
0.0
 11
77.45424021649964
 21
109.0352882972129
 31
0.0
 11
76.7954894448257
 21
109.0719188452068
 31
0.0
 11
76.13583102122865
 21
109.0840355634204
 31
0.0
 11
75.47617259763155
 21
109.0719188452068
 31
0.0
 11
74.81742182595755
 21
109.0352882972129
 31
0.0
 11
74.17682905960653
 21
108.9754087662365
 31
0.0
 11
73.53907182693766
 21
108.8905276596068
 31
0.0
 11
72.93678275062504
 21
108.7853355404472
 31
0.0
 11
72.33962304201265
 21
108.6541521293233
 31
0.0
 11
71.79349723379445
 21
108.5074912491008
 31
0.0
 11
71.25552011556226
 21
108.3333438572384
 31
0.0
 11
70.7813887993444
 21
108.1503043533484
 31
0.0
 11
70.31970296642396
 21
107.9378504403624
 31
0.0
 11
69.93066443860015
 21
107.7244440597935
 31
0.0
 11
69.56060592512816
 21
107.4796887460379
 31
0.0
 11
69.26647495718437
 21
107.2421913552175
 31
0.0
 11
69.00129377115294
 21
106.9727797855059
 31
0.0
 11
68.80842554624184
 21
106.7161033530215
 31
0.0
 11
68.65876092127115
 21
106.4325257310239
 31
0.0
 11
68.57371456140163
 21
106.1593025910415
 31
0.0
 11
68.54341506279664
 21
105.8753419286555
 31
0.0
  0
SPLINE
  5
21D
330
58
100
AcDbEntity
  8
1
  6
Continuous
 62
     7
100
AcDbSpline
210
0.0
220
0.0
230
1.0
 70
     8
 71
     3
 72
    41
 73
    37
 74
    35
 42
0.000000001
 43
0.0000000001
 44
0.00000001
 40
0.0
 40
0.0
 40
0.0
 40
0.0
 40
0.1003162016026516
 40
0.2006657829785174
 40
0.4678383789133752
 40
0.7355150007192063
 40
1.002789109172991
 40
1.270122575990824
 40
1.569879281724465
 40
1.870218951467733
 40
2.223772344309032
 40
2.577257304781875
 40
2.992126825125746
 40
3.407093618714025
 40
4.409622126157469
 40
5.414554539534988
 40
6.58837549068776
 40
7.760878906835741
 40
8.37779511671527
 40
8.99483352643565
 40
10.21331109419476
 40
11.43168445402208
 40
12.5310257590927
 40
13.63217355512706
 40
14.52401185317097
 40
15.41165471146019
 40
15.76513734518523
 40
16.11866370144215
 40
16.41899056786272
 40
16.71876828811385
 40
16.98610851104016
 40
17.25337400757642
 40
17.52104815265799
 40
17.78822350586438
 40
17.88857332059387
 40
17.98888928674003
 40
17.98888928674003
 40
17.98888928674003
 40
17.98888928674003
 10
69.23210917024755
 20
107.2109025455872
 30
0.0
 10
69.21661775663453
 20
107.181267113105
 30
0.0
 10
69.18562978300208
 20
107.1219863828346
 30
0.0
 10
69.1186674055821
 20
106.9810808975032
 30
0.0
 10
69.05443270371465
 20
106.7776903945267
 30
0.0
 10
69.0261353133011
 20
106.5098639584014
 30
0.0
 10
69.05599380830304
 20
106.242150496299
 30
0.0
 10
69.13960060083092
 20
105.9752534825566
 30
0.0
 10
69.27707183217748
 20
105.7190164126021
 30
0.0
 10
69.47023866508106
 20
105.465366405614
 30
0.0
 10
69.70754027307862
 20
105.2264548012205
 30
0.0
 10
70.0000733428441
 20
104.992540274202
 30
0.0
 10
70.33032612666918
 20
104.7758278896133
 30
0.0
 10
70.8670559186186
 20
104.4833666673131
 30
0.0
 10
71.61582945250618
 20
104.1738767466018
 30
0.0
 10
72.6369637334211
 20
103.8828205910701
 30
0.0
 10
73.73490714585964
 20
103.6694686913298
 30
0.0
 10
74.71772303638869
 20
103.561134895462
 30
0.0
 10
75.51879901752476
 20
103.5167906005824
 30
0.0
 10
76.33629178697404
 20
103.5017603257342
 30
0.0
 10
77.3546086001071
 20
103.537831894178
 30
0.0
 10
78.52716896876402
 20
103.6692814732491
 30
0.0
 10
79.64766820108171
 20
103.8840157872696
 30
0.0
 10
80.63919224086976
 20
104.1723281913551
 30
0.0
 10
81.53119853478043
 20
104.5324227302141
 30
0.0
 10
82.14829464111249
 20
104.8941383858808
 30
0.0
 10
82.56387439576113
 20
105.2267083543633
 30
0.0
 10
82.8014626511299
 20
105.4653320730911
 30
0.0
 10
82.99464618832621
 20
105.7189778764556
 30
0.0
 10
83.13205044511598
 20
105.9752546408153
 30
0.0
 10
83.21565654823416
 20
106.2421546261612
 30
0.0
 10
83.24552906686823
 20
106.5098657516133
 30
0.0
 10
83.21723098269193
 20
106.7776900457129
 30
0.0
 10
83.15299493834299
 20
106.9810801098894
 30
0.0
 10
83.08603216682289
 20
107.1219864240879
 30
0.0
 10
83.05504423081524
 20
107.1812671730226
 30
0.0
 10
83.03955287220964
 20
107.2109025455873
 30
0.0
 11
69.23210917024755
 21
107.2109025455872
 31
0.0
 11
69.18620133852257
 21
107.1217071817305
 31
0.0
 11
69.14369597484196
 21
107.0308043056814
 31
0.0
 11
69.0632716753323
 21
106.7760237569295
 31
0.0
 11
69.03583102122866
 21
106.5097573795811
 31
0.0
 11
69.06440811179625
 21
106.2440154023396
 31
0.0
 11
69.14369597484196
 21
105.9887104534809
 31
0.0
 11
69.28357880639815
 21
105.7235937324868
 31
0.0
 11
69.46401341364864
 21
105.4834952745677
 31
0.0
 11
69.71200850475518
 21
105.2315063142098
 31
0.0
 11
69.98705065435905
 21
105.0094625504016
 31
0.0
 11
70.33316679924664
 21
104.7807261672606
 31
0.0
 11
70.69691547508384
 21
104.5810155254344
 31
0.0
 11
71.62103508058104
 21
104.192342961059
 31
0.0
 11
72.58583102122864
 21
103.9111705091094
 31
0.0
 11
73.73771589437264
 21
103.6853013806055
 31
0.0
 11
74.90292895979346
 21
103.554753420421
 31
0.0
 11
75.51889827548803
 21
103.5205860510426
 31
0.0
 11
76.13583102122865
 21
103.5091677212221
 31
0.0
 11
77.35350965561426
 21
103.5532846663882
 31
0.0
 11
78.56417403884095
 21
103.6901254196146
 31
0.0
 11
79.6431765050589
 21
103.9006129059421
 31
0.0
 11
80.69962305000305
 21
104.211172345715
 31
0.0
 11
81.52340501023839
 21
104.5528722598333
 31
0.0
 11
82.28461138809814
 21
105.0094625504016
 31
0.0
 11
82.55948884075113
 21
105.2317064663878
 31
0.0
 11
82.80764862880866
 21
105.4834952745677
 31
0.0
 11
82.98811778209485
 21
105.7235517495341
 31
0.0
 11
83.12796606761535
 21
105.9887104534808
 31
0.0
 11
83.2072461113838
 21
106.2440249049161
 31
0.0
 11
83.23583102122865
 21
106.5097573795811
 31
0.0
 11
83.20839225575831
 21
106.7760214617197
 31
0.0
 11
83.12796606761535
 21
107.0308043056814
 31
0.0
 11
83.08546055086026
 21
107.1217073677582
 31
0.0
 11
83.03955287220964
 21
107.2109025455873
 31
0.0
  0
SPLINE
  5
21E
330
58
100
AcDbEntity
  8
1
  6
Continuous
 62
     7
100
AcDbSpline
210
0.0
220
0.0
230
1.0
 70
     8
 71
     3
 72
    11
 73
     7
 74
     5
 42
0.000000001
 43
0.0000000001
 44
0.00000001
 40
0.0
 40
0.0
 40
0.0
 40
0.0
 40
0.6351656386103035
 40
1.27029330454287
 40
1.48466056450316
 40
1.698598598250057
 40
1.698598598250057
 40
1.698598598250057
 40
1.698598598250057
 10
68.16643189528344
 20
254.8538847501107
 30
0.0
 10
68.19256517621037
 20
255.0641521678548
 30
0.0
 10
68.24483019185564
 20
255.4846744300893
 30
0.0
 10
68.36633866646088
 20
255.9657070990618
 30
0.0
 10
68.47165068363717
 20
256.3041904239818
 30
0.0
 10
68.51950958577768
 20
256.438717711373
 30
0.0
 10
68.54341506279744
 20
256.505913944418
 30
0.0
 11
68.16643189528344
 21
254.8538847501107
 31
0.0
 11
68.2577572885187
 21
255.4824506265365
 31
0.0
 11
68.40893642239199
 21
256.09932340331
 31
0.0
 11
68.4730568414307
 21
256.3038763162758
 31
0.0
 11
68.54341506279744
 21
256.505913944418
 31
0.0
  0
SPLINE
  5
21F
330
58
100
AcDbEntity
  8
1
  6
Continuous
 62
     7
100
AcDbSpline
210
0.0
220
0.0
230
1.0
 70
     8
 71
     3
 72
    49
 73
    45
 74
    43
 42
0.000000001
 43
0.0000000001
 44
0.00000001
 40
0.0
 40
0.0
 40
0.0
 40
0.0
 40
0.2139380266952425
 40
0.4283052855590818
 40
1.063432951491763
 40
1.69859858979511
 40
2.331717757396807
 40
2.964836925020621
 40
3.60000256345793
 40
4.235130230181924
 40
4.876114322854394
 40
5.517030347761319
 40
6.166817540453263
 40
6.816519299060466
 40
7.476942034962422
 40
8.137275480115834
 40
8.808831882796865
 40
9.480306421884064
 40
10.16216046692712
 40
10.84394798839483
 40
11.53408263688192
 40
12.22417090461155
 40
12.91965388322273
 40
13.61511315090331
 40
14.31243631552903
 40
15.00975948015505
 40
15.70521874783652
 40
16.40070172644894
 40
17.09078999417969
 40
17.78092464266735
 40
18.46271216413419
 40
19.14456620917406
 40
19.81604074825454
 40
20.48759715092388
 40
21.14793059605835
 40
21.80835333193122
 40
22.45805509049485
 40
23.10784228312163
 40
23.748758307929
 40
24.38974240044228
 40
25.02487006688408
 40
25.66003570472981
 40
26.2931548705531
 40
26.92627403106687
 40
26.92627403106687
 40
26.92627403106687
 40
26.92627403106687
 10
83.72824697965747
 20
256.5059139444244
 30
0.0
 10
83.75214229390589
 20
256.4387167288423
 30
0.0
 10
83.79998085484083
 20
256.3041874739545
 30
0.0
 10
83.90554574062809
 20
255.9657286564599
 30
0.0
 10
84.02405036360054
 20
255.4844048986851
 30
0.0
 10
84.1151851022279
 20
254.8555350794948
 30
0.0
 10
84.14613253387517
 20
254.2215056879383
 30
0.0
 10
84.11520426977145
 20
253.5874754546745
 30
0.0
 10
84.02397341124586
 20
252.958608168023
 30
0.0
 10
83.87178312195594
 20
252.3389668286537
 30
0.0
 10
83.66137762384899
 20
251.7345763449512
 30
0.0
 10
83.3926540621498
 20
251.1484115037427
 30
0.0
 10
83.06975427827922
 20
250.5869118757977
 30
0.0
 10
82.69288129454385
 20
250.0521849154445
 30
0.0
 10
82.26755511269603
 20
249.5505240091708
 30
0.0
 10
81.79422916065738
 20
249.0834963815382
 30
0.0
 10
81.27954782773274
 20
248.6566972410153
 30
0.0
 10
80.7243526565363
 20
248.2714569563872
 30
0.0
 10
80.1359671138462
 20
247.9322422439061
 30
0.0
 10
79.51589132645952
 20
247.6403201533895
 30
0.0
 10
78.87157642097736
 20
247.3987943734116
 30
0.0
 10
78.20548554141263
 20
247.2088608439435
 30
0.0
 10
77.5246434760769
 20
247.0722434240147
 30
0.0
 10
76.8327128450574
 20
246.9898849926993
 30
0.0
 10
76.13583102067702
 20
246.9623035283576
 30
0.0
 10
75.43894919629763
 20
246.9898849927088
 30
0.0
 10
74.74701856527564
 20
247.0722434240341
 30
0.0
 10
74.06617649995118
 20
247.2088608439723
 30
0.0
 10
73.40008562035048
 20
247.3987943734551
 30
0.0
 10
72.75577071501351
 20
247.6403201534312
 30
0.0
 10
72.13569492711352
 20
247.9322422440111
 30
0.0
 10
71.54730938636372
 20
248.271456956319
 30
0.0
 10
70.9921142080936
 20
248.656697241649
 30
0.0
 10
70.47743290143737
 20
249.0834963796439
 30
0.0
 10
70.00410685307078
 20
249.5505240166297
 30
0.0
 10
69.57878102777515
 20
250.0521848883687
 30
0.0
 10
69.2019067342438
 20
250.5869119756636
 30
0.0
 10
68.87901180072075
 20
251.1484111335888
 30
0.0
 10
68.6102703728964
 20
251.7345777061147
 30
0.0
 10
68.39993116547329
 20
252.3389617658211
 30
0.0
 10
68.24749562133802
 20
252.9586268715779
 30
0.0
 10
68.1571773861142
 20
253.5874057192571
 30
0.0
 10
68.12285345929979
 20
254.2217650083644
 30
0.0
 10
68.15190574636448
 20
254.6431781702695
 30
0.0
 10
68.16643189528344
 20
254.8538847501107
 30
0.0
 11
83.72824697965747
 21
256.5059139444244
 31
0.0
 11
83.7986052010255
 21
256.303876316279
 31
0.0
 11
83.8627256200653
 21
256.0993234033099
 31
0.0
 11
84.01390475393856
 21
255.4824506265364
 31
0.0
 11
84.10523014717388
 21
254.8538847501107
 31
0.0
 11
84.13583102122868
 21
254.2215055386112
 31
0.0
 11
84.10523014717391
 21
253.5891263271117
 31
0.0
 11
84.01390475393862
 21
252.9605604506858
 31
0.0
 11
83.86272562006533
 21
252.3436876739124
 31
0.0
 11
83.65196088030544
 21
251.7383457608265
 31
0.0
 11
83.38520135944796
 21
251.1555827650731
 31
0.0
 11
83.06133050118508
 21
250.5922613087439
 31
0.0
 11
82.68735177857208
 21
250.0609870948281
 31
0.0
 11
82.26036160960692
 21
249.5571641240303
 31
0.0
 11
81.7905663560079
 21
249.093124601279
 31
0.0
 11
81.27372502577077
 21
248.6643320622502
 31
0.0
 11
80.7222243197679
 21
248.2812850310712
 31
0.0
 11
80.13158264698512
 21
247.9405984400807
 31
0.0
 11
79.51483713496359
 21
247.6499797930795
 31
0.0
 11
78.86865318604895
 21
247.4076326508356
 31
0.0
 11
78.20506260796955
 21
247.2182405652608
 31
0.0
 11
77.52318336660028
 21
247.0813564030756
 31
0.0
 11
76.83260911371278
 21
246.9990715662273
 31
0.0
 11
76.13583102122864
 21
246.9715055386111
 31
0.0
 11
75.43905292874453
 21
246.9990715662273
 31
0.0
 11
74.74847867585703
 21
247.0813564030756
 31
0.0
 11
74.06659943448778
 21
247.2182405652609
 31
0.0
 11
73.4030088564084
 21
247.4076326508356
 31
0.0
 11
72.75682490749375
 21
247.6499797930796
 31
0.0
 11
72.1400793954722
 21
247.9405984400808
 31
0.0
 11
71.5494377226894
 21
248.2812850310712
 31
0.0
 11
70.99793701668654
 21
248.6643320622502
 31
0.0
 11
70.48109568644941
 21
249.0931246012791
 31
0.0
 11
70.01130043285039
 21
249.5571641240304
 31
0.0
 11
69.58431026388524
 21
250.0609870948281
 31
0.0
 11
69.21033154127224
 21
250.5922613087438
 31
0.0
 11
68.88646068300939
 21
251.155582765073
 31
0.0
 11
68.6197011621519
 21
251.7383457608265
 31
0.0
 11
68.408936422392
 21
252.3436876739124
 31
0.0
 11
68.2577572885187
 21
252.9605604506858
 31
0.0
 11
68.16643189528342
 21
253.5891263271117
 31
0.0
 11
68.13583102122865
 21
254.2215055386112
 31
0.0
 11
68.16643189528344
 21
254.8538847501107
 31
0.0
  0
ENDBLK
  5
5A
330
58
100
AcDbEntity
  8
0
100
AcDbBlockEnd
  0
BLOCK
  5
5C
330
5B
100
AcDbEntity
  8
0
100
AcDbBlockBegin
  2
21-1C
 70
     0
 10
321.5101516979425
 20
134.8152462036642
 30
0.0
  3
21-1C
  1

  0
LINE
  5
220
330
5B
100
AcDbEntity
  8
1
  6
Continuous
 62
     7
100
AcDbLine
 10
103.7816001502106
 20
188.4470576025619
 30
0.0
 11
103.3296920512182
 21
191.6625508074325
 31
0.0
  0
LINE
  5
221
330
5B
100
AcDbEntity
  8
1
  6
Continuous
 62
     7
100
AcDbLine
 10
48.98519592661776
 20
187.8774710520818
 30
0.0
 11
103.2864661158398
 21
187.8774710520818
 31
0.0
  0
LINE
  5
222
330
5B
100
AcDbEntity
  8
1
  6
Continuous
 62
     7
100
AcDbLine
 10
48.94196999123935
 20
191.6625508074325
 30
0.0
 11
48.49006189224704
 21
188.4470576025619
 31
0.0
  0
LINE
  5
223
330
5B
100
AcDbEntity
  8
1
  6
Continuous
 62
     7
100
AcDbLine
 10
219.8600221812979
 20
187.8753419286555
 30
0.0
 11
223.9925050657329
 21
187.8753419286555
 31
0.0
  0
LINE
  5
224
330
5B
100
AcDbEntity
  8
1
  6
Continuous
 62
     7
100
AcDbLine
 10
175.5996890460393
 20
191.6604216840061
 30
0.0
 11
175.147780947047
 21
188.4449284791355
 31
0.0
  0
LINE
  5
225
330
5B
100
AcDbEntity
  8
1
  6
Continuous
 62
     7
100
AcDbLine
 10
70.34027606349414
 20
304.6985912679961
 30
0.0
 11
66.68886685202366
 21
318.325835964429
 31
0.0
  0
LINE
  5
226
330
5B
100
AcDbEntity
  8
1
  6
Continuous
 62
     7
100
AcDbLine
 10
50.24255523949825
 20
339.5088648514919
 30
0.0
 11
60.21839072446065
 21
329.5330293665296
 31
0.0
  0
LINE
  5
227
330
5B
100
AcDbEntity
  8
1
  6
Continuous
 62
     7
100
AcDbLine
 10
56.03811019723264
 20
349.5470604963456
 30
0.0
 11
69.66535489366547
 21
345.8956512848752
 31
0.0
  0
LINE
  5
228
330
5B
100
AcDbEntity
  8
1
  6
Continuous
 62
     7
100
AcDbLine
 10
96.99405674784487
 20
349.7508371708427
 30
0.0
 11
82.60630714879156
 21
345.8956512848752
 31
0.0
  0
LINE
  5
229
330
5B
100
AcDbEntity
  8
1
  6
Continuous
 62
     7
100
AcDbLine
 10
102.0291068029588
 20
339.5088648514919
 30
0.0
 11
92.05327131799646
 21
329.5330293665296
 31
0.0
  0
LINE
  5
22A
330
5B
100
AcDbEntity
  8
1
  6
Continuous
 62
     7
100
AcDbLine
 10
81.93138597896296
 20
304.6985912679961
 30
0.0
 11
85.58279519043344
 21
318.325835964429
 31
0.0
  0
LINE
  5
22B
330
5B
100
AcDbEntity
  8
1
  6
Continuous
 62
     7
100
AcDbLine
 10
223.8704166321585
 20
192.8344185343991
 30
0.0
 11
224.487634126166
 21
188.4449638613681
 31
0.0
  0
LINE
  5
22C
330
5B
100
AcDbEntity
  8
1
  6
Continuous
 62
     7
100
AcDbLine
 10
219.8600221812979
 20
187.8753419286555
 30
0.0
 11
218.294665550206
 21
187.8753419286555
 31
0.0
  0
LINE
  5
22D
330
5B
100
AcDbEntity
  8
1
  6
Continuous
 62
     7
100
AcDbLine
 10
211.8177307778072
 20
187.8753419286555
 30
0.0
 11
200.3177307778072
 21
187.8753419286555
 31
0.0
  0
LINE
  5
22E
330
5B
100
AcDbEntity
  8
1
  6
Continuous
 62
     7
100
AcDbLine
 10
211.8177307778072
 20
187.8753419286555
 30
0.0
 11
219.8600221812979
 21
187.8753419286555
 31
0.0
  0
LINE
  5
22F
330
5B
100
AcDbEntity
  8
1
  6
Continuous
 62
     7
100
AcDbLine
 10
175.6429149814177
 20
187.8753419286555
 30
0.0
 11
201.3177307778072
 21
187.8753419286555
 31
0.0
  0
ARC
  5
230
330
5B
100
AcDbEntity
  8
1
  6
Continuous
 62
     7
100
AcDbCircle
 10
74.49874067033954
 20
71.50731851175745
 30
0.0
 40
127.494833408141
100
AcDbArc
 50
79.1905067536478
 51
87.46588310520269
  0
ARC
  5
231
330
5B
100
AcDbEntity
  8
1
  6
Continuous
 62
     7
100
AcDbCircle
 10
77.77292137211796
 20
71.50731851175745
 30
0.0
 40
127.4948334081408
100
AcDbArc
 50
92.53411689479739
 51
100.8094932463522
  0
ARC
  5
232
330
5B
100
AcDbEntity
  8
1
  6
Continuous
 62
     7
100
AcDbCircle
 10
206.0677307778072
 20
48.87534192865544
 30
0.0
 40
150.0533238552216
100
AcDbArc
 50
91.52752544221293
 51
99.80290179376777
  0
ARC
  5
233
330
5B
100
AcDbEntity
  8
1
  6
Continuous
 62
     7
100
AcDbCircle
 10
76.13583102122854
 20
306.2515055386112
 30
0.0
 40
5.999999999999974
100
AcDbArc
 50
194.9999999999996
 51
270.0
  0
ARC
  5
234
330
5B
100
AcDbEntity
  8
1
  6
Continuous
 62
     7
100
AcDbCircle
 10
54.48519592661756
 20
343.7515055386112
 30
0.0
 40
5.999999999999976
100
AcDbArc
 50
75.00000000000034
 51
224.9999999999997
  0
ARC
  5
235
330
5B
100
AcDbEntity
  8
1
  6
Continuous
 62
     7
100
AcDbCircle
 10
97.78646611583954
 20
343.7515055386112
 30
0.0
 40
5.999999999999958
100
AcDbArc
 50
314.9999999999999
 51
97.52424107894092
  0
ARC
  5
236
330
5B
100
AcDbEntity
  8
1
  6
Continuous
 62
     7
100
AcDbCircle
 10
76.13583102122854
 20
306.2515055386112
 30
0.0
 40
6.0
100
AcDbArc
 50
270.0
 51
345.0000000000005
  0
ARC
  5
237
330
5B
100
AcDbEntity
  8
1
  6
Continuous
 62
     7
100
AcDbCircle
 10
206.431926443054
 20
123.9635209199562
 30
0.0
 40
75.0000000000001
100
AcDbArc
 50
80.40850751733493
 51
87.22136103403746
  0
ARC
  5
238
330
5B
100
AcDbEntity
  8
1
  6
Continuous
 62
     7
100
AcDbCircle
 10
103.2864661158398
 20
188.3774710520818
 30
0.0
 40
0.5
100
AcDbArc
 50
270.0
 51
8.0000000000071
  0
ARC
  5
239
330
5B
100
AcDbEntity
  8
1
  6
Continuous
 62
     7
100
AcDbCircle
 10
97.38808363876876
 20
190.8275122016722
 30
0.0
 40
6.000000000000006
100
AcDbArc
 50
7.99999999999913
 51
80.19709820623221
  0
ARC
  5
23A
330
5B
100
AcDbEntity
  8
1
  6
Continuous
 62
     7
100
AcDbCircle
 10
54.88357840368886
 20
190.8275122016722
 30
0.0
 40
6.000000000000037
100
AcDbArc
 50
99.80290179376887
 51
172.000000000001
  0
ARC
  5
23B
330
5B
100
AcDbEntity
  8
1
  6
Continuous
 62
     7
100
AcDbCircle
 10
48.98519592661776
 20
188.3774710520818
 30
0.0
 40
0.4999999999999459
100
AcDbArc
 50
171.9999999999918
 51
270.0
  0
ARC
  5
23C
330
5B
100
AcDbEntity
  8
1
  6
Continuous
 62
     7
100
AcDbCircle
 10
181.5412974584888
 20
190.8253830782457
 30
0.0
 40
6.000000000000019
100
AcDbArc
 50
99.8029017937678
 51
171.9999999999999
  0
ARC
  5
23D
330
5B
100
AcDbEntity
  8
1
  6
Continuous
 62
     7
100
AcDbCircle
 10
42.54072119479704
 20
311.8553598368659
 30
0.0
 40
24.99999999999995
100
AcDbArc
 50
15.00000000000029
 51
45.00000000000017
  0
ARC
  5
23E
330
5B
100
AcDbEntity
  8
1
  6
Continuous
 62
     7
100
AcDbCircle
 10
76.13583102122854
 20
370.043796942102
 30
0.0
 40
25.0000000000001
100
AcDbArc
 50
254.9999999999999
 51
284.9999999999999
  0
ARC
  5
23F
330
5B
100
AcDbEntity
  8
1
  6
Continuous
 62
     7
100
AcDbCircle
 10
109.7309408476602
 20
311.8553598368659
 30
0.0
 40
25.00000000000005
100
AcDbArc
 50
135.0
 51
164.9999999999998
  0
ARC
  5
240
330
5B
100
AcDbEntity
  8
1
  6
Continuous
 62
     7
100
AcDbCircle
 10
217.9288679069613
 20
191.9989553418477
 30
0.0
 40
6.000000000000063
100
AcDbArc
 50
8.00409437170091
 51
80.4085075173346
  0
ARC
  5
241
330
5B
100
AcDbEntity
  8
1
  6
Continuous
 62
     7
100
AcDbCircle
 10
175.6429149814177
 20
188.3753419286555
 30
0.0
 40
0.4999999999999059
100
AcDbArc
 50
172.000000000001
 51
270.0
  0
ARC
  5
242
330
5B
100
AcDbEntity
  8
1
  6
Continuous
 62
     7
100
AcDbCircle
 10
223.9925050657329
 20
188.3753419286555
 30
0.0
 40
0.5
100
AcDbArc
 50
270.0
 51
8.00409437169984
  0
ENDBLK
  5
5D
330
5B
100
AcDbEntity
  8
0
100
AcDbBlockEnd
  0
BLOCK
  5
5F
330
5E
100
AcDbEntity
  8
0
100
AcDbBlockBegin
  2
42-1
 70
     0
 10
316.3731696150755
 20
150.8527729496773
 30
0.0
  3
42-1
  1

  0
LINE
  5
243
330
5E
100
AcDbEntity
  8
1
  6
Continuous
 62
     7
100
AcDbLine
 10
83.13583102122865
 20
201.8774710520816
 30
0.0
 11
83.13583102122865
 21
198.8774710520817
 31
0.0
  0
LINE
  5
244
330
5E
100
AcDbEntity
  8
1
  6
Continuous
 62
     2
100
AcDbLine
 10
82.63583102122865
 20
198.8774710520817
 30
0.0
 11
82.63583102122865
 21
201.8774710520816
 31
0.0
  0
LINE
  5
245
330
5E
100
AcDbEntity
  8
1
  6
Continuous
 62
     2
100
AcDbLine
 10
82.13583102122865
 20
198.8774710520817
 30
0.0
 11
82.13583102122865
 21
201.8774710520816
 31
0.0
  0
LINE
  5
246
330
5E
100
AcDbEntity
  8
1
  6
Continuous
 62
     2
100
AcDbLine
 10
81.63583102122865
 20
198.8774710520817
 30
0.0
 11
81.63583102122865
 21
201.8774710520816
 31
0.0
  0
LINE
  5
247
330
5E
100
AcDbEntity
  8
1
  6
Continuous
 62
     2
100
AcDbLine
 10
81.13583102122865
 20
198.8774710520817
 30
0.0
 11
81.13583102122865
 21
201.8774710520816
 31
0.0
  0
LINE
  5
248
330
5E
100
AcDbEntity
  8
1
  6
Continuous
 62
     2
100
AcDbLine
 10
80.13583102122865
 20
199.0435193645333
 30
0.0
 11
80.13583102122865
 21
201.6875446436295
 31
0.0
  0
LINE
  5
249
330
5E
100
AcDbEntity
  8
1
  6
Continuous
 62
     2
100
AcDbLine
 10
80.63583102122865
 20
198.9830583782692
 30
0.0
 11
80.63583102122865
 21
201.7330588170597
 31
0.0
  0
LINE
  5
24A
330
5E
100
AcDbEntity
  8
1
  6
Continuous
 62
     2
100
AcDbLine
 10
79.63583102122865
 20
199.1319437523437
 30
0.0
 11
79.63583102122865
 21
201.6016893693465
 31
0.0
  0
LINE
  5
24B
330
5E
100
AcDbEntity
  8
1
  6
Continuous
 62
     2
100
AcDbLine
 10
79.13583102122865
 20
199.2381715323196
 30
0.0
 11
79.13583102122865
 21
201.5739975457543
 31
0.0
  0
LINE
  5
24C
330
5E
100
AcDbEntity
  8
1
  6
Continuous
 62
     7
100
AcDbLine
 10
81.13583102122865
 20
201.8774710520816
 30
0.0
 11
71.13583102122865
 21
201.8774710520816
 31
0.0
  0
LINE
  5
24D
330
5E
100
AcDbEntity
  8
1
  6
Continuous
 62
     7
100
AcDbLine
 10
76.13583102122865
 20
202.2072367722855
 30
0.0
 11
81.88583102122865
 21
202.2072367722855
 31
0.0
  0
LINE
  5
24E
330
5E
100
AcDbEntity
  8
1
  6
Continuous
 62
     7
100
AcDbLine
 10
81.63583102122865
 20
201.8774710520816
 30
0.0
 11
82.13583102122865
 21
201.8774710520816
 31
0.0
  0
LINE
  5
24F
330
5E
100
AcDbEntity
  8
1
  6
Continuous
 62
     7
100
AcDbLine
 10
82.63583102122865
 20
201.8774710520816
 30
0.0
 11
83.13583102122865
 21
201.8774710520816
 31
0.0
  0
LINE
  5
250
330
5E
100
AcDbEntity
  8
1
  6
Continuous
 62
     7
100
AcDbLine
 10
82.13583102122885
 20
202.146793251105
 30
0.0
 11
83.13583102122865
 21
201.8774710520816
 31
0.0
  0
LINE
  5
251
330
5E
100
AcDbEntity
  8
1
  6
Continuous
 62
     7
100
AcDbLine
 10
82.13583102122865
 20
201.8774710520816
 30
0.0
 11
82.63583102122865
 21
201.8774710520816
 31
0.0
  0
LINE
  5
252
330
5E
100
AcDbEntity
  8
1
  6
Continuous
 62
     7
100
AcDbLine
 10
81.13583102122865
 20
201.8774710520816
 30
0.0
 11
81.63583102122865
 21
201.8774710520816
 31
0.0
  0
LINE
  5
253
330
5E
100
AcDbEntity
  8
1
  6
Continuous
 62
     2
100
AcDbLine
 10
78.63583102122865
 20
199.4910202427592
 30
0.0
 11
78.63583102122865
 21
201.4090141793676
 31
0.0
  0
LINE
  5
254
330
5E
100
AcDbEntity
  8
1
  6
Continuous
 62
     7
100
AcDbLine
 10
70.38583102122865
 20
202.2072367722855
 30
0.0
 11
76.13583102122865
 21
202.2072367722855
 31
0.0
  0
LINE
  5
255
330
5E
100
AcDbEntity
  8
1
  6
Continuous
 62
     7
100
AcDbLine
 10
70.13583102122865
 20
201.8774710520816
 30
0.0
 11
70.63583102122865
 21
201.8774710520816
 31
0.0
  0
LINE
  5
256
330
5E
100
AcDbEntity
  8
1
  6
Continuous
 62
     7
100
AcDbLine
 10
69.13583102122865
 20
201.8774710520816
 30
0.0
 11
69.63583102122865
 21
201.8774710520816
 31
0.0
  0
LINE
  5
257
330
5E
100
AcDbEntity
  8
1
  6
Continuous
 62
     7
100
AcDbLine
 10
69.63583102122865
 20
201.8774710520816
 30
0.0
 11
70.13583102122865
 21
201.8774710520816
 31
0.0
  0
LINE
  5
258
330
5E
100
AcDbEntity
  8
1
  6
Continuous
 62
     7
100
AcDbLine
 10
70.63583102122865
 20
201.8774710520816
 30
0.0
 11
71.13583102122865
 21
201.8774710520816
 31
0.0
  0
LINE
  5
259
330
5E
100
AcDbEntity
  8
1
  6
Continuous
 62
     2
100
AcDbLine
 10
78.13583102122865
 20
199.5950338399276
 30
0.0
 11
78.13583102122865
 21
201.3631243639856
 31
0.0
  0
LINE
  5
25A
330
5E
100
AcDbEntity
  8
1
  6
Continuous
 62
     2
100
AcDbLine
 10
77.63583102122865
 20
199.815064880451
 30
0.0
 11
77.63583102122865
 21
201.1637912103036
 31
0.0
  0
LINE
  5
25B
330
5E
100
AcDbEntity
  8
1
  6
Continuous
 62
     2
100
AcDbLine
 10
77.13583102122865
 20
199.8545700636426
 30
0.0
 11
77.13583102122865
 21
201.119809154253
 31
0.0
  0
LINE
  5
25C
330
5E
100
AcDbEntity
  8
1
  6
Continuous
 62
     2
100
AcDbLine
 10
75.13583102122865
 20
201.119809154253
 30
0.0
 11
75.13583102122865
 21
199.8545700636426
 31
0.0
  0
LINE
  5
25D
330
5E
100
AcDbEntity
  8
1
  6
Continuous
 62
     2
100
AcDbLine
 10
74.63583102122865
 20
201.1637912103036
 30
0.0
 11
74.63583102122865
 21
199.815064880451
 31
0.0
  0
LINE
  5
25E
330
5E
100
AcDbEntity
  8
1
  6
Continuous
 62
     2
100
AcDbLine
 10
74.13583102122865
 20
201.3631243639856
 30
0.0
 11
74.13583102122865
 21
199.5950338399276
 31
0.0
  0
LINE
  5
25F
330
5E
100
AcDbEntity
  8
1
  6
Continuous
 62
     2
100
AcDbLine
 10
73.63583102122865
 20
201.4090141793676
 30
0.0
 11
73.63583102122865
 21
199.4910202427592
 31
0.0
  0
LINE
  5
260
330
5E
100
AcDbEntity
  8
1
  6
Continuous
 62
     2
100
AcDbLine
 10
73.13583102122865
 20
201.5739975457543
 30
0.0
 11
73.13583102122865
 21
199.2381715323196
 31
0.0
  0
LINE
  5
261
330
5E
100
AcDbEntity
  8
1
  6
Continuous
 62
     2
100
AcDbLine
 10
72.63583102122865
 20
201.6016893693465
 30
0.0
 11
72.63583102122865
 21
199.1319437523437
 31
0.0
  0
LINE
  5
262
330
5E
100
AcDbEntity
  8
1
  6
Continuous
 62
     2
100
AcDbLine
 10
72.13583102122865
 20
201.6875446436295
 30
0.0
 11
72.13583102122865
 21
199.0435193645333
 31
0.0
  0
LINE
  5
263
330
5E
100
AcDbEntity
  8
1
  6
Continuous
 62
     2
100
AcDbLine
 10
71.13583102122865
 20
201.8774710520816
 30
0.0
 11
71.13583102122865
 21
198.8774710520817
 31
0.0
  0
LINE
  5
264
330
5E
100
AcDbEntity
  8
1
  6
Continuous
 62
     2
100
AcDbLine
 10
71.63583102122865
 20
201.7330588170597
 30
0.0
 11
71.63583102122865
 21
198.9830583782692
 31
0.0
  0
LINE
  5
265
330
5E
100
AcDbEntity
  8
1
  6
Continuous
 62
     2
100
AcDbLine
 10
70.63583102122865
 20
201.8774710520816
 30
0.0
 11
70.63583102122865
 21
198.8774710520817
 31
0.0
  0
LINE
  5
266
330
5E
100
AcDbEntity
  8
1
  6
Continuous
 62
     2
100
AcDbLine
 10
69.63583102122865
 20
201.8774710520816
 30
0.0
 11
69.63583102122865
 21
198.8774710520817
 31
0.0
  0
LINE
  5
267
330
5E
100
AcDbEntity
  8
1
  6
Continuous
 62
     2
100
AcDbLine
 10
70.13583102122865
 20
201.8774710520816
 30
0.0
 11
70.13583102122865
 21
198.8774710520817
 31
0.0
  0
LINE
  5
268
330
5E
100
AcDbEntity
  8
1
  6
Continuous
 62
     7
100
AcDbLine
 10
69.13583102122865
 20
198.8774710520817
 30
0.0
 11
69.13583102122865
 21
201.8774710520816
 31
0.0
  0
LINE
  5
269
330
5E
100
AcDbEntity
  8
1
  6
Continuous
 62
     7
100
AcDbLine
 10
69.13583102122865
 20
201.8774710520816
 30
0.0
 11
70.13583102122865
 21
202.146793251105
 31
0.0
  0
LINE
  5
26A
330
5E
100
AcDbEntity
  8
1
  6
Continuous
 62
     7
100
AcDbLine
 10
70.63583102122865
 20
198.8774710520817
 30
0.0
 11
71.13583102122865
 21
198.8774710520817
 31
0.0
  0
LINE
  5
26B
330
5E
100
AcDbEntity
  8
1
  6
Continuous
 62
     7
100
AcDbLine
 10
70.13583102122865
 20
198.8774710520817
 30
0.0
 11
70.63583102122865
 21
198.8774710520817
 31
0.0
  0
LINE
  5
26C
330
5E
100
AcDbEntity
  8
1
  6
Continuous
 62
     7
100
AcDbLine
 10
69.63583102122865
 20
198.8774710520817
 30
0.0
 11
70.13583102122865
 21
198.8774710520817
 31
0.0
  0
LINE
  5
26D
330
5E
100
AcDbEntity
  8
1
  6
Continuous
 62
     7
100
AcDbLine
 10
69.13583102122865
 20
198.8774710520817
 30
0.0
 11
69.63583102122865
 21
198.8774710520817
 31
0.0
  0
LINE
  5
26E
330
5E
100
AcDbEntity
  8
1
  6
Continuous
 62
     7
100
AcDbLine
 10
81.13583102122865
 20
198.8774710520817
 30
0.0
 11
71.13583102122865
 21
198.8774710520817
 31
0.0
  0
LINE
  5
26F
330
5E
100
AcDbEntity
  8
1
  6
Continuous
 62
     7
100
AcDbLine
 10
81.13583102122865
 20
198.8774710520817
 30
0.0
 11
81.63583102122865
 21
198.8774710520817
 31
0.0
  0
LINE
  5
270
330
5E
100
AcDbEntity
  8
1
  6
Continuous
 62
     7
100
AcDbLine
 10
81.63583102122865
 20
198.8774710520817
 30
0.0
 11
82.13583102122865
 21
198.8774710520817
 31
0.0
  0
LINE
  5
271
330
5E
100
AcDbEntity
  8
1
  6
Continuous
 62
     7
100
AcDbLine
 10
82.13583102122865
 20
198.8774710520817
 30
0.0
 11
82.63583102122865
 21
198.8774710520817
 31
0.0
  0
LINE
  5
272
330
5E
100
AcDbEntity
  8
1
  6
Continuous
 62
     7
100
AcDbLine
 10
82.63583102122865
 20
198.8774710520817
 30
0.0
 11
83.13583102122865
 21
198.8774710520817
 31
0.0
  0
LINE
  5
273
330
5E
100
AcDbEntity
  8
1
  6
Continuous
 62
     7
100
AcDbLine
 10
72.13583102122865
 20
198.8774710520817
 30
0.0
 11
80.13583102122865
 21
198.8774710520817
 31
0.0
  0
LINE
  5
274
330
5E
100
AcDbEntity
  8
1
  6
Continuous
 62
     7
100
AcDbLine
 10
206.0677307778072
 20
202.2051076488591
 30
0.0
 11
211.8177307778072
 21
202.2051076488591
 31
0.0
  0
LINE
  5
275
330
5E
100
AcDbEntity
  8
1
  6
Continuous
 62
     7
100
AcDbLine
 10
211.5677307778072
 20
201.8753419286554
 30
0.0
 11
212.0677307778072
 21
201.8753419286554
 31
0.0
  0
LINE
  5
276
330
5E
100
AcDbEntity
  8
1
  6
Continuous
 62
     2
100
AcDbLine
 10
212.0677307778072
 20
198.8753419286554
 30
0.0
 11
212.0677307778072
 21
201.8753419286554
 31
0.0
  0
LINE
  5
277
330
5E
100
AcDbEntity
  8
1
  6
Continuous
 62
     7
100
AcDbLine
 10
212.5677307778072
 20
201.8753419286554
 30
0.0
 11
213.0677307778072
 21
201.8753419286554
 31
0.0
  0
LINE
  5
278
330
5E
100
AcDbEntity
  8
1
  6
Continuous
 62
     7
100
AcDbLine
 10
212.0677307778073
 20
202.1446641276786
 30
0.0
 11
213.0677307778072
 21
201.8753419286554
 31
0.0
  0
LINE
  5
279
330
5E
100
AcDbEntity
  8
1
  6
Continuous
 62
     7
100
AcDbLine
 10
213.0677307778072
 20
201.8753419286554
 30
0.0
 11
213.0677307778072
 21
198.8753419286554
 31
0.0
  0
LINE
  5
27A
330
5E
100
AcDbEntity
  8
1
  6
Continuous
 62
     2
100
AcDbLine
 10
212.5677307778072
 20
198.8753419286554
 30
0.0
 11
212.5677307778072
 21
201.8753419286554
 31
0.0
  0
LINE
  5
27B
330
5E
100
AcDbEntity
  8
1
  6
Continuous
 62
     7
100
AcDbLine
 10
212.0677307778072
 20
201.8753419286554
 30
0.0
 11
212.5677307778072
 21
201.8753419286554
 31
0.0
  0
LINE
  5
27C
330
5E
100
AcDbEntity
  8
1
  6
Continuous
 62
     2
100
AcDbLine
 10
211.5677307778072
 20
198.8753419286554
 30
0.0
 11
211.5677307778072
 21
201.8753419286554
 31
0.0
  0
LINE
  5
27D
330
5E
100
AcDbEntity
  8
1
  6
Continuous
 62
     7
100
AcDbLine
 10
211.0677307778072
 20
201.8753419286554
 30
0.0
 11
211.5677307778072
 21
201.8753419286554
 31
0.0
  0
LINE
  5
27E
330
5E
100
AcDbEntity
  8
1
  6
Continuous
 62
     7
100
AcDbLine
 10
200.3177307778072
 20
202.2051076488591
 30
0.0
 11
206.0677307778072
 21
202.2051076488591
 31
0.0
  0
LINE
  5
27F
330
5E
100
AcDbEntity
  8
1
  6
Continuous
 62
     2
100
AcDbLine
 10
205.0677307778072
 20
201.1176800308266
 30
0.0
 11
205.0677307778072
 21
199.8524409402161
 31
0.0
  0
LINE
  5
280
330
5E
100
AcDbEntity
  8
1
  6
Continuous
 62
     2
100
AcDbLine
 10
204.0677307778072
 20
201.3609952405593
 30
0.0
 11
204.0677307778072
 21
199.5929047165012
 31
0.0
  0
LINE
  5
281
330
5E
100
AcDbEntity
  8
1
  6
Continuous
 62
     7
100
AcDbLine
 10
200.0677307778072
 20
201.8753419286554
 30
0.0
 11
200.5677307778072
 21
201.8753419286554
 31
0.0
  0
LINE
  5
282
330
5E
100
AcDbEntity
  8
1
  6
Continuous
 62
     7
100
AcDbLine
 10
199.0677307778072
 20
201.8753419286554
 30
0.0
 11
199.5677307778072
 21
201.8753419286554
 31
0.0
  0
LINE
  5
283
330
5E
100
AcDbEntity
  8
1
  6
Continuous
 62
     7
100
AcDbLine
 10
199.0677307778072
 20
201.8753419286554
 30
0.0
 11
200.0677307778071
 21
202.1446641276786
 31
0.0
  0
LINE
  5
284
330
5E
100
AcDbEntity
  8
1
  6
Continuous
 62
     7
100
AcDbLine
 10
199.5677307778072
 20
201.8753419286554
 30
0.0
 11
200.0677307778072
 21
201.8753419286554
 31
0.0
  0
LINE
  5
285
330
5E
100
AcDbEntity
  8
1
  6
Continuous
 62
     7
100
AcDbLine
 10
200.5677307778072
 20
201.8753419286554
 30
0.0
 11
201.0677307778072
 21
201.8753419286554
 31
0.0
  0
LINE
  5
286
330
5E
100
AcDbEntity
  8
1
  6
Continuous
 62
     2
100
AcDbLine
 10
203.5677307778072
 20
201.4068850559413
 30
0.0
 11
203.5677307778072
 21
199.4888911193327
 31
0.0
  0
LINE
  5
287
330
5E
100
AcDbEntity
  8
1
  6
Continuous
 62
     2
100
AcDbLine
 10
204.5677307778072
 20
201.161662086877
 30
0.0
 11
204.5677307778072
 21
199.8129357570246
 31
0.0
  0
LINE
  5
288
330
5E
100
AcDbEntity
  8
1
  6
Continuous
 62
     7
100
AcDbLine
 10
201.0677307778072
 20
201.8753419286554
 30
0.0
 11
211.0677307778072
 21
201.8753419286554
 31
0.0
  0
LINE
  5
289
330
5E
100
AcDbEntity
  8
1
  6
Continuous
 62
     2
100
AcDbLine
 10
207.0677307778072
 20
199.8524409402161
 30
0.0
 11
207.0677307778072
 21
201.1176800308266
 31
0.0
  0
LINE
  5
28A
330
5E
100
AcDbEntity
  8
1
  6
Continuous
 62
     2
100
AcDbLine
 10
208.0677307778072
 20
199.5929047165012
 30
0.0
 11
208.0677307778072
 21
201.3609952405593
 31
0.0
  0
LINE
  5
28B
330
5E
100
AcDbEntity
  8
1
  6
Continuous
 62
     2
100
AcDbLine
 10
208.5677307778072
 20
199.4888911193327
 30
0.0
 11
208.5677307778072
 21
201.4068850559413
 31
0.0
  0
LINE
  5
28C
330
5E
100
AcDbEntity
  8
1
  6
Continuous
 62
     2
100
AcDbLine
 10
207.5677307778072
 20
199.8129357570246
 30
0.0
 11
207.5677307778072
 21
201.161662086877
 31
0.0
  0
LINE
  5
28D
330
5E
100
AcDbEntity
  8
1
  6
Continuous
 62
     2
100
AcDbLine
 10
209.0677307778072
 20
199.2360424088931
 30
0.0
 11
209.0677307778072
 21
201.5718684223277
 31
0.0
  0
LINE
  5
28E
330
5E
100
AcDbEntity
  8
1
  6
Continuous
 62
     2
100
AcDbLine
 10
209.5677307778072
 20
199.1298146289174
 30
0.0
 11
209.5677307778072
 21
201.5995602459202
 31
0.0
  0
LINE
  5
28F
330
5E
100
AcDbEntity
  8
1
  6
Continuous
 62
     2
100
AcDbLine
 10
210.0677307778072
 20
199.0413902411069
 30
0.0
 11
210.0677307778072
 21
201.6854155202031
 31
0.0
  0
LINE
  5
290
330
5E
100
AcDbEntity
  8
1
  6
Continuous
 62
     2
100
AcDbLine
 10
210.5677307778072
 20
198.9809292548428
 30
0.0
 11
210.5677307778072
 21
201.730929693633
 31
0.0
  0
LINE
  5
291
330
5E
100
AcDbEntity
  8
1
  6
Continuous
 62
     2
100
AcDbLine
 10
211.0677307778072
 20
198.8753419286554
 30
0.0
 11
211.0677307778072
 21
201.8753419286554
 31
0.0
  0
LINE
  5
292
330
5E
100
AcDbEntity
  8
1
  6
Continuous
 62
     7
100
AcDbLine
 10
213.0677307778072
 20
198.8753419286554
 30
0.0
 11
208.3677307778072
 21
198.8753419286554
 31
0.0
  0
LINE
  5
293
330
5E
100
AcDbEntity
  8
1
  6
Continuous
 62
     7
100
AcDbLine
 10
208.3677307778072
 20
198.8753419286554
 30
0.0
 11
199.0677307778072
 21
198.8753419286554
 31
0.0
  0
LINE
  5
294
330
5E
100
AcDbEntity
  8
1
  6
Continuous
 62
     2
100
AcDbLine
 10
203.0677307778072
 20
201.5718684223277
 30
0.0
 11
203.0677307778072
 21
199.2360424088931
 31
0.0
  0
LINE
  5
295
330
5E
100
AcDbEntity
  8
1
  6
Continuous
 62
     2
100
AcDbLine
 10
202.5677307778072
 20
201.5995602459202
 30
0.0
 11
202.5677307778072
 21
199.1298146289174
 31
0.0
  0
LINE
  5
296
330
5E
100
AcDbEntity
  8
1
  6
Continuous
 62
     2
100
AcDbLine
 10
202.0677307778072
 20
201.6854155202031
 30
0.0
 11
202.0677307778072
 21
199.0413902411069
 31
0.0
  0
LINE
  5
297
330
5E
100
AcDbEntity
  8
1
  6
Continuous
 62
     2
100
AcDbLine
 10
201.5677307778072
 20
201.730929693633
 30
0.0
 11
201.5677307778072
 21
198.9809292548428
 31
0.0
  0
LINE
  5
298
330
5E
100
AcDbEntity
  8
1
  6
Continuous
 62
     2
100
AcDbLine
 10
201.0677307778072
 20
201.8753419286554
 30
0.0
 11
201.0677307778072
 21
198.8753419286554
 31
0.0
  0
LINE
  5
299
330
5E
100
AcDbEntity
  8
1
  6
Continuous
 62
     2
100
AcDbLine
 10
200.5677307778072
 20
201.8753419286554
 30
0.0
 11
200.5677307778072
 21
198.8753419286554
 31
0.0
  0
LINE
  5
29A
330
5E
100
AcDbEntity
  8
1
  6
Continuous
 62
     2
100
AcDbLine
 10
200.0677307778072
 20
201.8753419286554
 30
0.0
 11
200.0677307778072
 21
198.8753419286554
 31
0.0
  0
LINE
  5
29B
330
5E
100
AcDbEntity
  8
1
  6
Continuous
 62
     2
100
AcDbLine
 10
199.5677307778072
 20
201.8753419286554
 30
0.0
 11
199.5677307778072
 21
198.8753419286554
 31
0.0
  0
LINE
  5
29C
330
5E
100
AcDbEntity
  8
1
  6
Continuous
 62
     7
100
AcDbLine
 10
199.0677307778072
 20
198.8753419286554
 30
0.0
 11
199.0677307778072
 21
201.8753419286554
 31
0.0
  0
ARC
  5
29D
330
5E
100
AcDbEntity
  8
1
  6
Continuous
 62
     7
100
AcDbCircle
 10
76.13583102122865
 20
177.8774710520817
 30
0.0
 40
25.0000000000001
100
AcDbArc
 50
76.702928252791
 51
90.0
  0
ARC
  5
29E
330
5E
100
AcDbEntity
  8
1
  6
Continuous
 62
     7
100
AcDbCircle
 10
76.13583102122865
 20
177.8774710520817
 30
0.0
 40
24.99999999999991
100
AcDbArc
 50
90.0
 51
103.297071747209
  0
ARC
  5
29F
330
5E
100
AcDbEntity
  8
1
  6
Continuous
 62
     7
100
AcDbCircle
 10
76.13583102122865
 20
177.8774710520817
 30
0.0
 40
25.00000000000017
100
AcDbArc
 50
76.11345963737064
 51
76.702928252791
  0
ARC
  5
2A0
330
5E
100
AcDbEntity
  8
1
  6
Continuous
 62
     7
100
AcDbCircle
 10
76.13583102122865
 20
177.8774710520817
 30
0.0
 40
25.0000000000001
100
AcDbArc
 50
103.297071747209
 51
103.8865403626289
  0
ARC
  5
2A1
330
5E
100
AcDbEntity
  8
1
  6
Continuous
 62
     7
100
AcDbCircle
 10
206.0677307778072
 20
177.8753419286554
 30
0.0
 40
24.99999999999999
100
AcDbArc
 50
76.70292825279094
 51
90.0
  0
ARC
  5
2A2
330
5E
100
AcDbEntity
  8
1
  6
Continuous
 62
     7
100
AcDbCircle
 10
206.0677307778072
 20
177.8753419286554
 30
0.0
 40
25.0
100
AcDbArc
 50
90.0
 51
103.2970717472091
  0
ARC
  5
2A3
330
5E
100
AcDbEntity
  8
1
  6
Continuous
 62
     7
100
AcDbCircle
 10
206.0677307778072
 20
177.8753419286554
 30
0.0
 40
25.00000000000004
100
AcDbArc
 50
76.11345963737082
 51
76.70292825279094
  0
ARC
  5
2A4
330
5E
100
AcDbEntity
  8
1
  6
Continuous
 62
     7
100
AcDbCircle
 10
206.0677307778072
 20
177.8753419286554
 30
0.0
 40
24.99999999999999
100
AcDbArc
 50
103.2970717472091
 51
103.8865403626292
  0
CIRCLE
  5
2A5
330
5E
100
AcDbEntity
  8
1
  6
Continuous
 62
     7
100
AcDbCircle
 10
76.13583102122865
 20
331.2515055386111
 30
0.0
 40
5.749999999999886
  0
CIRCLE
  5
2A6
330
5E
100
AcDbEntity
  8
1
  6
Continuous
 62
     7
100
AcDbCircle
 10
76.13583102122865
 20
331.2515055386111
 30
0.0
 40
6.999999999999886
  0
ENDBLK
  5
60
330
5E
100
AcDbEntity
  8
0
100
AcDbBlockEnd
  0
BLOCK
  5
62
330
61
100
AcDbEntity
  8
0
100
AcDbBlockBegin
  2
36-54-M11
 70
     0
 10
143.1893135116192
 20
95.45570164088565
 30
0.0
  3
36-54-M11
  1

  0
LINE
  5
2A7
330
61
100
AcDbEntity
  8
1
  6
Continuous
 62
     7
100
AcDbLine
 10
71.38583102122865
 20
185.3050332168405
 30
0.0
 11
71.38583102122865
 21
187.8774710520818
 31
0.0
  0
LINE
  5
2A8
330
61
100
AcDbEntity
  8
1
  6
Continuous
 62
     7
100
AcDbLine
 10
201.3177307778072
 20
185.3050332168404
 30
0.0
 11
201.3177307778072
 21
187.8753419286555
 31
0.0
  0
LINE
  5
2A9
330
61
100
AcDbEntity
  8
1
  6
Continuous
 62
     7
100
AcDbLine
 10
210.8177307778073
 20
187.8753419286555
 30
0.0
 11
210.8177307778073
 21
185.3050332168404
 31
0.0
  0
LINE
  5
2AA
330
61
100
AcDbEntity
  8
1
  6
Continuous
 62
     7
100
AcDbLine
 10
80.88583102122865
 20
187.8774710520818
 30
0.0
 11
80.88583102122865
 21
185.3050332168405
 31
0.0
  0
ENDBLK
  5
63
330
61
100
AcDbEntity
  8
0
100
AcDbBlockEnd
  0
BLOCK
  5
65
330
64
100
AcDbEntity
  8
0
100
AcDbBlockBegin
  2
37-1-13
 70
     0
 10
399.4362435232505
 20
143.9613828218052
 30
0.0
  3
37-1-13
  1

  0
LINE
  5
2AB
330
64
100
AcDbEntity
  8
1
  6
Continuous
 62
     7
100
AcDbLine
 10
212.0677307778072
 20
185.3050332168404
 30
0.0
 11
200.0677307778073
 21
185.3050332168404
 31
0.0
  0
LINE
  5
2AC
330
64
100
AcDbEntity
  8
1
  6
Continuous
 62
     7
100
AcDbLine
 10
219.1384449920787
 20
171.3050332168404
 30
0.0
 11
192.9970165635359
 21
171.3050332168404
 31
0.0
  0
LINE
  5
2AD
330
64
100
AcDbEntity
  8
1
  6
Continuous
 62
     7
100
AcDbLine
 10
63.13583102122865
 20
171.3050332168405
 30
0.0
 11
63.13583102122865
 21
178.375747431112
 31
0.0
  0
LINE
  5
2AE
330
64
100
AcDbEntity
  8
1
  6
Continuous
 62
     7
100
AcDbLine
 10
89.13583102122865
 20
178.375747431112
 30
0.0
 11
89.13583102122865
 21
171.3050332168405
 31
0.0
  0
LINE
  5
2AF
330
64
100
AcDbEntity
  8
1
  6
Continuous
 62
     7
100
AcDbLine
 10
76.13583102122865
 20
171.3050332168405
 30
0.0
 11
63.13583102122865
 21
171.3050332168405
 31
0.0
  0
LINE
  5
2B0
330
64
100
AcDbEntity
  8
1
  6
Continuous
 62
     7
100
AcDbLine
 10
76.13583102122865
 20
171.3050332168405
 30
0.0
 11
89.13583102122865
 21
171.3050332168405
 31
0.0
  0
LINE
  5
2B1
330
64
100
AcDbEntity
  8
1
  6
Continuous
 62
     7
100
AcDbLine
 10
71.13583102122865
 20
185.3050332168405
 30
0.0
 11
70.13583102122865
 21
185.3050332168405
 31
0.0
  0
LINE
  5
2B2
330
64
100
AcDbEntity
  8
1
  6
Continuous
 62
     7
100
AcDbLine
 10
76.13583102122865
 20
185.3050332168405
 30
0.0
 11
82.13583102122865
 21
185.3050332168405
 31
0.0
  0
LINE
  5
2B3
330
64
100
AcDbEntity
  8
1
  6
Continuous
 62
     7
100
AcDbLine
 10
76.13583102122865
 20
185.3050332168405
 30
0.0
 11
71.13583102122865
 21
185.3050332168405
 31
0.0
  0
LINE
  5
2B4
330
64
100
AcDbEntity
  8
1
  6
Continuous
 62
     7
100
AcDbLine
 10
65.11146185695014
 20
322.605321044323
 30
0.0
 11
64.07368215590705
 21
323.2044834340798
 31
0.0
  0
LINE
  5
2B5
330
64
100
AcDbEntity
  8
1
  6
Continuous
 62
     7
100
AcDbLine
 10
89.13583102122877
 20
326.0272140287922
 30
0.0
 11
89.13583102122877
 21
324.8288892492785
 31
0.0
  0
LINE
  5
2B6
330
64
100
AcDbEntity
  8
1
  6
Continuous
 62
     7
100
AcDbLine
 10
74.16020018550736
 20
345.1219815427183
 30
0.0
 11
75.19797988655046
 21
345.7211439324751
 31
0.0
  0
LINE
  5
2B7
330
64
100
AcDbEntity
  8
1
  6
Continuous
 62
     7
100
AcDbLine
 10
88.19797988655046
 20
323.2044834340798
 30
0.0
 11
87.16020018550736
 21
322.605321044323
 31
0.0
  0
LINE
  5
2B8
330
64
100
AcDbEntity
  8
1
  6
Continuous
 62
     7
100
AcDbLine
 10
77.07368215590697
 20
345.7211439324751
 30
0.0
 11
78.11146185695014
 21
345.1219815427183
 31
0.0
  0
LINE
  5
2B9
330
64
100
AcDbEntity
  8
1
  6
Continuous
 62
     7
100
AcDbLine
 10
63.13583102122877
 20
324.8288892492785
 30
0.0
 11
63.13583102122877
 21
326.0272140287922
 31
0.0
  0
ARC
  5
2BA
330
64
100
AcDbEntity
  8
1
  6
Continuous
 62
     7
100
AcDbCircle
 10
215.5677307778072
 20
174.8050332168404
 30
0.0
 40
5.000000000000036
100
AcDbArc
 50
315.5729959991947
 51
53.13010235415781
  0
ARC
  5
2BB
330
64
100
AcDbEntity
  8
1
  6
Continuous
 62
     7
100
AcDbCircle
 10
231.9741859829221
 20
198.7114884219553
 30
0.0
 40
23.99999999999996
100
AcDbArc
 50
213.9591925000975
 51
236.0408074999021
  0
ARC
  5
2BC
330
64
100
AcDbEntity
  8
1
  6
Continuous
 62
     7
100
AcDbCircle
 10
196.5677307778072
 20
174.8050332168404
 30
0.0
 40
4.999999999999972
100
AcDbArc
 50
126.8698976458414
 51
224.4270040008066
  0
ARC
  5
2BD
330
64
100
AcDbEntity
  8
1
  6
Continuous
 62
     7
100
AcDbCircle
 10
180.1612755726924
 20
198.7114884219553
 30
0.0
 40
23.99999999999993
100
AcDbArc
 50
303.9591925000979
 51
326.0408074999025
  0
ARC
  5
2BE
330
64
100
AcDbEntity
  8
1
  6
Continuous
 62
     7
100
AcDbCircle
 10
66.63583102122865
 20
174.8050332168405
 30
0.0
 40
4.999999999999948
100
AcDbArc
 50
126.8698976458416
 51
134.4270040008054
  0
ARC
  5
2BF
330
64
100
AcDbEntity
  8
1
  6
Continuous
 62
     7
100
AcDbCircle
 10
50.22937581611396
 20
198.7114884219553
 30
0.0
 40
23.9999999999998
100
AcDbArc
 50
303.9591925000977
 51
326.0408074999025
  0
ARC
  5
2C0
330
64
100
AcDbEntity
  8
1
  6
Continuous
 62
     7
100
AcDbCircle
 10
85.63583102122865
 20
174.8050332168405
 30
0.0
 40
5.000000000000036
100
AcDbArc
 50
45.57299599919471
 51
53.13010235415658
  0
ARC
  5
2C1
330
64
100
AcDbEntity
  8
1
  6
Continuous
 62
     7
100
AcDbCircle
 10
102.0422862263437
 20
198.7114884219553
 30
0.0
 40
24.00000000000003
100
AcDbArc
 50
213.959192500097
 51
236.0408074999019
  0
ARC
  5
2C2
330
64
100
AcDbEntity
  8
1
  6
Continuous
 62
     7
100
AcDbCircle
 10
76.13583102122877
 20
331.2515055386111
 30
0.0
 40
14.5
100
AcDbArc
 50
86.29155527472959
 51
90.0
  0
ARC
  5
2C3
330
64
100
AcDbEntity
  8
1
  6
Continuous
 62
     7
100
AcDbCircle
 10
76.13583102122877
 20
331.2515055386111
 30
0.0
 40
14.4999999999999
100
AcDbArc
 50
326.2915552747296
 51
333.7084447252705
  0
ARC
  5
2C4
330
64
100
AcDbEntity
  8
1
  6
Continuous
 62
     7
100
AcDbCircle
 10
76.13583102122877
 20
331.2515055386111
 30
0.0
 40
14.5
100
AcDbArc
 50
90.0
 51
93.70844472527087
  0
ARC
  5
2C5
330
64
100
AcDbEntity
  8
1
  6
Continuous
 62
     7
100
AcDbCircle
 10
76.13583102122877
 20
331.2515055386111
 30
0.0
 40
14.50000000000002
100
AcDbArc
 50
206.2915552747295
 51
213.7084447252704
  0
SPLINE
  5
2C6
330
64
100
AcDbEntity
  8
1
  6
Continuous
 62
     7
100
AcDbSpline
210
0.0
220
0.0
230
1.0
 70
    11
 71
     3
 72
    79
 73
    75
 74
    73
 42
0.000000001
 43
0.0000000001
 44
0.00000001
 40
0.0
 40
0.0
 40
0.0
 40
0.0
 40
0.3102615582253014
 40
0.620559542082314
 40
0.9422162975290378
 40
1.263944872753878
 40
1.606039020845075
 40
1.948193468907095
 40
2.316051885190537
 40
2.683951048239954
 40
3.079084664080399
 40
3.47424478017381
 40
3.894897959207638
 40
4.315568207494296
 40
4.757452126736474
 40
5.199346674241609
 40
5.656354161987089
 40
6.113367478658239
 40
6.578223037733446
 40
7.043080455843069
 40
7.507937873950442
 40
7.972793433018697
 40
8.429806749677594
 40
8.886814237403579
 40
9.3287087848804
 40
9.770592704081496
 40
10.19126295231282
 40
10.61191613126949
 40
11.00707624726332
 40
11.40220986296891
 40
11.77010902585001
 40
12.13796744190996
 40
12.48012188969637
 40
12.82221603741927
 40
13.1439446121615
 40
13.46560136682479
 40
13.77589934864151
 40
14.08616091447272
 40
14.39642248030382
 40
14.70672046212045
 40
15.02837721678373
 40
15.35010579152588
 40
15.6921999392488
 40
16.03435438703528
 40
16.40221280309523
 40
16.77011196597638
 40
17.16524558168197
 40
17.5604056976758
 40
17.98105887663247
 40
18.4017291248638
 40
18.84361304406486
 40
19.28550759154166
 40
19.74251507926764
 40
20.19952839592655
 40
20.6643839549948
 40
21.12924137310217
 40
21.59409879121182
 40
22.05895435028699
 40
22.51596766695807
 40
22.97297515470351
 40
23.41486970220869
 40
23.85675362145087
 40
24.27742386973752
 40
24.69807704877136
 40
25.0932371648648
 40
25.48837078070521
 40
25.85626994375465
 40
26.22412836003813
 40
26.56628280810021
 40
26.90837695619144
 40
27.23010553141622
 40
27.55176228686289
 40
27.86206027071985
 40
28.17232182894501
 40
28.17232182894501
 40
28.17232182894501
 40
28.17232182894501
 10
77.07368215590705
 20
174.8403903239761
 30
0.0
 10
77.07771534762304
 20
174.9438805058983
 30
0.0
 10
77.08578219629388
 20
175.1508730202431
 30
0.0
 10
77.1497661741034
 20
175.4597218882657
 30
0.0
 10
77.25118697040067
 20
175.7616888019998
 30
0.0
 10
77.39360947049829
 20
176.0585984581147
 30
0.0
 10
77.57271204325839
 20
176.3429165664747
 30
0.0
 10
77.79068231111894
 20
176.6184176127712
 30
0.0
 10
78.04096446515392
 20
176.8770236334396
 30
0.0
 10
78.32742662692547
 20
177.1227815230525
 30
0.0
 10
78.64125737921277
 20
177.3484267832471
 30
0.0
 10
78.987171544244
 20
177.557198451135
 30
0.0
 10
79.35529033639452
 20
177.7434192194063
 30
0.0
 10
79.74998427131135
 20
177.9091037497529
 30
0.0
 10
80.16153747128328
 20
178.0504115226026
 30
0.0
 10
80.59296317087774
 20
178.168191011177
 30
0.0
 10
81.03573719958831
 20
178.2603093128157
 30
0.0
 10
81.49079519818228
 20
178.3267952402087
 30
0.0
 10
81.95156230026342
 20
178.366852797119
 30
0.0
 10
82.41648447569436
 20
178.3801947544142
 30
0.0
 10
82.88140665112132
 20
178.3668527971975
 30
0.0
 10
83.34217375321393
 20
178.3267952403698
 30
0.0
 10
83.79723175176618
 20
178.2603093130683
 30
0.0
 10
84.24000578063111
 20
178.1681910115333
 30
0.0
 10
84.6714314796728
 20
178.0504115230804
 30
0.0
 10
85.08298468167162
 20
177.9091037503725
 30
0.0
 10
85.47767860939395
 20
177.7434192201954
 30
0.0
 10
85.84579742761605
 20
177.5571984521215
 30
0.0
 10
86.1917115010391
 20
177.348426784469
 30
0.0
 10
86.50554258297711
 20
177.1227815245462
 30
0.0
 10
86.7920035954501
 20
176.877023635255
 30
0.0
 10
87.04228987452316
 20
176.6184176149561
 30
0.0
 10
87.26024577253013
 20
176.3429165690997
 30
0.0
 10
87.43940008626922
 20
176.0585984612603
 30
0.0
 10
87.5816404376569
 20
175.7616888058479
 30
0.0
 10
87.68372408969705
 20
175.4597218933387
 30
0.0
 10
87.74531732962488
 20
175.1508730241921
 30
0.0
 10
87.76627113308643
 20
174.8403903239762
 30
0.0
 10
87.74531732962487
 20
174.5299076237601
 30
0.0
 10
87.6837240896971
 20
174.2210587546137
 30
0.0
 10
87.58164043765689
 20
173.9190918421045
 30
0.0
 10
87.43940008626922
 20
173.6221821866921
 30
0.0
 10
87.26024577253008
 20
173.3378640788528
 30
0.0
 10
87.04228987452319
 20
173.0623630329963
 30
0.0
 10
86.7920035954501
 20
172.8037570126974
 30
0.0
 10
86.50554258297714
 20
172.5579991234061
 30
0.0
 10
86.19171150103911
 20
172.3323538634833
 30
0.0
 10
85.84579742761605
 20
172.1235821958308
 30
0.0
 10
85.47767860939396
 20
171.9373614277569
 30
0.0
 10
85.08298468167163
 20
171.7716768975797
 30
0.0
 10
84.67143147967279
 20
171.6303691248721
 30
0.0
 10
84.24000578063107
 20
171.5125896364193
 30
0.0
 10
83.79723175176616
 20
171.4204713348842
 30
0.0
 10
83.34217375321393
 20
171.3539854075826
 30
0.0
 10
82.88140665112128
 20
171.3139278507551
 30
0.0
 10
82.41648447569438
 20
171.3005858935385
 30
0.0
 10
81.9515623002634
 20
171.3139278508336
 30
0.0
 10
81.4907951981823
 20
171.3539854077438
 30
0.0
 10
81.03573719958837
 20
171.4204713351368
 30
0.0
 10
80.5929631708778
 20
171.5125896367755
 30
0.0
 10
80.16153747128337
 20
171.6303691253499
 30
0.0
 10
79.74998427131135
 20
171.7716768981994
 30
0.0
 10
79.35529033639456
 20
171.937361428546
 30
0.0
 10
78.98717154424398
 20
172.1235821968173
 30
0.0
 10
78.64125737921283
 20
172.3323538647053
 30
0.0
 10
78.32742662692544
 20
172.5579991248997
 30
0.0
 10
78.04096446515392
 20
172.8037570145127
 30
0.0
 10
77.7906823111189
 20
173.0623630351812
 30
0.0
 10
77.57271204325845
 20
173.3378640814777
 30
0.0
 10
77.39360947049829
 20
173.6221821898379
 30
0.0
 10
77.25118697040071
 20
173.9190918459526
 30
0.0
 10
77.14976617410339
 20
174.2210587596867
 30
0.0
 10
77.08578219629388
 20
174.5299076277093
 30
0.0
 10
77.07771534762307
 20
174.7369001420539
 30
0.0
 10
77.07368215590705
 20
174.8403903239761
 30
0.0
 11
77.07368215590705
 21
174.8403903239761
 31
0.0
 11
77.09429924910786
 21
175.1499661221129
 31
0.0
 11
77.15485132850594
 21
175.4542986430322
 31
0.0
 11
77.25731821713777
 21
175.7591979782956
 31
0.0
 11
77.39589256206656
 21
176.0495536684662
 31
0.0
 11
77.57768460642389
 21
176.3393467991576
 31
0.0
 11
77.78948194068016
 21
176.6080688775441
 31
0.0
 11
78.04483845095399
 21
176.872857221313
 31
0.0
 11
78.32366045024315
 21
177.1128740682602
 31
0.0
 11
78.64415237786812
 21
177.3439920005855
 31
0.0
 11
78.98219734705006
 21
177.5486309903387
 31
0.0
 11
79.35736107089423
 21
177.7388973229299
 31
0.0
 11
79.74508332072705
 21
177.9020993902055
 31
0.0
 11
80.16291964518834
 21
178.0458846607875
 31
0.0
 11
80.58913846700284
 21
178.1625393093946
 31
0.0
 11
81.03652843309281
 21
178.255802711094
 31
0.0
 11
81.48871659737054
 21
178.3220374127503
 31
0.0
 11
81.95181981058295
 21
178.362362401517
 31
0.0
 11
82.41648448554724
 21
178.375747431112
 31
0.0
 11
82.88114916051146
 21
178.362362401517
 31
0.0
 11
83.34425237372375
 21
178.3220374127503
 31
0.0
 11
83.79644053800146
 21
178.2558027110941
 31
0.0
 11
84.24383050409145
 21
178.1625393093946
 31
0.0
 11
84.67004932590591
 21
178.0458846607875
 31
0.0
 11
85.08788565036716
 21
177.9020993902055
 31
0.0
 11
85.47560790020003
 21
177.7388973229298
 31
0.0
 11
85.85077162404426
 21
177.5486309903387
 31
0.0
 11
86.18881659322616
 21
177.3439920005855
 31
0.0
 11
86.50930852085116
 21
177.1128740682602
 31
0.0
 11
86.7881305201404
 21
176.872857221313
 31
0.0
 11
87.04348703041424
 21
176.6080688775441
 31
0.0
 11
87.25528436467035
 21
176.3393467991577
 31
0.0
 11
87.43707640902755
 21
176.0495536684662
 31
0.0
 11
87.57565075395644
 21
175.7591979782956
 31
0.0
 11
87.67811764258835
 21
175.4542986430322
 31
0.0
 11
87.73866972198638
 21
175.1499661221129
 31
0.0
 11
87.75928681518715
 21
174.8403903239761
 31
0.0
 11
87.73866972198638
 21
174.5308145258394
 31
0.0
 11
87.67811764258835
 21
174.2264820049202
 31
0.0
 11
87.57565075395642
 21
173.9215826696569
 31
0.0
 11
87.43707640902755
 21
173.6312269794863
 31
0.0
 11
87.25528436467035
 21
173.3414338487948
 31
0.0
 11
87.04348703041424
 21
173.0727117704083
 31
0.0
 11
86.7881305201404
 21
172.8079234266394
 31
0.0
 11
86.50930852085116
 21
172.5679065796921
 31
0.0
 11
86.18881659322616
 21
172.3367886473668
 31
0.0
 11
85.85077162404426
 21
172.1321496576136
 31
0.0
 11
85.47560790020005
 21
171.9418833250224
 31
0.0
 11
85.08788565036716
 21
171.7786812577468
 31
0.0
 11
84.67004932590591
 21
171.634895987165
 31
0.0
 11
84.24383050409145
 21
171.5182413385579
 31
0.0
 11
83.79644053800146
 21
171.4249779368584
 31
0.0
 11
83.34425237372375
 21
171.3587432352022
 31
0.0
 11
82.88114916051146
 21
171.3184182464355
 31
0.0
 11
82.41648448554724
 21
171.3050332168406
 31
0.0
 11
81.95181981058292
 21
171.3184182464355
 31
0.0
 11
81.48871659737054
 21
171.3587432352022
 31
0.0
 11
81.03652843309288
 21
171.4249779368585
 31
0.0
 11
80.58913846700295
 21
171.5182413385579
 31
0.0
 11
80.16291964518838
 21
171.6348959871649
 31
0.0
 11
79.74508332072705
 21
171.7786812577468
 31
0.0
 11
79.35736107089423
 21
171.9418833250224
 31
0.0
 11
78.98219734705006
 21
172.1321496576136
 31
0.0
 11
78.64415237786812
 21
172.3367886473669
 31
0.0
 11
78.32366045024315
 21
172.5679065796921
 31
0.0
 11
78.04483845095399
 21
172.8079234266394
 31
0.0
 11
77.78948194068016
 21
173.0727117704083
 31
0.0
 11
77.5776846064239
 21
173.3414338487948
 31
0.0
 11
77.39589256206656
 21
173.6312269794863
 31
0.0
 11
77.25731821713778
 21
173.9215826696569
 31
0.0
 11
77.15485132850594
 21
174.2264820049202
 31
0.0
 11
77.09429924910786
 21
174.5308145258395
 31
0.0
 11
77.07368215590705
 21
174.8403903239761
 31
0.0
  0
SPLINE
  5
2C7
330
64
100
AcDbEntity
  8
1
  6
Continuous
 62
     7
100
AcDbSpline
210
0.0
220
0.0
230
1.0
 70
    11
 71
     3
 72
    79
 73
    75
 74
    73
 42
0.000000001
 43
0.0000000001
 44
0.00000001
 40
0.0
 40
0.0
 40
0.0
 40
0.0
 40
0.3102615582253014
 40
0.620559542082314
 40
0.942216297529056
 40
1.263944872753908
 40
1.606039020845131
 40
1.948193468907062
 40
2.316051885190554
 40
2.683951048240007
 40
3.079084664080458
 40
3.474244780173859
 40
3.89489795920765
 40
4.315568207494269
 40
4.757452126736527
 40
5.199346674241771
 40
5.656354161987154
 40
6.113367478658205
 40
6.578223037733398
 40
7.043080455843035
 40
7.507937873950465
 40
7.972793433018748
 40
8.42980674967762
 40
8.886814237403545
 40
9.328708784880407
 40
9.770592704081544
 40
10.19126295231278
 40
10.61191613126936
 40
11.00707624726327
 40
11.40220986296885
 40
11.77010902584994
 40
12.13796744190991
 40
12.48012188969636
 40
12.82221603741927
 40
13.1439446121615
 40
13.4656013668248
 40
13.77589934864153
 40
14.08616091447274
 40
14.39642248030385
 40
14.70672046212049
 40
15.02837721678376
 40
15.35010579152591
 40
15.69219993924886
 40
16.03435438703536
 40
16.40221280309532
 40
16.77011196597649
 40
17.16524558168208
 40
17.56040569767598
 40
17.98105887663258
 40
18.40172912486379
 40
18.84361304406491
 40
19.28550759154173
 40
19.74251507926767
 40
20.19952839592653
 40
20.66438395499481
 40
21.12924137310224
 40
21.59409879121187
 40
22.05895435028706
 40
22.51596766695809
 40
22.9729751547035
 40
23.4148697022087
 40
23.85675362145095
 40
24.27742386973756
 40
24.69807704877136
 40
25.09323716486479
 40
25.48837078070521
 40
25.8562699437547
 40
26.22412836003821
 40
26.56628280810025
 40
26.90837695619145
 40
27.23010553141625
 40
27.55176228686294
 40
27.86206027071987
 40
28.17232182894506
 40
28.17232182894506
 40
28.17232182894506
 40
28.17232182894506
 10
75.19797988655054
 20
174.8403903239761
 30
0.0
 10
75.19394669483452
 20
174.9438805058983
 30
0.0
 10
75.1858798461637
 20
175.1508730202431
 30
0.0
 10
75.12189586835423
 20
175.4597218882657
 30
0.0
 10
75.02047507205684
 20
175.7616888019998
 30
0.0
 10
74.87805257195922
 20
176.0585984581146
 30
0.0
 10
74.69894999919919
 20
176.3429165664749
 30
0.0
 10
74.48097973133864
 20
176.6184176127712
 30
0.0
 10
74.23069757730366
 20
176.8770236334397
 30
0.0
 10
73.94423541553203
 20
177.1227815230525
 30
0.0
 10
73.63040466324469
 20
177.3484267832471
 30
0.0
 10
73.28449049821351
 20
177.557198451135
 30
0.0
 10
72.916371706063
 20
177.7434192194063
 30
0.0
 10
72.52167777114622
 20
177.9091037497529
 30
0.0
 10
72.11012457117418
 20
178.0504115226025
 30
0.0
 10
71.67869887157973
 20
178.168191011177
 30
0.0
 10
71.2359248428692
 20
178.2603093128157
 30
0.0
 10
70.78086684427528
 20
178.3267952402087
 30
0.0
 10
70.32009974219417
 20
178.366852797119
 30
0.0
 10
69.85517756676322
 20
178.3801947544142
 30
0.0
 10
69.39025539133625
 20
178.3668527971975
 30
0.0
 10
68.9294882892436
 20
178.3267952403699
 30
0.0
 10
68.47443029069136
 20
178.2603093130682
 30
0.0
 10
68.03165626182647
 20
178.1681910115333
 30
0.0
 10
67.60023056278473
 20
178.0504115230803
 30
0.0
 10
67.18867736078593
 20
177.9091037503726
 30
0.0
 10
66.79398343306366
 20
177.7434192201953
 30
0.0
 10
66.4258646148416
 20
177.5571984521215
 30
0.0
 10
66.07995054141858
 20
177.3484267844689
 30
0.0
 10
65.76611945948049
 20
177.1227815245463
 30
0.0
 10
65.4796584470075
 20
176.8770236352549
 30
0.0
 10
65.22937216793444
 20
176.6184176149561
 30
0.0
 10
65.01141626992742
 20
176.3429165690997
 30
0.0
 10
64.83226195618828
 20
176.0585984612604
 30
0.0
 10
64.6900216048006
 20
175.7616888058479
 30
0.0
 10
64.58793795276047
 20
175.4597218933387
 30
0.0
 10
64.52634471283255
 20
175.1508730241922
 30
0.0
 10
64.50539090937094
 20
174.8403903239761
 30
0.0
 10
64.52634471283254
 20
174.5299076237601
 30
0.0
 10
64.58793795276047
 20
174.2210587546136
 30
0.0
 10
64.69002160480059
 20
173.9190918421045
 30
0.0
 10
64.83226195618828
 20
173.622182186692
 30
0.0
 10
65.01141626992745
 20
173.3378640788528
 30
0.0
 10
65.2293721679344
 20
173.0623630329963
 30
0.0
 10
65.47965844700751
 20
172.8037570126974
 30
0.0
 10
65.76611945948048
 20
172.5579991234061
 30
0.0
 10
66.07995054141855
 20
172.3323538634834
 30
0.0
 10
66.42586461484163
 20
172.1235821958308
 30
0.0
 10
66.79398343306364
 20
171.9373614277569
 30
0.0
 10
67.18867736078595
 20
171.7716768975798
 30
0.0
 10
67.60023056278473
 20
171.6303691248719
 30
0.0
 10
68.03165626182651
 20
171.5125896364194
 30
0.0
 10
68.47443029069134
 20
171.4204713348842
 30
0.0
 10
68.92948828924361
 20
171.3539854075826
 30
0.0
 10
69.39025539133625
 20
171.3139278507551
 30
0.0
 10
69.85517756676323
 20
171.3005858935385
 30
0.0
 10
70.32009974219417
 20
171.3139278508336
 30
0.0
 10
70.78086684427531
 20
171.3539854077438
 30
0.0
 10
71.23592484286915
 20
171.4204713351368
 30
0.0
 10
71.6786988715797
 20
171.5125896367756
 30
0.0
 10
72.11012457117423
 20
171.6303691253498
 30
0.0
 10
72.5216777711462
 20
171.7716768981994
 30
0.0
 10
72.91637170606303
 20
171.9373614285459
 30
0.0
 10
73.28449049821353
 20
172.1235821968173
 30
0.0
 10
73.63040466324468
 20
172.3323538647052
 30
0.0
 10
73.94423541553205
 20
172.5579991248998
 30
0.0
 10
74.23069757730366
 20
172.8037570145127
 30
0.0
 10
74.4809797313387
 20
173.0623630351812
 30
0.0
 10
74.69894999919913
 20
173.3378640814777
 30
0.0
 10
74.87805257195922
 20
173.6221821898379
 30
0.0
 10
75.02047507205683
 20
173.9190918459527
 30
0.0
 10
75.1218958683542
 20
174.2210587596867
 30
0.0
 10
75.18587984616373
 20
174.5299076277093
 30
0.0
 10
75.19394669483455
 20
174.7369001420539
 30
0.0
 10
75.19797988655054
 20
174.8403903239761
 30
0.0
 11
75.19797988655054
 21
174.8403903239761
 31
0.0
 11
75.17736279334973
 21
175.1499661221129
 31
0.0
 11
75.11681071395165
 21
175.4542986430322
 31
0.0
 11
75.01434382531977
 21
175.7591979782956
 31
0.0
 11
74.87576948039094
 21
176.0495536684662
 31
0.0
 11
74.69397743603366
 21
176.3393467991577
 31
0.0
 11
74.48218010177746
 21
176.6080688775441
 31
0.0
 11
74.22682359150359
 21
176.872857221313
 31
0.0
 11
73.94800159221435
 21
177.1128740682602
 31
0.0
 11
73.62750966458935
 21
177.3439920005855
 31
0.0
 11
73.28946469540745
 21
177.5486309903387
 31
0.0
 11
72.91430097156332
 21
177.7388973229299
 31
0.0
 11
72.52657872173054
 21
177.9020993902055
 31
0.0
 11
72.10874239726917
 21
178.0458846607875
 31
0.0
 11
71.68252357545455
 21
178.1625393093946
 31
0.0
 11
71.23513360936468
 21
178.255802711094
 31
0.0
 11
70.78294544508705
 21
178.3220374127503
 31
0.0
 11
70.31984223187466
 21
178.362362401517
 31
0.0
 11
69.85517755691035
 21
178.375747431112
 31
0.0
 11
69.39051288194608
 21
178.362362401517
 31
0.0
 11
68.92740966873376
 21
178.3220374127503
 31
0.0
 11
68.47522150445607
 21
178.2558027110941
 31
0.0
 11
68.02783153836614
 21
178.1625393093946
 31
0.0
 11
67.60161271655164
 21
178.0458846607875
 31
0.0
 11
67.18377639209035
 21
177.9020993902055
 31
0.0
 11
66.79605414225757
 21
177.7388973229298
 31
0.0
 11
66.42089041841345
 21
177.5486309903387
 31
0.0
 11
66.08284544923148
 21
177.3439920005854
 31
0.0
 11
65.76235352160646
 21
177.1128740682602
 31
0.0
 11
65.48353152231722
 21
176.872857221313
 31
0.0
 11
65.22817501204335
 21
176.6080688775441
 31
0.0
 11
65.01637767778719
 21
176.3393467991577
 31
0.0
 11
64.83458563342995
 21
176.0495536684662
 31
0.0
 11
64.69601128850108
 21
175.7591979782956
 31
0.0
 11
64.59354439986916
 21
175.4542986430322
 31
0.0
 11
64.53299232047105
 21
175.1499661221129
 31
0.0
 11
64.51237522727024
 21
174.8403903239761
 31
0.0
 11
64.53299232047105
 21
174.5308145258394
 31
0.0
 11
64.59354439986916
 21
174.2264820049202
 31
0.0
 11
64.69601128850108
 21
173.9215826696569
 31
0.0
 11
64.83458563342995
 21
173.6312269794863
 31
0.0
 11
65.0163776777872
 21
173.3414338487948
 31
0.0
 11
65.22817501204335
 21
173.0727117704083
 31
0.0
 11
65.48353152231721
 21
172.8079234266394
 31
0.0
 11
65.76235352160646
 21
172.5679065796921
 31
0.0
 11
66.08284544923148
 21
172.3367886473668
 31
0.0
 11
66.42089041841345
 21
172.1321496576136
 31
0.0
 11
66.79605414225759
 21
171.9418833250224
 31
0.0
 11
67.18377639209035
 21
171.7786812577468
 31
0.0
 11
67.60161271655164
 21
171.6348959871649
 31
0.0
 11
68.02783153836614
 21
171.5182413385579
 31
0.0
 11
68.47522150445609
 21
171.4249779368584
 31
0.0
 11
68.92740966873376
 21
171.3587432352022
 31
0.0
 11
69.39051288194608
 21
171.3184182464355
 31
0.0
 11
69.85517755691035
 21
171.3050332168406
 31
0.0
 11
70.31984223187466
 21
171.3184182464355
 31
0.0
 11
70.78294544508705
 21
171.3587432352022
 31
0.0
 11
71.23513360936465
 21
171.4249779368585
 31
0.0
 11
71.68252357545455
 21
171.5182413385579
 31
0.0
 11
72.10874239726917
 21
171.6348959871649
 31
0.0
 11
72.52657872173054
 21
171.7786812577468
 31
0.0
 11
72.91430097156334
 21
171.9418833250224
 31
0.0
 11
73.28946469540745
 21
172.1321496576136
 31
0.0
 11
73.62750966458937
 21
172.3367886473669
 31
0.0
 11
73.94800159221435
 21
172.5679065796921
 31
0.0
 11
74.22682359150359
 21
172.8079234266394
 31
0.0
 11
74.48218010177746
 21
173.0727117704083
 31
0.0
 11
74.69397743603366
 21
173.3414338487948
 31
0.0
 11
74.87576948039094
 21
173.6312269794863
 31
0.0
 11
75.01434382531976
 21
173.9215826696569
 31
0.0
 11
75.11681071395165
 21
174.2264820049202
 31
0.0
 11
75.17736279334974
 21
174.5308145258394
 31
0.0
 11
75.19797988655054
 21
174.8403903239761
 31
0.0
  0
SPLINE
  5
2C8
330
64
100
AcDbEntity
  8
1
  6
Continuous
 62
     7
100
AcDbSpline
210
0.0
220
0.0
230
1.0
 70
    11
 71
     3
 72
    79
 73
    75
 74
    73
 42
0.000000001
 43
0.0000000001
 44
0.00000001
 40
0.0
 40
0.0
 40
0.0
 40
0.0
 40
0.2803981055170415
 40
0.5607977780793441
 40
0.8427454767814635
 40
1.124697465942888
 40
1.409536444711907
 40
1.69438149409214
 40
1.98307130343376
 40
2.271767836809157
 40
2.564776135645491
 40
2.857790848031742
 40
3.155055692063474
 40
3.452325972452653
 40
3.753284820909452
 40
4.054247736388254
 40
4.357919800455206
 40
4.66159436177142
 40
4.966700742338074
 40
5.271807963175692
 40
5.576915184002904
 40
5.882021564538406
 40
6.185696125802592
 40
6.489368189796015
 40
6.790331105179818
 40
7.091289953518742
 40
7.388560233767529
 40
7.685825077633748
 40
7.978839789830529
 40
8.271848088449172
 40
8.560544621579755
 40
8.849234430642527
 40
9.134079479707301
 40
9.418918458106305
 40
9.700870446812877
 40
9.982818144856124
 40
10.26321781600883
 40
10.54361593035237
 40
10.82401404469594
 40
11.10441371584873
 40
11.386361413892
 40
11.66831340259853
 40
11.95315238099754
 40
12.23799743006233
 40
12.52668723912512
 40
12.81538377225566
 40
13.10839207087435
 40
13.40140678307111
 40
13.69867162693734
 40
13.9959419071861
 40
14.29690075552499
 40
14.59786367090884
 40
14.90153573490225
 40
15.20521029616642
 40
15.51031667670193
 40
15.81542389752914
 40
16.12053111836679
 40
16.42563749893343
 40
16.72931206024964
 40
17.03298412431657
 40
17.33394703979535
 40
17.63490588825218
 40
17.93217616864131
 40
18.22944101267308
 40
18.52245572505937
 40
18.81546402389569
 40
19.10416055727106
 40
19.39285036661268
 40
19.67769541599291
 40
19.96253439476196
 40
20.24448638392337
 40
20.52643408262547
 40
20.80683375518781
 40
21.08723186070493
 40
21.08723186070493
 40
21.08723186070493
 40
21.08723186070493
 10
194.8094005286095
 20
178.3050332168404
 30
0.0
 10
194.7158999885674
 20
178.3024518310343
 30
0.0
 10
194.5288983857653
 20
178.2972890503297
 30
0.0
 10
194.2504139745722
 20
178.2558167017664
 30
0.0
 10
193.9764717774197
 20
178.1899165419248
 30
0.0
 10
193.7085436116508
 20
178.0976844329674
 30
0.0
 10
193.4494978237802
 20
177.9806022438385
 30
0.0
 10
193.2003385293634
 20
177.8391259624395
 30
0.0
 10
192.9640285089492
 20
177.6748436166031
 30
0.0
 10
192.7412535148115
 20
177.4883834685244
 30
0.0
 10
192.5347974823054
 20
177.2819589937114
 30
0.0
 10
192.3451847384654
 20
177.0562412993879
 30
0.0
 10
192.1747855623469
 20
176.8139505011428
 30
0.0
 10
192.0240727545512
 20
176.5558930083991
 30
0.0
 10
191.894849617842
 20
176.2850658050064
 30
0.0
 10
191.787569944477
 20
176.0025489515933
 30
0.0
 10
191.7034154407436
 20
175.7113609810783
 30
0.0
 10
191.6427721667358
 20
175.4129822082369
 30
0.0
 10
191.6062384042893
 20
175.1102212364259
 30
0.0
 10
191.5940193733777
 20
174.8050332262433
 30
0.0
 10
191.6062384039391
 20
174.4998452160587
 30
0.0
 10
191.6427721660347
 20
174.1970842442321
 30
0.0
 10
191.7034154396893
 20
173.8987054713893
 30
0.0
 10
191.7875699430664
 20
173.6075175007854
 30
0.0
 10
191.8948496160707
 20
173.3250006475691
 30
0.0
 10
192.0240727524144
 20
173.0541734432731
 30
0.0
 10
192.1747855598378
 20
172.7961159536465
 30
0.0
 10
192.3451847355769
 20
172.5538251435901
 30
0.0
 10
192.5347974790279
 20
172.3281074924282
 30
0.0
 10
192.7412535111347
 20
172.1216828574343
 30
0.0
 10
192.9640285048585
 20
171.9352232982862
 30
0.0
 10
193.2003385248403
 20
171.7709387706006
 30
0.0
 10
193.4494978187946
 20
171.6294705275522
 30
0.0
 10
193.7085436061552
 20
171.5123585239685
 30
0.0
 10
193.9764717712889
 20
171.4202366055097
 30
0.0
 10
194.2504139674888
 20
171.353926839952
 30
0.0
 10
194.5288983805253
 20
171.3139751748622
 30
0.0
 10
194.8094005286094
 20
171.3005622652412
 30
0.0
 10
195.0899026766938
 20
171.3139751748622
 30
0.0
 10
195.3683870897303
 20
171.353926839952
 30
0.0
 10
195.6423292859302
 20
171.4202366055096
 30
0.0
 10
195.910257451064
 20
171.5123585239685
 30
0.0
 10
196.1693032384245
 20
171.6294705275522
 30
0.0
 10
196.4184625323788
 20
171.7709387706006
 30
0.0
 10
196.6547725523606
 20
171.9352232982862
 30
0.0
 10
196.8775475460844
 20
172.1216828574342
 30
0.0
 10
197.0840035781912
 20
172.3281074924283
 30
0.0
 10
197.2736163216422
 20
172.5538251435901
 30
0.0
 10
197.4440154973814
 20
172.7961159536465
 30
0.0
 10
197.5947283048047
 20
173.0541734432731
 30
0.0
 10
197.7239514411483
 20
173.3250006475692
 30
0.0
 10
197.8312311141527
 20
173.6075175007852
 30
0.0
 10
197.9153856175298
 20
173.8987054713893
 30
0.0
 10
197.9760288911843
 20
174.1970842442322
 30
0.0
 10
198.0125626532799
 20
174.4998452160586
 30
0.0
 10
198.0247816838414
 20
174.8050332262434
 30
0.0
 10
198.0125626529299
 20
175.1102212364259
 30
0.0
 10
197.9760288904832
 20
175.4129822082369
 30
0.0
 10
197.9153856164755
 20
175.7113609810783
 30
0.0
 10
197.8312311127421
 20
176.0025489515933
 30
0.0
 10
197.723951439377
 20
176.2850658050064
 30
0.0
 10
197.5947283026679
 20
176.555893008399
 30
0.0
 10
197.4440154948722
 20
176.8139505011429
 30
0.0
 10
197.2736163187538
 20
177.0562412993879
 30
0.0
 10
197.0840035749137
 20
177.2819589937114
 30
0.0
 10
196.8775475424076
 20
177.4883834685244
 30
0.0
 10
196.6547725482699
 20
177.6748436166031
 30
0.0
 10
196.4184625278558
 20
177.8391259624395
 30
0.0
 10
196.1693032334389
 20
177.9806022438385
 30
0.0
 10
195.9102574455683
 20
178.0976844329674
 30
0.0
 10
195.6423292797995
 20
178.1899165419247
 30
0.0
 10
195.3683870826469
 20
178.2558167017664
 30
0.0
 10
195.0899026714538
 20
178.2972890503298
 30
0.0
 10
194.9029010686517
 20
178.3024518310343
 30
0.0
 10
194.8094005286095
 20
178.3050332168404
 30
0.0
 11
194.8094005286095
 21
178.3050332168404
 31
0.0
 11
194.5293205297399
 21
178.2916804315423
 31
0.0
 11
194.2517627213613
 21
178.2518603523832
 31
0.0
 11
193.9777113169824
 21
178.1856007696593
 31
0.0
 11
193.7110684567079
 21
178.0939573895911
 31
0.0
 11
193.4514800321719
 21
177.976709389306
 31
0.0
 11
193.2037464562764
 21
177.836122130086
 31
0.0
 11
192.9666459716674
 21
177.6714249347339
 31
0.0
 11
192.7452114423326
 21
177.4861887677568
 31
0.0
 11
192.5379280530228
 21
177.2790958908416
 31
0.0
 11
192.3493957692452
 21
177.0547898507433
 31
0.0
 11
192.1783072226716
 21
176.8116950200425
 31
0.0
 11
192.0283260959487
 21
176.5550332168404
 31
0.0
 11
191.8986493160744
 21
176.2834449968693
 31
0.0
 11
191.791757961997
 21
176.0021037184803
 31
0.0
 11
191.7073919006667
 21
175.7103862349349
 31
0.0
 11
191.6468793704309
 21
175.4128018386747
 31
0.0
 11
191.610300421868
 21
175.1098961041404
 31
0.0
 11
191.5980923839433
 21
174.8050332168404
 31
0.0
 11
191.610300421868
 21
174.5001703295405
 31
0.0
 11
191.6468793704309
 21
174.1972645950062
 31
0.0
 11
191.7073919006667
 21
173.899680198746
 31
0.0
 11
191.791757961997
 21
173.6079627152006
 31
0.0
 11
191.8986493160743
 21
173.3266214368116
 31
0.0
 11
192.0283260959487
 21
173.0550332168404
 31
0.0
 11
192.1783072226716
 21
172.7983714136383
 31
0.0
 11
192.3493957692452
 21
172.5552765829375
 31
0.0
 11
192.5379280530228
 21
172.3309705428392
 31
0.0
 11
192.7452114423326
 21
172.123877665924
 31
0.0
 11
192.9666459716674
 21
171.938641498947
 31
0.0
 11
193.2037464562764
 21
171.7739443035949
 31
0.0
 11
193.4514800321718
 21
171.6333570443749
 31
0.0
 11
193.7110684567079
 21
171.5161090440897
 31
0.0
 11
193.9777113169824
 21
171.4244656640217
 31
0.0
 11
194.2517627213613
 21
171.3582060812977
 31
0.0
 11
194.5293205297399
 21
171.3183860021385
 31
0.0
 11
194.8094005286095
 21
171.3050332168404
 31
0.0
 11
195.0894805274791
 21
171.3183860021386
 31
0.0
 11
195.3670383358578
 21
171.3582060812977
 31
0.0
 11
195.6410897402367
 21
171.4244656640217
 31
0.0
 11
195.9077326005112
 21
171.5161090440897
 31
0.0
 11
196.1673210250473
 21
171.6333570443749
 31
0.0
 11
196.4150546009427
 21
171.7739443035949
 31
0.0
 11
196.6521550855517
 21
171.938641498947
 31
0.0
 11
196.8735896148865
 21
172.123877665924
 31
0.0
 11
197.0808730041963
 21
172.3309705428392
 31
0.0
 11
197.2694052879739
 21
172.5552765829375
 31
0.0
 11
197.4404938345475
 21
172.7983714136383
 31
0.0
 11
197.5904749612704
 21
173.0550332168404
 31
0.0
 11
197.7201517411447
 21
173.3266214368116
 31
0.0
 11
197.8270430952221
 21
173.6079627152006
 31
0.0
 11
197.9114091565523
 21
173.899680198746
 31
0.0
 11
197.9719216867881
 21
174.1972645950062
 31
0.0
 11
198.0085006353511
 21
174.5001703295405
 31
0.0
 11
198.0207086732758
 21
174.8050332168404
 31
0.0
 11
198.0085006353511
 21
175.1098961041405
 31
0.0
 11
197.9719216867881
 21
175.4128018386747
 31
0.0
 11
197.9114091565524
 21
175.7103862349349
 31
0.0
 11
197.8270430952221
 21
176.0021037184803
 31
0.0
 11
197.7201517411447
 21
176.2834449968693
 31
0.0
 11
197.5904749612704
 21
176.5550332168404
 31
0.0
 11
197.4404938345475
 21
176.8116950200425
 31
0.0
 11
197.2694052879739
 21
177.0547898507433
 31
0.0
 11
197.0808730041963
 21
177.2790958908416
 31
0.0
 11
196.8735896148865
 21
177.4861887677568
 31
0.0
 11
196.6521550855517
 21
177.6714249347339
 31
0.0
 11
196.4150546009427
 21
177.836122130086
 31
0.0
 11
196.1673210250472
 21
177.976709389306
 31
0.0
 11
195.9077326005112
 21
178.0939573895911
 31
0.0
 11
195.6410897402367
 21
178.1856007696592
 31
0.0
 11
195.3670383358578
 21
178.2518603523832
 31
0.0
 11
195.0894805274792
 21
178.2916804315423
 31
0.0
 11
194.8094005286095
 21
178.3050332168404
 31
0.0
  0
SPLINE
  5
2C9
330
64
100
AcDbEntity
  8
1
  6
Continuous
 62
     7
100
AcDbSpline
210
0.0
220
0.0
230
1.0
 70
     8
 71
     3
 72
    29
 73
    25
 74
    23
 42
0.000000001
 43
0.0000000001
 44
0.00000001
 40
0.0
 40
0.0
 40
0.0
 40
0.0
 40
0.6069077071334625
 40
1.212222618922079
 40
1.842666699980955
 40
2.474631891987753
 40
3.102420163134991
 40
3.729333881624537
 40
4.271042929453225
 40
4.8129853172414
 40
5.340107969104131
 40
5.86624891494878
 40
6.263874824440354
 40
6.661485222726744
 40
7.280966483141122
 40
7.902596723210165
 40
8.549168899022689
 40
9.19589675558485
 40
9.72241595671196
 40
10.24911839923916
 40
11.07897535377084
 40
11.90732205839653
 40
12.67331707894445
 40
13.4419126848566
 40
13.4419126848566
 40
13.4419126848566
 40
13.4419126848566
 10
206.0677307778072
 20
178.3050332168404
 30
0.0
 10
205.8656709502615
 20
178.2951578434765
 30
0.0
 10
205.4620815905843
 20
178.2754330022638
 30
0.0
 10
204.8503760425006
 20
178.2116426540424
 30
0.0
 10
204.2409589813583
 20
178.0774593563019
 30
0.0
 10
203.6425528063802
 20
177.8770037367755
 30
0.0
 10
203.0679902749064
 20
177.6184426205452
 30
0.0
 10
202.5530924775377
 20
177.3095132314409
 30
0.0
 10
202.1040736037819
 20
176.9556963074963
 30
0.0
 10
201.7301320014839
 20
176.5676716399794
 30
0.0
 10
201.4231661001772
 20
176.1307412369043
 30
0.0
 10
201.2158574427377
 20
175.690527270468
 30
0.0
 10
201.0999548545174
 20
175.2638181504154
 30
0.0
 10
201.0492516496399
 20
174.7929027086134
 30
0.0
 10
201.1097079728809
 20
174.2439281163725
 30
0.0
 10
201.3226552045103
 20
173.6461820510508
 30
0.0
 10
201.6698921416625
 20
173.1045798059102
 30
0.0
 10
202.0912498672427
 20
172.6639718385202
 30
0.0
 10
202.5386633572231
 20
172.3140979155506
 30
0.0
 10
203.0744997427681
 20
171.9851875332091
 30
0.0
 10
203.7393907921541
 20
171.6814489128072
 30
0.0
 10
204.5190518527907
 20
171.4566790470909
 30
0.0
 10
205.301457468895
 20
171.3522922477
 30
0.0
 10
205.8120179350687
 20
171.3208697571941
 30
0.0
 10
206.0677307778072
 20
171.3051318929274
 30
0.0
 11
206.0677307778072
 21
178.3050332168404
 31
0.0
 11
205.461844756049
 21
178.2698323510781
 31
0.0
 11
204.8604019365676
 21
178.2014753589939
 31
0.0
 11
204.2445107248265
 21
178.0667988731696
 31
0.0
 11
203.6450492632778
 21
177.8667339812245
 31
0.0
 11
203.0733504899577
 21
177.6073527429742
 31
0.0
 11
202.5367852729446
 21
177.2831327881962
 31
0.0
 11
202.1123527341655
 21
176.9465236482151
 31
0.0
 11
201.7376037588851
 21
176.5550332168404
 31
0.0
 11
201.4360478729251
 21
176.1226880556218
 31
0.0
 11
201.2140275590913
 21
175.6456856700057
 31
0.0
 11
201.1102668419483
 21
175.261836639876
 31
0.0
 11
201.0685087441275
 21
174.8664250940617
 31
0.0
 11
201.1331023557489
 21
174.2503206398519
 31
0.0
 11
201.3407205259002
 21
173.6643864695751
 31
0.0
 11
201.6860931267552
 21
173.1177848356611
 31
0.0
 11
202.1303672533581
 21
172.6478088555807
 31
0.0
 11
202.5442376721328
 21
172.3223342080095
 31
0.0
 11
202.992276519357
 21
172.0454287098299
 31
0.0
 11
203.7470372259945
 21
171.7004666216524
 31
0.0
 11
204.5431935363826
 21
171.4717891319061
 31
0.0
 11
205.3012026669822
 21
171.3614690028915
 31
0.0
 11
206.0677307778072
 21
171.3051318929274
 31
0.0
  0
SPLINE
  5
2CA
330
64
100
AcDbEntity
  8
1
  6
Continuous
 62
     7
100
AcDbSpline
210
0.0
220
0.0
230
1.0
 70
    11
 71
     3
 72
    79
 73
    75
 74
    73
 42
0.000000001
 43
0.0000000001
 44
0.00000001
 40
0.0
 40
0.0
 40
0.0
 40
0.0
 40
0.2803981055170415
 40
0.5607977780793441
 40
0.8427454767814635
 40
1.124697465942861
 40
1.409536444711932
 40
1.69438149409214
 40
1.98307130343376
 40
2.271767836809136
 40
2.564776135645491
 40
2.857790848031741
 40
3.155055692063489
 40
3.452325972452654
 40
3.753284820909441
 40
4.054247736388253
 40
4.357919800455197
 40
4.661594361771411
 40
4.966700742338065
 40
5.271807963175684
 40
5.576915184002897
 40
5.882021564538399
 40
6.185696125802579
 40
6.489368189796003
 40
6.790331105179816
 40
7.091289953518728
 40
7.3885602337675
 40
7.685825077633736
 40
7.978839789830517
 40
8.27184808844918
 40
8.56054462157976
 40
8.849234430642516
 40
9.13407947970733
 40
9.41891845810632
 40
9.700870446812866
 40
9.982818144856113
 40
10.26321781600885
 40
10.54361593035236
 40
10.82401404469593
 40
11.10441371584872
 40
11.38636141389199
 40
11.66831340259854
 40
11.95315238099753
 40
12.23799743006232
 40
12.52668723912503
 40
12.81538377225565
 40
13.1083920708743
 40
13.40140678307104
 40
13.6986716269373
 40
13.99594190718609
 40
14.29690075552498
 40
14.59786367090882
 40
14.90153573490223
 40
15.2052102961664
 40
15.51031667670191
 40
15.81542389752912
 40
16.12053111836677
 40
16.42563749893341
 40
16.72931206024962
 40
17.03298412431654
 40
17.33394703979532
 40
17.63490588825214
 40
17.93217616864133
 40
18.2294410126731
 40
18.52245572505939
 40
18.81546402389565
 40
19.10416055727103
 40
19.39285036661264
 40
19.67769541599287
 40
19.96253439476189
 40
20.24448638392333
 40
20.52643408262543
 40
20.80683375518782
 40
21.08723186070489
 40
21.08723186070489
 40
21.08723186070489
 40
21.08723186070489
 10
217.326061027005
 20
178.3050332168404
 30
0.0
 10
217.4195615670472
 20
178.3024518310343
 30
0.0
 10
217.6065631698492
 20
178.2972890503297
 30
0.0
 10
217.8850475810423
 20
178.2558167017665
 30
0.0
 10
218.1589897781949
 20
178.1899165419247
 30
0.0
 10
218.4269179439637
 20
178.0976844329674
 30
0.0
 10
218.6859637318342
 20
177.9806022438385
 30
0.0
 10
218.9351230262512
 20
177.8391259624394
 30
0.0
 10
219.1714330466654
 20
177.6748436166032
 30
0.0
 10
219.394208040803
 20
177.4883834685243
 30
0.0
 10
219.6006640733091
 20
177.2819589937114
 30
0.0
 10
219.7902768171491
 20
177.0562412993879
 30
0.0
 10
219.9606759932677
 20
176.813950501143
 30
0.0
 10
220.1113888010632
 20
176.555893008399
 30
0.0
 10
220.2406119377724
 20
176.2850658050064
 30
0.0
 10
220.3478916111375
 20
176.0025489515932
 30
0.0
 10
220.4320461148709
 20
175.7113609810782
 30
0.0
 10
220.4926893888787
 20
175.412982208237
 30
0.0
 10
220.5292231513252
 20
175.1102212364259
 30
0.0
 10
220.5414421822369
 20
174.8050332262434
 30
0.0
 10
220.5292231516752
 20
174.4998452160586
 30
0.0
 10
220.4926893895798
 20
174.1970842442321
 30
0.0
 10
220.4320461159253
 20
173.8987054713893
 30
0.0
 10
220.3478916125481
 20
173.6075175007853
 30
0.0
 10
220.2406119395438
 20
173.3250006475692
 30
0.0
 10
220.1113888032001
 20
173.0541734432731
 30
0.0
 10
219.9606759957768
 20
172.7961159536465
 30
0.0
 10
219.7902768200376
 20
172.5538251435901
 30
0.0
 10
219.6006640765866
 20
172.3281074924283
 30
0.0
 10
219.3942080444798
 20
172.1216828574342
 30
0.0
 10
219.1714330507561
 20
171.9352232982862
 30
0.0
 10
218.9351230307742
 20
171.7709387706005
 30
0.0
 10
218.6859637368199
 20
171.6294705275523
 30
0.0
 10
218.4269179494594
 20
171.5123585239685
 30
0.0
 10
218.1589897843255
 20
171.4202366055097
 30
0.0
 10
217.8850475881258
 20
171.353926839952
 30
0.0
 10
217.6065631750891
 20
171.3139751748621
 30
0.0
 10
217.326061027005
 20
171.3005622652412
 30
0.0
 10
217.0455588789208
 20
171.3139751748622
 30
0.0
 10
216.7670744658842
 20
171.353926839952
 30
0.0
 10
216.4931322696843
 20
171.4202366055096
 30
0.0
 10
216.2252041045506
 20
171.5123585239685
 30
0.0
 10
215.9661583171899
 20
171.6294705275522
 30
0.0
 10
215.7169990232358
 20
171.7709387706005
 30
0.0
 10
215.4806890032539
 20
171.9352232982862
 30
0.0
 10
215.2579140095301
 20
172.1216828574343
 30
0.0
 10
215.0514579774234
 20
172.3281074924282
 30
0.0
 10
214.8618452339723
 20
172.5538251435901
 30
0.0
 10
214.6914460582333
 20
172.7961159536465
 30
0.0
 10
214.5407332508096
 20
173.054173443273
 30
0.0
 10
214.4115101144662
 20
173.3250006475693
 30
0.0
 10
214.3042304414618
 20
173.6075175007853
 30
0.0
 10
214.2200759380847
 20
173.8987054713893
 30
0.0
 10
214.1594326644303
 20
174.1970842442322
 30
0.0
 10
214.1228989023346
 20
174.4998452160586
 30
0.0
 10
214.110679871773
 20
174.8050332262433
 30
0.0
 10
214.1228989026847
 20
175.110221236426
 30
0.0
 10
214.1594326651313
 20
175.4129822082369
 30
0.0
 10
214.2200759391391
 20
175.7113609810783
 30
0.0
 10
214.3042304428724
 20
176.0025489515933
 30
0.0
 10
214.4115101162375
 20
176.2850658050065
 30
0.0
 10
214.5407332529466
 20
176.5558930083991
 30
0.0
 10
214.6914460607424
 20
176.813950501143
 30
0.0
 10
214.8618452368608
 20
177.0562412993879
 30
0.0
 10
215.0514579807009
 20
177.2819589937114
 30
0.0
 10
215.2579140132068
 20
177.4883834685244
 30
0.0
 10
215.4806890073448
 20
177.6748436166031
 30
0.0
 10
215.7169990277587
 20
177.8391259624394
 30
0.0
 10
215.9661583221757
 20
177.9806022438385
 30
0.0
 10
216.2252041100461
 20
178.0976844329674
 30
0.0
 10
216.493132275815
 20
178.1899165419247
 30
0.0
 10
216.7670744729677
 20
178.2558167017665
 30
0.0
 10
217.0455588841606
 20
178.2972890503297
 30
0.0
 10
217.2325604869629
 20
178.3024518310343
 30
0.0
 10
217.326061027005
 20
178.3050332168404
 30
0.0
 11
217.326061027005
 21
178.3050332168404
 31
0.0
 11
217.6061410258746
 21
178.2916804315423
 31
0.0
 11
217.8836988342532
 21
178.2518603523832
 31
0.0
 11
218.1577502386321
 21
178.1856007696593
 31
0.0
 11
218.4243930989066
 21
178.0939573895911
 31
0.0
 11
218.6839815234426
 21
177.976709389306
 31
0.0
 11
218.9317150993381
 21
177.836122130086
 31
0.0
 11
219.1688155839471
 21
177.6714249347339
 31
0.0
 11
219.3902501132819
 21
177.4861887677568
 31
0.0
 11
219.5975335025917
 21
177.2790958908416
 31
0.0
 11
219.7860657863693
 21
177.0547898507433
 31
0.0
 11
219.9571543329429
 21
176.8116950200425
 31
0.0
 11
220.1071354596658
 21
176.5550332168404
 31
0.0
 11
220.2368122395401
 21
176.2834449968693
 31
0.0
 11
220.3437035936175
 21
176.0021037184803
 31
0.0
 11
220.4280696549478
 21
175.7103862349349
 31
0.0
 11
220.4885821851836
 21
175.4128018386747
 31
0.0
 11
220.5251611337465
 21
175.1098961041404
 31
0.0
 11
220.5373691716712
 21
174.8050332168404
 31
0.0
 11
220.5251611337465
 21
174.5001703295405
 31
0.0
 11
220.4885821851836
 21
174.1972645950062
 31
0.0
 11
220.4280696549478
 21
173.899680198746
 31
0.0
 11
220.3437035936175
 21
173.6079627152006
 31
0.0
 11
220.2368122395401
 21
173.3266214368116
 31
0.0
 11
220.1071354596658
 21
173.0550332168404
 31
0.0
 11
219.9571543329429
 21
172.7983714136383
 31
0.0
 11
219.7860657863693
 21
172.5552765829375
 31
0.0
 11
219.5975335025917
 21
172.3309705428392
 31
0.0
 11
219.3902501132819
 21
172.123877665924
 31
0.0
 11
219.1688155839471
 21
171.938641498947
 31
0.0
 11
218.9317150993381
 21
171.7739443035949
 31
0.0
 11
218.6839815234426
 21
171.6333570443749
 31
0.0
 11
218.4243930989066
 21
171.5161090440897
 31
0.0
 11
218.1577502386321
 21
171.4244656640217
 31
0.0
 11
217.8836988342532
 21
171.3582060812977
 31
0.0
 11
217.6061410258746
 21
171.3183860021385
 31
0.0
 11
217.326061027005
 21
171.3050332168404
 31
0.0
 11
217.0459810281354
 21
171.3183860021386
 31
0.0
 11
216.7684232197567
 21
171.3582060812977
 31
0.0
 11
216.4943718153778
 21
171.4244656640217
 31
0.0
 11
216.2277289551033
 21
171.5161090440897
 31
0.0
 11
215.9681405305672
 21
171.6333570443749
 31
0.0
 11
215.7204069546718
 21
171.7739443035949
 31
0.0
 11
215.4833064700629
 21
171.938641498947
 31
0.0
 11
215.261871940728
 21
172.123877665924
 31
0.0
 11
215.0545885514183
 21
172.3309705428392
 31
0.0
 11
214.8660562676407
 21
172.5552765829375
 31
0.0
 11
214.6949677210671
 21
172.7983714136383
 31
0.0
 11
214.5449865943441
 21
173.0550332168404
 31
0.0
 11
214.4153098144698
 21
173.3266214368116
 31
0.0
 11
214.3084184603924
 21
173.6079627152006
 31
0.0
 11
214.2240523990622
 21
173.899680198746
 31
0.0
 11
214.1635398688264
 21
174.1972645950062
 31
0.0
 11
214.1269609202634
 21
174.5001703295405
 31
0.0
 11
214.1147528823387
 21
174.8050332168404
 31
0.0
 11
214.1269609202634
 21
175.1098961041405
 31
0.0
 11
214.1635398688264
 21
175.4128018386747
 31
0.0
 11
214.2240523990622
 21
175.7103862349349
 31
0.0
 11
214.3084184603924
 21
176.0021037184803
 31
0.0
 11
214.4153098144698
 21
176.2834449968693
 31
0.0
 11
214.5449865943441
 21
176.5550332168404
 31
0.0
 11
214.6949677210671
 21
176.8116950200425
 31
0.0
 11
214.8660562676407
 21
177.0547898507433
 31
0.0
 11
215.0545885514183
 21
177.2790958908416
 31
0.0
 11
215.261871940728
 21
177.4861887677568
 31
0.0
 11
215.4833064700629
 21
177.6714249347339
 31
0.0
 11
215.7204069546718
 21
177.836122130086
 31
0.0
 11
215.9681405305673
 21
177.976709389306
 31
0.0
 11
216.2277289551033
 21
178.0939573895911
 31
0.0
 11
216.4943718153778
 21
178.1856007696592
 31
0.0
 11
216.7684232197567
 21
178.2518603523832
 31
0.0
 11
217.0459810281354
 21
178.2916804315423
 31
0.0
 11
217.326061027005
 21
178.3050332168404
 31
0.0
  0
SPLINE
  5
2CB
330
64
100
AcDbEntity
  8
1
  6
Continuous
 62
     7
100
AcDbSpline
210
0.0
220
0.0
230
1.0
 70
     8
 71
     3
 72
    29
 73
    25
 74
    23
 42
0.000000001
 43
0.0000000001
 44
0.00000001
 40
0.0
 40
0.0
 40
0.0
 40
0.0
 40
0.6069077071335193
 40
1.212222618922164
 40
1.84266669998108
 40
2.474631891987833
 40
3.102420163135122
 40
3.72933388162462
 40
4.27104292945333
 40
4.812985317241544
 40
5.340107969104293
 40
5.866248914948893
 40
6.263874824440467
 40
6.661485222726858
 40
7.280966483141236
 40
7.902596723210288
 40
8.549168899022813
 40
9.195896755584974
 40
9.722415956712037
 40
10.24911839923926
 40
11.07897535377089
 40
11.90732205839663
 40
12.67331707894458
 40
13.44191268485679
 40
13.44191268485679
 40
13.44191268485679
 40
13.44191268485679
 10
206.0677307778072
 20
178.3050332168404
 30
0.0
 10
206.269790605353
 20
178.2951578434764
 30
0.0
 10
206.6733799650302
 20
178.2754330022638
 30
0.0
 10
207.285085513114
 20
178.2116426540424
 30
0.0
 10
207.8945025742561
 20
178.0774593563019
 30
0.0
 10
208.4929087492344
 20
177.8770037367755
 30
0.0
 10
209.0674712807081
 20
177.6184426205452
 30
0.0
 10
209.5823690780768
 20
177.3095132314408
 30
0.0
 10
210.0313879518327
 20
176.9556963074963
 30
0.0
 10
210.4053295541306
 20
176.5676716399793
 30
0.0
 10
210.7122954554375
 20
176.1307412369043
 30
0.0
 10
210.9196041128768
 20
175.690527270468
 30
0.0
 10
211.0355067010971
 20
175.2638181504154
 30
0.0
 10
211.0862099059747
 20
174.7929027086134
 30
0.0
 10
211.0257535827336
 20
174.2439281163726
 30
0.0
 10
210.8128063511042
 20
173.6461820510507
 30
0.0
 10
210.465569413952
 20
173.1045798059104
 30
0.0
 10
210.0442116883717
 20
172.6639718385202
 30
0.0
 10
209.5967981983915
 20
172.3140979155506
 30
0.0
 10
209.0609618128462
 20
171.9851875332092
 30
0.0
 10
208.3960707634605
 20
171.6814489128072
 30
0.0
 10
207.6164097028238
 20
171.4566790470909
 30
0.0
 10
206.8340040867196
 20
171.3522922477
 30
0.0
 10
206.3234436205457
 20
171.3208697571941
 30
0.0
 10
206.0677307778072
 20
171.3051318929274
 30
0.0
 11
206.0677307778072
 21
178.3050332168404
 31
0.0
 11
206.6736167995655
 21
178.2698323510781
 31
0.0
 11
207.2750596190469
 21
178.2014753589939
 31
0.0
 11
207.8909508307881
 21
178.0667988731695
 31
0.0
 11
208.4904122923367
 21
177.8667339812245
 31
0.0
 11
209.0621110656569
 21
177.6073527429742
 31
0.0
 11
209.5986762826699
 21
177.2831327881962
 31
0.0
 11
210.023108821449
 21
176.9465236482151
 31
0.0
 11
210.3978577967295
 21
176.5550332168404
 31
0.0
 11
210.6994136826895
 21
176.1226880556218
 31
0.0
 11
210.9214339965232
 21
175.6456856700057
 31
0.0
 11
211.0251947136663
 21
175.261836639876
 31
0.0
 11
211.066952811487
 21
174.8664250940617
 31
0.0
 11
211.0023591998656
 21
174.2503206398519
 31
0.0
 11
210.7947410297143
 21
173.6643864695751
 31
0.0
 11
210.4493684288593
 21
173.1177848356611
 31
0.0
 11
210.0050943022564
 21
172.6478088555807
 31
0.0
 11
209.5912238834817
 21
172.3223342080095
 31
0.0
 11
209.1431850362575
 21
172.0454287098299
 31
0.0
 11
208.38842432962
 21
171.7004666216524
 31
0.0
 11
207.5922680192319
 21
171.4717891319061
 31
0.0
 11
206.8342588886323
 21
171.3614690028915
 31
0.0
 11
206.0677307778072
 21
171.3051318929274
 31
0.0
  0
ENDBLK
  5
66
330
64
100
AcDbEntity
  8
0
100
AcDbBlockEnd
  0
BLOCK
  5
2EA
330
2E2
100
AcDbEntity
  8
0
100
AcDbBlockBegin
  2
*D11
 70
     1
 10
0.0
 20
0.0
 30
0.0
  3
*D11
  1

  0
LINE
  5
2E3
330
2E2
100
AcDbEntity
  8
1
  6
Continuous
 62
     2
100
AcDbLine
 10
119.3348235848641
 20
104.4680711435191
 30
0.0
 11
134.1982712922652
 21
97.53713165097176
 31
0.0
  0
LINE
  5
2E4
330
2E2
100
AcDbEntity
  8
1
  6
Continuous
 62
     2
100
AcDbLine
 10
134.1982712922652
 20
97.53713165097176
 30
0.0
 11
153.874032135765
 21
88.36217368962181
 31
0.0
  0
LINE
  5
2E5
330
2E2
100
AcDbEntity
  8
1
  6
Continuous
 62
     2
100
AcDbLine
 10
122.6635654652145
 20
111.6065811425207
 30
0.0
 11
118.7008961922531
 21
103.1086094629641
 31
0.0
  0
LINE
  5
2E6
330
2E2
100
AcDbEntity
  8
1
  6
Continuous
 62
     2
100
AcDbLine
 10
137.5270131726156
 20
104.6756416499734
 30
0.0
 11
133.5643438996542
 21
96.17766997041677
 31
0.0
  0
SOLID
  5
2E7
330
2E2
100
AcDbEntity
  8
1
 62
     2
100
AcDbTrace
 10
124.3850429026486
 20
102.8757431090484
 30
0.0
 11
123.8008360309645
 21
101.6229074297124
 31
0.0
 12
119.3348235848641
 22
104.4680711435191
 32
0.0
 13
119.3348235848641
 23
104.4680711435191
 33
0.0
  0
SOLID
  5
2E8
330
2E2
100
AcDbEntity
  8
1
 62
     2
100
AcDbTrace
 10
129.1480519744807
 20
99.1294596854424
 30
0.0
 11
129.7322588461649
 21
100.3822953647784
 31
0.0
 12
134.1982712922652
 22
97.53713165097176
 32
0.0
 13
134.1982712922652
 23
97.53713165097176
 33
0.0
  0
MTEXT
  5
2E9
330
2E2
100
AcDbEntity
  8
1
 62
     7
100
AcDbMText
 10
139.1707951818381
 20
97.45274596680434
 30
0.0
 40
5.25
 41
0.0
 71
     7
 72
     1
  1
\C7;{\Fgdt;n}\C7;16,5
  7
CONVERTER_12
 11
0.9063077870366546
 21
-0.4226182617406898
 31
0.0
 73
     1
 44
0.60024009603842
  0
ENDBLK
  5
2EB
330
2E2
100
AcDbEntity
  8
0
100
AcDbBlockEnd
  0
BLOCK
  5
2F5
330
2EE
100
AcDbEntity
  8
0
100
AcDbBlockBegin
  2
*D12
 70
     1
 10
0.0
 20
0.0
 30
0.0
  3
*D12
  1

  0
LINE
  5
2EF
330
2EE
100
AcDbEntity
  8
0
  6
Continuous
 62
     2
100
AcDbLine
 10
206.0677307778072
 20
87.4943958347298
 30
0.0
 11
251.0677307778072
 21
87.4943958347298
 31
0.0
  0
LINE
  5
2F0
330
2EE
100
AcDbEntity
  8
0
  6
Continuous
 62
     2
100
AcDbLine
 10
206.0677307778072
 20
129.9220056578701
 30
0.0
 11
206.0677307778072
 21
85.9943958347298
 31
0.0
  0
LINE
  5
2F1
330
2EE
100
AcDbEntity
  8
0
  6
Continuous
 62
     2
100
AcDbLine
 10
251.0677307778072
 20
122.8753419286555
 30
0.0
 11
251.0677307778072
 21
85.9943958347298
 31
0.0
  0
SOLID
  5
2F2
330
2EE
100
AcDbEntity
  8
0
 62
     2
100
AcDbTrace
 10
211.3177307778072
 20
88.18557144706362
 30
0.0
 11
211.3177307778072
 21
86.80322022239598
 31
0.0
 12
206.0677307778072
 22
87.4943958347298
 32
0.0
 13
206.0677307778072
 23
87.4943958347298
 33
0.0
  0
SOLID
  5
2F3
330
2EE
100
AcDbEntity
  8
0
 62
     2
100
AcDbTrace
 10
245.8177307778072
 20
86.80322022239598
 30
0.0
 11
245.8177307778072
 21
88.18557144706362
 31
0.0
 12
251.0677307778072
 22
87.4943958347298
 32
0.0
 13
251.0677307778072
 23
87.4943958347298
 33
0.0
  0
MTEXT
  5
2F4
330
2EE
100
AcDbEntity
  8
0
 62
     7
100
AcDbMText
 10
224.6302307778072
 20
88.9943958347298
 30
0.0
 40
5.25
 41
0.0
 71
     7
 72
     1
  1
45
  7
CONVERTER_12
 11
0.9999999999970619
 21
2.424068405545306E-6
 31
0.0
 73
     1
 44
0.60024009603842
  0
ENDBLK
  5
2F6
330
2EE
100
AcDbEntity
  8
0
100
AcDbBlockEnd
  0
BLOCK
  5
300
330
2F9
100
AcDbEntity
  8
0
100
AcDbBlockBegin
  2
*D13
 70
     1
 10
0.0
 20
0.0
 30
0.0
  3
*D13
  1

  0
LINE
  5
2FA
330
2F9
100
AcDbEntity
  8
0
  6
Continuous
 62
     2
100
AcDbLine
 10
251.0677307778072
 20
87.4943958347298
 30
0.0
 11
265.0677307778072
 21
87.4943958347298
 31
0.0
  0
LINE
  5
2FB
330
2F9
100
AcDbEntity
  8
0
  6
Continuous
 62
     2
100
AcDbLine
 10
265.0677307778072
 20
87.4943958347298
 30
0.0
 11
274.0677307778072
 21
87.4943958347298
 31
0.0
  0
LINE
  5
2FC
330
2F9
100
AcDbEntity
  8
0
  6
Continuous
 62
     2
100
AcDbLine
 10
251.0677307778072
 20
122.8753419286555
 30
0.0
 11
251.0677307778072
 21
85.9943958347298
 31
0.0
  0
LINE
  5
2FD
330
2F9
100
AcDbEntity
  8
0
  6
Continuous
 62
     2
100
AcDbLine
 10
265.0677307778072
 20
136.3753419286554
 30
0.0
 11
265.0677307778072
 21
85.9943958347298
 31
0.0
  0
SOLID
  5
2FE
330
2F9
100
AcDbEntity
  8
0
 62
     2
100
AcDbTrace
 10
269.5677307778072
 20
88.08683207387308
 30
0.0
 11
269.5677307778072
 21
86.90195959558652
 31
0.0
 12
265.0677307778072
 22
87.4943958347298
 32
0.0
 13
265.0677307778072
 23
87.4943958347298
 33
0.0
  0
MTEXT
  5
2FF
330
2F9
100
AcDbEntity
  8
0
 62
     7
100
AcDbMText
 10
254.9177307778071
 20
88.9943958347298
 30
0.0
 40
5.25
 41
0.0
 71
     7
 72
     1
  1
14
  7
CONVERTER_12
 11
0.9999999999970619
 21
2.424068405545306E-6
 31
0.0
 73
     1
 44
0.60024009603842
  0
ENDBLK
  5
301
330
2F9
100
AcDbEntity
  8
0
100
AcDbBlockEnd
  0
BLOCK
  5
303
330
302
100
AcDbEntity
  8
0
100
AcDbBlockBegin
  2
_NONE
 70
     0
 10
0.0
 20
0.0
 30
0.0
  3
_NONE
  1

  0
ENDBLK
  5
304
330
302
100
AcDbEntity
  8
0
100
AcDbBlockEnd
  0
BLOCK
  5
30E
330
307
100
AcDbEntity
  8
0
100
AcDbBlockBegin
  2
*D15
 70
     1
 10
0.0
 20
0.0
 30
0.0
  3
*D15
  1

  0
LINE
  5
308
330
307
100
AcDbEntity
  8
0
  6
Continuous
 62
     2
100
AcDbLine
 10
280.0677307778071
 20
168.8753419286554
 30
0.0
 11
280.0677307778071
 21
122.8753419286555
 31
0.0
  0
LINE
  5
309
330
307
100
AcDbEntity
  8
0
  6
Continuous
 62
     2
100
AcDbLine
 10
251.0677307778072
 20
122.8753419286555
 30
0.0
 11
281.5677307778071
 21
122.8753419286555
 31
0.0
  0
LINE
  5
30A
330
307
100
AcDbEntity
  8
0
  6
Continuous
 62
     2
100
AcDbLine
 10
251.0677307778072
 20
168.8753419286554
 30
0.0
 11
281.5677307778071
 21
168.8753419286554
 31
0.0
  0
SOLID
  5
30B
330
307
100
AcDbEntity
  8
0
 62
     2
100
AcDbTrace
 10
280.758906390141
 20
163.6253419286554
 30
0.0
 11
279.3765551654733
 21
163.6253419286554
 31
0.0
 12
280.0677307778071
 22
168.8753419286554
 32
0.0
 13
280.0677307778071
 23
168.8753419286554
 33
0.0
  0
SOLID
  5
30C
330
307
100
AcDbEntity
  8
0
 62
     2
100
AcDbTrace
 10
279.3765551654733
 20
128.1253419286555
 30
0.0
 11
280.758906390141
 21
128.1253419286555
 31
0.0
 12
280.0677307778071
 22
122.8753419286555
 32
0.0
 13
280.0677307778071
 23
122.8753419286555
 33
0.0
  0
MTEXT
  5
30D
330
307
100
AcDbEntity
  8
0
 62
     7
100
AcDbMText
 10
278.5677307778071
 20
140.7828419286554
 30
0.0
 40
5.25
 41
0.0
 71
     7
 72
     1
  1
\C7;{\Fgdt;n}\C7;46
  7
CONVERTER_12
 11
0.0
 21
1.0
 31
0.0
 73
     1
 44
0.60024009603842
  0
ENDBLK
  5
30F
330
307
100
AcDbEntity
  8
0
100
AcDbBlockEnd
  0
BLOCK
  5
31A
330
312
100
AcDbEntity
  8
0
100
AcDbBlockBegin
  2
*D16
 70
     1
 10
0.0
 20
0.0
 30
0.0
  3
*D16
  1

  0
LINE
  5
313
330
312
100
AcDbEntity
  8
1
  6
Continuous
 62
     2
100
AcDbLine
 10
161.6461307753123
 20
159.8753419286555
 30
0.0
 11
161.6461307753123
 21
172.4268663140911
 31
0.0
  0
LINE
  5
314
330
312
100
AcDbEntity
  8
1
  6
Continuous
 62
     2
100
AcDbLine
 10
161.6461307753123
 20
131.8753419286555
 30
0.0
 11
161.6461307753123
 21
159.8753419286555
 31
0.0
  0
LINE
  5
315
330
312
100
AcDbEntity
  8
1
  6
Continuous
 62
     2
100
AcDbLine
 10
172.3545535280942
 20
131.8753419286555
 30
0.0
 11
160.1461307753123
 21
131.8753419286555
 31
0.0
  0
LINE
  5
316
330
312
100
AcDbEntity
  8
1
  6
Continuous
 62
     2
100
AcDbLine
 10
172.3545535280943
 20
159.8753419286555
 30
0.0
 11
160.1461307753123
 21
159.8753419286555
 31
0.0
  0
SOLID
  5
317
330
312
100
AcDbEntity
  8
1
 62
     2
100
AcDbTrace
 10
160.9549551629785
 20
137.1253419286555
 30
0.0
 11
162.3373063876461
 21
137.1253419286555
 31
0.0
 12
161.6461307753123
 22
131.8753419286555
 32
0.0
 13
161.6461307753123
 23
131.8753419286555
 33
0.0
  0
SOLID
  5
318
330
312
100
AcDbEntity
  8
1
 62
     2
100
AcDbTrace
 10
162.3373063876461
 20
154.6253419286555
 30
0.0
 11
160.9549551629785
 21
154.6253419286555
 31
0.0
 12
161.6461307753123
 22
159.8753419286555
 32
0.0
 13
161.6461307753123
 23
159.8753419286555
 33
0.0
  0
MTEXT
  5
319
330
312
100
AcDbEntity
  8
1
 62
     7
100
AcDbMText
 10
160.1461307753123
 20
164.5518663140911
 30
0.0
 40
5.25
 41
0.0
 71
     7
 72
     1
  1
28
  7
CONVERTER_12
 11
0.0
 21
1.0
 31
0.0
 73
     1
 44
0.60024009603842
  0
ENDBLK
  5
31B
330
312
100
AcDbEntity
  8
0
100
AcDbBlockEnd
  0
BLOCK
  5
325
330
31E
100
AcDbEntity
  8
0
100
AcDbBlockBegin
  2
*D17
 70
     1
 10
0.0
 20
0.0
 30
0.0
  3
*D17
  1

  0
LINE
  5
31F
330
31E
100
AcDbEntity
  8
1
  6
Continuous
 62
     2
100
AcDbLine
 10
206.0677307778072
 20
87.4943958347298
 30
0.0
 11
129.0387436645634
 21
87.4943958347298
 31
0.0
  0
LINE
  5
320
330
31E
100
AcDbEntity
  8
1
  6
Continuous
 62
     2
100
AcDbLine
 10
206.0677307778072
 20
129.9220056578701
 30
0.0
 11
206.0677307778072
 21
85.9943958347298
 31
0.0
  0
LINE
  5
321
330
31E
100
AcDbEntity
  8
1
  6
Continuous
 62
     2
100
AcDbLine
 10
129.0387436645634
 20
105.3753419286555
 30
0.0
 11
129.0387436645634
 21
85.9943958347298
 31
0.0
  0
SOLID
  5
322
330
31E
100
AcDbEntity
  8
1
 62
     2
100
AcDbTrace
 10
200.8177307778072
 20
86.80322022239598
 30
0.0
 11
200.8177307778072
 21
88.18557144706362
 31
0.0
 12
206.0677307778072
 22
87.4943958347298
 32
0.0
 13
206.0677307778072
 23
87.4943958347298
 33
0.0
  0
SOLID
  5
323
330
31E
100
AcDbEntity
  8
1
 62
     2
100
AcDbTrace
 10
134.2887436645634
 20
88.18557144706362
 30
0.0
 11
134.2887436645634
 21
86.80322022239598
 31
0.0
 12
129.0387436645634
 22
87.4943958347298
 32
0.0
 13
129.0387436645634
 23
87.4943958347298
 33
0.0
  0
MTEXT
  5
324
330
31E
100
AcDbEntity
  8
1
 62
     7
100
AcDbMText
 10
163.6157372211853
 20
88.9943958347298
 30
0.0
 40
5.25
 41
0.0
 71
     7
 72
     1
  1
77
  7
CONVERTER_12
 11
0.9999999999970619
 21
2.424068405545306E-6
 31
0.0
 73
     1
 44
0.60024009603842
  0
ENDBLK
  5
326
330
31E
100
AcDbEntity
  8
0
100
AcDbBlockEnd
  0
BLOCK
  5
330
330
329
100
AcDbEntity
  8
0
100
AcDbBlockBegin
  2
*D18
 70
     1
 10
0.0
 20
0.0
 30
0.0
  3
*D18
  1

  0
LINE
  5
32A
330
329
100
AcDbEntity
  8
1
  6
Continuous
 62
     2
100
AcDbLine
 10
113.7882813682701
 20
105.8753419286555
 30
0.0
 11
113.7882813682701
 21
145.8753419286553
 31
0.0
  0
LINE
  5
32B
330
329
100
AcDbEntity
  8
1
  6
Continuous
 62
     2
100
AcDbLine
 10
129.0387436645634
 20
105.8753419286555
 30
0.0
 11
112.2882813682701
 21
105.8753419286555
 31
0.0
  0
LINE
  5
32C
330
329
100
AcDbEntity
  8
1
  6
Continuous
 62
     2
100
AcDbLine
 10
166.8031578149881
 20
145.8753419286553
 30
0.0
 11
112.2882813682701
 21
145.8753419286553
 31
0.0
  0
SOLID
  5
32D
330
329
100
AcDbEntity
  8
1
 62
     2
100
AcDbTrace
 10
113.0971057559363
 20
111.1253419286555
 30
0.0
 11
114.4794569806039
 21
111.1253419286555
 31
0.0
 12
113.7882813682701
 22
105.8753419286555
 32
0.0
 13
113.7882813682701
 23
105.8753419286555
 33
0.0
  0
SOLID
  5
32E
330
329
100
AcDbEntity
  8
1
 62
     2
100
AcDbTrace
 10
114.4794569806039
 20
140.6253419286553
 30
0.0
 11
113.0971057559363
 21
140.6253419286553
 31
0.0
 12
113.7882813682701
 22
145.8753419286553
 32
0.0
 13
113.7882813682701
 23
145.8753419286553
 33
0.0
  0
MTEXT
  5
32F
330
329
100
AcDbEntity
  8
1
 62
     7
100
AcDbMText
 10
112.2882813682701
 20
121.9378419286554
 30
0.0
 40
5.25
 41
0.0
 71
     7
 72
     1
  1
40
  7
CONVERTER_12
 11
0.0
 21
1.0
 31
0.0
 73
     1
 44
0.60024009603842
  0
ENDBLK
  5
331
330
329
100
AcDbEntity
  8
0
100
AcDbBlockEnd
  0
BLOCK
  5
33B
330
334
100
AcDbEntity
  8
0
100
AcDbBlockBegin
  2
*D19
 70
     1
 10
0.0
 20
0.0
 30
0.0
  3
*D19
  1

  0
LINE
  5
335
330
334
100
AcDbEntity
  8
1
  6
Continuous
 62
     2
100
AcDbLine
 10
113.7882813682701
 20
145.8753419286554
 30
0.0
 11
113.7882813682701
 21
202.8753419286554
 31
0.0
  0
LINE
  5
336
330
334
100
AcDbEntity
  8
1
  6
Continuous
 62
     2
100
AcDbLine
 10
166.8031578149881
 20
145.8753419286554
 30
0.0
 11
112.2882813682701
 21
145.8753419286554
 31
0.0
  0
LINE
  5
337
330
334
100
AcDbEntity
  8
1
  6
Continuous
 62
     2
100
AcDbLine
 10
206.0677307778072
 20
202.8753419286554
 30
0.0
 11
112.2882813682701
 21
202.8753419286554
 31
0.0
  0
SOLID
  5
338
330
334
100
AcDbEntity
  8
1
 62
     2
100
AcDbTrace
 10
113.0971057559363
 20
151.1253419286554
 30
0.0
 11
114.4794569806039
 21
151.1253419286554
 31
0.0
 12
113.7882813682701
 22
145.8753419286554
 32
0.0
 13
113.7882813682701
 23
145.8753419286554
 33
0.0
  0
SOLID
  5
339
330
334
100
AcDbEntity
  8
1
 62
     2
100
AcDbTrace
 10
114.4794569806039
 20
197.6253419286554
 30
0.0
 11
113.0971057559363
 21
197.6253419286554
 31
0.0
 12
113.7882813682701
 22
202.8753419286554
 32
0.0
 13
113.7882813682701
 23
202.8753419286554
 33
0.0
  0
MTEXT
  5
33A
330
334
100
AcDbEntity
  8
1
 62
     7
100
AcDbMText
 10
112.2882813682701
 20
160.2003419286554
 30
0.0
 40
5.25
 41
0.0
 71
     7
 72
     1
  1
57リフト5
  7
CONVERTER_11
 11
0.0
 21
1.0
 31
0.0
 73
     1
 44
0.45454545454545
  0
ENDBLK
  5
33C
330
334
100
AcDbEntity
  8
0
100
AcDbBlockEnd
  0
BLOCK
  5
348
330
33F
100
AcDbEntity
  8
0
100
AcDbBlockBegin
  2
*D20
 70
     1
 10
0.0
 20
0.0
 30
0.0
  3
*D20
  1

  0
LINE
  5
340
330
33F
100
AcDbEntity
  8
0
  6
Continuous
 62
     2
100
AcDbLine
 10
119.6411252882201
 20
85.72208428427946
 30
0.0
 11
119.007197895609
 21
84.36262260372447
 31
0.0
  0
LINE
  5
341
330
33F
100
AcDbEntity
  8
0
  6
Continuous
 62
     2
100
AcDbLine
 10
129.0387436645634
 20
83.63868244868895
 30
0.0
 11
129.0387436645634
 21
82.13868244868895
 31
0.0
  0
LINE
  5
342
330
33F
100
AcDbEntity
  8
0
  6
Continuous
 62
     2
100
AcDbLine
 10
127.1369614867302
 20
101.7969568869906
 30
0.0
 11
119.6411252882201
 21
85.72208428427946
 31
0.0
  0
LINE
  5
343
330
33F
100
AcDbEntity
  8
0
  6
Continuous
 62
     2
100
AcDbLine
 10
129.0387436645634
 20
105.3753419286555
 30
0.0
 11
129.0387436645634
 21
83.63868244868895
 31
0.0
  0
ARC
  5
344
330
33F
100
AcDbEntity
  8
0
  6
Continuous
 62
     2
100
AcDbCircle
 10
129.0387436645634
 20
105.8753419286555
 30
0.0
 40
22.23665947996653
100
AcDbArc
 50
201.4760105507486
 51
290.2910092710653
  0
SOLID
  5
345
330
33F
100
AcDbEntity
  8
0
 62
     2
100
AcDbTrace
 10
114.8135889013934
 20
87.89811649014152
 30
0.0
 11
115.5412817924675
 21
89.07342834859456
 31
0.0
 12
119.6411252882201
 22
85.72208428427946
 32
0.0
 13
119.6411252882201
 23
85.72208428427946
 33
0.0
  0
SOLID
  5
346
330
33F
100
AcDbEntity
  8
0
 62
     2
100
AcDbTrace
 10
134.1708029533514
 20
84.94336293963288
 30
0.0
 11
134.3336084324804
 21
83.57063234541356
 31
0.0
 12
129.0387436645634
 22
83.63868244868895
 32
0.0
 13
129.0387436645634
 23
83.63868244868895
 33
0.0
  0
MTEXT
  5
347
330
33F
100
AcDbEntity
  8
0
 62
     7
100
AcDbMText
 10
109.7519074354147
 20
96.31617775713482
 30
0.0
 40
5.25
 41
0.0
 71
     7
 72
     1
  1
25{\Fgdt;~}
  7
CONVERTER_12
 11
0.6681777260281756
 21
-0.7440016978742835
 31
0.0
 73
     1
 44
0.60024009603842
  0
ENDBLK
  5
349
330
33F
100
AcDbEntity
  8
0
100
AcDbBlockEnd
  0
ENDSEC
  0
SECTION
  2
ENTITIES
  0
INSERT
  5
67
330
1F
100
AcDbEntity
  8
1
100
AcDbBlockReference
  2
開示A4
 10
0.0
 20
0.0
 30
0.0
 41
1.5
 42
1.5
 43
1.5
  0
INSERT
  5
68
330
1F
100
AcDbEntity
  8
1
100
AcDbBlockReference
  2
Y12J-64X
 10
126.5783790553684
 20
119.324553696341
 30
0.0
  0
INSERT
  5
69
330
1F
100
AcDbEntity
  8
0
100
AcDbBlockReference
  2
Y12-0-13
 10
251.0677307778072
 20
165.8753419286554
 30
0.0
  0
INSERT
  5
6A
330
1F
100
AcDbEntity
  8
0
100
AcDbBlockReference
  2
62-1A
 10
-146.7483480989493
 20
52.90590852880975
 30
0.0
  0
INSERT
  5
6B
330
1F
100
AcDbEntity
  8
0
100
AcDbBlockReference
  2
21-1C
 10
321.5101516979425
 20
134.8152462036642
 30
0.0
  0
INSERT
  5
6C
330
1F
100
AcDbEntity
  8
1
100
AcDbBlockReference
  2
42-1
 10
316.3731696150755
 20
150.8527729496773
 30
0.0
  0
INSERT
  5
6D
330
1F
100
AcDbEntity
  8
1
100
AcDbBlockReference
  2
36-54-M11
 10
143.1893135116192
 20
95.45570164088565
 30
0.0
  0
INSERT
  5
6E
330
1F
100
AcDbEntity
  8
1
100
AcDbBlockReference
  2
37-1-13
 10
399.4362435232505
 20
143.9613828218052
 30
0.0
  0
LINE
  5
2CC
330
1F
100
AcDbEntity
  8
1
  6
DASH_CENTER
 62
     2
100
AcDbLine
 10
53.99991455237911
 20
331.2515055386111
 30
0.0
 11
98.27174749007798
 21
331.2515055386111
 31
0.0
  0
LINE
  5
2CD
330
1F
100
AcDbEntity
  8
1
  6
DASH_CENTER
 62
     2
100
AcDbLine
 10
76.13583102122865
 20
394.7515055386112
 30
0.0
 11
76.13583102122865
 21
240.7948052055304
 31
0.0
  0
LINE
  5
2CE
330
1F
100
AcDbEntity
  8
1
  6
DASH_CENTER
 62
     2
100
AcDbLine
 10
91.29127558745625
 20
322.5015055386112
 30
0.0
 11
46.69096729255776
 21
348.2515055386112
 31
0.0
  0
LINE
  5
2CF
330
1F
100
AcDbEntity
  8
1
  6
DASH_CENTER
 62
     2
100
AcDbLine
 10
60.98038645500105
 20
322.5015055386111
 30
0.0
 11
105.5806947498996
 21
348.2515055386112
 31
0.0
  0
LINE
  5
2D0
330
1F
100
AcDbEntity
  8
0
  6
Continuous
 62
     2
100
AcDbLine
 10
129.0387436645634
 20
105.8753419286555
 30
0.0
 11
129.0387436645634
 21
105.3753419286555
 31
0.0
  0
LINE
  5
2D1
330
1F
100
AcDbEntity
  8
1
  6
DASH_CENTER
 62
     2
100
AcDbLine
 10
206.0677307778072
 20
129.9220056578701
 30
0.0
 11
206.0677307778072
 21
207.3753419286553
 31
0.0
  0
LINE
  5
2D2
330
1F
100
AcDbEntity
  8
0
  6
DASH_CENTER
 62
     2
100
AcDbLine
 10
76.13583102122865
 20
99.66664829389056
 30
0.0
 11
76.13583102122865
 21
206.3526139525196
 31
0.0
  0
LINE
  5
2D3
330
1F
100
AcDbEntity
  8
0
  6
DASH_CENTER
 62
     2
100
AcDbLine
 10
50.13583102122865
 20
145.8753419286554
 30
0.0
 11
102.1358310212287
 21
145.8753419286554
 31
0.0
  0
LINE
  5
2D4
330
1F
100
AcDbEntity
  8
1
  6
DASH_CENTER
 62
     2
100
AcDbLine
 10
166.8031578149881
 20
145.8753419286554
 30
0.0
 11
268.3213093877714
 21
145.8753419286554
 31
0.0
  0
LINE
  5
2D5
330
1F
100
AcDbEntity
  8
1
  6
DASH_CENTER
 62
     2
100
AcDbLine
 10
139.6139242038885
 20
128.5538897808764
 30
0.0
 11
129.0387436645634
 21
105.8753419286555
 31
0.0
  0
LINE
  5
2D6
330
1F
100
AcDbEntity
  8
1
  6
DASH_CENTER
 62
     2
100
AcDbLine
 10
129.0387436645634
 20
105.8753419286555
 30
0.0
 11
127.1369614867302
 21
101.7969568869906
 31
0.0
  0
LINE
  5
2D7
330
1F
100
AcDbEntity
  8
1
  6
DASH_CENTER
 62
     2
100
AcDbLine
 10
63.50350483463498
 20
254.2215055386112
 30
0.0
 11
88.76815720782238
 21
254.2215055386112
 31
0.0
  0
ARC
  5
2D8
330
1F
100
AcDbEntity
  8
0
  6
DASH_CENTER
 62
     2
100
AcDbCircle
 10
166.8031578149881
 20
115.8753419286554
 30
0.0
 40
29.99999999999999
100
AcDbArc
 50
90.0
 51
155.0000000000001
  0
SOLID
  5
2D9
330
1F
100
AcDbEntity
  8
1
 62
     2
100
AcDbTrace
 10
88.66225538247134
 20
387.6437267146463
 30
0.0
 11
89.85940665998605
 21
386.9525511023125
 31
0.0
 12
86.63583102122865
 22
382.7515055386111
 32
0.0
 13
86.63583102122865
 23
382.7515055386111
 33
0.0
  0
LEADER
  5
2DA
330
1F
100
AcDbEntity
  8
1
  6
Continuous
 62
     2
100
AcDbLeader
  3
Standard
 71
     0
 76
     3
 10
86.63583102122865
 20
382.7515055386111
 30
0.0
 10
98.55553785368824
 20
403.397043383757
 30
0.0
 10
120.0518808922605
 20
403.397043383757
 30
0.0
  0
MTEXT
  5
2DC
330
1F
100
AcDbEntity
  8
1
 62
     7
100
AcDbMText
 10
51.0
 20
51.00000000000001
 30
0.0
 40
5.25
 41
0.0
 71
     4
 72
     1
  1
JIS
  7
CONVERTER_12
 73
     1
 44
0.7202881152461
  0
MTEXT
  5
2DD
330
1F
100
AcDbEntity
  8
1
 62
     7
100
AcDbMText
 10
85.5
 20
34.12500000000001
 30
0.0
 40
5.25
 41
0.0
 71
     5
 72
     1
  1
万能ホーム水栓
  7
CONVERTER_11
 73
     1
 44
1.0
  0
MTEXT
  5
2DE
330
1F
100
AcDbEntity
  8
1
 62
     7
100
AcDbMText
 10
85.5
 20
21.375
 30
0.0
 40
5.25
 41
0.0
 71
     5
 72
     1
  1
Y12EK-13
  7
CONVERTER_12
 73
     1
 44
0.90036014405762
  0
MTEXT
  5
2DF
330
1F
100
AcDbEntity
  8
1
 62
     7
100
AcDbMText
 10
127.875
 20
25.5
 30
0.0
 40
5.25
 41
0.0
 71
     5
 72
     1
  1
1
  7
CONVERTER_12
 73
     1
 44
1.32052821128451
  0
MTEXT
  5
2E0
330
1F
100
AcDbEntity
  8
1
 62
     7
100
AcDbMText
 10
140.625
 20
25.5
 30
0.0
 40
5.25
 41
0.0
 71
     5
 72
     1
  1
1,5
  7
CONVERTER_12
 73
     1
 44
1.32052821128451
  0
MTEXT
  5
2E1
330
1F
100
AcDbEntity
  8
1
 62
     7
100
AcDbMText
 10
109.3037093729744
 20
407.897043383757
 30
0.0
 40
5.25
 41
0.0
 71
     5
 72
     1
  1
PJ1/2
  7
CONVERTER_12
 73
     1
 44
1.32052821128451
  0
DIMENSION
  5
2ED
330
1F
100
AcDbEntity
  8
1
100
AcDbDimension
  2
*D11
 10
119.3348235848641
 20
104.4680711435191
 30
0.0
 11
147.0447082746073
 21
96.38781032554813
 31
0.0
 70
    33
  1
{\Fgdt;n}16,5
 71
     5
 42
-1.0
 53
-24.99999999999944
  3
ME10_DIM_10
100
AcDbAlignedDimension
 13
137.5270131726156
 23
104.6756416499734
 33
0.0
 14
122.6635654652145
 24
111.6065811425207
 34
0.0
  0
DIMENSION
  5
2F8
330
1F
100
AcDbEntity
  8
0
100
AcDbDimension
  2
*D12
 10
206.0677307778072
 20
87.4943958347298
 30
0.0
 11
228.5677307778072
 21
91.6193958347298
 31
0.0
 70
    32
  1
<>
 71
     5
 42
-1.0
 53
0.00013888888889
  3
ME10_DIM_11
100
AcDbAlignedDimension
 13
251.0677307778072
 23
122.8753419286555
 33
0.0
 14
206.0677307778072
 24
129.9220056578701
 34
0.0
100
AcDbRotatedDimension
  0
DIMENSION
  5
306
330
1F
100
AcDbEntity
  8
0
100
AcDbDimension
  2
*D13
 10
251.0677307778072
 20
87.4943958347298
 30
0.0
 11
258.0677307778071
 21
91.6193958347298
 31
0.0
 70
    32
  1
<>
 71
     5
 42
-1.0
 53
0.00013888888889
  3
ME10_DIM_12
100
AcDbAlignedDimension
 13
265.0677307778071
 23
136.3753419286554
 33
0.0
 14
251.0677307778072
 24
122.8753419286555
 34
0.0
100
AcDbRotatedDimension
  0
DIMENSION
  5
311
330
1F
100
AcDbEntity
  8
0
100
AcDbDimension
  2
*D15
 10
280.0677307778071
 20
168.8753419286554
 30
0.0
 11
275.9427307778071
 21
145.8753419286554
 31
0.0
 70
    32
  1
<>
 71
     5
 42
-1.0
 53
90.0
  3
ME10_DIM_13
100
AcDbAlignedDimension
 13
251.0677307778072
 23
122.8753419286555
 33
0.0
 14
251.0677307778072
 24
168.8753419286554
 34
0.0
 50
90.0
100
AcDbRotatedDimension
  0
DIMENSION
  5
31D
330
1F
100
AcDbEntity
  8
1
100
AcDbDimension
  2
*D16
 10
161.6461307753123
 20
131.8753419286555
 30
0.0
 11
157.5211307753123
 21
168.4893663140911
 31
0.0
 70
    32
  1
<>
 71
     5
 42
-1.0
 53
90.0
  3
ME10_DIM_14
100
AcDbAlignedDimension
 13
172.3545535280942
 23
159.8753419286554
 33
0.0
 14
172.3545535280942
 24
131.8753419286554
 34
0.0
 50
90.0
100
AcDbRotatedDimension
  0
DIMENSION
  5
328
330
1F
100
AcDbEntity
  8
1
100
AcDbDimension
  2
*D17
 10
206.0677307778072
 20
87.4943958347298
 30
0.0
 11
167.5532372211853
 21
91.6193958347298
 31
0.0
 70
    32
  1
77
 71
     5
 42
-1.0
 53
0.00013888888889
  3
ME10_DIM_15
100
AcDbAlignedDimension
 13
129.0387436645634
 23
105.3753419286555
 33
0.0
 14
206.0677307778072
 24
129.9220056578701
 34
0.0
100
AcDbRotatedDimension
  0
DIMENSION
  5
333
330
1F
100
AcDbEntity
  8
1
100
AcDbDimension
  2
*D18
 10
113.7882813682701
 20
105.8753419286555
 30
0.0
 11
109.6632813682701
 21
125.8753419286554
 31
0.0
 70
    32
  1
<>
 71
     5
 42
-1.0
 53
90.0
  3
ME10_DIM_16
100
AcDbAlignedDimension
 13
166.8031578149881
 23
145.8753419286554
 33
0.0
 14
129.0387436645634
 24
105.8753419286555
 34
0.0
 50
90.0
100
AcDbRotatedDimension
  0
DIMENSION
  5
33E
330
1F
100
AcDbEntity
  8
1
100
AcDbDimension
  2
*D19
 10
113.7882813682701
 20
145.8753419286554
 30
0.0
 11
109.6632813682701
 21
174.3753419286554
 31
0.0
 70
    32
  1
57リフト5
 71
     5
 42
-1.0
 53
90.0
  3
ME10_DIM_17
100
AcDbAlignedDimension
 13
206.0677307778072
 23
202.8753419286554
 33
0.0
 14
166.8031578149881
 24
145.8753419286554
 34
0.0
 50
90.0
100
AcDbRotatedDimension
  0
DIMENSION
  5
34B
330
1F
100
AcDbEntity
  8
0
100
AcDbDimension
  2
*D20
 10
124.2258496714475
 20
84.16578006667828
 30
0.0
 11
115.5636382601474
 21
93.7735344827348
 31
0.0
 70
    37
  1
<>
 71
     5
 42
-1.0
  3
ME10_DIM_18
100
AcDb3PointAngularDimension
 13
127.1369614867302
 23
101.7969568869906
 33
0.0
 14
129.0387436645634
 24
105.3753419286555
 34
0.0
 15
129.0387436645634
 25
105.8753419286555
 35
0.0
  0
ENDSEC
  0
SECTION
  2
OBJECTS
  0
DICTIONARY
  5
C
330
0
100
AcDbDictionary
281
     1
  3
ACAD_GROUP
350
D
  3
ACAD_LAYOUT
350
1A
  3
ACAD_MATERIAL
350
3B
  3
ACAD_MLEADERSTYLE
350
34E
  3
ACAD_MLINESTYLE
350
17
  3
ACAD_PLOTSETTINGS
350
19
  3
ACAD_PLOTSTYLENAME
350
E
  3
ACAD_VISUALSTYLE
350
2A
  3
AcDbVariableDictionary
350
34C
  0
DICTIONARY
  5
D
102
{ACAD_REACTORS
330
C
102
}
330
C
100
AcDbDictionary
281
     1
  0
DICTIONARY
  5
1A
102
{ACAD_REACTORS
330
C
102
}
330
C
100
AcDbDictionary
281
     1
  3
Layout1
350
1E
  3
Layout2
350
26
  3
Model
350
22
  0
DICTIONARY
  5
3B
102
{ACAD_REACTORS
330
C
102
}
330
C
100
AcDbDictionary
281
     1
  3
ByBlock
350
3D
  3
ByLayer
350
3C
  3
Global
350
3E
  0
DICTIONARY
  5
34E
102
{ACAD_REACTORS
330
C
102
}
330
C
100
AcDbDictionary
281
     1
  0
DICTIONARY
  5
17
102
{ACAD_REACTORS
330
C
102
}
330
C
100
AcDbDictionary
281
     1
  3
Standard
350
18
  0
DICTIONARY
  5
19
102
{ACAD_REACTORS
330
C
102
}
330
C
100
AcDbDictionary
281
     1
  0
ACDBDICTIONARYWDFLT
  5
E
102
{ACAD_REACTORS
330
C
102
}
330
C
100
AcDbDictionary
281
     1
  3
Normal
350
F
100
AcDbDictionaryWithDefault
340
F
  0
DICTIONARY
  5
2A
102
{ACAD_REACTORS
330
C
102
}
330
C
100
AcDbDictionary
281
     1
  3
2dWireframe
350
2F
  3
3D Hidden
350
31
  3
3dWireframe
350
30
  3
Basic
350
32
  3
Brighten
350
36
  3
ColorChange
350
3A
  3
Conceptual
350
34
  3
Dim
350
35
  3
Facepattern
350
39
  3
Flat
350
2B
  3
FlatWithEdges
350
2C
  3
Gouraud
350
2D
  3
GouraudWithEdges
350
2E
  3
Linepattern
350
38
  3
Realistic
350
33
  3
Thicken
350
37
  0
DICTIONARY
  5
34C
102
{ACAD_REACTORS
330
C
102
}
330
C
100
AcDbDictionary
281
     1
  3
DIMASSOC
350
34F
  3
HIDETEXT
350
350
  0
LAYOUT
  5
1E
102
{ACAD_REACTORS
330
1A
102
}
330
1A
100
AcDbPlotSettings
  1

  2
none_device
  4

  6

 40
0.0
 41
0.0
 42
0.0
 43
0.0
 44
0.0
 45
0.0
 46
0.0
 47
0.0
 48
0.0
 49
0.0
140
0.0
141
0.0
142
1.0
143
1.0
 70
   688
 72
     0
 73
     0
 74
     5
  7

 75
    16
147
1.0
148
0.0
149
0.0
100
AcDbLayout
  1
Layout1
 70
     1
 71
     1
 10
0.0
 20
0.0
 11
12.0
 21
9.0
 12
0.0
 22
0.0
 32
0.0
 14
1.00000000000000E+20
 24
1.00000000000000E+20
 34
1.00000000000000E+20
 15
-1.00000000000000E+20
 25
-1.00000000000000E+20
 35
-1.00000000000000E+20
146
0.0
 13
0.0
 23
0.0
 33
0.0
 16
1.0
 26
0.0
 36
0.0
 17
0.0
 27
1.0
 37
0.0
 76
     0
330
1B
  0
LAYOUT
  5
26
102
{ACAD_REACTORS
330
1A
102
}
330
1A
100
AcDbPlotSettings
  1

  2
none_device
  4

  6

 40
0.0
 41
0.0
 42
0.0
 43
0.0
 44
0.0
 45
0.0
 46
0.0
 47
0.0
 48
0.0
 49
0.0
140
0.0
141
0.0
142
1.0
143
1.0
 70
   688
 72
     0
 73
     0
 74
     5
  7

 75
    16
147
1.0
148
0.0
149
0.0
100
AcDbLayout
  1
Layout2
 70
     1
 71
     2
 10
0.0
 20
0.0
 11
0.0
 21
0.0
 12
0.0
 22
0.0
 32
0.0
 14
0.0
 24
0.0
 34
0.0
 15
0.0
 25
0.0
 35
0.0
146
0.0
 13
0.0
 23
0.0
 33
0.0
 16
1.0
 26
0.0
 36
0.0
 17
0.0
 27
1.0
 37
0.0
 76
     0
330
23
  0
LAYOUT
  5
22
102
{ACAD_REACTORS
330
1A
102
}
330
1A
100
AcDbPlotSettings
  1

  2
none_device
  4

  6

 40
0.0
 41
0.0
 42
0.0
 43
0.0
 44
0.0
 45
0.0
 46
0.0
 47
0.0
 48
0.0
 49
0.0
140
0.0
141
0.0
142
1.0
143
1.0
 70
  1712
 72
     0
 73
     0
 74
     0
  7

 75
     0
147
1.0
148
0.0
149
0.0
100
AcDbLayout
  1
Model
 70
     1
 71
     0
 10
0.0
 20
0.0
 11
12.0
 21
9.0
 12
0.0
 22
0.0
 32
0.0
 14
0.0
 24
0.0
 34
0.0
 15
315.0
 25
445.5
 35
0.0
146
0.0
 13
0.0
 23
0.0
 33
0.0
 16
1.0
 26
0.0
 36
0.0
 17
0.0
 27
1.0
 37
0.0
 76
     0
330
1F
331
29
  0
MATERIAL
  5
3D
102
{ACAD_REACTORS
330
3B
102
}
102
{ACAD_XDICTIONARY
360
373
102
}
330
3B
100
AcDbMaterial
  1
ByBlock
  0
MATERIAL
  5
3C
102
{ACAD_REACTORS
330
3B
102
}
102
{ACAD_XDICTIONARY
360
371
102
}
330
3B
100
AcDbMaterial
  1
ByLayer
  0
MATERIAL
  5
3E
102
{ACAD_REACTORS
330
3B
102
}
102
{ACAD_XDICTIONARY
360
375
102
}
330
3B
100
AcDbMaterial
  1
Global
  0
MLINESTYLE
  5
18
102
{ACAD_REACTORS
330
17
102
}
330
17
100
AcDbMlineStyle
  2
Standard
 70
     0
  3

 62
   256
 51
90.0
 52
90.0
 71
     2
 49
0.5
 62
   256
  6
BYLAYER
 49
-0.5
 62
   256
  6
BYLAYER
  0
ACDBPLACEHOLDER
  5
F
102
{ACAD_REACTORS
330
E
102
}
330
E
  0
VISUALSTYLE
  5
2F
102
{ACAD_REACTORS
330
2A
102
}
102
{ACAD_XDICTIONARY
360
359
102
}
330
2A
100
AcDbVisualStyle
  2
2dWireframe
 70
     4
 71
     0
 72
     2
 73
     0
 90
        0
 40
-0.6
 41
-30.0
 62
     5
 63
     7
 74
     1
 91
        4
 64
     7
 65
   257
 75
     1
175
     1
 42
1.0
 92
        0
 66
   257
 43
1.0
 76
     1
 77
     6
 78
     2
 67
     7
 79
     5
170
     0
171
     0
290
     0
174
     0
 93
        1
 44
0.0
173
     0
291
     0
 45
0.0
1001
ACAD
1000
AcDbSavedByObjectVersion
1070
     0
  0
VISUALSTYLE
  5
31
102
{ACAD_REACTORS
330
2A
102
}
102
{ACAD_XDICTIONARY
360
35D
102
}
330
2A
100
AcDbVisualStyle
  2
3D Hidden
 70
     6
 71
     1
 72
     2
 73
     2
 90
        0
 40
-0.6
 41
-30.0
 62
     5
 63
     7
 74
     2
 91
        2
 64
     7
 65
   257
 75
     2
175
     1
 42
40.0
 92
        0
 66
   257
 43
1.0
 76
     1
 77
     6
 78
     2
 67
     7
 79
     3
170
     0
171
     0
290
     0
174
     0
 93
        1
 44
0.0
173
     0
291
     0
 45
0.0
1001
ACAD
1000
AcDbSavedByObjectVersion
1070
     0
  0
VISUALSTYLE
  5
30
102
{ACAD_REACTORS
330
2A
102
}
102
{ACAD_XDICTIONARY
360
35B
102
}
330
2A
100
AcDbVisualStyle
  2
3dWireframe
 70
     5
 71
     0
 72
     2
 73
     0
 90
        0
 40
-0.6
 41
-30.0
 62
     5
 63
     7
 74
     1
 91
        4
 64
     7
 65
   257
 75
     1
175
     1
 42
1.0
 92
        0
 66
   257
 43
1.0
 76
     1
 77
     6
 78
     2
 67
     7
 79
     5
170
     0
171
     0
290
     0
174
     0
 93
        1
 44
0.0
173
     0
291
     0
 45
0.0
1001
ACAD
1000
AcDbSavedByObjectVersion
1070
     0
  0
VISUALSTYLE
  5
32
102
{ACAD_REACTORS
330
2A
102
}
102
{ACAD_XDICTIONARY
360
35F
102
}
330
2A
100
AcDbVisualStyle
  2
Basic
 70
     7
 71
     1
 72
     0
 73
     1
 90
        0
 40
-0.6
 41
-30.0
 62
     5
 63
     7
 74
     0
 91
        4
 64
     7
 65
   257
 75
     1
175
     1
 42
1.0
 92
        8
 66
     7
 43
1.0
 76
     1
 77
     6
 78
     2
 67
     7
 79
     5
170
     0
171
     0
290
     0
174
     0
 93
        1
 44
0.0
173
     0
291
     1
 45
0.0
1001
ACAD
1000
AcDbSavedByObjectVersion
1070
     0
  0
VISUALSTYLE
  5
36
102
{ACAD_REACTORS
330
2A
102
}
102
{ACAD_XDICTIONARY
360
367
102
}
330
2A
100
AcDbVisualStyle
  2
Brighten
 70
    12
 71
     2
 72
     2
 73
     0
 90
        0
 40
-0.6
 41
-30.0
 62
     5
 63
     7
 74
     1
 91
        4
 64
     7
 65
   257
 75
     1
175
     1
 42
1.0
 92
        8
 66
     7
 43
1.0
 76
     1
 77
     6
 78
     2
 67
     7
 79
     5
170
     0
171
     0
290
     0
174
     0
 93
        1
 44
50.0
173
     0
291
     1
 45
0.0
1001
ACAD
1000
AcDbSavedByObjectVersion
1070
     0
  0
VISUALSTYLE
  5
3A
102
{ACAD_REACTORS
330
2A
102
}
102
{ACAD_XDICTIONARY
360
36F
102
}
330
2A
100
AcDbVisualStyle
  2
ColorChange
 70
    16
 71
     2
 72
     2
 73
     3
 90
        0
 40
-0.6
 41
-30.0
 62
     5
 63
     8
 74
     1
 91
        4
 64
     7
 65
   257
 75
     1
175
     1
 42
1.0
 92
        8
 66
     8
 43
1.0
 76
     1
 77
     6
 78
     2
 67
     7
 79
     5
170
     0
171
     0
290
     0
174
     0
 93
        1
 44
0.0
173
     0
291
     1
 45
0.0
1001
ACAD
1000
AcDbSavedByObjectVersion
1070
     0
  0
VISUALSTYLE
  5
34
102
{ACAD_REACTORS
330
2A
102
}
102
{ACAD_XDICTIONARY
360
363
102
}
330
2A
100
AcDbVisualStyle
  2
Conceptual
 70
     9
 71
     3
 72
     2
 73
     0
 90
        0
 40
-0.6
 41
-30.0
 62
     5
 63
     7
 74
     2
 91
        2
 64
     7
 65
   257
 75
     1
175
     1
 42
40.0
 92
        8
 66
     7
 43
1.0
 76
     1
 77
     6
 78
     2
 67
     7
 79
     3
170
     0
171
     0
290
     0
174
     0
 93
        1
 44
0.0
173
     0
291
     0
 45
0.0
1001
ACAD
1000
AcDbSavedByObjectVersion
1070
     0
  0
VISUALSTYLE
  5
35
102
{ACAD_REACTORS
330
2A
102
}
102
{ACAD_XDICTIONARY
360
365
102
}
330
2A
100
AcDbVisualStyle
  2
Dim
 70
    11
 71
     2
 72
     2
 73
     0
 90
        0
 40
-0.6
 41
-30.0
 62
     5
 63
     7
 74
     1
 91
        4
 64
     7
 65
   257
 75
     1
175
     1
 42
1.0
 92
        8
 66
     7
 43
1.0
 76
     1
 77
     6
 78
     2
 67
     7
 79
     5
170
     0
171
     0
290
     0
174
     0
 93
        1
 44
-50.0
173
     0
291
     1
 45
0.0
1001
ACAD
1000
AcDbSavedByObjectVersion
1070
     0
  0
VISUALSTYLE
  5
39
102
{ACAD_REACTORS
330
2A
102
}
102
{ACAD_XDICTIONARY
360
36D
102
}
330
2A
100
AcDbVisualStyle
  2
Facepattern
 70
    15
 71
     2
 72
     2
 73
     0
 90
        0
 40
-0.6
 41
-30.0
 62
     5
 63
     7
 74
     1
 91
        4
 64
     7
 65
   257
 75
     1
175
     1
 42
1.0
 92
        8
 66
     7
 43
1.0
 76
     1
 77
     6
 78
     2
 67
     7
 79
     5
170
     0
171
     0
290
     0
174
     0
 93
        1
 44
0.0
173
     0
291
     1
 45
0.0
1001
ACAD
1000
AcDbSavedByObjectVersion
1070
     0
  0
VISUALSTYLE
  5
2B
102
{ACAD_REACTORS
330
2A
102
}
102
{ACAD_XDICTIONARY
360
351
102
}
330
2A
100
AcDbVisualStyle
  2
Flat
 70
     0
 71
     2
 72
     1
 73
     1
 90
        2
 40
-0.6
 41
30.0
 62
     5
 63
     7
 74
     0
 91
        4
 64
     7
 65
   257
 75
     1
175
     1
 42
1.0
 92
        8
 66
     7
 43
1.0
 76
     1
 77
     6
 78
     2
 67
     7
 79
     5
170
     0
171
     0
290
     0
174
     0
 93
       13
 44
0.0
173
     0
291
     1
 45
0.0
1001
ACAD
1000
AcDbSavedByObjectVersion
1070
     0
  0
VISUALSTYLE
  5
2C
102
{ACAD_REACTORS
330
2A
102
}
102
{ACAD_XDICTIONARY
360
353
102
}
330
2A
100
AcDbVisualStyle
  2
FlatWithEdges
 70
     1
 71
     2
 72
     1
 73
     1
 90
        2
 40
-0.6
 41
30.0
 62
     5
 63
     7
 74
     1
 91
        4
 64
     7
 65
   257
 75
     1
175
     1
 42
1.0
 92
        0
 66
   257
 43
1.0
 76
     1
 77
     6
 78
     2
 67
     7
 79
     5
170
     0
171
     0
290
     0
174
     0
 93
       13
 44
0.0
173
     0
291
     1
 45
0.0
1001
ACAD
1000
AcDbSavedByObjectVersion
1070
     0
  0
VISUALSTYLE
  5
2D
102
{ACAD_REACTORS
330
2A
102
}
102
{ACAD_XDICTIONARY
360
355
102
}
330
2A
100
AcDbVisualStyle
  2
Gouraud
 70
     2
 71
     2
 72
     2
 73
     1
 90
        2
 40
-0.6
 41
30.0
 62
     5
 63
     7
 74
     0
 91
        4
 64
     7
 65
   257
 75
     1
175
     1
 42
1.0
 92
        0
 66
     7
 43
1.0
 76
     1
 77
     6
 78
     2
 67
     7
 79
     5
170
     0
171
     0
290
     0
174
     0
 93
       13
 44
0.0
173
     0
291
     1
 45
0.0
1001
ACAD
1000
AcDbSavedByObjectVersion
1070
     0
  0
VISUALSTYLE
  5
2E
102
{ACAD_REACTORS
330
2A
102
}
102
{ACAD_XDICTIONARY
360
357
102
}
330
2A
100
AcDbVisualStyle
  2
GouraudWithEdges
 70
     3
 71
     2
 72
     2
 73
     1
 90
        2
 40
-0.6
 41
30.0
 62
     5
 63
     7
 74
     1
 91
        4
 64
     7
 65
   257
 75
     1
175
     1
 42
1.0
 92
        0
 66
   257
 43
1.0
 76
     1
 77
     6
 78
     2
 67
     7
 79
     5
170
     0
171
     0
290
     0
174
     0
 93
       13
 44
0.0
173
     0
291
     1
 45
0.0
1001
ACAD
1000
AcDbSavedByObjectVersion
1070
     0
  0
VISUALSTYLE
  5
38
102
{ACAD_REACTORS
330
2A
102
}
102
{ACAD_XDICTIONARY
360
36B
102
}
330
2A
100
AcDbVisualStyle
  2
Linepattern
 70
    14
 71
     2
 72
     2
 73
     0
 90
        0
 40
-0.6
 41
-30.0
 62
     5
 63
     7
 74
     1
 91
        4
 64
     7
 65
   257
 75
     7
175
     7
 42
1.0
 92
        8
 66
     7
 43
1.0
 76
     1
 77
     6
 78
     2
 67
     7
 79
     5
170
     0
171
     0
290
     0
174
     0
 93
        1
 44
0.0
173
     0
291
     1
 45
0.0
1001
ACAD
1000
AcDbSavedByObjectVersion
1070
     0
  0
VISUALSTYLE
  5
33
102
{ACAD_REACTORS
330
2A
102
}
102
{ACAD_XDICTIONARY
360
361
102
}
330
2A
100
AcDbVisualStyle
  2
Realistic
 70
     8
 71
     2
 72
     2
 73
     0
 90
        0
 40
-0.6
 41
-30.0
 62
     5
 63
     7
 74
     1
 91
        0
 64
     7
 65
   257
 75
     1
175
     1
 42
1.0
 92
        8
 66
     8
 43
1.0
 76
     1
 77
     6
 78
     2
 67
     7
 79
     5
170
     0
171
     0
290
     0
174
     0
 93
       13
 44
0.0
173
     0
291
     0
 45
0.0
1001
ACAD
1000
AcDbSavedByObjectVersion
1070
     0
  0
VISUALSTYLE
  5
37
102
{ACAD_REACTORS
330
2A
102
}
102
{ACAD_XDICTIONARY
360
369
102
}
330
2A
100
AcDbVisualStyle
  2
Thicken
 70
    13
 71
     2
 72
     2
 73
     0
 90
        0
 40
-0.6
 41
-30.0
 62
     5
 63
     7
 74
     1
 91
        4
 64
     7
 65
   257
 75
     1
175
     1
 42
1.0
 92
       12
 66
     7
 43
1.0
 76
     1
 77
     6
 78
     2
 67
     7
 79
     5
170
     0
171
     0
290
     0
174
     0
 93
        1
 44
0.0
173
     0
291
     1
 45
0.0
1001
ACAD
1000
AcDbSavedByObjectVersion
1070
     0
  0
DICTIONARYVAR
  5
34F
102
{ACAD_REACTORS
330
34C
102
}
330
34C
100
DictionaryVariables
280
     0
  1
2
  0
DICTIONARYVAR
  5
350
102
{ACAD_REACTORS
330
34C
102
}
330
34C
100
DictionaryVariables
280
     0
  1
1
  0
DICTIONARY
  5
373
330
3D
100
AcDbDictionary
280
     1
281
     1
  3
ACAD_XREC_ROUNDTRIP
360
374
  0
DICTIONARY
  5
371
330
3C
100
AcDbDictionary
280
     1
281
     1
  3
ACAD_XREC_ROUNDTRIP
360
372
  0
DICTIONARY
  5
375
330
3E
100
AcDbDictionary
280
     1
281
     1
  3
ACAD_XREC_ROUNDTRIP
360
376
  0
DICTIONARY
  5
359
330
2F
100
AcDbDictionary
280
     1
281
     1
  3
ACAD_XREC_ROUNDTRIP
360
35A
  0
DICTIONARY
  5
35D
330
31
100
AcDbDictionary
280
     1
281
     1
  3
ACAD_XREC_ROUNDTRIP
360
35E
  0
DICTIONARY
  5
35B
330
30
100
AcDbDictionary
280
     1
281
     1
  3
ACAD_XREC_ROUNDTRIP
360
35C
  0
DICTIONARY
  5
35F
330
32
100
AcDbDictionary
280
     1
281
     1
  3
ACAD_XREC_ROUNDTRIP
360
360
  0
DICTIONARY
  5
367
330
36
100
AcDbDictionary
280
     1
281
     1
  3
ACAD_XREC_ROUNDTRIP
360
368
  0
DICTIONARY
  5
36F
330
3A
100
AcDbDictionary
280
     1
281
     1
  3
ACAD_XREC_ROUNDTRIP
360
370
  0
DICTIONARY
  5
363
330
34
100
AcDbDictionary
280
     1
281
     1
  3
ACAD_XREC_ROUNDTRIP
360
364
  0
DICTIONARY
  5
365
330
35
100
AcDbDictionary
280
     1
281
     1
  3
ACAD_XREC_ROUNDTRIP
360
366
  0
DICTIONARY
  5
36D
330
39
100
AcDbDictionary
280
     1
281
     1
  3
ACAD_XREC_ROUNDTRIP
360
36E
  0
DICTIONARY
  5
351
330
2B
100
AcDbDictionary
280
     1
281
     1
  3
ACAD_XREC_ROUNDTRIP
360
352
  0
DICTIONARY
  5
353
330
2C
100
AcDbDictionary
280
     1
281
     1
  3
ACAD_XREC_ROUNDTRIP
360
354
  0
DICTIONARY
  5
355
330
2D
100
AcDbDictionary
280
     1
281
     1
  3
ACAD_XREC_ROUNDTRIP
360
356
  0
DICTIONARY
  5
357
330
2E
100
AcDbDictionary
280
     1
281
     1
  3
ACAD_XREC_ROUNDTRIP
360
358
  0
DICTIONARY
  5
36B
330
38
100
AcDbDictionary
280
     1
281
     1
  3
ACAD_XREC_ROUNDTRIP
360
36C
  0
DICTIONARY
  5
361
330
33
100
AcDbDictionary
280
     1
281
     1
  3
ACAD_XREC_ROUNDTRIP
360
362
  0
DICTIONARY
  5
369
330
37
100
AcDbDictionary
280
     1
281
     1
  3
ACAD_XREC_ROUNDTRIP
360
36A
  0
XRECORD
  5
374
102
{ACAD_REACTORS
330
373
102
}
330
373
100
AcDbXrecord
280
     1
102
MATERIAL
148
0.0
149
0.0
149
0.0
 93
        0
 94
      127
282
     0
 72
     1
 77
     1
171
     1
175
     1
179
     1
273
     0
  0
XRECORD
  5
372
102
{ACAD_REACTORS
330
371
102
}
330
371
100
AcDbXrecord
280
     1
102
MATERIAL
148
0.0
149
0.0
149
0.0
 93
        0
 94
      127
282
     0
 72
     1
 77
     1
171
     1
175
     1
179
     1
273
     0
  0
XRECORD
  5
376
102
{ACAD_REACTORS
330
375
102
}
330
375
100
AcDbXrecord
280
     1
102
MATERIAL
148
0.0
149
0.0
149
0.0
 93
        0
 94
      127
282
     0
 72
     1
 77
     1
171
     1
175
     1
179
     1
273
     0
  0
XRECORD
  5
35A
102
{ACAD_REACTORS
330
359
102
}
330
359
100
AcDbXrecord
280
     1
102
RTVSPropertyOp0
 70
     1
102
RTVSPropertyOp1
 70
     1
102
RTVSPropertyOp2
 70
     1
102
RTVSPropertyOp3
 70
     1
102
RTVSPropertyOp4
 70
     1
102
RTVSPropertyOp5
 70
     1
102
RTVSPropertyOp6
 70
     1
102
RTVSPropertyOp7
 70
     1
102
RTVSPropertyOp8
 70
     1
102
RTVSPropertyOp9
 70
     1
102
RTVSPropertyOp10
 70
     1
102
RTVSPropertyOp11
 70
     1
102
RTVSPropertyOp12
 70
     1
102
RTVSPropertyOp13
 70
     1
102
RTVSPropertyOp14
 70
     1
102
RTVSPropertyOp15
 70
     1
102
RTVSPropertyOp16
 70
     1
102
RTVSPropertyOp17
 70
     1
102
RTVSPropertyOp18
 70
     1
102
RTVSPropertyOp19
 70
     1
102
RTVSPropertyOp20
 70
     1
102
RTVSPropertyOp21
 70
     1
102
RTVSPropertyOp22
 70
     1
102
RTVSPropertyOp23
 70
     1
102
RTVSPropertyOp24
 70
     1
102
RTVSPropertyOp25
 70
     1
102
RTVSPropertyOp26
 70
     1
102
RTVSPropertyOp27
 70
     1
102
RTVSPropertyOp28
 70
     1
102
RTVSPropertyOp29
 70
     1
102
RTVSPropertyOp30
 70
     1
102
RTVSPropertyOp31
 70
     1
102
RTVSPropertyOp32
 70
     1
  0
XRECORD
  5
35E
102
{ACAD_REACTORS
330
35D
102
}
330
35D
100
AcDbXrecord
280
     1
102
RTVSPropertyOp0
 70
     1
102
RTVSPropertyOp1
 70
     1
102
RTVSPropertyOp2
 70
     1
102
RTVSPropertyOp3
 70
     1
102
RTVSPropertyOp4
 70
     1
102
RTVSPropertyOp5
 70
     1
102
RTVSPropertyOp6
 70
     1
102
RTVSPropertyOp7
 70
     1
102
RTVSPropertyOp8
 70
     1
102
RTVSPropertyOp9
 70
     1
102
RTVSPropertyOp10
 70
     1
102
RTVSPropertyOp11
 70
     1
102
RTVSPropertyOp12
 70
     1
102
RTVSPropertyOp13
 70
     1
102
RTVSPropertyOp14
 70
     1
102
RTVSPropertyOp15
 70
     1
102
RTVSPropertyOp16
 70
     1
102
RTVSPropertyOp17
 70
     1
102
RTVSPropertyOp18
 70
     1
102
RTVSPropertyOp19
 70
     1
102
RTVSPropertyOp20
 70
     1
102
RTVSPropertyOp21
 70
     1
102
RTVSPropertyOp22
 70
     1
102
RTVSPropertyOp23
 70
     1
102
RTVSPropertyOp24
 70
     1
102
RTVSPropertyOp25
 70
     1
102
RTVSPropertyOp26
 70
     1
102
RTVSPropertyOp27
 70
     1
102
RTVSPropertyOp28
 70
     1
102
RTVSPropertyOp29
 70
     1
102
RTVSPropertyOp30
 70
     1
102
RTVSPropertyOp31
 70
     1
102
RTVSPropertyOp32
 70
     1
  0
XRECORD
  5
35C
102
{ACAD_REACTORS
330
35B
102
}
330
35B
100
AcDbXrecord
280
     1
102
RTVSPropertyOp0
 70
     1
102
RTVSPropertyOp1
 70
     1
102
RTVSPropertyOp2
 70
     1
102
RTVSPropertyOp3
 70
     1
102
RTVSPropertyOp4
 70
     1
102
RTVSPropertyOp5
 70
     1
102
RTVSPropertyOp6
 70
     1
102
RTVSPropertyOp7
 70
     1
102
RTVSPropertyOp8
 70
     1
102
RTVSPropertyOp9
 70
     1
102
RTVSPropertyOp10
 70
     1
102
RTVSPropertyOp11
 70
     1
102
RTVSPropertyOp12
 70
     1
102
RTVSPropertyOp13
 70
     1
102
RTVSPropertyOp14
 70
     1
102
RTVSPropertyOp15
 70
     1
102
RTVSPropertyOp16
 70
     1
102
RTVSPropertyOp17
 70
     1
102
RTVSPropertyOp18
 70
     1
102
RTVSPropertyOp19
 70
     1
102
RTVSPropertyOp20
 70
     1
102
RTVSPropertyOp21
 70
     1
102
RTVSPropertyOp22
 70
     1
102
RTVSPropertyOp23
 70
     1
102
RTVSPropertyOp24
 70
     1
102
RTVSPropertyOp25
 70
     1
102
RTVSPropertyOp26
 70
     1
102
RTVSPropertyOp27
 70
     1
102
RTVSPropertyOp28
 70
     1
102
RTVSPropertyOp29
 70
     1
102
RTVSPropertyOp30
 70
     1
102
RTVSPropertyOp31
 70
     1
102
RTVSPropertyOp32
 70
     1
  0
XRECORD
  5
360
102
{ACAD_REACTORS
330
35F
102
}
330
35F
100
AcDbXrecord
280
     1
102
RTVSPropertyOp0
 70
     1
102
RTVSPropertyOp1
 70
     1
102
RTVSPropertyOp2
 70
     1
102
RTVSPropertyOp3
 70
     1
102
RTVSPropertyOp4
 70
     1
102
RTVSPropertyOp5
 70
     1
102
RTVSPropertyOp6
 70
     1
102
RTVSPropertyOp7
 70
     1
102
RTVSPropertyOp8
 70
     1
102
RTVSPropertyOp9
 70
     1
102
RTVSPropertyOp10
 70
     1
102
RTVSPropertyOp11
 70
     1
102
RTVSPropertyOp12
 70
     1
102
RTVSPropertyOp13
 70
     1
102
RTVSPropertyOp14
 70
     1
102
RTVSPropertyOp15
 70
     1
102
RTVSPropertyOp16
 70
     1
102
RTVSPropertyOp17
 70
     1
102
RTVSPropertyOp18
 70
     1
102
RTVSPropertyOp19
 70
     1
102
RTVSPropertyOp20
 70
     1
102
RTVSPropertyOp21
 70
     1
102
RTVSPropertyOp22
 70
     1
102
RTVSPropertyOp23
 70
     1
102
RTVSPropertyOp24
 70
     1
102
RTVSPropertyOp25
 70
     1
102
RTVSPropertyOp26
 70
     1
102
RTVSPropertyOp27
 70
     1
102
RTVSPropertyOp28
 70
     1
102
RTVSPropertyOp29
 70
     1
102
RTVSPropertyOp30
 70
     1
102
RTVSPropertyOp31
 70
     1
102
RTVSPropertyOp32
 70
     1
  0
XRECORD
  5
368
102
{ACAD_REACTORS
330
367
102
}
330
367
100
AcDbXrecord
280
     1
102
RTVSPropertyOp0
 70
     1
102
RTVSPropertyOp1
 70
     1
102
RTVSPropertyOp2
 70
     1
102
RTVSPropertyOp3
 70
     1
102
RTVSPropertyOp4
 70
     1
102
RTVSPropertyOp5
 70
     1
102
RTVSPropertyOp6
 70
     1
102
RTVSPropertyOp7
 70
     1
102
RTVSPropertyOp8
 70
     1
102
RTVSPropertyOp9
 70
     1
102
RTVSPropertyOp10
 70
     1
102
RTVSPropertyOp11
 70
     1
102
RTVSPropertyOp12
 70
     1
102
RTVSPropertyOp13
 70
     1
102
RTVSPropertyOp14
 70
     1
102
RTVSPropertyOp15
 70
     1
102
RTVSPropertyOp16
 70
     1
102
RTVSPropertyOp17
 70
     1
102
RTVSPropertyOp18
 70
     1
102
RTVSPropertyOp19
 70
     1
102
RTVSPropertyOp20
 70
     1
102
RTVSPropertyOp21
 70
     1
102
RTVSPropertyOp22
 70
     1
102
RTVSPropertyOp23
 70
     1
102
RTVSPropertyOp24
 70
     1
102
RTVSPropertyOp25
 70
     1
102
RTVSPropertyOp26
 70
     1
102
RTVSPropertyOp27
 70
     1
102
RTVSPropertyOp28
 70
     1
102
RTVSPropertyOp29
 70
     1
102
RTVSPropertyOp30
 70
     1
102
RTVSPropertyOp31
 70
     1
102
RTVSPropertyOp32
 70
     1
  0
XRECORD
  5
370
102
{ACAD_REACTORS
330
36F
102
}
330
36F
100
AcDbXrecord
280
     1
102
RTVSPropertyOp0
 70
     1
102
RTVSPropertyOp1
 70
     1
102
RTVSPropertyOp2
 70
     1
102
RTVSPropertyOp3
 70
     1
102
RTVSPropertyOp4
 70
     1
102
RTVSPropertyOp5
 70
     1
102
RTVSPropertyOp6
 70
     1
102
RTVSPropertyOp7
 70
     1
102
RTVSPropertyOp8
 70
     1
102
RTVSPropertyOp9
 70
     1
102
RTVSPropertyOp10
 70
     1
102
RTVSPropertyOp11
 70
     1
102
RTVSPropertyOp12
 70
     1
102
RTVSPropertyOp13
 70
     1
102
RTVSPropertyOp14
 70
     1
102
RTVSPropertyOp15
 70
     1
102
RTVSPropertyOp16
 70
     1
102
RTVSPropertyOp17
 70
     1
102
RTVSPropertyOp18
 70
     1
102
RTVSPropertyOp19
 70
     1
102
RTVSPropertyOp20
 70
     1
102
RTVSPropertyOp21
 70
     1
102
RTVSPropertyOp22
 70
     1
102
RTVSPropertyOp23
 70
     1
102
RTVSPropertyOp24
 70
     1
102
RTVSPropertyOp25
 70
     1
102
RTVSPropertyOp26
 70
     1
102
RTVSPropertyOp27
 70
     1
102
RTVSPropertyOp28
 70
     1
102
RTVSPropertyOp29
 70
     1
102
RTVSPropertyOp30
 70
     1
102
RTVSPropertyOp31
 70
     1
102
RTVSPropertyOp32
 70
     1
  0
XRECORD
  5
364
102
{ACAD_REACTORS
330
363
102
}
330
363
100
AcDbXrecord
280
     1
102
RTVSPropertyOp0
 70
     1
102
RTVSPropertyOp1
 70
     1
102
RTVSPropertyOp2
 70
     1
102
RTVSPropertyOp3
 70
     1
102
RTVSPropertyOp4
 70
     1
102
RTVSPropertyOp5
 70
     1
102
RTVSPropertyOp6
 70
     1
102
RTVSPropertyOp7
 70
     1
102
RTVSPropertyOp8
 70
     1
102
RTVSPropertyOp9
 70
     1
102
RTVSPropertyOp10
 70
     1
102
RTVSPropertyOp11
 70
     1
102
RTVSPropertyOp12
 70
     1
102
RTVSPropertyOp13
 70
     1
102
RTVSPropertyOp14
 70
     1
102
RTVSPropertyOp15
 70
     1
102
RTVSPropertyOp16
 70
     1
102
RTVSPropertyOp17
 70
     1
102
RTVSPropertyOp18
 70
     1
102
RTVSPropertyOp19
 70
     1
102
RTVSPropertyOp20
 70
     1
102
RTVSPropertyOp21
 70
     1
102
RTVSPropertyOp22
 70
     1
102
RTVSPropertyOp23
 70
     1
102
RTVSPropertyOp24
 70
     1
102
RTVSPropertyOp25
 70
     1
102
RTVSPropertyOp26
 70
     1
102
RTVSPropertyOp27
 70
     1
102
RTVSPropertyOp28
 70
     1
102
RTVSPropertyOp29
 70
     1
102
RTVSPropertyOp30
 70
     1
102
RTVSPropertyOp31
 70
     1
102
RTVSPropertyOp32
 70
     1
  0
XRECORD
  5
366
102
{ACAD_REACTORS
330
365
102
}
330
365
100
AcDbXrecord
280
     1
102
RTVSPropertyOp0
 70
     1
102
RTVSPropertyOp1
 70
     1
102
RTVSPropertyOp2
 70
     1
102
RTVSPropertyOp3
 70
     1
102
RTVSPropertyOp4
 70
     1
102
RTVSPropertyOp5
 70
     1
102
RTVSPropertyOp6
 70
     1
102
RTVSPropertyOp7
 70
     1
102
RTVSPropertyOp8
 70
     1
102
RTVSPropertyOp9
 70
     1
102
RTVSPropertyOp10
 70
     1
102
RTVSPropertyOp11
 70
     1
102
RTVSPropertyOp12
 70
     1
102
RTVSPropertyOp13
 70
     1
102
RTVSPropertyOp14
 70
     1
102
RTVSPropertyOp15
 70
     1
102
RTVSPropertyOp16
 70
     1
102
RTVSPropertyOp17
 70
     1
102
RTVSPropertyOp18
 70
     1
102
RTVSPropertyOp19
 70
     1
102
RTVSPropertyOp20
 70
     1
102
RTVSPropertyOp21
 70
     1
102
RTVSPropertyOp22
 70
     1
102
RTVSPropertyOp23
 70
     1
102
RTVSPropertyOp24
 70
     1
102
RTVSPropertyOp25
 70
     1
102
RTVSPropertyOp26
 70
     1
102
RTVSPropertyOp27
 70
     1
102
RTVSPropertyOp28
 70
     1
102
RTVSPropertyOp29
 70
     1
102
RTVSPropertyOp30
 70
     1
102
RTVSPropertyOp31
 70
     1
102
RTVSPropertyOp32
 70
     1
  0
XRECORD
  5
36E
102
{ACAD_REACTORS
330
36D
102
}
330
36D
100
AcDbXrecord
280
     1
102
RTVSPropertyOp0
 70
     1
102
RTVSPropertyOp1
 70
     1
102
RTVSPropertyOp2
 70
     1
102
RTVSPropertyOp3
 70
     1
102
RTVSPropertyOp4
 70
     1
102
RTVSPropertyOp5
 70
     1
102
RTVSPropertyOp6
 70
     1
102
RTVSPropertyOp7
 70
     1
102
RTVSPropertyOp8
 70
     1
102
RTVSPropertyOp9
 70
     1
102
RTVSPropertyOp10
 70
     1
102
RTVSPropertyOp11
 70
     1
102
RTVSPropertyOp12
 70
     1
102
RTVSPropertyOp13
 70
     1
102
RTVSPropertyOp14
 70
     1
102
RTVSPropertyOp15
 70
     1
102
RTVSPropertyOp16
 70
     1
102
RTVSPropertyOp17
 70
     1
102
RTVSPropertyOp18
 70
     1
102
RTVSPropertyOp19
 70
     1
102
RTVSPropertyOp20
 70
     1
102
RTVSPropertyOp21
 70
     1
102
RTVSPropertyOp22
 70
     1
102
RTVSPropertyOp23
 70
     1
102
RTVSPropertyOp24
 70
     1
102
RTVSPropertyOp25
 70
     1
102
RTVSPropertyOp26
 70
     1
102
RTVSPropertyOp27
 70
     1
102
RTVSPropertyOp28
 70
     1
102
RTVSPropertyOp29
 70
     1
102
RTVSPropertyOp30
 70
     1
102
RTVSPropertyOp31
 70
     1
102
RTVSPropertyOp32
 70
     1
  0
XRECORD
  5
352
102
{ACAD_REACTORS
330
351
102
}
330
351
100
AcDbXrecord
280
     1
102
RTVSPropertyOp0
 70
     1
102
RTVSPropertyOp1
 70
     1
102
RTVSPropertyOp2
 70
     1
102
RTVSPropertyOp3
 70
     1
102
RTVSPropertyOp4
 70
     1
102
RTVSPropertyOp5
 70
     1
102
RTVSPropertyOp6
 70
     1
102
RTVSPropertyOp7
 70
     1
102
RTVSPropertyOp8
 70
     1
102
RTVSPropertyOp9
 70
     1
102
RTVSPropertyOp10
 70
     1
102
RTVSPropertyOp11
 70
     1
102
RTVSPropertyOp12
 70
     1
102
RTVSPropertyOp13
 70
     1
102
RTVSPropertyOp14
 70
     1
102
RTVSPropertyOp15
 70
     1
102
RTVSPropertyOp16
 70
     1
102
RTVSPropertyOp17
 70
     1
102
RTVSPropertyOp18
 70
     1
102
RTVSPropertyOp19
 70
     1
102
RTVSPropertyOp20
 70
     1
102
RTVSPropertyOp21
 70
     1
102
RTVSPropertyOp22
 70
     1
102
RTVSPropertyOp23
 70
     1
102
RTVSPropertyOp24
 70
     1
102
RTVSPropertyOp25
 70
     1
102
RTVSPropertyOp26
 70
     1
102
RTVSPropertyOp27
 70
     1
102
RTVSPropertyOp28
 70
     1
102
RTVSPropertyOp29
 70
     1
102
RTVSPropertyOp30
 70
     1
102
RTVSPropertyOp31
 70
     1
102
RTVSPropertyOp32
 70
     1
  0
XRECORD
  5
354
102
{ACAD_REACTORS
330
353
102
}
330
353
100
AcDbXrecord
280
     1
102
RTVSPropertyOp0
 70
     1
102
RTVSPropertyOp1
 70
     1
102
RTVSPropertyOp2
 70
     1
102
RTVSPropertyOp3
 70
     1
102
RTVSPropertyOp4
 70
     1
102
RTVSPropertyOp5
 70
     1
102
RTVSPropertyOp6
 70
     1
102
RTVSPropertyOp7
 70
     1
102
RTVSPropertyOp8
 70
     1
102
RTVSPropertyOp9
 70
     1
102
RTVSPropertyOp10
 70
     1
102
RTVSPropertyOp11
 70
     1
102
RTVSPropertyOp12
 70
     1
102
RTVSPropertyOp13
 70
     1
102
RTVSPropertyOp14
 70
     1
102
RTVSPropertyOp15
 70
     1
102
RTVSPropertyOp16
 70
     1
102
RTVSPropertyOp17
 70
     1
102
RTVSPropertyOp18
 70
     1
102
RTVSPropertyOp19
 70
     1
102
RTVSPropertyOp20
 70
     1
102
RTVSPropertyOp21
 70
     1
102
RTVSPropertyOp22
 70
     1
102
RTVSPropertyOp23
 70
     1
102
RTVSPropertyOp24
 70
     1
102
RTVSPropertyOp25
 70
     1
102
RTVSPropertyOp26
 70
     1
102
RTVSPropertyOp27
 70
     1
102
RTVSPropertyOp28
 70
     1
102
RTVSPropertyOp29
 70
     1
102
RTVSPropertyOp30
 70
     1
102
RTVSPropertyOp31
 70
     1
102
RTVSPropertyOp32
 70
     1
  0
XRECORD
  5
356
102
{ACAD_REACTORS
330
355
102
}
330
355
100
AcDbXrecord
280
     1
102
RTVSPropertyOp0
 70
     1
102
RTVSPropertyOp1
 70
     1
102
RTVSPropertyOp2
 70
     1
102
RTVSPropertyOp3
 70
     1
102
RTVSPropertyOp4
 70
     1
102
RTVSPropertyOp5
 70
     1
102
RTVSPropertyOp6
 70
     1
102
RTVSPropertyOp7
 70
     1
102
RTVSPropertyOp8
 70
     1
102
RTVSPropertyOp9
 70
     1
102
RTVSPropertyOp10
 70
     1
102
RTVSPropertyOp11
 70
     1
102
RTVSPropertyOp12
 70
     1
102
RTVSPropertyOp13
 70
     1
102
RTVSPropertyOp14
 70
     1
102
RTVSPropertyOp15
 70
     1
102
RTVSPropertyOp16
 70
     1
102
RTVSPropertyOp17
 70
     1
102
RTVSPropertyOp18
 70
     1
102
RTVSPropertyOp19
 70
     1
102
RTVSPropertyOp20
 70
     1
102
RTVSPropertyOp21
 70
     1
102
RTVSPropertyOp22
 70
     1
102
RTVSPropertyOp23
 70
     1
102
RTVSPropertyOp24
 70
     1
102
RTVSPropertyOp25
 70
     1
102
RTVSPropertyOp26
 70
     1
102
RTVSPropertyOp27
 70
     1
102
RTVSPropertyOp28
 70
     1
102
RTVSPropertyOp29
 70
     1
102
RTVSPropertyOp30
 70
     1
102
RTVSPropertyOp31
 70
     1
102
RTVSPropertyOp32
 70
     1
  0
XRECORD
  5
358
102
{ACAD_REACTORS
330
357
102
}
330
357
100
AcDbXrecord
280
     1
102
RTVSPropertyOp0
 70
     1
102
RTVSPropertyOp1
 70
     1
102
RTVSPropertyOp2
 70
     1
102
RTVSPropertyOp3
 70
     1
102
RTVSPropertyOp4
 70
     1
102
RTVSPropertyOp5
 70
     1
102
RTVSPropertyOp6
 70
     1
102
RTVSPropertyOp7
 70
     1
102
RTVSPropertyOp8
 70
     1
102
RTVSPropertyOp9
 70
     1
102
RTVSPropertyOp10
 70
     1
102
RTVSPropertyOp11
 70
     1
102
RTVSPropertyOp12
 70
     1
102
RTVSPropertyOp13
 70
     1
102
RTVSPropertyOp14
 70
     1
102
RTVSPropertyOp15
 70
     1
102
RTVSPropertyOp16
 70
     1
102
RTVSPropertyOp17
 70
     1
102
RTVSPropertyOp18
 70
     1
102
RTVSPropertyOp19
 70
     1
102
RTVSPropertyOp20
 70
     1
102
RTVSPropertyOp21
 70
     1
102
RTVSPropertyOp22
 70
     1
102
RTVSPropertyOp23
 70
     1
102
RTVSPropertyOp24
 70
     1
102
RTVSPropertyOp25
 70
     1
102
RTVSPropertyOp26
 70
     1
102
RTVSPropertyOp27
 70
     1
102
RTVSPropertyOp28
 70
     1
102
RTVSPropertyOp29
 70
     1
102
RTVSPropertyOp30
 70
     1
102
RTVSPropertyOp31
 70
     1
102
RTVSPropertyOp32
 70
     1
  0
XRECORD
  5
36C
102
{ACAD_REACTORS
330
36B
102
}
330
36B
100
AcDbXrecord
280
     1
102
RTVSPropertyOp0
 70
     1
102
RTVSPropertyOp1
 70
     1
102
RTVSPropertyOp2
 70
     1
102
RTVSPropertyOp3
 70
     1
102
RTVSPropertyOp4
 70
     1
102
RTVSPropertyOp5
 70
     1
102
RTVSPropertyOp6
 70
     1
102
RTVSPropertyOp7
 70
     1
102
RTVSPropertyOp8
 70
     1
102
RTVSPropertyOp9
 70
     1
102
RTVSPropertyOp10
 70
     1
102
RTVSPropertyOp11
 70
     1
102
RTVSPropertyOp12
 70
     1
102
RTVSPropertyOp13
 70
     1
102
RTVSPropertyOp14
 70
     1
102
RTVSPropertyOp15
 70
     1
102
RTVSPropertyOp16
 70
     1
102
RTVSPropertyOp17
 70
     1
102
RTVSPropertyOp18
 70
     1
102
RTVSPropertyOp19
 70
     1
102
RTVSPropertyOp20
 70
     1
102
RTVSPropertyOp21
 70
     1
102
RTVSPropertyOp22
 70
     1
102
RTVSPropertyOp23
 70
     1
102
RTVSPropertyOp24
 70
     1
102
RTVSPropertyOp25
 70
     1
102
RTVSPropertyOp26
 70
     1
102
RTVSPropertyOp27
 70
     1
102
RTVSPropertyOp28
 70
     1
102
RTVSPropertyOp29
 70
     1
102
RTVSPropertyOp30
 70
     1
102
RTVSPropertyOp31
 70
     1
102
RTVSPropertyOp32
 70
     1
  0
XRECORD
  5
362
102
{ACAD_REACTORS
330
361
102
}
330
361
100
AcDbXrecord
280
     1
102
RTVSPropertyOp0
 70
     1
102
RTVSPropertyOp1
 70
     1
102
RTVSPropertyOp2
 70
     1
102
RTVSPropertyOp3
 70
     1
102
RTVSPropertyOp4
 70
     1
102
RTVSPropertyOp5
 70
     1
102
RTVSPropertyOp6
 70
     1
102
RTVSPropertyOp7
 70
     1
102
RTVSPropertyOp8
 70
     1
102
RTVSPropertyOp9
 70
     1
102
RTVSPropertyOp10
 70
     1
102
RTVSPropertyOp11
 70
     1
102
RTVSPropertyOp12
 70
     1
102
RTVSPropertyOp13
 70
     1
102
RTVSPropertyOp14
 70
     1
102
RTVSPropertyOp15
 70
     1
102
RTVSPropertyOp16
 70
     1
102
RTVSPropertyOp17
 70
     1
102
RTVSPropertyOp18
 70
     1
102
RTVSPropertyOp19
 70
     1
102
RTVSPropertyOp20
 70
     1
102
RTVSPropertyOp21
 70
     1
102
RTVSPropertyOp22
 70
     1
102
RTVSPropertyOp23
 70
     1
102
RTVSPropertyOp24
 70
     1
102
RTVSPropertyOp25
 70
     1
102
RTVSPropertyOp26
 70
     1
102
RTVSPropertyOp27
 70
     1
102
RTVSPropertyOp28
 70
     1
102
RTVSPropertyOp29
 70
     1
102
RTVSPropertyOp30
 70
     1
102
RTVSPropertyOp31
 70
     1
102
RTVSPropertyOp32
 70
     1
  0
XRECORD
  5
36A
102
{ACAD_REACTORS
330
369
102
}
330
369
100
AcDbXrecord
280
     1
102
RTVSPropertyOp0
 70
     1
102
RTVSPropertyOp1
 70
     1
102
RTVSPropertyOp2
 70
     1
102
RTVSPropertyOp3
 70
     1
102
RTVSPropertyOp4
 70
     1
102
RTVSPropertyOp5
 70
     1
102
RTVSPropertyOp6
 70
     1
102
RTVSPropertyOp7
 70
     1
102
RTVSPropertyOp8
 70
     1
102
RTVSPropertyOp9
 70
     1
102
RTVSPropertyOp10
 70
     1
102
RTVSPropertyOp11
 70
     1
102
RTVSPropertyOp12
 70
     1
102
RTVSPropertyOp13
 70
     1
102
RTVSPropertyOp14
 70
     1
102
RTVSPropertyOp15
 70
     1
102
RTVSPropertyOp16
 70
     1
102
RTVSPropertyOp17
 70
     1
102
RTVSPropertyOp18
 70
     1
102
RTVSPropertyOp19
 70
     1
102
RTVSPropertyOp20
 70
     1
102
RTVSPropertyOp21
 70
     1
102
RTVSPropertyOp22
 70
     1
102
RTVSPropertyOp23
 70
     1
102
RTVSPropertyOp24
 70
     1
102
RTVSPropertyOp25
 70
     1
102
RTVSPropertyOp26
 70
     1
102
RTVSPropertyOp27
 70
     1
102
RTVSPropertyOp28
 70
     1
102
RTVSPropertyOp29
 70
     1
102
RTVSPropertyOp30
 70
     1
102
RTVSPropertyOp31
 70
     1
102
RTVSPropertyOp32
 70
     1
  0
ENDSEC
  0
EOF
