  0
SECTION
  2
HEADER
  9
$ACADVER
  1
AC1015
  9
$ACADMAINTVER
 70
     6
  9
$DWGCODEPAGE
  3
ANSI_932
  9
$INSBASE
 10
0.0
 20
0.0
 30
0.0
  9
$EXTMIN
 10
0.0
 20
0.0
 30
0.0
  9
$EXTMAX
 10
210.0000000000001
 20
297.0
 30
0.0
  9
$LIMMIN
 10
0.0
 20
0.0
  9
$LIMMAX
 10
12.0
 20
9.0
  9
$ORTHOMODE
 70
     0
  9
$REGENMODE
 70
     1
  9
$FILLMODE
 70
     1
  9
$QTEXTMODE
 70
     0
  9
$MIRRTEXT
 70
     1
  9
$LTSCALE
 40
1.0
  9
$ATTMODE
 70
     1
  9
$TEXTSIZE
 40
0.2
  9
$TRACEWID
 40
0.05
  9
$TEXTSTYLE
  7
Standard
  9
$CLAYER
  8
0
  9
$CELTYPE
  6
ByLayer
  9
$CECOLOR
 62
   256
  9
$CELTSCALE
 40
1.0
  9
$DISPSILH
 70
     0
  9
$DIMSCALE
 40
1.0
  9
$DIMASZ
 40
0.18
  9
$DIMEXO
 40
0.0625
  9
$DIMDLI
 40
0.38
  9
$DIMRND
 40
0.0
  9
$DIMDLE
 40
0.0
  9
$DIMEXE
 40
0.18
  9
$DIMTP
 40
0.0
  9
$DIMTM
 40
0.0
  9
$DIMTXT
 40
0.18
  9
$DIMCEN
 40
0.09
  9
$DIMTSZ
 40
0.0
  9
$DIMTOL
 70
     0
  9
$DIMLIM
 70
     0
  9
$DIMTIH
 70
     1
  9
$DIMTOH
 70
     1
  9
$DIMSE1
 70
     0
  9
$DIMSE2
 70
     0
  9
$DIMTAD
 70
     0
  9
$DIMZIN
 70
     0
  9
$DIMBLK
  1

  9
$DIMASO
 70
     1
  9
$DIMSHO
 70
     1
  9
$DIMPOST
  1

  9
$DIMAPOST
  1

  9
$DIMALT
 70
     0
  9
$DIMALTD
 70
     2
  9
$DIMALTF
 40
25.4
  9
$DIMLFAC
 40
1.0
  9
$DIMTOFL
 70
     0
  9
$DIMTVP
 40
0.0
  9
$DIMTIX
 70
     0
  9
$DIMSOXD
 70
     0
  9
$DIMSAH
 70
     0
  9
$DIMBLK1
  1

  9
$DIMBLK2
  1

  9
$DIMSTYLE
  2
Standard
  9
$DIMCLRD
 70
     0
  9
$DIMCLRE
 70
     0
  9
$DIMCLRT
 70
     0
  9
$DIMTFAC
 40
1.0
  9
$DIMGAP
 40
0.09
  9
$DIMJUST
 70
     0
  9
$DIMSD1
 70
     0
  9
$DIMSD2
 70
     0
  9
$DIMTOLJ
 70
     1
  9
$DIMTZIN
 70
     0
  9
$DIMALTZ
 70
     0
  9
$DIMALTTZ
 70
     0
  9
$DIMUPT
 70
     0
  9
$DIMDEC
 70
     4
  9
$DIMTDEC
 70
     4
  9
$DIMALTU
 70
     2
  9
$DIMALTTD
 70
     2
  9
$DIMTXSTY
  7
Standard
  9
$DIMAUNIT
 70
     0
  9
$DIMADEC
 70
     0
  9
$DIMALTRND
 40
0.0
  9
$DIMAZIN
 70
     0
  9
$DIMDSEP
 70
    46
  9
$DIMATFIT
 70
     3
  9
$DIMFRAC
 70
     0
  9
$DIMLDRBLK
  1

  9
$DIMLUNIT
 70
     2
  9
$DIMLWD
 70
    -2
  9
$DIMLWE
 70
    -2
  9
$DIMTMOVE
 70
     0
  9
$LUNITS
 70
     2
  9
$LUPREC
 70
     4
  9
$SKETCHINC
 40
0.1
  9
$FILLETRAD
 40
0.5
  9
$AUNITS
 70
     0
  9
$AUPREC
 70
     0
  9
$MENU
  1
.
  9
$ELEVATION
 40
0.0
  9
$PELEVATION
 40
0.0
  9
$THICKNESS
 40
0.0
  9
$LIMCHECK
 70
     0
  9
$CHAMFERA
 40
0.5
  9
$CHAMFERB
 40
0.5
  9
$CHAMFERC
 40
1.0
  9
$CHAMFERD
 40
0.0
  9
$SKPOLY
 70
     0
  9
$TDCREATE
 40
2459786.654085671
  9
$TDUCREATE
 40
2459786.279085671
  9
$TDUPDATE
 40
2459786.654086933
  9
$TDUUPDATE
 40
2459786.279086933
  9
$TDINDWG
 40
0.0000000116
  9
$TDUSRTIMER
 40
0.0000000116
  9
$USRTIMER
 70
     1
  9
$ANGBASE
 50
0.0
  9
$ANGDIR
 70
     0
  9
$PDMODE
 70
     0
  9
$PDSIZE
 40
0.0
  9
$PLINEWID
 40
0.0
  9
$SPLFRAME
 70
     0
  9
$SPLINETYPE
 70
     6
  9
$SPLINESEGS
 70
     8
  9
$HANDSEED
  5
136
  9
$SURFTAB1
 70
     6
  9
$SURFTAB2
 70
     6
  9
$SURFTYPE
 70
     6
  9
$SURFU
 70
     6
  9
$SURFV
 70
     6
  9
$UCSBASE
  2

  9
$UCSNAME
  2

  9
$UCSORG
 10
0.0
 20
0.0
 30
0.0
  9
$UCSXDIR
 10
1.0
 20
0.0
 30
0.0
  9
$UCSYDIR
 10
0.0
 20
1.0
 30
0.0
  9
$UCSORTHOREF
  2

  9
$UCSORTHOVIEW
 70
     0
  9
$UCSORGTOP
 10
0.0
 20
0.0
 30
0.0
  9
$UCSORGBOTTOM
 10
0.0
 20
0.0
 30
0.0
  9
$UCSORGLEFT
 10
0.0
 20
0.0
 30
0.0
  9
$UCSORGRIGHT
 10
0.0
 20
0.0
 30
0.0
  9
$UCSORGFRONT
 10
0.0
 20
0.0
 30
0.0
  9
$UCSORGBACK
 10
0.0
 20
0.0
 30
0.0
  9
$PUCSBASE
  2

  9
$PUCSNAME
  2

  9
$PUCSORG
 10
0.0
 20
0.0
 30
0.0
  9
$PUCSXDIR
 10
1.0
 20
0.0
 30
0.0
  9
$PUCSYDIR
 10
0.0
 20
1.0
 30
0.0
  9
$PUCSORTHOREF
  2

  9
$PUCSORTHOVIEW
 70
     0
  9
$PUCSORGTOP
 10
0.0
 20
0.0
 30
0.0
  9
$PUCSORGBOTTOM
 10
0.0
 20
0.0
 30
0.0
  9
$PUCSORGLEFT
 10
0.0
 20
0.0
 30
0.0
  9
$PUCSORGRIGHT
 10
0.0
 20
0.0
 30
0.0
  9
$PUCSORGFRONT
 10
0.0
 20
0.0
 30
0.0
  9
$PUCSORGBACK
 10
0.0
 20
0.0
 30
0.0
  9
$USERI1
 70
     0
  9
$USERI2
 70
     0
  9
$USERI3
 70
     0
  9
$USERI4
 70
     0
  9
$USERI5
 70
     0
  9
$USERR1
 40
18.1
  9
$USERR2
 40
0.0
  9
$USERR3
 40
0.0
  9
$USERR4
 40
0.0
  9
$USERR5
 40
0.0
  9
$WORLDVIEW
 70
     1
  9
$SHADEDGE
 70
     3
  9
$SHADEDIF
 70
    70
  9
$TILEMODE
 70
     1
  9
$MAXACTVP
 70
    64
  9
$PINSBASE
 10
0.0
 20
0.0
 30
0.0
  9
$PLIMCHECK
 70
     0
  9
$PEXTMIN
 10
1.00000000000000E+20
 20
1.00000000000000E+20
 30
1.00000000000000E+20
  9
$PEXTMAX
 10
-1.00000000000000E+20
 20
-1.00000000000000E+20
 30
-1.00000000000000E+20
  9
$PLIMMIN
 10
0.0
 20
0.0
  9
$PLIMMAX
 10
12.0
 20
9.0
  9
$UNITMODE
 70
     0
  9
$VISRETAIN
 70
     1
  9
$PLINEGEN
 70
     0
  9
$PSLTSCALE
 70
     1
  9
$TREEDEPTH
 70
  3020
  9
$CMLSTYLE
  2
Standard
  9
$CMLJUST
 70
     0
  9
$CMLSCALE
 40
1.0
  9
$PROXYGRAPHICS
 70
     1
  9
$MEASUREMENT
 70
     1
  9
$CELWEIGHT
370
    -1
  9
$ENDCAPS
280
     0
  9
$JOINSTYLE
280
     0
  9
$LWDISPLAY
290
     0
  9
$INSUNITS
 70
     4
  9
$HYPERLINKBASE
  1

  9
$STYLESHEET
  1

  9
$XEDIT
290
     1
  9
$CEPSNTYPE
380
     0
  9
$PSTYLEMODE
290
     1
  9
$FINGERPRINTGUID
  2
{7BD51983-7EFE-4CAD-8714-67A0A5A8BC8E}
  9
$VERSIONGUID
  2
{FAEB1C32-E019-11D5-929B-00C0DF256EC4}
  9
$EXTNAMES
290
     1
  9
$PSVPSCALE
 40
0.0
  9
$OLESTARTUP
290
     0
  0
ENDSEC
  0
SECTION
  2
CLASSES
  0
CLASS
  1
ACDBDICTIONARYWDFLT
  2
AcDbDictionaryWithDefault
  3
ObjectDBX Classes
 90
        0
280
     0
281
     0
  0
CLASS
  1
VISUALSTYLE
  2
AcDbVisualStyle
  3
ObjectDBX Classes
 90
     4095
280
     0
281
     0
  0
CLASS
  1
MATERIAL
  2
AcDbMaterial
  3
ObjectDBX Classes
 90
     1153
280
     0
281
     0
  0
CLASS
  1
DICTIONARYVAR
  2
AcDbDictionaryVar
  3
ObjectDBX Classes
 90
        0
280
     0
281
     0
  0
CLASS
  1
ACDBPLACEHOLDER
  2
AcDbPlaceHolder
  3
ObjectDBX Classes
 90
        0
280
     0
281
     0
  0
CLASS
  1
LAYOUT
  2
AcDbLayout
  3
ObjectDBX Classes
 90
        0
280
     0
281
     0
  0
ENDSEC
  0
SECTION
  2
TABLES
  0
TABLE
  2
VPORT
  5
8
330
0
100
AcDbSymbolTable
 70
     1
  0
VPORT
  5
29
330
8
100
AcDbSymbolTableRecord
100
AcDbViewportTableRecord
  2
*Active
 70
     0
 10
0.0
 20
0.0
 11
1.0
 21
1.0
 12
105.0000000000001
 22
148.5
 13
0.0
 23
0.0
 14
0.5
 24
0.5
 15
0.5
 25
0.5
 16
0.0
 26
0.0
 36
1.0
 17
0.0
 27
0.0
 37
0.0
 40
326.7
 41
1.60267857142857
 42
50.0
 43
0.0
 44
0.0
 50
0.0
 51
0.0
 71
     0
 72
   100
 73
     1
 74
     3
 75
     0
 76
     0
 77
     0
 78
     0
281
     0
 65
     1
110
0.0
120
0.0
130
0.0
111
1.0
121
0.0
131
0.0
112
0.0
122
1.0
132
0.0
 79
     0
146
0.0
  0
ENDTAB
  0
TABLE
  2
LTYPE
  5
5
330
0
100
AcDbSymbolTable
 70
     8
  0
LTYPE
  5
14
330
5
100
AcDbSymbolTableRecord
100
AcDbLinetypeTableRecord
  2
ByBlock
 70
     0
  3

 72
    65
 73
     0
 40
0.0
  0
LTYPE
  5
15
330
5
100
AcDbSymbolTableRecord
100
AcDbLinetypeTableRecord
  2
ByLayer
 70
     0
  3

 72
    65
 73
     0
 40
0.0
  0
LTYPE
  5
16
330
5
100
AcDbSymbolTableRecord
100
AcDbLinetypeTableRecord
  2
Continuous
 70
     0
  3
Solid line
 72
    65
 73
     0
 40
0.0
  0
LTYPE
  5
3F
330
5
100
AcDbSymbolTableRecord
100
AcDbLinetypeTableRecord
  2
DASHED
 70
     0
  3
Dashed
 72
    65
 73
     2
 40
15.0
 49
7.0
 74
     0
 49
-8.0
 74
     0
  0
LTYPE
  5
40
330
5
100
AcDbSymbolTableRecord
100
AcDbLinetypeTableRecord
  2
DOTTED
 70
     0
  3
Dotted
 72
    65
 73
     2
 40
1.0
 49
0.0
 74
     0
 49
-1.0
 74
     0
  0
LTYPE
  5
41
330
5
100
AcDbSymbolTableRecord
100
AcDbLinetypeTableRecord
  2
DOT_CENTER
 70
     0
  3
Dot_Center
 72
    65
 73
     4
 40
14.0
 49
12.0
 74
     0
 49
-1.0
 74
     0
 49
0.0
 74
     0
 49
-1.0
 74
     0
  0
LTYPE
  5
42
330
5
100
AcDbSymbolTableRecord
100
AcDbLinetypeTableRecord
  2
LONG_DASHED
 70
     0
  3
Long_Dashed
 72
    65
 73
     2
 40
15.0
 49
10.0
 74
     0
 49
-5.0
 74
     0
  0
LTYPE
  5
43
330
5
100
AcDbSymbolTableRecord
100
AcDbLinetypeTableRecord
  2
DASH_CENTER
 70
     0
  3
Dash_Center
 72
    65
 73
     4
 40
14.0
 49
11.0
 74
     0
 49
-1.0
 74
     0
 49
1.0
 74
     0
 49
-1.0
 74
     0
  0
LTYPE
  5
44
330
5
100
AcDbSymbolTableRecord
100
AcDbLinetypeTableRecord
  2
PHANTOM
 70
     0
  3
Phantom
 72
    65
 73
     6
 40
13.0
 49
10.0
 74
     0
 49
-1.0
 74
     0
 49
0.0
 74
     0
 49
-1.0
 74
     0
 49
0.0
 74
     0
 49
-1.0
 74
     0
  0
LTYPE
  5
45
330
5
100
AcDbSymbolTableRecord
100
AcDbLinetypeTableRecord
  2
CENTER_DASH_DASH
 70
     0
  3
Center_Dash_Dash
 72
    65
 73
     6
 40
14.0
 49
9.0
 74
     0
 49
-1.0
 74
     0
 49
1.0
 74
     0
 49
-1.0
 74
     0
 49
1.0
 74
     0
 49
-1.0
 74
     0
  0
ENDTAB
  0
TABLE
  2
LAYER
  5
2
330
0
100
AcDbSymbolTable
 70
     3
  0
LAYER
  5
10
330
2
100
AcDbSymbolTableRecord
100
AcDbLayerTableRecord
  2
0
 70
     0
 62
     7
  6
Continuous
370
    -3
390
F
  0
LAYER
  5
46
330
2
100
AcDbSymbolTableRecord
100
AcDbLayerTableRecord
  2
1
 70
     0
 62
     7
  6
Continuous
370
    -3
390
F
  0
LAYER
  5
47
330
2
100
AcDbSymbolTableRecord
100
AcDbLayerTableRecord
  2
_U_30EC_U_30A4_U_30E4_U_30FC_1
 70
     0
 62
     7
  6
Continuous
370
    -3
390
F
  0
ENDTAB
  0
TABLE
  2
STYLE
  5
3
330
0
100
AcDbSymbolTable
 70
     3
  0
STYLE
  5
11
330
3
100
AcDbSymbolTableRecord
100
AcDbTextStyleTableRecord
  2
Standard
 70
     0
 40
0.0
 41
1.0
 50
0.0
 71
     0
 42
0.2
  3
txt
  4

  0
STYLE
  5
B6
330
3
100
AcDbSymbolTableRecord
100
AcDbTextStyleTableRecord
  2
CONVERTER_11
 70
     0
 40
0.0
 41
0.89
 50
0.0
 71
     0
 42
0.2
  3
MS Mincho.ttf
  4

1001
ACAD
1000
MS Mincho
1071
    32785
  0
STYLE
  5
DD
330
3
100
AcDbSymbolTableRecord
100
AcDbTextStyleTableRecord
  2
CONVERTER_12
 70
     0
 40
0.0
 41
0.9
 50
0.0
 71
     0
 42
0.2
  3
txt.shx
  4

  0
ENDTAB
  0
TABLE
  2
VIEW
  5
6
330
0
100
AcDbSymbolTable
 70
     0
  0
ENDTAB
  0
TABLE
  2
UCS
  5
7
330
0
100
AcDbSymbolTable
 70
     0
  0
ENDTAB
  0
TABLE
  2
APPID
  5
9
330
0
100
AcDbSymbolTable
 70
     1
  0
APPID
  5
12
330
9
100
AcDbSymbolTableRecord
100
AcDbRegAppTableRecord
  2
ACAD
 70
     0
  0
ENDTAB
  0
TABLE
  2
DIMSTYLE
  5
A
330
0
100
AcDbSymbolTable
 70
     3
100
AcDbDimStyleTable
  0
DIMSTYLE
105
27
330
A
100
AcDbSymbolTableRecord
100
AcDbDimStyleTableRecord
  2
Standard
 70
     0
178
     0
340
11
  0
DIMSTYLE
105
F6
102
{ACAD_REACTORS
330
F7
102
}
330
A
100
AcDbSymbolTableRecord
100
AcDbDimStyleTableRecord
  2
ME10_DIM_10
 70
     0
 41
3.5
 42
0.0
 44
1.0
 73
     0
 74
     0
 77
     1
 78
     8
140
3.5
147
1.0
172
     1
173
     1
174
     1
175
     1
176
     2
177
     2
271
     2
178
     7
271
     2
340
DD
  0
DIMSTYLE
105
101
102
{ACAD_REACTORS
330
102
102
}
330
A
100
AcDbSymbolTableRecord
100
AcDbDimStyleTableRecord
  2
ME10_DIM_11
 70
     0
  3
{\Fgdt;n}<>
 41
3.5
 42
0.0
 44
1.0
 73
     0
 74
     0
 77
     1
 78
     8
140
3.5
147
1.0
172
     1
173
     1
174
     1
175
     1
176
     2
177
     2
271
     2
178
     7
271
     2
340
DD
  0
ENDTAB
  0
TABLE
  2
BLOCK_RECORD
  5
1
330
0
100
AcDbSymbolTable
 70
     7
  0
BLOCK_RECORD
  5
1F
330
1
100
AcDbSymbolTableRecord
100
AcDbBlockTableRecord
  2
*Model_Space
340
22
  0
BLOCK_RECORD
  5
1B
330
1
100
AcDbSymbolTableRecord
100
AcDbBlockTableRecord
  2
*Paper_Space
340
1E
  0
BLOCK_RECORD
  5
23
330
1
100
AcDbSymbolTableRecord
100
AcDbBlockTableRecord
  2
*Paper_Space0
340
26
  0
BLOCK_RECORD
  5
48
330
1
100
AcDbSymbolTableRecord
100
AcDbBlockTableRecord
  2
開示A4
340
0
102
{BLKREFS
331
4C
102
}
  0
BLOCK_RECORD
  5
4B
330
1
100
AcDbSymbolTableRecord
100
AcDbBlockTableRecord
  2
開示A4枠
340
0
102
{BLKREFS
331
52
102
}
  0
BLOCK_RECORD
  5
4F
330
1
100
AcDbSymbolTableRecord
100
AcDbBlockTableRecord
  2
92-80
340
0
102
{BLKREFS
331
53
102
}
  0
BLOCK_RECORD
  5
EB
330
1
100
AcDbSymbolTableRecord
100
AcDbBlockTableRecord
  2
*D4
340
0
  0
BLOCK_RECORD
  5
F8
330
1
100
AcDbSymbolTableRecord
100
AcDbBlockTableRecord
  2
*D5
340
0
  0
BLOCK_RECORD
  5
103
330
1
100
AcDbSymbolTableRecord
100
AcDbBlockTableRecord
  2
*D6
340
0
102
{BLKREFS
331
10A
102
}
  0
ENDTAB
  0
ENDSEC
  0
SECTION
  2
BLOCKS
  0
BLOCK
  5
20
330
1F
100
AcDbEntity
  8
0
100
AcDbBlockBegin
  2
*Model_Space
 70
     0
 10
0.0
 20
0.0
 30
0.0
  3
*Model_Space
  1

  0
ENDBLK
  5
21
330
1F
100
AcDbEntity
  8
0
100
AcDbBlockEnd
  0
BLOCK
  5
1C
330
1B
100
AcDbEntity
 67
     1
  8
0
100
AcDbBlockBegin
  2
*Paper_Space
 70
     0
 10
0.0
 20
0.0
 30
0.0
  3
*Paper_Space
  1

  0
ENDBLK
  5
1D
330
1B
100
AcDbEntity
 67
     1
  8
0
100
AcDbBlockEnd
  0
BLOCK
  5
24
330
23
100
AcDbEntity
  8
0
100
AcDbBlockBegin
  2
*Paper_Space0
 70
     0
 10
0.0
 20
0.0
 30
0.0
  3
*Paper_Space0
  1

  0
ENDBLK
  5
25
330
23
100
AcDbEntity
  8
0
100
AcDbBlockEnd
  0
BLOCK
  5
49
330
48
100
AcDbEntity
  8
0
100
AcDbBlockBegin
  2
開示A4
 70
     0
 10
0.0
 20
0.0
 30
0.0
  3
開示A4
  1

  0
POINT
  5
54
330
48
100
AcDbEntity
  8
1
 62
     4
100
AcDbPoint
 10
34.0
 20
33.99999999999999
 30
0.0
  0
POINT
  5
55
330
48
100
AcDbEntity
  8
1
 62
     4
100
AcDbPoint
 10
57.00000000000003
 20
12.25
 30
0.0
  0
POINT
  5
56
330
48
100
AcDbEntity
  8
1
 62
     4
100
AcDbPoint
 10
57.00000000000003
 20
20.75000000000009
 30
0.0
  0
POINT
  5
57
330
48
100
AcDbEntity
  8
1
 62
     4
100
AcDbPoint
 10
57.00000000000003
 20
24.75000000000009
 30
0.0
  0
POINT
  5
58
330
48
100
AcDbEntity
  8
1
 62
     4
100
AcDbPoint
 10
57.00000000000003
 20
16.25
 30
0.0
  0
POINT
  5
59
330
48
100
AcDbEntity
  8
1
 62
     4
100
AcDbPoint
 10
157.5000000000001
 20
19.00000000000009
 30
0.0
  0
POINT
  5
5A
330
48
100
AcDbEntity
  8
1
 62
     4
100
AcDbPoint
 10
47.5
 20
282.0000000000003
 30
0.0
  0
POINT
  5
5B
330
48
100
AcDbEntity
  8
1
 62
     4
100
AcDbPoint
 10
57.00000000000003
 20
22.75000000000009
 30
0.0
  0
POINT
  5
5C
330
48
100
AcDbEntity
  8
1
 62
     4
100
AcDbPoint
 10
57.00000000000003
 20
14.25
 30
0.0
  0
POINT
  5
5D
330
48
100
AcDbEntity
  8
1
 62
     4
100
AcDbPoint
 10
157.5000000000001
 20
12.5
 30
0.0
  0
POINT
  5
5E
330
48
100
AcDbEntity
  8
1
 62
     4
100
AcDbPoint
 10
163.2500000000001
 20
12.5
 30
0.0
  0
POINT
  5
5F
330
48
100
AcDbEntity
  8
1
 62
     4
100
AcDbPoint
 10
151.7500000000001
 20
12.5
 30
0.0
  0
POINT
  5
60
330
48
100
AcDbEntity
  8
1
 62
     4
100
AcDbPoint
 10
134.75
 20
12.5
 30
0.0
  0
POINT
  5
61
330
48
100
AcDbEntity
  8
1
 62
     4
100
AcDbPoint
 10
146.2500000000001
 20
12.5
 30
0.0
  0
POINT
  5
62
330
48
100
AcDbEntity
  8
1
 62
     4
100
AcDbPoint
 10
140.5
 20
12.5
 30
0.0
  0
POINT
  5
63
330
48
100
AcDbEntity
  8
1
 62
     4
100
AcDbPoint
 10
140.5
 20
19.00000000000009
 30
0.0
  0
POINT
  5
64
330
48
100
AcDbEntity
  8
1
 62
     4
100
AcDbPoint
 10
117.75
 20
12.5
 30
0.0
  0
POINT
  5
65
330
48
100
AcDbEntity
  8
1
 62
     4
100
AcDbPoint
 10
129.25
 20
12.5
 30
0.0
  0
POINT
  5
66
330
48
100
AcDbEntity
  8
1
 62
     4
100
AcDbPoint
 10
123.5
 20
12.5
 30
0.0
  0
POINT
  5
67
330
48
100
AcDbEntity
  8
1
 62
     4
100
AcDbPoint
 10
123.5
 20
19.00000000000009
 30
0.0
  0
POINT
  5
68
330
48
100
AcDbEntity
  8
1
 62
     4
100
AcDbPoint
 10
100.75
 20
12.5
 30
0.0
  0
POINT
  5
69
330
48
100
AcDbEntity
  8
1
 62
     4
100
AcDbPoint
 10
112.25
 20
12.5
 30
0.0
  0
POINT
  5
6A
330
48
100
AcDbEntity
  8
1
 62
     4
100
AcDbPoint
 10
106.5
 20
12.5
 30
0.0
  0
POINT
  5
6B
330
48
100
AcDbEntity
  8
1
 62
     4
100
AcDbPoint
 10
106.5
 20
19.00000000000009
 30
0.0
  0
POINT
  5
6C
330
48
100
AcDbEntity
  8
1
 62
     4
100
AcDbPoint
 10
85.25000000000003
 20
17.0
 30
0.0
  0
POINT
  5
6D
330
48
100
AcDbEntity
  8
1
 62
     4
100
AcDbPoint
 10
93.75000000000003
 20
17.0
 30
0.0
  0
POINT
  5
6E
330
48
100
AcDbEntity
  8
1
 62
     4
100
AcDbPoint
 10
183.0000000000001
 20
15.00000000000009
 30
0.0
  0
LINE
  5
6F
330
48
100
AcDbEntity
  8
1
  6
Continuous
 62
     2
100
AcDbLine
 10
81.00000000000003
 20
27.00000000000009
 30
0.0
 11
81.00000000000003
 21
10.0
 31
0.0
  0
LINE
  5
70
330
48
100
AcDbEntity
  8
1
  6
DOT_CENTER
 62
     2
100
AcDbLine
 10
187.0000000000001
 20
26.50000000000009
 30
0.0
 11
187.0000000000001
 21
20.50000000000009
 31
0.0
  0
LINE
  5
71
330
48
100
AcDbEntity
  8
1
  6
DOT_CENTER
 62
     2
100
AcDbLine
 10
184.0000000000001
 20
23.50000000000009
 30
0.0
 11
197.0000000000001
 21
23.50000000000009
 31
0.0
  0
LINE
  5
72
330
48
100
AcDbEntity
  8
1
  6
Continuous
 62
     7
100
AcDbLine
 10
196.0000000000001
 20
21.50000000000009
 30
0.0
 11
191.0000000000001
 21
22.29999999999998
 31
0.0
  0
LINE
  5
73
330
48
100
AcDbEntity
  8
1
  6
Continuous
 62
     7
100
AcDbLine
 10
196.0000000000001
 20
25.50000000000009
 30
0.0
 11
196.0000000000001
 21
21.50000000000009
 31
0.0
  0
LINE
  5
74
330
48
100
AcDbEntity
  8
1
  6
Continuous
 62
     7
100
AcDbLine
 10
191.0000000000001
 20
24.69999999999999
 30
0.0
 11
196.0000000000001
 21
25.50000000000009
 31
0.0
  0
LINE
  5
75
330
48
100
AcDbEntity
  8
1
  6
Continuous
 62
     7
100
AcDbLine
 10
191.0000000000001
 20
24.69999999999999
 30
0.0
 11
191.0000000000001
 21
22.29999999999998
 31
0.0
  0
LINE
  5
76
330
48
100
AcDbEntity
  8
1
  6
Continuous
 62
     2
100
AcDbLine
 10
33.0
 20
27.0
 30
0.0
 11
33.0
 21
10.0
 31
0.0
  0
LINE
  5
77
330
48
100
AcDbEntity
  8
1
  6
Continuous
 62
     2
100
AcDbLine
 10
25.0
 20
18.50000000000009
 30
0.0
 11
81.00000000000003
 21
18.50000000000009
 31
0.0
  0
LINE
  5
78
330
48
100
AcDbEntity
  8
1
  6
Continuous
 62
     7
100
AcDbLine
 10
200.0000000000001
 20
287.0000000000003
 30
0.0
 11
105.0
 21
287.0000000000003
 31
0.0
  0
LINE
  5
79
330
48
100
AcDbEntity
  8
1
  6
Continuous
 62
     7
100
AcDbLine
 10
200.0000000000001
 20
10.0
 30
0.0
 11
200.0000000000001
 21
148.5
 31
0.0
  0
LINE
  5
7A
330
48
100
AcDbEntity
  8
1
  6
Continuous
 62
     7
100
AcDbLine
 10
25.0
 20
10.0
 30
0.0
 11
105.0
 21
10.0
 31
0.0
  0
LINE
  5
7B
330
48
100
AcDbEntity
  8
1
  6
PHANTOM
 62
     4
100
AcDbLine
 10
0.0
 20
297.0
 30
0.0
 11
0.0
 21
0.0
 31
0.0
  0
LINE
  5
7C
330
48
100
AcDbEntity
  8
1
  6
PHANTOM
 62
     4
100
AcDbLine
 10
210.0000000000001
 20
297.0
 30
0.0
 11
0.0
 21
297.0
 31
0.0
  0
LINE
  5
7D
330
48
100
AcDbEntity
  8
1
  6
PHANTOM
 62
     4
100
AcDbLine
 10
210.0000000000001
 20
0.0
 30
0.0
 11
210.0000000000001
 21
297.0
 31
0.0
  0
LINE
  5
7E
330
48
100
AcDbEntity
  8
1
  6
PHANTOM
 62
     4
100
AcDbLine
 10
0.0
 20
0.0
 30
0.0
 11
210.0000000000001
 21
0.0
 31
0.0
  0
LINE
  5
7F
330
48
100
AcDbEntity
  8
1
  6
Continuous
 62
     7
100
AcDbLine
 10
25.0
 20
40.99999999999999
 30
0.0
 11
200.0000000000001
 21
40.99999999999999
 31
0.0
  0
LINE
  5
80
330
48
100
AcDbEntity
  8
1
  6
Continuous
 62
     7
100
AcDbLine
 10
200.0000000000001
 20
27.00000000000009
 30
0.0
 11
25.0
 21
27.00000000000009
 31
0.0
  0
LINE
  5
81
330
48
100
AcDbEntity
  8
1
  6
Continuous
 62
     2
100
AcDbLine
 10
33.0
 20
40.99999999999999
 30
0.0
 11
33.0
 21
27.0
 31
0.0
  0
LINE
  5
82
330
48
100
AcDbEntity
  8
1
  6
Continuous
 62
     2
100
AcDbLine
 10
55.00000000000003
 20
287.0000000000003
 30
0.0
 11
55.00000000000003
 21
277.0000000000003
 31
0.0
  0
LINE
  5
83
330
48
100
AcDbEntity
  8
1
  6
Continuous
 62
     2
100
AcDbLine
 10
40.0
 20
287.0000000000003
 30
0.0
 11
40.0
 21
277.0000000000003
 31
0.0
  0
LINE
  5
84
330
48
100
AcDbEntity
  8
1
  6
Continuous
 62
     7
100
AcDbLine
 10
25.0
 20
10.0
 30
0.0
 11
25.0
 21
148.5
 31
0.0
  0
LINE
  5
85
330
48
100
AcDbEntity
  8
1
  6
Continuous
 62
     2
100
AcDbLine
 10
55.00000000000003
 20
277.0000000000003
 30
0.0
 11
25.0
 21
277.0000000000003
 31
0.0
  0
LINE
  5
86
330
48
100
AcDbEntity
  8
1
  6
Continuous
 62
     2
100
AcDbLine
 10
166.0000000000001
 20
27.00000000000009
 30
0.0
 11
166.0000000000001
 21
10.0
 31
0.0
  0
LINE
  5
87
330
48
100
AcDbEntity
  8
1
  6
Continuous
 62
     2
100
AcDbLine
 10
132.0
 20
27.00000000000009
 30
0.0
 11
132.0
 21
10.0
 31
0.0
  0
LINE
  5
88
330
48
100
AcDbEntity
  8
1
  6
Continuous
 62
     2
100
AcDbLine
 10
149.0000000000001
 20
27.00000000000009
 30
0.0
 11
149.0000000000001
 21
10.0
 31
0.0
  0
LINE
  5
89
330
48
100
AcDbEntity
  8
1
  6
Continuous
 62
     2
100
AcDbLine
 10
115.0
 20
27.00000000000009
 30
0.0
 11
115.0
 21
10.0
 31
0.0
  0
LINE
  5
8A
330
48
100
AcDbEntity
  8
1
  6
Continuous
 62
     2
100
AcDbLine
 10
98.00000000000003
 20
27.00000000000009
 30
0.0
 11
98.00000000000003
 21
10.0
 31
0.0
  0
LINE
  5
8B
330
48
100
AcDbEntity
  8
1
  6
Continuous
 62
     2
100
AcDbLine
 10
166.0000000000001
 20
20.00000000000009
 30
0.0
 11
200.0000000000001
 21
20.00000000000009
 31
0.0
  0
LINE
  5
8C
330
48
100
AcDbEntity
  8
1
  6
Continuous
 62
     2
100
AcDbLine
 10
105.0
 20
287.0000000000003
 30
0.0
 11
105.0
 21
292.0000000000003
 31
0.0
  0
LINE
  5
8D
330
48
100
AcDbEntity
  8
1
  6
Continuous
 62
     7
100
AcDbLine
 10
105.0
 20
287.0000000000003
 30
0.0
 11
25.0
 21
287.0000000000003
 31
0.0
  0
LINE
  5
8E
330
48
100
AcDbEntity
  8
1
  6
Continuous
 62
     2
100
AcDbLine
 10
25.0
 20
148.5
 30
0.0
 11
20.0
 21
148.5
 31
0.0
  0
LINE
  5
8F
330
48
100
AcDbEntity
  8
1
  6
Continuous
 62
     7
100
AcDbLine
 10
25.0
 20
148.5
 30
0.0
 11
25.0
 21
287.0000000000003
 31
0.0
  0
LINE
  5
90
330
48
100
AcDbEntity
  8
1
  6
Continuous
 62
     2
100
AcDbLine
 10
200.0000000000001
 20
148.5
 30
0.0
 11
205.0000000000001
 21
148.5
 31
0.0
  0
LINE
  5
91
330
48
100
AcDbEntity
  8
1
  6
Continuous
 62
     7
100
AcDbLine
 10
200.0000000000001
 20
148.5
 30
0.0
 11
200.0000000000001
 21
287.0000000000003
 31
0.0
  0
LINE
  5
92
330
48
100
AcDbEntity
  8
1
  6
Continuous
 62
     2
100
AcDbLine
 10
105.0
 20
10.0
 30
0.0
 11
105.0
 21
5.0
 31
0.0
  0
LINE
  5
93
330
48
100
AcDbEntity
  8
1
  6
Continuous
 62
     7
100
AcDbLine
 10
105.0
 20
10.0
 30
0.0
 11
200.0000000000001
 21
10.0
 31
0.0
  0
CIRCLE
  5
98
330
48
100
AcDbEntity
  8
1
  6
DOT_CENTER
 62
     7
100
AcDbCircle
 10
89.50000000000003
 20
18.0
 30
0.0
 40
0.1000000000000227
  0
CIRCLE
  5
99
330
48
100
AcDbEntity
  8
1
  6
DOT_CENTER
 62
     7
100
AcDbCircle
 10
89.50000000000003
 20
16.0
 30
0.0
 40
0.1000000000000227
  0
CIRCLE
  5
9A
330
48
100
AcDbEntity
  8
1
  6
Continuous
 62
     7
100
AcDbCircle
 10
187.0000000000001
 20
23.50000000000009
 30
0.0
 40
2.0
  0
CIRCLE
  5
9B
330
48
100
AcDbEntity
  8
1
  6
Continuous
 62
     7
100
AcDbCircle
 10
187.0000000000001
 20
23.50000000000009
 30
0.0
 40
1.199999999999989
  0
CIRCLE
  5
9C
330
48
100
AcDbEntity
  8
1
  6
Continuous
 62
     7
100
AcDbCircle
 10
154.5000000000001
 20
12.5
 30
0.0
 40
0.2999999999998977
  0
CIRCLE
  5
9D
330
48
100
AcDbEntity
  8
1
  6
Continuous
 62
     7
100
AcDbCircle
 10
160.5000000000001
 20
12.5
 30
0.0
 40
0.2999999999998977
  0
CIRCLE
  5
9E
330
48
100
AcDbEntity
  8
1
  6
Continuous
 62
     7
100
AcDbCircle
 10
143.5
 20
12.5
 30
0.0
 40
0.3000000000000114
  0
CIRCLE
  5
9F
330
48
100
AcDbEntity
  8
1
  6
Continuous
 62
     7
100
AcDbCircle
 10
137.5
 20
12.5
 30
0.0
 40
0.3000000000000114
  0
CIRCLE
  5
A0
330
48
100
AcDbEntity
  8
1
  6
Continuous
 62
     7
100
AcDbCircle
 10
126.5
 20
12.5
 30
0.0
 40
0.2999999999999972
  0
CIRCLE
  5
A1
330
48
100
AcDbEntity
  8
1
  6
Continuous
 62
     7
100
AcDbCircle
 10
120.5
 20
12.5
 30
0.0
 40
0.2999999999999972
  0
CIRCLE
  5
A2
330
48
100
AcDbEntity
  8
1
  6
Continuous
 62
     7
100
AcDbCircle
 10
109.5
 20
12.5
 30
0.0
 40
0.2999999999999972
  0
CIRCLE
  5
A3
330
48
100
AcDbEntity
  8
1
  6
Continuous
 62
     7
100
AcDbCircle
 10
103.5
 20
12.5
 30
0.0
 40
0.2999999999999972
  0
SPLINE
  5
A4
102
{ACAD_REACTORS
330
C2
102
}
330
48
100
AcDbEntity
  8
_U_30EC_U_30A4_U_30E4_U_30FC_1
  6
Continuous
 62
     2
100
AcDbSpline
210
0.0
220
0.0
230
1.0
 70
    11
 71
     3
 72
    99
 73
    95
 74
    93
 42
0.000000001
 43
0.0000000001
 44
0.00000001
 40
0.0
 40
0.0
 40
0.0
 40
0.0
 40
0.079641717227271
 40
0.1621768542356966
 40
0.2486489160958475
 40
0.3404969668525419
 40
0.4381912511165495
 40
0.5434463660245812
 40
0.6518115192847579
 40
0.7530190937886813
 40
0.8492196919725135
 40
0.9419290312998767
 40
1.034249663570052
 40
1.12907860062028
 40
1.226697027573299
 40
1.327220425421728
 40
1.470572134938068
 40
1.595489863371303
 40
1.719934125348462
 40
1.850576620127503
 40
1.989059629987361
 40
2.134139054227004
 40
2.280698007207299
 40
2.424529739039543
 40
2.565929576985958
 40
2.708239260773578
 40
2.861717887443733
 40
3.045168540347453
 40
3.183798301138683
 40
3.31481396145548
 40
3.442083470447332
 40
3.569912708372967
 40
3.702177512509425
 40
3.842307559659553
 40
3.992872223245981
 40
4.156750662218339
 40
4.310981861107644
 40
4.445859909322684
 40
4.57239393613168
 40
4.701656719781998
 40
4.768279086008502
 40
4.835960697898422
 40
4.912788918729363
 40
5.006285208481563
 40
5.026909478751611
 40
5.047533749021119
 40
5.101808031471207
 40
5.162325165538498
 40
5.226919745995811
 40
5.29423180659669
 40
5.364544852554822
 40
5.438319055467878
 40
5.517877651324211
 40
5.607647714861523
 40
5.700449642544339
 40
5.788251142364005
 40
5.872714706039695
 40
5.955167292575176
 40
6.037192395190306
 40
6.120669181469033
 40
6.206848616686244
 40
6.296680855416628
 40
6.442558392872467
 40
6.568190371608165
 40
6.692904567360218
 40
6.824220446557004
 40
6.963121850329283
 40
7.107843738851053
 40
7.253431663907141
 40
7.395187468036515
 40
7.533140753237631
 40
7.67055045717508
 40
7.816236511769114
 40
7.98769165735904
 40
8.142277421969105
 40
8.293662615414828
 40
8.442962460879132
 40
8.591598316185163
 40
8.743678992361636
 40
8.903725323698964
 40
9.076307008890325
 40
9.265578604680433
 40
9.459203795360578
 40
9.617619810273265
 40
9.753609671361694
 40
9.874873300003907
 40
9.95452018497762
 40
10.02416413719235
 40
10.0976976440543
 40
10.18909955924954
 40
10.20974586420122
 40
10.2303921826337
 40
10.30057101881253
 40
10.37632012987527
 40
10.37632012987527
 40
10.37632012987527
 40
10.37632012987527
 10
170.1465954835851
 20
14.13795663215998
 30
0.0
 10
170.1632217851219
 20
14.11720608845316
 30
0.0
 10
170.1970784206577
 20
14.074951117119
 30
0.0
 10
170.2599822541036
 20
14.02029811392075
 30
0.0
 10
170.3332500940394
 20
13.97299025121053
 30
0.0
 10
170.4175969238636
 20
13.93527231437938
 30
0.0
 10
170.5132240615461
 20
13.91040619731952
 30
0.0
 10
170.6171853775347
 20
13.90309559345935
 30
0.0
 10
170.7224020220405
 20
13.91142322794055
 30
0.0
 10
170.8206626371334
 20
13.94149179651525
 30
0.0
 10
170.9058986427548
 20
13.98848822971878
 30
0.0
 10
170.9779220206104
 20
14.0495299125085
 30
0.0
 10
171.0350917709096
 20
14.12412969578586
 30
0.0
 10
171.0767868747438
 20
14.21002464660178
 30
0.0
 10
171.1026952846293
 20
14.30485850432213
 30
0.0
 10
171.1118037332653
 20
14.41854979038368
 30
0.0
 10
171.0986864796488
 20
14.54332587770781
 30
0.0
 10
171.0325330334414
 20
14.66014719171893
 30
0.0
 10
170.9369370919569
 20
14.74512539577377
 30
0.0
 10
170.8249681022369
 20
14.81416684459161
 30
0.0
 10
170.6993659583269
 20
14.87204142045893
 30
0.0
 10
170.5656691620856
 20
14.92373723284338
 30
0.0
 10
170.4313122818831
 20
14.97899092397185
 30
0.0
 10
170.3051983986877
 20
15.04939770641645
 30
0.0
 10
170.1926579987535
 20
15.13785540731252
 30
0.0
 10
170.0969963064459
 20
15.24981067868478
 30
0.0
 10
170.0334157151826
 20
15.39949910101384
 30
0.0
 10
170.0200706505017
 20
15.55932794385146
 30
0.0
 10
170.0320510987448
 20
15.71048405306848
 30
0.0
 10
170.0712298928841
 20
15.8380924459154
 30
0.0
 10
170.1354987750909
 20
15.95080874030844
 30
0.0
 10
170.223820499974
 20
16.04648609268686
 30
0.0
 10
170.3338091207628
 20
16.12354214985749
 30
0.0
 10
170.4632284401265
 20
16.18151396936283
 30
0.0
 10
170.6111838967793
 20
16.21739177588823
 30
0.0
 10
170.7682069455487
 20
16.22746719050559
 30
0.0
 10
170.917494046643
 20
16.2186363776259
 30
0.0
 10
171.0596253614171
 20
16.19074899340353
 30
0.0
 10
171.1595922609625
 20
16.1341331470114
 30
0.0
 10
171.3125074736186
 20
16.08674602105506
 30
0.0
 10
171.2455131717168
 20
16.00197553001186
 30
0.0
 10
171.2296479120268
 20
15.93438901873486
 30
0.0
 10
171.1978750531297
 20
15.86926092793189
 30
0.0
 10
171.2150202209571
 20
15.76723453256956
 30
0.0
 10
171.1666427208232
 20
15.77493211681903
 30
0.0
 10
171.1315789440766
 20
15.76806771724811
 30
0.0
 10
171.1296697985718
 20
15.83263831158198
 30
0.0
 10
171.0985692931989
 20
15.87825639621394
 30
0.0
 10
171.0664551628455
 20
15.93561036628454
 30
0.0
 10
171.0208038475168
 20
15.98540462692557
 30
0.0
 10
170.9658508218387
 20
16.02994813718998
 30
0.0
 10
170.9010841173007
 20
16.06763988836547
 30
0.0
 10
170.8232377310597
 20
16.0928337579135
 30
0.0
 10
170.7355160553352
 20
16.09931230998107
 30
0.0
 10
170.6452903277807
 20
16.09235709285608
 30
0.0
 10
170.5594594694065
 20
16.06909190460923
 30
0.0
 10
170.4828343638596
 20
16.03131644107552
 30
0.0
 10
170.4165265636202
 20
15.98051641089563
 30
0.0
 10
170.3622560536963
 20
15.91731143407216
 30
0.0
 10
170.3224925345459
 20
15.8427645571037
 30
0.0
 10
170.2976775510588
 20
15.75917313997765
 30
0.0
 10
170.289212426287
 20
15.65192948382289
 30
0.0
 10
170.3019697987104
 20
15.52965457267564
 30
0.0
 10
170.3681548409274
 20
15.41149724291215
 30
0.0
 10
170.4640977399833
 20
15.32606325709529
 30
0.0
 10
170.5757914963183
 20
15.2558336230673
 30
0.0
 10
170.7010863668703
 20
15.19659162305303
 30
0.0
 10
170.8349823941449
 20
15.14616708086143
 30
0.0
 10
170.968993033315
 20
15.0932251698438
 30
0.0
 10
171.0950885316915
 20
15.0275017062517
 30
0.0
 10
171.2076216638418
 20
14.94480352537328
 30
0.0
 10
171.3031370284232
 20
14.83996006310066
 30
0.0
 10
171.3672706486963
 20
14.69937117251572
 30
0.0
 10
171.3811103725278
 20
14.5406540945159
 30
0.0
 10
171.367395471223
 20
14.38153155217877
 30
0.0
 10
171.3244739153986
 20
14.23483828819207
 30
0.0
 10
171.2545906329065
 20
14.10119796587144
 30
0.0
 10
171.1574592213829
 20
13.98532387699293
 30
0.0
 10
171.0347806023657
 20
13.89089981770094
 30
0.0
 10
170.8874408413168
 20
13.82179270651974
 30
0.0
 10
170.7177132497124
 20
13.77953210858859
 30
0.0
 10
170.5317404979597
 20
13.76781736230415
 30
0.0
 10
170.3528955926184
 20
13.77809486683442
 30
0.0
 10
170.1881733753744
 20
13.81966573769152
 30
0.0
 10
170.0834410841057
 20
13.88797642883944
 30
0.0
 10
169.9350960790366
 20
13.93675219032107
 30
0.0
 10
169.9980378194729
 20
14.02976591290843
 30
0.0
 10
170.0072274430059
 20
14.10296536248285
 30
0.0
 10
170.0303711301232
 20
14.1693629450135
 30
0.0
 10
170.0034588335317
 20
14.26974809527582
 30
0.0
 10
170.0521338956339
 20
14.26234033517378
 30
0.0
 10
170.0916530580698
 20
14.26894063620896
 30
0.0
 10
170.0996204944702
 20
14.19078703218938
 30
0.0
 10
170.1305436967923
 20
14.15600927375861
 30
0.0
 10
170.1465954835851
 20
14.13795663215998
 30
0.0
 11
170.1465954835851
 21
14.13795663215998
 31
0.0
 11
170.1982038075864
 21
14.07729869814737
 31
0.0
 11
170.2601105501336
 21
14.0227129516332
 31
0.0
 11
170.3327764009803
 21
13.97583980928385
 31
0.0
 11
170.4166468655844
 21
13.9383990627654
 31
0.0
 11
170.511221073241
 21
13.91390636311878
 31
0.0
 11
170.6161603327166
 21
13.90575829888471
 31
0.0
 11
170.7240739497552
 21
13.91564048638223
 31
0.0
 11
170.8208419941616
 21
13.9452870488748
 31
0.0
 11
170.9050776083319
 21
13.99175118948818
 31
0.0
 11
170.9756144207687
 21
14.05191413218148
 31
0.0
 11
171.031944210998
 21
14.12505819466318
 31
0.0
 11
171.0736690016003
 21
14.21021434047529
 31
0.0
 11
171.0994680808033
 21
14.30436190989615
 31
0.0
 11
171.1080824729447
 21
14.40451552098219
 31
0.0
 11
171.0878517703357
 21
14.54643250879399
 31
0.0
 11
171.0272522666731
 21
14.65566684036389
 31
0.0
 11
170.9364971286286
 21
14.74081306430096
 31
0.0
 11
170.826010188474
 21
14.81052746532518
 31
0.0
 11
170.7008523531254
 21
14.86979854169923
 31
0.0
 11
170.5662951950998
 21
14.9240425347412
 31
0.0
 11
170.4316884277007
 21
14.98201274306006
 31
0.0
 11
170.3065802017258
 21
15.05297399304229
 31
0.0
 11
170.196027609828
 21
15.14113315968699
 31
0.0
 11
170.1053381235266
 21
15.25080295132619
 31
0.0
 11
170.0447055469484
 21
15.39179720476319
 31
0.0
 11
170.0245079172554
 21
15.57413260402319
 31
0.0
 11
170.0374030471347
 21
15.71216131926646
 31
0.0
 11
170.0761016659391
 21
15.83733128451289
 31
0.0
 11
170.1393141731506
 21
15.94779262129084
 31
0.0
 11
170.2257499954545
 21
16.04196885390618
 31
0.0
 11
170.3336492808963
 21
16.1184654077065
 31
0.0
 11
170.4613526283328
 21
16.1761567010949
 31
0.0
 11
170.6075393259923
 21
16.21220066809975
 31
0.0
 11
170.770976856545
 21
16.22421385386059
 31
0.0
 11
170.924891843129
 21
16.21434269066863
 31
0.0
 11
171.0564887242608
 21
16.18477329831498
 31
0.0
 11
171.1725636344941
 21
16.13439993895253
 31
0.0
 11
171.2800792741122
 21
16.06264163167879
 31
0.0
 11
171.2516994050444
 21
16.00236624106886
 31
0.0
 11
171.2284855254283
 21
15.9387901733765
 31
0.0
 11
171.2078381040801
 21
15.86478841992269
 31
0.0
 11
171.1871840681487
 21
15.77360197897329
 31
0.0
 11
171.1665597978415
 21
15.77360197897329
 31
0.0
 11
171.1459355275344
 21
15.77360197897329
 31
0.0
 11
171.1256706495791
 21
15.82395108486349
 31
0.0
 11
171.0994658759421
 21
15.87850045116929
 31
0.0
 11
171.0650468924451
 21
15.93316116296114
 31
0.0
 11
171.0203554612937
 21
15.98349593725411
 31
0.0
 11
170.9657333359511
 21
16.0277717532153
 31
0.0
 11
170.9016722004326
 21
16.06436142334499
 31
0.0
 11
170.825968296114
 21
16.08882545979724
 31
0.0
 11
170.7365722046449
 21
16.09701100667019
 31
0.0
 11
170.6440937174208
 21
16.08926973931102
 31
0.0
 11
170.5594072091646
 21
16.0660900344557
 31
0.0
 11
170.483702448884
 21
16.02863495634011
 31
0.0
 11
170.4183754766517
 21
15.97832774281099
 31
0.0
 11
170.3650487887664
 21
15.91600293379881
 31
0.0
 11
170.3254809233901
 21
15.84249947895609
 31
0.0
 11
170.3009523754712
 21
15.75988443557394
 31
0.0
 11
170.2927954104109
 21
15.67042329844358
 31
0.0
 11
170.3130095765619
 21
15.52595308146578
 31
0.0
 11
170.3736256166821
 21
15.41591177072939
 31
0.0
 11
170.4643479320758
 21
15.33033670130635
 31
0.0
 11
170.5748676948814
 21
15.25941954854631
 31
0.0
 11
170.700008993772
 21
15.19914305550581
 31
0.0
 11
170.8345826882554
 21
15.14590447913028
 31
0.0
 11
170.9691729191968
 21
15.09039489581073
 31
0.0
 11
171.0942976816297
 21
15.02377281249409
 31
0.0
 11
171.2048009079771
 21
14.9411886371675
 31
0.0
 11
171.2955397598288
 21
14.8380000347627
 31
0.0
 11
171.3561557999489
 21
14.70552315979583
 31
0.0
 11
171.3763699660998
 21
14.53526378483841
 31
0.0
 11
171.3621839747998
 21
14.38133030397411
 31
0.0
 11
171.3196087009194
 21
14.23605531269098
 31
0.0
 11
171.2499752884265
 21
14.10398854189068
 31
0.0
 11
171.1544992078713
 21
13.9900721877525
 31
0.0
 11
171.0341060772624
 21
13.8971527259702
 31
0.0
 11
170.8896160201847
 21
13.82832357668178
 31
0.0
 11
170.7223519532714
 21
13.78581275203971
 31
0.0
 11
170.5336103348226
 21
13.77165864614048
 31
0.0
 11
170.3405031726388
 21
13.78581275203971
 31
0.0
 11
170.1878975900912
 21
13.82832357668178
 31
0.0
 11
170.0661897942203
 21
13.88899033013892
 31
0.0
 11
169.9660261826363
 21
13.95734322942738
 31
0.0
 11
169.9922320587039
 21
14.03255545163077
 31
0.0
 11
170.0090121537618
 21
14.1001476738362
 31
0.0
 11
170.0206196447852
 21
14.17275926235964
 31
0.0
 11
170.0313606254139
 21
14.26352788212859
 31
0.0
 11
170.0520069443316
 21
14.26352788212859
 31
0.0
 11
170.0726532632493
 21
14.26352788212859
 31
0.0
 11
170.104891639163
 21
14.20119204881087
 31
0.0
 11
170.1465954835851
 21
14.13795663215998
 31
0.0
  0
SPLINE
  5
A5
102
{ACAD_REACTORS
330
C3
102
}
330
48
100
AcDbEntity
  8
_U_30EC_U_30A4_U_30E4_U_30FC_1
  6
Continuous
 62
     2
100
AcDbSpline
210
0.0
220
0.0
230
1.0
 70
    11
 71
     3
 72
    57
 73
    53
 74
    51
 42
0.000000001
 43
0.0000000001
 44
0.00000001
 40
0.0
 40
0.0
 40
0.0
 40
0.0
 40
0.0471632082810121
 40
0.0914861054633049
 40
0.1357762519703
 40
0.1826527001610727
 40
0.2295203288572635
 40
0.2737751972221658
 40
0.3181310461543124
 40
0.3652607198399453
 40
0.457100728631508
 40
0.5671851029166065
 40
0.6894623283869417
 40
0.818175827254643
 40
0.951008722927457
 40
1.085852229674206
 40
1.218126164475411
 40
1.34354513114245
 40
1.454537202956923
 40
1.567187607530875
 40
1.680710966642466
 40
1.794226869736859
 40
1.900009184247687
 40
2.004085860448138
 40
2.108162674451911
 40
2.21400015015537
 40
2.496038577352246
 40
2.762350745479414
 40
2.997275353279518
 40
3.18511008213783
 40
3.246407890064003
 40
3.312607550212678
 40
3.378877742711666
 40
3.440140399651551
 40
4.10050169600659
 40
4.754913085563691
 40
5.411331693424031
 40
6.077890432568772
 40
6.110575292671051
 40
6.143260152775831
 40
6.367989363395206
 40
6.610525374951607
 40
6.863389136467363
 40
7.119380025547647
 40
7.376036605091131
 40
7.631164770966397
 40
7.87672242545644
 40
8.10495373585601
 40
8.312916685924302
 40
8.497730294941334
 40
8.651018984313895
 40
8.764738853624646
 40
8.764738853624646
 40
8.764738853624646
 40
8.764738853624646
 10
174.7922649500514
 20
13.81626739612929
 30
0.0
 10
174.7766616726932
 20
13.81826231079081
 30
0.0
 10
174.7463947960302
 20
13.82213201360304
 30
0.0
 10
174.7010994202252
 20
13.82341984967276
 30
0.0
 10
174.6559553129349
 20
13.82308683554058
 30
0.0
 10
174.60990171234
 20
13.82314658674232
 30
0.0
 10
174.5640496172097
 20
13.82325813650008
 30
0.0
 10
174.5183711648166
 20
13.82277833456599
 30
0.0
 10
174.4750811541608
 20
13.82461109618726
 30
0.0
 10
174.4039947951514
 20
13.80049556814654
 30
0.0
 10
174.4057477261442
 20
13.92184693977255
 30
0.0
 10
174.3586196370569
 20
14.00726239751233
 30
0.0
 10
174.3191478251762
 20
14.12486929345136
 30
0.0
 10
174.2706635532646
 20
14.24232752540441
 30
0.0
 10
174.2201017402523
 20
14.36405935761512
 30
0.0
 10
174.1718634610476
 20
14.49075967862461
 30
0.0
 10
174.1135232947595
 20
14.59933687784958
 30
0.0
 10
174.0980892667262
 20
14.75620657134414
 30
0.0
 10
173.9566586330636
 20
14.72373446548326
 30
0.0
 10
173.8508397414904
 20
14.73512888682173
 30
0.0
 10
173.7358569725223
 20
14.73392591514624
 30
0.0
 10
173.6253142252141
 20
14.73506945347414
 30
0.0
 10
173.5176583522783
 20
14.73418350037535
 30
0.0
 10
173.4121322529242
 20
14.73416602390513
 30
0.0
 10
173.3109192682012
 20
14.72714032472419
 30
0.0
 10
173.1266804827754
 20
14.75135859859865
 30
0.0
 10
173.1157393685411
 20
14.44741691121886
 30
0.0
 10
173.008769163475
 20
14.22353177253397
 30
0.0
 10
172.9098148604347
 20
14.03895314292496
 30
0.0
 10
172.9225090524007
 20
13.79530204804206
 30
0.0
 10
172.8050091716397
 20
13.82508046753203
 30
0.0
 10
172.7422055868311
 20
13.82258089509612
 30
0.0
 10
172.67858720934
 20
13.82344075102811
 30
0.0
 10
172.3946014194075
 20
13.78098039941934
 30
0.0
 10
173.0251638499383
 20
14.50081952444791
 30
0.0
 10
173.1087645289072
 20
15.01276539435729
 30
0.0
 10
173.4929252789338
 20
15.53353743550049
 30
0.0
 10
173.4777208288565
 20
16.23519626253207
 30
0.0
 10
173.7239265722697
 20
16.22345633081254
 30
0.0
 10
173.8256346157561
 20
16.2322500445277
 30
0.0
 10
173.8249752035818
 20
15.98059650730347
 30
0.0
 10
173.942831715583
 20
15.79818020733962
 30
0.0
 10
174.0315515260484
 20
15.55563740662863
 30
0.0
 10
174.1322292485261
 20
15.32340030530134
 30
0.0
 10
174.2311142712242
 20
15.08674644566911
 30
0.0
 10
174.3299676990671
 20
14.85461739170098
 30
0.0
 10
174.4256166390925
 20
14.63122222788785
 30
0.0
 10
174.5159904573271
 20
14.42272549049317
 30
0.0
 10
174.5989944568188
 20
14.23308448529322
 30
0.0
 10
174.6726088582799
 20
14.06663106068099
 30
0.0
 10
174.7342815895546
 20
13.92917699626101
 30
0.0
 10
174.7749458885605
 20
13.84999239430037
 30
0.0
 10
174.7922649500514
 20
13.81626739612929
 30
0.0
 11
174.7922649500514
 21
13.81626739612929
 31
0.0
 11
174.7453878317448
 21
13.82145433189191
 31
0.0
 11
174.7010975896125
 21
13.8231553822387
 31
0.0
 11
174.6568074431729
 21
13.8231553822387
 31
0.0
 11
174.609930994716
 21
13.8231553822387
 31
0.0
 11
174.5630633657034
 21
13.8231553822387
 31
0.0
 11
174.5188084970408
 21
13.8231553822387
 31
0.0
 11
174.4744852776855
 21
13.82145433189191
 31
0.0
 11
174.4276419021443
 21
13.81626739612929
 31
0.0
 11
174.3992532136326
 21
13.90360966173244
 31
0.0
 11
174.3622721815898
 21
14.0072965627482
 31
0.0
 11
174.3188386236701
 21
14.12159987001131
 31
0.0
 11
174.2711055866937
 21
14.24113531268969
 31
0.0
 11
174.2208160133237
 21
14.36408057307564
 31
0.0
 11
174.1696467003931
 21
14.48883822929449
 31
0.0
 11
174.1197531801326
 21
14.61134141502775
 31
0.0
 11
174.0733119111842
 21
14.72784517367919
 31
0.0
 11
173.9623611907589
 21
14.73087465284507
 31
0.0
 11
173.849730922509
 21
14.73300454867788
 31
0.0
 11
173.736215206945
 21
14.73432195319146
 31
0.0
 11
173.6227000476801
 21
14.73473315978859
 31
0.0
 11
173.5169185312816
 21
14.73432195319146
 31
0.0
 11
173.4128501919224
 21
14.73300454867788
 31
0.0
 11
173.3087951724045
 21
14.73087465284507
 31
0.0
 11
173.2030010615597
 21
14.72784517367919
 31
0.0
 11
173.0980914750139
 21
14.46604437513351
 31
0.0
 11
173.0034868690331
 21
14.21710232658458
 31
0.0
 11
172.9252231210299
 21
13.99559756969555
 31
0.0
 11
172.8693431224555
 21
13.81626739612929
 31
0.0
 11
172.8082651639442
 21
13.82145433189191
 31
0.0
 11
172.7420873618131
 21
13.8231553822387
 31
0.0
 11
172.6758390041282
 21
13.82145433189191
 31
0.0
 11
172.6147963233938
 21
13.81626739612929
 31
0.0
 11
172.8899684951931
 21
14.41656508695142
 31
0.0
 11
173.1582945734171
 21
15.0134364236078
 31
0.0
 11
173.4240277350405
 21
15.61366245644383
 31
0.0
 11
173.6914740737033
 21
16.22421385386059
 31
0.0
 11
173.7241589339806
 21
16.22421385386059
 31
0.0
 11
173.7568437942579
 21
16.22421385386059
 31
0.0
 11
173.8428300681058
 21
16.01658539037085
 31
0.0
 11
173.935728581361
 21
15.79254614563519
 31
0.0
 11
174.0328714521464
 21
15.55908663180469
 31
0.0
 11
174.1317936458032
 21
15.32298128464149
 31
0.0
 11
174.2315341249927
 21
15.08649780379786
 31
0.0
 11
174.3313071129354
 21
14.85168781253708
 31
0.0
 11
174.4280608257448
 21
14.62599492196852
 31
0.0
 11
174.5188084970408
 21
14.41658052097918
 31
0.0
 11
174.6022150834546
 21
14.22607611130465
 31
0.0
 11
174.6770293263377
 21
14.05708232662468
 31
0.0
 11
174.7410729186604
 21
13.91781337700671
 31
0.0
 11
174.7922649500514
 21
13.81626739612929
 31
0.0
  0
SPLINE
  5
A6
102
{ACAD_REACTORS
330
C3
102
}
330
48
100
AcDbEntity
  8
_U_30EC_U_30A4_U_30E4_U_30FC_1
  6
Continuous
 62
     2
100
AcDbSpline
210
0.0
220
0.0
230
1.0
 70
    11
 71
     3
 72
    25
 73
    21
 74
    19
 42
0.000000001
 43
0.0000000001
 44
0.00000001
 40
0.0
 40
0.0
 40
0.0
 40
0.0
 40
0.0911479969065103
 40
0.1858117896205795
 40
0.2804128399735337
 40
0.3715889190715642
 40
0.4679080494219556
 40
0.5642683809229223
 40
0.6605683222645563
 40
0.7569653015811094
 40
0.856134817252366
 40
1.092615965104414
 40
1.374867658142029
 40
1.611348812011782
 40
1.710518328425439
 40
1.809403163726764
 40
2.045205463294284
 40
2.326646917622365
 40
2.562449217190847
 40
2.661334043834173
 40
2.661334043834173
 40
2.661334043834173
 40
2.661334043834173
 10
173.2683700567199
 20
14.88614538197288
 30
0.0
 10
173.2987525917923
 20
14.88598079714552
 30
0.0
 10
173.3606895889112
 20
14.88564528689921
 30
0.0
 10
173.4541356960331
 20
14.88269055452001
 30
0.0
 10
173.5475095236359
 20
14.87977752877152
 30
0.0
 10
173.6417760753477
 20
14.87894201643415
 30
0.0
 10
173.7354964790968
 20
14.87996644658047
 30
0.0
 10
173.8352040303204
 20
14.87916977470966
 30
0.0
 10
173.9188949546314
 20
14.88921410235226
 30
0.0
 10
174.0637996315046
 20
14.86234617674158
 30
0.0
 10
173.9396132444802
 20
15.03665530280048
 30
0.0
 10
173.8965867286283
 20
15.1965171100609
 30
0.0
 10
173.7808922142209
 20
15.45518458550217
 30
0.0
 10
173.7017565431257
 20
15.5923105286186
 30
0.0
 10
173.6431576621816
 20
15.80937033134081
 30
0.0
 10
173.5864803939438
 20
15.5926613421343
 30
0.0
 10
173.5052809900477
 20
15.45327012438237
 30
0.0
 10
173.4063701281488
 20
15.20406969370194
 30
0.0
 10
173.325362509426
 20
15.0192583022607
 30
0.0
 10
173.2813683325838
 20
14.91650446856113
 30
0.0
 10
173.2683700567199
 20
14.88614538197288
 30
0.0
 11
173.2683700567199
 21
14.88614538197288
 31
0.0
 11
173.359513773782
 21
14.88526123266759
 31
0.0
 11
173.4541428297582
 21
14.882696979196
 31
0.0
 11
173.5487082179706
 21
14.88009965280778
 31
0.0
 11
173.6398803250197
 21
14.87924857641909
 31
0.0
 11
173.7361985777707
 21
14.8796597830162
 31
0.0
 11
173.8325499034376
 21
14.88097718752968
 31
0.0
 11
173.9288262638287
 21
14.88310818579314
 31
0.0
 11
174.0251753846344
 21
14.88614538197288
 31
0.0
 11
173.9854633323142
 21
14.97701642195017
 31
0.0
 11
173.8907653613969
 21
15.19370890189601
 31
0.0
 11
173.7777387509471
 21
15.45234186183136
 31
0.0
 11
173.6830407800297
 21
15.6690343417772
 31
0.0
 11
173.6433287277095
 21
15.75990538175449
 31
0.0
 11
173.6043330259266
 21
15.6690343417772
 31
0.0
 11
173.5113432755212
 21
15.45234186183136
 31
0.0
 11
173.4003555089082
 21
15.19370890189601
 31
0.0
 11
173.3073657585028
 21
14.97701642195017
 31
0.0
 11
173.2683700567199
 21
14.88614538197288
 31
0.0
  0
SPLINE
  5
A7
102
{ACAD_REACTORS
330
C4
102
}
330
48
100
AcDbEntity
  8
_U_30EC_U_30A4_U_30E4_U_30FC_1
  6
Continuous
 62
     2
100
AcDbSpline
210
0.0
220
0.0
230
1.0
 70
    11
 71
     3
 72
    95
 73
    91
 74
    89
 42
0.000000001
 43
0.0000000001
 44
0.00000001
 40
0.0
 40
0.0
 40
0.0
 40
0.0
 40
0.6550406656911663
 40
1.308087289031915
 40
1.420803739835768
 40
1.566130759770805
 40
1.7570673418884
 40
2.006513545026406
 40
2.087328263121524
 40
2.185328872295647
 40
2.294612454748385
 40
2.408936380534803
 40
2.526802767798552
 40
2.646360524615598
 40
2.762535723971566
 40
2.870057342870139
 40
2.96688344843158
 40
3.050803243518198
 40
3.11581822243655
 40
3.156030057150208
 40
3.213914225080142
 40
3.276689026450629
 40
3.342960320981264
 40
3.40423066715046
 40
3.453822809493294
 40
3.532499827188353
 40
3.63477518850707
 40
3.754909333008029
 40
3.889736761660548
 40
4.035769602175129
 40
4.187256681197512
 40
4.338733685675893
 40
4.488478734676038
 40
4.63470831783153
 40
4.771493189921181
 40
4.892686571561064
 40
5.199775528944305
 40
5.46035356692955
 40
5.667603142345372
 40
5.814722905404337
 40
5.828990806219664
 40
5.855488336304389
 40
5.869756237118749
 40
6.189796507762705
 40
6.531890469872935
 40
6.883053637016848
 40
7.230512024911405
 40
7.566966656764436
 40
7.885203559707333
 40
8.172887439719153
 40
8.418011594062675
 40
8.443926721190596
 40
8.510760470613087
 40
8.6021453937956
 40
8.701714041647046
 40
8.793098965075282
 40
8.859932715057857
 40
8.885847842603507
 40
9.242301256612695
 40
9.589275455016695
 40
9.92180854316406
 40
10.23479624298456
 40
10.29968150889174
 40
10.35323493887765
 40
10.40154625355147
 40
10.46482922477814
 40
10.5597390066839
 40
10.69239545985599
 40
10.84920353475658
 40
11.01626328594757
 40
11.18672024367428
 40
11.35372582577198
 40
11.50257442292412
 40
11.6186649502328
 40
11.71329869152861
 40
11.82511050573893
 40
11.94464880845704
 40
12.06929242642493
 40
12.1970729043516
 40
12.32562632860516
 40
12.45034565331262
 40
12.56646595170315
 40
12.67099007414619
 40
12.76077625936763
 40
12.82703233506676
 40
12.87429132785973
 40
12.89831990323313
 40
12.92234847860001
 40
13.53984767410299
 40
14.18294284359337
 40
14.18294284359337
 40
14.18294284359337
 40
14.18294284359337
 10
177.3067935648022
 20
14.7089803820173
 30
0.0
 10
177.1752019758551
 20
14.82265058603235
 30
0.0
 10
176.9124193802728
 20
15.04964496316157
 30
0.0
 10
176.3997393441023
 20
15.89214462956286
 30
0.0
 10
176.4106654595362
 20
15.5342337757702
 30
0.0
 10
176.4041226527993
 20
15.39267392272134
 30
0.0
 10
176.4028026631773
 20
15.19421305299283
 30
0.0
 10
176.4018117602538
 20
15.02150296045986
 30
0.0
 10
176.4024101751974
 20
14.87865373257581
 30
0.0
 10
176.4038994301882
 20
14.78265005413356
 30
0.0
 10
176.4055683588473
 20
14.6754550326314
 30
0.0
 10
176.4071934954619
 20
14.56164211517581
 30
0.0
 10
176.4092429501686
 20
14.44441572604589
 30
0.0
 10
176.4123165501928
 20
14.3265641123297
 30
0.0
 10
176.4156339697043
 20
14.21228087320621
 30
0.0
 10
176.419360534028
 20
14.10521401867279
 30
0.0
 10
176.4217338161426
 20
14.01007408766927
 30
0.0
 10
176.4278718888359
 20
13.92558557205702
 30
0.0
 10
176.4239784495947
 20
13.86923087298147
 30
0.0
 10
176.4455230443077
 20
13.79825022472355
 30
0.0
 10
176.3680940058618
 20
13.82902677604491
 30
0.0
 10
176.311635324019
 20
13.82011242517622
 30
0.0
 10
176.2540495896806
 20
13.82896218398279
 30
0.0
 10
176.1690163478474
 20
13.79738225225947
 30
0.0
 10
176.2009714146382
 20
13.88095155992195
 30
0.0
 10
176.199070528254
 20
13.94882608968313
 30
0.0
 10
176.21079600473
 20
14.05233256764421
 30
0.0
 10
176.2164241053
 20
14.17002125616695
 30
0.0
 10
176.2237902178941
 20
14.30388609164424
 30
0.0
 10
176.232075970161
 20
14.44764152872634
 30
0.0
 10
176.2398851897427
 20
14.59714022843449
 30
0.0
 10
176.2457571222659
 20
14.74792549402082
 30
0.0
 10
176.2503667817968
 20
14.89699943878444
 30
0.0
 10
176.2542632117542
 20
15.04122913163027
 30
0.0
 10
176.2570715126564
 20
15.1758390521302
 30
0.0
 10
176.2576698755022
 20
15.36469614347354
 30
0.0
 10
176.2616023867151
 20
15.58975494313153
 30
0.0
 10
176.2442175378498
 20
15.86367091125708
 30
0.0
 10
176.2850417342582
 20
16.02787112098596
 30
0.0
 10
176.1995153256003
 20
16.22749661465095
 30
0.0
 10
176.2660558907688
 20
16.22385458403975
 30
0.0
 10
176.2838724273231
 20
16.22413447160851
 30
0.0
 10
176.4056801797501
 20
16.22632927398611
 30
0.0
 10
176.5080770335464
 20
15.94675118721513
 30
0.0
 10
176.7580021509356
 20
15.74563008536004
 30
0.0
 10
176.9870035331111
 20
15.4779261498791
 30
0.0
 10
177.224515121311
 20
15.22646413862384
 30
0.0
 10
177.4486090740772
 20
14.98969974061351
 30
0.0
 10
177.675071628301
 20
14.73218692583082
 30
0.0
 10
177.8325687886516
 20
14.61649335056926
 30
0.0
 10
178.0472129612675
 20
14.27997152538794
 30
0.0
 10
178.0422645974619
 20
14.40464754091604
 30
0.0
 10
178.0433931602547
 20
14.46327691935737
 30
0.0
 10
178.0428877841518
 20
14.55043662371978
 30
0.0
 10
178.0430475158114
 20
14.64416143182873
 30
0.0
 10
178.0430054891319
 20
14.73018971297036
 30
0.0
 10
178.0430202040374
 20
14.79153891945497
 30
0.0
 10
178.0429706255985
 20
14.94135231520995
 30
0.0
 10
178.0458811522811
 20
15.17989612510107
 30
0.0
 10
178.0259521041162
 20
15.54486509868701
 30
0.0
 10
178.0750433936247
 20
15.80799631993417
 30
0.0
 10
177.917795150918
 20
16.21928904947747
 30
0.0
 10
178.0762112872422
 20
16.16398282551749
 30
0.0
 10
178.1311680478629
 20
16.16199686500178
 30
0.0
 10
178.182788776674
 20
16.16264778248252
 30
0.0
 10
178.2713198965365
 20
16.20369527738242
 30
0.0
 10
178.220489830317
 20
16.05696326622989
 30
0.0
 10
178.2313389930284
 20
15.95019971954436
 30
0.0
 10
178.2166036994848
 20
15.79085705414119
 30
0.0
 10
178.2099976446204
 20
15.62853061652879
 30
0.0
 10
178.2014961399916
 20
15.459925218924
 30
0.0
 10
178.1943227202199
 20
15.29814814703542
 30
0.0
 10
178.188906321539
 20
15.15422331457933
 30
0.0
 10
178.1871713967649
 20
15.03437493466926
 30
0.0
 10
178.1875440672319
 20
14.92686101590515
 30
0.0
 10
178.1873656126264
 20
14.81820024645587
 30
0.0
 10
178.1877010863141
 20
14.69953570165531
 30
0.0
 10
178.1890040622183
 20
14.57555163512742
 30
0.0
 10
178.1908887351574
 20
14.44858294171106
 30
0.0
 10
178.1925004454852
 20
14.32153861551034
 30
0.0
 10
178.194140313743
 20
14.19854884492179
 30
0.0
 10
178.1962570745753
 20
14.08300931383762
 30
0.0
 10
178.1963848422364
 20
13.98090903955841
 30
0.0
 10
178.2006514396554
 20
13.89009848838161
 30
0.0
 10
178.190844008529
 20
13.83213621208792
 30
0.0
 10
178.2118474771688
 20
13.76517130132036
 30
0.0
 10
178.1725639739897
 20
13.77291153966695
 30
0.0
 10
177.9595307117741
 20
13.75755254145195
 30
0.0
 10
177.7636297943189
 20
14.31403058094468
 30
0.0
 10
177.4611197631544
 20
14.57556035348513
 30
0.0
 10
177.3067935648022
 20
14.7089803820173
 30
0.0
 11
177.3067935648022
 21
14.7089803820173
 31
0.0
 11
176.8595529338511
 21
15.18757635411979
 31
0.0
 11
176.4124049070644
 21
15.6635264928897
 31
0.0
 11
176.4089664262494
 21
15.55086249986234
 31
0.0
 11
176.4055610183501
 21
15.40557538184308
 31
0.0
 11
176.4029636920275
 21
15.21465645827973
 31
0.0
 11
176.4021126156603
 21
14.96521170139761
 31
0.0
 11
176.4025239230289
 21
14.88439802954281
 31
0.0
 11
176.4038420329817
 21
14.78640628477558
 31
0.0
 11
176.4055192267719
 21
14.67713557299736
 31
0.0
 11
176.4072367127519
 21
14.56282454872039
 31
0.0
 11
176.4094007838772
 21
14.44497802965265
 31
0.0
 11
176.4124049070644
 21
14.32545802100199
 31
0.0
 11
176.4158359733138
 21
14.20933349846156
 31
0.0
 11
176.4192928929999
 21
14.1018674655023
 31
0.0
 11
176.4227085253089
 21
14.0051016235127
 31
0.0
 11
176.4261896983794
 21
13.92125406276981
 31
0.0
 11
176.4296006184313
 21
13.85632862007764
 31
0.0
 11
176.4330776843148
 21
13.81626739612929
 31
0.0
 11
176.3754263821571
 21
13.82145433189191
 31
0.0
 11
176.3126746318308
 21
13.8231553822387
 31
0.0
 11
176.2464251717157
 21
13.82145433189191
 31
0.0
 11
176.1853747739676
 21
13.81626739612929
 31
0.0
 11
176.1926772737813
 21
13.86531894125595
 31
0.0
 11
176.2008793569055
 21
13.9435672572086
 31
0.0
 11
176.2090098822349
 21
14.04551893253032
 31
0.0
 11
176.2163406441398
 21
14.16542920159751
 31
0.0
 11
176.2236358280422
 21
14.30005912343891
 31
0.0
 11
176.2318444255596
 21
14.44586107652748
 31
0.0
 11
176.2395504149466
 21
14.59715203135076
 31
0.0
 11
176.2455763002094
 21
14.7485091320074
 31
0.0
 11
176.2503046247416
 21
14.8981795139144
 31
0.0
 11
176.254192897212
 21
15.04435739582229
 31
0.0
 11
176.2567527408965
 21
15.18111831592699
 31
0.0
 11
176.2576324804574
 21
15.30230850686888
 31
0.0
 11
176.257192610677
 21
15.60939715262542
 31
0.0
 11
176.2559126888347
 21
15.86997204839369
 31
0.0
 11
176.2528658717893
 21
16.07719922716124
 31
0.0
 11
176.2473049112763
 21
16.22421385386059
 31
0.0
 11
176.2615728121469
 21
16.22421385386059
 31
0.0
 11
176.2880703423353
 21
16.22421385386059
 31
0.0
 11
176.3023382432059
 21
16.22421385386059
 31
0.0
 11
176.5194743650277
 21
15.98910179662774
 31
0.0
 11
176.751274412308
 21
15.7375128123156
 31
0.0
 11
176.9894816018839
 21
15.47949555543571
 31
0.0
 11
177.2260074557522
 21
15.22497079855489
 31
0.0
 11
177.4555698717705
 21
14.97899759549137
 31
0.0
 11
177.6731797360104
 21
14.74678934034108
 31
0.0
 11
177.8713724913708
 21
14.53826680567101
 31
0.0
 11
178.0430143099087
 21
14.36326697932589
 31
0.0
 11
178.0430143099087
 21
14.38918210687043
 31
0.0
 11
178.0430143099087
 21
14.45601585685372
 31
0.0
 11
178.0430143099087
 21
14.54740078030025
 31
0.0
 11
178.0430143099087
 21
14.64696942823455
 31
0.0
 11
178.0430143099087
 21
14.73835435168108
 31
0.0
 11
178.0430143099087
 21
14.80518810166437
 31
0.0
 11
178.0430143099087
 21
14.83110322920891
 31
0.0
 11
178.0417233637609
 21
15.18755430550866
 31
0.0
 11
178.0378461155959
 21
15.53450684014419
 31
0.0
 11
178.0296197790002
 21
15.86693815950551
 31
0.0
 11
178.0154535467228
 21
16.17960510387178
 31
0.0
 11
178.0790351249619
 21
16.16666367158335
 31
0.0
 11
178.1324170159612
 21
16.16238072887609
 31
0.0
 11
178.1805381084834
 21
16.16666367158335
 31
0.0
 11
178.2424836798197
 21
16.17960510387178
 31
0.0
 11
178.2351216487575
 21
16.08498128445103
 31
0.0
 11
178.2269790968819
 21
15.9525749650397
 31
0.0
 11
178.2183705364004
 21
15.79600336785657
 31
0.0
 11
178.2097547223215
 21
15.62916593734281
 31
0.0
 11
178.2016187850289
 21
15.45890325509363
 31
0.0
 11
178.1942501393836
 21
15.292060312427
 31
0.0
 11
178.1891406931522
 21
15.14329943572812
 31
0.0
 11
178.1874503478905
 21
15.027221215271
 31
0.0
 11
178.1874503478905
 21
14.9325874739752
 31
0.0
 11
178.1874503478905
 21
14.82077565976709
 31
0.0
 11
178.1878461204497
 21
14.70123801222748
 31
0.0
 11
178.1890819450708
 21
14.5766005209392
 31
0.0
 11
178.1908392193317
 21
14.44883212687395
 31
0.0
 11
178.1925303477609
 21
14.32028982655879
 31
0.0
 11
178.1942876220215
 21
14.19558288214559
 31
0.0
 11
178.1959787504506
 21
14.07947489606349
 31
0.0
 11
178.1972884379172
 21
13.97495896727021
 31
0.0
 11
178.1976985420735
 21
13.88517371555659
 31
0.0
 11
178.1976985420735
 21
13.81891763918421
 31
0.0
 11
178.1976985420735
 21
13.77165864614048
 31
0.0
 11
178.1736699662976
 21
13.77165864614048
 31
0.0
 11
178.1496413905217
 21
13.77165864614048
 31
0.0
 11
177.7410729200423
 21
14.23466735262193
 31
0.0
 11
177.3067935648022
 21
14.7089803820173
 31
0.0
  0
SPLINE
  5
A8
102
{ACAD_REACTORS
330
C5
102
}
330
48
100
AcDbEntity
  8
_U_30EC_U_30A4_U_30E4_U_30FC_1
  6
Continuous
 62
     2
100
AcDbSpline
210
0.0
220
0.0
230
1.0
 70
    11
 71
     3
 72
   110
 73
   106
 74
   104
 42
0.000000001
 43
0.0000000001
 44
0.00000001
 40
0.0
 40
0.0
 40
0.0
 40
0.0
 40
0.2203406257278051
 40
0.4407808782838128
 40
0.5952494494615103
 40
0.7488431659393089
 40
0.902358183130965
 40
1.056801968670407
 40
1.210736449099964
 40
1.363041386539871
 40
1.515315729683184
 40
1.669377239148163
 40
1.721611652756634
 40
1.773199502942973
 40
1.824933793210066
 40
1.877110426488015
 40
1.982682281206832
 40
2.078781667087671
 40
2.17280964082239
 40
2.271937807379043
 40
2.378349933379438
 40
2.494131557736628
 40
2.626681683943731
 40
2.783145050796102
 40
2.890701232940927
 40
2.993130312454774
 40
3.099869730691783
 40
3.220237816691326
 40
3.352695482737583
 40
3.481732806389797
 40
3.593499473690336
 40
3.674323013331853
 40
3.817951711952718
 40
3.946167120793715
 40
4.061405053453485
 40
4.16648079600304
 40
4.262478775059162
 40
4.350736673551147
 40
4.433071991253977
 40
4.511216293814523
 40
4.564262454117837
 40
4.618474415571469
 40
4.670128488754073
 40
4.722296879126326
 40
4.8195409453142
 40
4.931194984128054
 40
5.049996040257697
 40
5.168643755415242
 40
5.283970811762397
 40
5.392260784910166
 40
5.486512254876241
 40
5.559178233949669
 40
5.59142585285332
 40
5.626215969637694
 40
5.66715583867425
 40
5.717449290214006
 40
5.738402360944635
 40
5.784499116553636
 40
5.830595872164642
 40
5.851548942897514
 40
5.873019280661627
 40
5.924217778408169
 40
5.985325662817544
 40
6.036524160567556
 40
6.057994498334084
 40
6.236847789607328
 40
6.381409928945528
 40
6.49319042417853
 40
6.574067534230291
 40
6.691018086205328
 40
6.814881554220302
 40
6.94430782324017
 40
7.071266716065795
 40
7.193488604461693
 40
7.309042773127945
 40
7.414007203170519
 40
7.505140441886341
 40
7.531150360599552
 40
7.559221645322076
 40
7.5872022189208
 40
7.612569159499028
 40
7.66255080948089
 40
7.702878875764008
 40
7.857328205230823
 40
8.01079956808844
 40
8.16525639965742
 40
8.322232698713844
 40
8.479564855016445
 40
8.635216230290649
 40
8.790882550925623
 40
8.948305154947219
 40
9.16827183903292
 40
9.387358980987155
 40
9.608047961033428
 40
9.832914234792648
 40
9.858338694962981
 40
9.925366817229984
 40
10.02013071422756
 40
10.12876249858994
 40
10.23739428295244
 40
10.33215817995185
 40
10.39918630222387
 40
10.42461076239777
 40
10.64992019336936
 40
10.8718852453118
 40
10.8718852453118
 40
10.8718852453118
 40
10.8718852453118
 10
179.9057788376619
 20
15.73923260398189
 30
0.0
 10
179.9092864933542
 20
15.80616462073804
 30
0.0
 10
179.9163033987664
 20
15.94005891915858
 30
0.0
 10
179.8198027599072
 20
16.22548554971468
 30
0.0
 10
180.0510134726109
 20
16.16284386190282
 30
0.0
 10
180.1919290057156
 20
16.17001554055998
 30
0.0
 10
180.3490417757588
 20
16.16235883078244
 30
0.0
 10
180.5025913427287
 20
16.16252752283043
 30
0.0
 10
180.6545104935082
 20
16.16182040535431
 30
0.0
 10
180.8142214813232
 20
16.17210158351647
 30
0.0
 10
180.9408972601118
 20
16.15496511080749
 30
0.0
 10
181.1370821122082
 20
16.22727260107145
 30
0.0
 10
181.1034395279078
 20
16.1264069908012
 30
0.0
 10
181.1052011317184
 20
16.07619253947674
 30
0.0
 10
181.1027342073458
 20
16.0271233558647
 30
0.0
 10
181.1347076966012
 20
15.94063490847005
 30
0.0
 10
181.0010399903256
 20
15.98997438608336
 30
0.0
 10
180.9172208688057
 20
15.98430634314172
 30
0.0
 10
180.8173861139324
 20
15.99465516706297
 30
0.0
 10
180.7186576720146
 20
16.00086450411087
 30
0.0
 10
180.612153277111
 20
16.00697763816779
 30
0.0
 10
180.491051169806
 20
16.01588883484595
 30
0.0
 10
180.3703381502453
 20
16.0052160591238
 30
0.0
 10
180.1812553843438
 20
16.06468503080362
 30
0.0
 10
180.2129028505311
 20
15.90558320077541
 30
0.0
 10
180.1995563316833
 20
15.80839128339907
 30
0.0
 10
180.197495842645
 20
15.69634065110105
 30
0.0
 10
180.1958188044671
 20
15.57699685629352
 30
0.0
 10
180.1973336794233
 20
15.45032592155112
 30
0.0
 10
180.195658247867
 20
15.3230158801612
 30
0.0
 10
180.2058844271658
 20
15.22451566404468
 30
0.0
 10
180.1779006596583
 20
15.08388702625637
 30
0.0
 10
180.3508029999305
 20
15.13989551134098
 30
0.0
 10
180.4645020202772
 20
15.12719951478499
 30
0.0
 10
180.5840151672239
 20
15.13448377051257
 30
0.0
 10
180.6888491425072
 20
15.1387801705676
 30
0.0
 10
180.7843084898612
 20
15.14330568258978
 30
0.0
 10
180.8763823507033
 20
15.15149201146201
 30
0.0
 10
180.9476551782439
 20
15.14643850638114
 30
0.0
 10
181.0544931705684
 20
15.18536425031677
 30
0.0
 10
181.0226603598036
 20
15.10517122005881
 30
0.0
 10
181.0266164503929
 20
15.05562936846036
 30
0.0
 10
181.0234502392014
 20
15.00557478039821
 30
0.0
 10
181.0550791490584
 20
14.92128847612016
 30
0.0
 10
180.9210133677692
 20
14.97425365495164
 30
0.0
 10
180.82923227932
 20
14.96540080890436
 30
0.0
 10
180.7079729189602
 20
14.97570049965157
 30
0.0
 10
180.5914113119771
 20
14.977489117675
 30
0.0
 10
180.4783375745879
 20
14.97787017109694
 30
0.0
 10
180.3679246308471
 20
14.9841544947218
 30
0.0
 10
180.2898124067841
 20
14.97189133255371
 30
0.0
 10
180.1913625833645
 20
15.00453887616128
 30
0.0
 10
180.2012355173561
 20
14.94769748054208
 30
0.0
 10
180.1973923244402
 20
14.91392130557987
 30
0.0
 10
180.1966789884268
 20
14.87119604709415
 30
0.0
 10
180.1963369642975
 20
14.83401607262159
 30
0.0
 10
180.1963834255345
 20
14.79487237370776
 30
0.0
 10
180.1963649429927
 20
14.75716849497688
 30
0.0
 10
180.1963703431806
 20
14.71944955232403
 30
0.0
 10
180.1963697214201
 20
14.68994324745148
 30
0.0
 10
180.1963698151545
 20
14.65873577699299
 30
0.0
 10
180.1963704287921
 20
14.61414424908083
 30
0.0
 10
180.1963671499337
 20
14.55963956508849
 30
0.0
 10
180.196375962348
 20
14.51505540201446
 30
0.0
 10
180.1963359653419
 20
14.4311780858574
 30
0.0
 10
180.1976024270254
 20
14.31737520677676
 30
0.0
 10
180.1950274117842
 20
14.16830395933708
 30
0.0
 10
180.2065009381719
 20
14.06597203813905
 30
0.0
 10
180.1823506222265
 20
13.93338903885841
 30
0.0
 10
180.3332993946476
 20
13.97895732272026
 30
0.0
 10
180.4428436671556
 20
13.96427012162356
 30
0.0
 10
180.5733970473921
 20
13.96920435125063
 30
0.0
 10
180.6990312209514
 20
13.97257705323373
 30
0.0
 10
180.8188730625602
 20
13.97711497498776
 30
0.0
 10
180.9391362611427
 20
13.99048536181997
 30
0.0
 10
181.0222761663517
 20
13.98068712782599
 30
0.0
 10
181.1456080421074
 20
14.0412621462333
 30
0.0
 10
181.1244269203958
 20
13.98532460134025
 30
0.0
 10
181.1235950270118
 20
13.95939249372349
 30
0.0
 10
181.121896370756
 20
13.93197256190941
 30
0.0
 10
181.121797488883
 20
13.89738195206385
 30
0.0
 10
181.120365930133
 20
13.86050408220767
 30
0.0
 10
181.1532804192191
 20
13.76846841021809
 30
0.0
 10
180.9551306988108
 20
13.84132015974837
 30
0.0
 10
180.8300548294892
 20
13.81825726508614
 30
0.0
 10
180.6673071295156
 20
13.82454021985794
 30
0.0
 10
180.5129366450002
 20
13.82260943909933
 30
0.0
 10
180.3566670436944
 20
13.82393762599276
 30
0.0
 10
180.1970544465282
 20
13.8205987248787
 30
0.0
 10
180.0540326342238
 20
13.83265795728247
 30
0.0
 10
179.8197144881627
 20
13.76952001976917
 30
0.0
 10
179.9173810751198
 20
14.05620527466318
 30
0.0
 10
179.900686878006
 20
14.24988308142662
 30
0.0
 10
179.9146296709685
 20
14.47848242880297
 30
0.0
 10
179.9142987846634
 20
14.63384593955051
 30
0.0
 10
179.9143078119264
 20
14.7396633644413
 30
0.0
 10
179.9143055876317
 20
14.80205784124217
 30
0.0
 10
179.914306555189
 20
14.89220425248329
 30
0.0
 10
179.9143065473262
 20
14.99621167157439
 30
0.0
 10
179.9143053861104
 20
15.10022131375298
 30
0.0
 10
179.9143090971502
 20
15.19036243688768
 30
0.0
 10
179.9143011051052
 20
15.25276803097215
 30
0.0
 10
179.914333427502
 20
15.3586883596112
 30
0.0
 10
179.9131440788319
 20
15.51626716544739
 30
0.0
 10
179.9082216489257
 20
15.66528219822065
 30
0.0
 10
179.9057788376619
 20
15.73923260398189
 30
0.0
 11
179.9057788376619
 21
15.73923260398189
 31
0.0
 11
179.8966918223741
 21
15.9593857810102
 31
0.0
 11
179.8868249573133
 21
16.17960510387178
 31
0.0
 11
180.04115751414
 21
16.17312391463728
 31
0.0
 11
180.1946500189046
 21
16.16754892331929
 31
0.0
 11
180.3481160653367
 21
16.16367167505632
 31
0.0
 11
180.5025544554939
 21
16.16238072887609
 31
0.0
 11
180.6564835227474
 21
16.16367167505632
 31
0.0
 11
180.8087391004601
 21
16.16754892331929
 31
0.0
 11
180.9609113551074
 21
16.17312391463728
 31
0.0
 11
181.1148364762484
 21
16.17960510387178
 31
0.0
 11
181.1070811703124
 21
16.1279496177736
 31
0.0
 11
181.1044991623591
 21
16.0764264233421
 31
0.0
 11
181.1070811703124
 21
16.02475660564662
 31
0.0
 11
181.1148364762484
 21
15.9731595483679
 31
0.0
 11
181.0094874054411
 21
15.98001446156059
 31
0.0
 11
180.913637570006
 21
15.9869355205866
 31
0.0
 11
180.8198593171903
 21
15.99378381919599
 31
0.0
 11
180.7209679915881
 21
16.0006321178054
 31
0.0
 11
180.6147532199924
 21
16.00710999974827
 31
0.0
 11
180.4991060528038
 21
16.012688298358
 31
0.0
 11
180.3666126447258
 21
16.01656554662087
 31
0.0
 11
180.2101546018424
 21
16.01785649280109
 31
0.0
 11
180.2062663293721
 21
15.91037061609187
 31
0.0
 11
180.20153800484
 21
15.8080507289647
 31
0.0
 11
180.1976607566749
 21
15.7013817532969
 31
0.0
 11
180.1963698105272
 21
15.58102059013248
 31
0.0
 11
180.1967799146836
 21
15.44856355891566
 31
0.0
 11
180.1980896021502
 21
15.3195328818646
 31
0.0
 11
180.199407457705
 21
15.20777398432313
 31
0.0
 11
180.1998191153661
 21
15.12695149302388
 31
0.0
 11
180.3434452935874
 21
15.12780256941253
 31
0.0
 11
180.4716343930758
 21
15.13039989580079
 31
0.0
 11
180.5868078221796
 21
15.13425509545256
 31
0.0
 11
180.691775631222
 21
15.13901649302079
 31
0.0
 11
180.7876346289422
 21
15.14418027774177
 31
0.0
 11
180.8757413374194
 21
15.14934406246269
 31
0.0
 11
180.9578881438497
 21
15.15491243919742
 31
0.0
 11
181.0357692335571
 21
15.16132086801528
 31
0.0
 11
181.0280180445186
 21
15.1088440711534
 31
0.0
 11
181.0254328449317
 21
15.0546937847086
 31
0.0
 11
181.0280180445186
 21
15.00310444444369
 31
0.0
 11
181.0357692335571
 21
14.95151510417878
 31
0.0
 11
180.9389813454014
 21
14.96092324653759
 31
0.0
 11
180.8275950722015
 21
14.9686512847301
 31
0.0
 11
180.7089261429373
 21
14.97425273438146
 31
0.0
 11
180.5903167449213
 21
14.9772678819501
 31
0.0
 11
180.4750025117522
 21
14.97898767361638
 31
0.0
 11
180.3667261950701
 21
14.98070746528259
 31
0.0
 11
180.2724839317709
 21
14.98202486979622
 31
0.0
 11
180.1998191153661
 21
14.9824360763933
 31
0.0
 11
180.199407457705
 21
14.95019108508193
 31
0.0
 11
180.1980896021502
 21
14.91542593752121
 31
0.0
 11
180.1967799146836
 21
14.87450702260087
 31
0.0
 11
180.1963698105272
 21
14.82421524309959
 31
0.0
 11
180.1963698105272
 21
14.80326217235828
 31
0.0
 11
180.1963698105272
 21
14.75716541672739
 31
0.0
 11
180.1963698105272
 21
14.7110686610965
 31
0.0
 11
180.1963698105272
 21
14.69011559035519
 31
0.0
 11
180.1963698105272
 21
14.66864525258278
 31
0.0
 11
180.1963698105272
 21
14.61744675481782
 31
0.0
 11
180.1963698105272
 21
14.55633887038866
 31
0.0
 11
180.1963698105272
 21
14.5051403726237
 31
0.0
 11
180.1963698105272
 21
14.48367003485129
 31
0.0
 11
180.1967799146836
 21
14.30481721371547
 31
0.0
 11
180.1980896021502
 21
14.16026100715439
 31
0.0
 11
180.2002868589709
 21
14.04850210961289
 31
0.0
 11
180.2032586986986
 21
13.9676796183137
 31
0.0
 11
180.3202092517448
 21
13.9676796183137
 31
0.0
 11
180.4440727208747
 21
13.9676796183137
 31
0.0
 11
180.5734925526422
 21
13.96897056449392
 31
0.0
 11
180.7003922282244
 21
13.9728478127569
 31
0.0
 11
180.8224658067974
 21
13.97886708358867
 31
0.0
 11
180.9377587499464
 21
13.98663260441998
 31
0.0
 11
181.0421754573518
 21
13.99734161483403
 31
0.0
 11
181.1320599255449
 21
14.01237656274699
 31
0.0
 11
181.1264254031192
 21
13.98698427976716
 31
0.0
 11
181.1234433285424
 21
13.95907184053809
 31
0.0
 11
181.1221339881201
 21
13.93112191867003
 31
0.0
 11
181.1217235369196
 21
13.90575829888471
 31
0.0
 11
181.1243087365065
 21
13.85584355063326
 31
0.0
 11
181.1320599255449
 21
13.81626739612929
 31
0.0
 11
180.9776977178345
 21
13.82145433189191
 31
0.0
 11
180.8242357818766
 21
13.8231553822387
 31
0.0
 11
180.6697789496484
 21
13.8231553822387
 31
0.0
 11
180.5128026496768
 21
13.8231553822387
 31
0.0
 11
180.3554704921537
 21
13.8231553822387
 31
0.0
 11
180.1998191153661
 21
13.8231553822387
 31
0.0
 11
180.0441620874242
 21
13.82145433189191
 31
0.0
 11
179.8868249573133
 21
13.81626739612929
 31
0.0
 11
179.8966918223741
 21
14.03601267385213
 31
0.0
 11
179.9057788376619
 21
14.2549112849085
 31
0.0
 11
179.9121721518401
 21
14.47550763902005
 31
0.0
 11
179.914306345501
 21
14.70036378479719
 31
0.0
 11
179.914306345501
 21
14.72578824496878
 31
0.0
 11
179.914306345501
 21
14.79281636723935
 31
0.0
 11
179.914306345501
 21
14.88758026424256
 31
0.0
 11
179.914306345501
 21
14.99621204861209
 31
0.0
 11
179.914306345501
 21
15.10484383298163
 31
0.0
 11
179.914306345501
 21
15.19960772998484
 31
0.0
 11
179.914306345501
 21
15.2666358522554
 31
0.0
 11
179.914306345501
 21
15.292060312427
 31
0.0
 11
179.9121721518401
 21
15.51735963528735
 31
0.0
 11
179.9057788376619
 21
15.73923260398189
 31
0.0
  0
SPLINE
  5
A9
102
{ACAD_REACTORS
330
C6
102
}
330
48
100
AcDbEntity
  8
_U_30EC_U_30A4_U_30E4_U_30FC_1
  6
Continuous
 62
     2
100
AcDbSpline
210
0.0
220
0.0
230
1.0
 70
    11
 71
     3
 72
    47
 73
    43
 74
    41
 42
0.000000001
 43
0.0000000001
 44
0.00000001
 40
0.0
 40
0.0
 40
0.0
 40
0.0
 40
0.2207912809957693
 40
0.445940418630319
 40
0.4902387190458269
 40
0.5327473892722002
 40
0.5742260451225077
 40
0.6155432630560651
 40
0.6568164066315282
 40
0.6982511618780523
 40
0.7407663929316121
 40
0.7851366743174171
 40
1.010288833836183
 40
1.231080507002081
 40
1.451765243652264
 40
1.676638205891546
 40
1.720461045359519
 40
1.830018144043384
 40
1.972442372353019
 40
2.114866600677388
 40
2.224423699395016
 40
2.268246538883258
 40
2.493628801207069
 40
2.715602830286498
 40
2.934211330706227
 40
3.149502369855221
 40
3.231387784850783
 40
3.318231873853819
 40
3.405143198197864
 40
3.486970301720218
 40
3.70225817249366
 40
3.920866283533866
 40
4.142839325931685
 40
4.368221903865128
 40
4.412044743359609
 40
4.521601842095625
 40
4.664026070452107
 40
4.80645029880882
 40
4.916007397546514
 40
4.959830237042838
 40
5.184703515846869
 40
5.405387250767197
 40
5.405387250767197
 40
5.405387250767197
 40
5.405387250767197
 10
182.6507427258645
 20
15.73406440953869
 30
0.0
 10
182.6568139420003
 20
15.79758482501207
 30
0.0
 10
182.6690762107244
 20
15.92587938689622
 30
0.0
 10
182.5604706879413
 20
16.20166220174079
 30
0.0
 10
182.6761985896605
 20
16.17188133432049
 30
0.0
 10
182.7171842509016
 20
16.16765556262829
 30
0.0
 10
182.7591205797519
 20
16.16310446389605
 30
0.0
 10
182.8004196625711
 20
16.16201982929488
 30
0.0
 10
182.8417032115556
 20
16.16310338195226
 30
0.0
 10
182.8836148270648
 20
16.1676611271135
 30
0.0
 10
182.9245983549019
 20
16.17187430209727
 30
0.0
 10
183.0404922843488
 20
16.20177611317533
 30
0.0
 10
182.9295652727457
 20
15.92339806609888
 30
0.0
 10
182.9574856365269
 20
15.74283140824953
 30
0.0
 10
182.940426734697
 20
15.50961042346472
 30
0.0
 10
182.9414637282104
 20
15.34906622543147
 30
0.0
 10
182.9414099399405
 20
15.22284817558723
 30
0.0
 10
182.9414277372482
 20
15.12428963336242
 30
0.0
 10
182.9414188581081
 20
14.99280702442964
 30
0.0
 10
182.9414263928035
 20
14.86132844968651
 30
0.0
 10
182.9414129405129
 20
14.76276222694091
 30
0.0
 10
182.9414531717493
 20
14.63639735624153
 30
0.0
 10
182.9406746403817
 20
14.47482068822871
 30
0.0
 10
182.9565958319268
 20
14.24361821892915
 30
0.0
 10
182.9333468885408
 20
14.05874351972004
 30
0.0
 10
183.0360183444365
 20
13.78935602770056
 30
0.0
 10
182.8820238362837
 20
13.82660112685823
 30
0.0
 10
182.8004129802833
 20
13.82137994680543
 30
0.0
 10
182.7188192292583
 20
13.82660620378357
 30
0.0
 10
182.5648513666844
 20
13.78937069885387
 30
0.0
 10
182.6674183421918
 20
14.05875129862883
 30
0.0
 10
182.6442045316088
 20
14.24361585325416
 30
0.0
 10
182.6600444655139
 20
14.47482218565639
 30
0.0
 10
182.6593296313428
 20
14.63639712308505
 30
0.0
 10
182.6593664569906
 20
14.76276231210521
 30
0.0
 10
182.6593549000271
 20
14.86132756635983
 30
0.0
 10
182.6593575019213
 20
14.9928112741722
 30
0.0
 10
182.6593648531779
 20
15.12427548031201
 30
0.0
 10
182.6593442541351
 20
15.22287786275328
 30
0.0
 10
182.6594082192028
 20
15.34896149354428
 30
0.0
 10
182.658173394759
 20
15.51210091383771
 30
0.0
 10
182.6532040396745
 20
15.66054183777549
 30
0.0
 10
182.6507427258645
 20
15.73406440953869
 30
0.0
 11
182.6507427258645
 21
15.73406440953869
 31
0.0
 11
182.641732820038
 21
15.95467178795579
 31
0.0
 11
182.6318769706147
 21
16.17960510387178
 31
0.0
 11
182.6756985840801
 21
16.17312391463728
 31
0.0
 11
182.7178400934216
 21
16.16754892331929
 31
0.0
 11
182.7591371409791
 21
16.16367167505632
 31
0.0
 11
182.8004341885366
 21
16.16238072887609
 31
0.0
 11
182.8416871388731
 21
16.16367167505632
 31
0.0
 11
182.8829400892098
 21
16.16754892331929
 31
0.0
 11
182.9250882131343
 21
16.17312391463728
 31
0.0
 11
182.9689825870145
 21
16.17960510387178
 31
0.0
 11
182.9590577693891
 21
15.95467178795579
 31
0.0
 11
182.9500384208311
 21
15.73406440953869
 31
0.0
 11
182.9435638463436
 21
15.51347467001056
 31
0.0
 11
182.9414218238287
 21
15.28861190965009
 31
0.0
 11
182.9414218238287
 21
15.24478907015487
 31
0.0
 11
182.9414218238287
 21
15.13523197141684
 31
0.0
 11
182.9414218238287
 21
14.99280774305738
 31
0.0
 11
182.9414218238287
 21
14.85038351469793
 31
0.0
 11
182.9414218238287
 21
14.74082641595989
 31
0.0
 11
182.9414218238287
 21
14.69700357646468
 31
0.0
 11
182.9435638463436
 21
14.47163149318769
 31
0.0
 11
182.9500384208311
 21
14.2497519099098
 31
0.0
 11
182.9590577693892
 21
14.03132954885331
 31
0.0
 11
182.9689825870145
 21
13.81626739612929
 31
0.0
 11
182.8872616168771
 21
13.82145433189191
 31
0.0
 11
182.8004341885366
 21
13.8231553822387
 31
0.0
 11
182.7135395119339
 21
13.82145433189191
 31
0.0
 11
182.6318769706147
 21
13.81626739612929
 31
0.0
 11
182.641732820038
 21
14.03132954885331
 31
0.0
 11
182.6507427258645
 21
14.2497519099098
 31
0.0
 11
182.6571833838798
 21
14.47163149318769
 31
0.0
 11
182.6593583588023
 21
14.69700357646468
 31
0.0
 11
182.6593583588023
 21
14.74082641595989
 31
0.0
 11
182.6593583588023
 21
14.85038351469793
 31
0.0
 11
182.6593583588023
 21
14.99280774305738
 31
0.0
 11
182.6593583588023
 21
15.13523197141684
 31
0.0
 11
182.6593583588023
 21
15.24478907015487
 31
0.0
 11
182.6593583588023
 21
15.28861190965009
 31
0.0
 11
182.6571833838798
 21
15.51347467001056
 31
0.0
 11
182.6507427258645
 21
15.73406440953869
 31
0.0
  0
SPLINE
  5
AA
102
{ACAD_REACTORS
330
C7
102
}
330
48
100
AcDbEntity
  8
_U_30EC_U_30A4_U_30E4_U_30FC_1
  6
Continuous
 62
     2
100
AcDbSpline
210
0.0
220
0.0
230
1.0
 70
    11
 71
     3
 72
   118
 73
   114
 74
   112
 42
0.000000001
 43
0.0000000001
 44
0.00000001
 40
0.0
 40
0.0
 40
0.0
 40
0.0
 40
0.1054708162973325
 40
0.2466098270051825
 40
0.3965912874591371
 40
0.5285525069754171
 40
0.6156245055642761
 40
0.6431434105797862
 40
0.7036850037986481
 40
0.7642265984504792
 40
0.7917455052355068
 40
0.9287404319990369
 40
1.106572819088141
 40
1.287544879681178
 40
1.317578308030697
 40
1.399928030857335
 40
1.522968204800112
 40
1.675072986590738
 40
1.844616533180821
 40
2.019973001638888
 40
2.189516548880205
 40
2.341621331585545
 40
2.464661506320684
 40
2.54701122964725
 40
2.577044658168216
 40
2.603797890893258
 40
2.662655002908945
 40
2.721512114949729
 40
2.74826534770288
 40
2.774215307344955
 40
2.845959313407286
 40
2.95433855658848
 40
3.090194227585657
 40
3.244367517100622
 40
3.407699615844376
 40
3.571031714539522
 40
3.725205003920196
 40
3.861060674729696
 40
3.969439917716386
 40
4.041183923629058
 40
4.067133883213051
 40
4.311886746012279
 40
4.547897258335665
 40
4.764747083044085
 40
4.952749679951815
 40
5.045772974195914
 40
5.137862019645093
 40
5.330543169793102
 40
5.553448265244074
 40
5.795083855888252
 40
6.043293412177324
 40
6.28576169554129
 40
6.313902908752802
 40
6.384255941793392
 40
6.475714884766981
 40
6.567173827759015
 40
6.637526860839793
 40
6.665668074074156
 40
6.692018920328118
 40
6.749990782071165
 40
6.80796264379051
 40
6.834313490017972
 40
6.856393084245251
 40
6.913335195649903
 40
6.991194817302538
 40
7.076026942283771
 40
7.153886563725318
 40
7.210828674844872
 40
7.232908268931207
 40
7.25819933492373
 40
7.324875781592385
 40
7.419142481925049
 40
7.527204308841999
 40
7.635266135230586
 40
7.729532834168579
 40
7.796209279292905
 40
7.821500344594855
 40
7.844652988850926
 40
7.899863140541677
 40
7.965759128053815
 40
8.020969279771071
 40
8.044121924046538
 40
8.069356610160598
 40
8.109134395441398
 40
8.132238100191113
 40
8.193147867786479
 40
8.279261678876658
 40
8.377977512673876
 40
8.476693347146668
 40
8.562807160411724
 40
8.623716930826513
 40
8.646820636853468
 40
8.67198879377428
 40
8.734909185828192
 40
8.816705695188906
 40
8.898502204815477
 40
8.961422597377938
 40
8.98659075455105
 40
9.012941600733194
 40
9.070913462380256
 40
9.128885324081727
 40
9.155236170325036
 40
9.180404327929079
 40
9.243324721948152
 40
9.325121234211945
 40
9.4069177466376
 40
9.469838141978055
 40
9.49500628827083
 40
9.517811184378976
 40
9.572192090486993
 40
9.637098333281239
 40
9.691479239515456
 40
9.7142841256435
 40
9.7142841256435
 40
9.7142841256435
 40
9.7142841256435
 10
185.2874469028653
 20
15.26889163187718
 30
0.0
 10
185.3090990569038
 20
15.2411186924281
 30
0.0
 10
185.3597257109473
 20
15.17618054561236
 30
0.0
 10
185.4349383202592
 20
15.06891060312897
 30
0.0
 10
185.5248482274346
 20
14.95377438266626
 30
0.0
 10
185.5709169676674
 20
14.85357045748315
 30
0.0
 10
185.6655825294656
 20
14.78434006814943
 30
0.0
 10
185.6204439320414
 20
14.73771639678271
 30
0.0
 10
185.5947047785791
 20
14.69660308866039
 30
0.0
 10
185.5645196708013
 20
14.6606597172794
 30
0.0
 10
185.5193684730563
 20
14.58579782596093
 30
0.0
 10
185.4710504458563
 20
14.80782524253609
 30
0.0
 10
185.3968539713073
 20
14.84510677337711
 30
0.0
 10
185.2836047324606
 20
15.11610202130611
 30
0.0
 10
185.288513357817
 20
15.00095328446237
 30
0.0
 10
185.2868486556306
 20
14.92836675781636
 30
0.0
 10
185.2876830076714
 20
14.80625588483995
 30
0.0
 10
185.2873609540264
 20
14.65913800810469
 30
0.0
 10
185.2875076912455
 20
14.49307063956564
 30
0.0
 10
185.2872950092722
 20
14.32187554608609
 30
0.0
 10
185.2879497252034
 20
14.15552828635505
 30
0.0
 10
185.2859192461138
 20
14.009351730557
 30
0.0
 10
185.2913460399931
 20
13.88471047474617
 30
0.0
 10
185.2804930868707
 20
13.81718656540633
 30
0.0
 10
185.2956739155555
 20
13.75549061417029
 30
0.0
 10
185.2457895108134
 20
13.76727503897007
 30
0.0
 10
185.2017150342522
 20
13.75943822779976
 30
0.0
 10
185.1582371630201
 20
13.76760441372708
 30
0.0
 10
185.1092346786489
 20
13.75538056738475
 30
0.0
 10
185.1218731234826
 20
13.8096066724932
 30
0.0
 10
185.113018296845
 20
13.86936918907564
 30
0.0
 10
185.1175058770314
 20
13.97922029044376
 30
0.0
 10
185.1157960135992
 20
14.11029975405684
 30
0.0
 10
185.1163550915987
 20
14.26198011444333
 30
0.0
 10
185.1161928768695
 20
14.42211074929958
 30
0.0
 10
185.1162269924676
 20
14.58236865674571
 30
0.0
 10
185.1162514960127
 20
14.73370247520444
 30
0.0
 10
185.1161453543226
 20
14.86582156338605
 30
0.0
 10
185.1164299141931
 20
14.97294802533198
 30
0.0
 10
185.1158675547568
 20
15.03808619579477
 30
0.0
 10
185.1180765083691
 20
15.16618957858682
 30
0.0
 10
185.0319435998603
 20
14.79097610391575
 30
0.0
 10
184.95551408185
 20
14.63918193123396
 30
0.0
 10
184.8660040767833
 20
14.47766206446309
 30
0.0
 10
184.7640413217327
 20
14.20471848820183
 30
0.0
 10
184.7187976491039
 20
14.36717346596517
 30
0.0
 10
184.610235594167
 20
14.45605432058127
 30
0.0
 10
184.7995791751753
 20
14.60549794961414
 30
0.0
 10
184.85653405457
 20
14.7974913697493
 30
0.0
 10
184.9717520993352
 20
15.02899622906758
 30
0.0
 10
184.9940151630134
 20
15.21797259759068
 30
0.0
 10
185.1771905152139
 20
15.49454089325936
 30
0.0
 10
185.0538033597553
 20
15.48698978832099
 30
0.0
 10
184.9925684166834
 20
15.48856772366123
 30
0.0
 10
184.9081999617065
 20
15.48882592573678
 30
0.0
 10
184.8204235085966
 20
15.48544845751211
 30
0.0
 10
184.7656768696123
 20
15.49394814982025
 30
0.0
 10
184.7104703026025
 20
15.48048561049793
 30
0.0
 10
184.7222823035537
 20
15.52931442126767
 30
0.0
 10
184.7142496151795
 20
15.5726900489671
 30
0.0
 10
184.7228186104678
 20
15.61509438309573
 30
0.0
 10
184.7102943409158
 20
15.66267796552117
 30
0.0
 10
184.7555101538735
 20
15.65267212995106
 30
0.0
 10
184.8014815562725
 20
15.6589410517406
 30
0.0
 10
184.8777222047711
 20
15.6559356140587
 30
0.0
 10
184.9561296131994
 20
15.65770448278539
 30
0.0
 10
185.0323992648934
 20
15.65464793981658
 30
0.0
 10
185.0783009459475
 20
15.66103971376175
 30
0.0
 10
185.1231733965401
 20
15.65093822978895
 30
0.0
 10
185.1105552275635
 20
15.70157201581897
 30
0.0
 10
185.1191936582707
 20
15.75501261882068
 30
0.0
 10
185.1152361595444
 20
15.8486325513168
 30
0.0
 10
185.1162325068335
 20
15.95112606688924
 30
0.0
 10
185.1171927413074
 20
16.05353270248164
 30
0.0
 10
185.1133211458007
 20
16.14735929609324
 30
0.0
 10
185.1217789814365
 20
16.20036542840354
 30
0.0
 10
185.1093075932836
 20
16.25211435651191
 30
0.0
 10
185.1542106389851
 20
16.2385074722676
 30
0.0
 10
185.1955083836773
 20
16.24100480320587
 30
0.0
 10
185.259534428105
 20
16.23648060574489
 30
0.0
 10
185.2986111148787
 20
16.22781003043308
 30
0.0
 10
185.3476543498742
 20
16.23515102070687
 30
0.0
 10
185.3225080030591
 20
16.19602896051758
 30
0.0
 10
185.2815901333723
 20
16.2056384245581
 30
0.0
 10
185.2910109616604
 20
16.15540148169779
 30
0.0
 10
185.2855647318746
 20
16.1038594563949
 30
0.0
 10
185.2881699601803
 20
16.0195970758452
 30
0.0
 10
185.2870102202154
 20
15.92559135583408
 30
0.0
 10
185.2883591064231
 20
15.83196865395524
 30
0.0
 10
185.284997010151
 20
15.74679517552222
 30
0.0
 10
185.2920959917768
 20
15.69716856072042
 30
0.0
 10
185.2812569154546
 20
15.64993694969987
 30
0.0
 10
185.3304010225245
 20
15.6620167493685
 30
0.0
 10
185.3794877630147
 20
15.65447393363009
 30
0.0
 10
185.4573714280641
 20
15.65686070361431
 30
0.0
 10
185.5350365172896
 20
15.65899381905413
 30
0.0
 10
185.5845393931354
 20
15.65193391922452
 30
0.0
 10
185.6344594750639
 20
15.66360151936212
 30
0.0
 10
185.6223198516881
 20
15.61540235371393
 30
0.0
 10
185.6305838229143
 20
15.57249219801237
 30
0.0
 10
185.6223198650784
 20
15.52958201851388
 30
0.0
 10
185.6344594549854
 20
15.48138288754869
 30
0.0
 10
185.5845395158747
 20
15.49305034471516
 30
0.0
 10
185.5350350651202
 20
15.4859920243505
 30
0.0
 10
185.4573784382973
 20
15.48811665228609
 30
0.0
 10
185.379464386576
 20
15.49053389365765
 30
0.0
 10
185.3304500352717
 20
15.48291848194491
 30
0.0
 10
185.2813246108943
 20
15.49507952557597
 30
0.0
 10
185.2915559988571
 20
15.45073013424162
 30
0.0
 10
185.2856677678053
 20
15.40925436202914
 30
0.0
 10
185.2878788305568
 20
15.34915394315304
 30
0.0
 10
185.2874109346146
 20
15.30225782762888
 30
0.0
 10
185.2874386992913
 20
15.27650146418195
 30
0.0
 10
185.2874469028653
 20
15.26889163187718
 30
0.0
 11
185.2874469028653
 21
15.26889163187718
 31
0.0
 11
185.3516977534484
 21
15.18524999634256
 31
0.0
 11
185.4348258835499
 21
15.07118889748221
 31
0.0
 11
185.5216831568896
 21
14.94891767195723
 31
0.0
 11
185.5971214371872
 21
14.84064565642875
 31
0.0
 11
185.6459925881627
 21
14.76858218755788
 31
0.0
 11
185.6296821285094
 21
14.74641782124398
 31
0.0
 11
185.5937991172721
 21
14.69765621535339
 31
0.0
 11
185.5579161060347
 21
14.6488946094628
 31
0.0
 11
185.5416056463814
 21
14.6267302431489
 31
0.0
 11
185.4763067109446
 21
14.74716139023815
 31
0.0
 11
185.3848434243234
 21
14.89966983670211
 31
0.0
 11
185.2874469028653
 21
15.05219788193151
 31
0.0
 11
185.2874469028653
 21
15.02216445328262
 31
0.0
 11
185.2874469028653
 21
14.93981472956792
 31
0.0
 11
185.2874469028653
 21
14.81677455413536
 31
0.0
 11
185.2874469028653
 21
14.66466977033291
 31
0.0
 11
185.2874469028653
 21
14.49512622150853
 31
0.0
 11
185.2874469028653
 21
14.31976975101016
 31
0.0
 11
185.2874469028653
 21
14.15022620218578
 31
0.0
 11
185.2874469028653
 21
13.99812141838333
 31
0.0
 11
185.2874469028653
 21
13.87508124295077
 31
0.0
 11
185.2874469028653
 21
13.79273151923607
 31
0.0
 11
185.2874469028653
 21
13.76269809058718
 31
0.0
 11
185.2606936700409
 21
13.76269809058718
 31
0.0
 11
185.2018365578272
 21
13.76269809058718
 31
0.0
 11
185.1429794456135
 21
13.76269809058718
 31
0.0
 11
185.1162262127891
 21
13.76269809058718
 31
0.0
 11
185.1162262127891
 21
13.78864805031256
 31
0.0
 11
185.1162262127891
 21
13.86039205661214
 31
0.0
 11
185.1162262127891
 21
13.96877130017107
 31
0.0
 11
185.1162262127891
 21
14.10462697167453
 31
0.0
 11
185.1162262127891
 21
14.25880026180766
 31
0.0
 11
185.1162262127891
 21
14.42213236125563
 31
0.0
 11
185.1162262127891
 21
14.58546446070361
 31
0.0
 11
185.1162262127891
 21
14.73963775083674
 31
0.0
 11
185.1162262127891
 21
14.8754934223402
 31
0.0
 11
185.1162262127891
 21
14.98387266589913
 31
0.0
 11
185.1162262127891
 21
15.05561667219871
 31
0.0
 11
185.1162262127891
 21
15.08156663192409
 31
0.0
 11
185.0379865861722
 21
14.84965603302373
 31
0.0
 11
184.9497110789304
 21
14.63077616328678
 31
0.0
 11
184.8544106930046
 21
14.43598991333549
 31
0.0
 11
184.7550964303357
 21
14.27636017379209
 31
0.0
 11
184.7109198342406
 21
14.35822446196601
 31
0.0
 11
184.658805738348
 21
14.43414885430821
 31
0.0
 11
184.7627302590299
 21
14.59640087926762
 31
0.0
 11
184.8629319864735
 21
14.79551465421784
 31
0.0
 11
184.9550446607902
 21
15.01890447916199
 31
0.0
 11
185.0347020220912
 21
15.25398465410323
 31
0.0
 11
185.0975378104881
 21
15.4881694790447
 31
0.0
 11
185.0693965972143
 21
15.4881694790447
 31
0.0
 11
184.9990435640298
 21
15.4881694790447
 31
0.0
 11
184.9075846208899
 21
15.4881694790447
 31
0.0
 11
184.81612567775
 21
15.4881694790447
 31
0.0
 11
184.7457726445655
 21
15.4881694790447
 31
0.0
 11
184.7176314312917
 21
15.4881694790447
 31
0.0
 11
184.7176314312917
 21
15.51452032539226
 31
0.0
 11
184.7176314312917
 21
15.5724921873569
 31
0.0
 11
184.7176314312917
 21
15.63046404932154
 31
0.0
 11
184.7176314312917
 21
15.6568148956691
 31
0.0
 11
184.739711025602
 21
15.6568148956691
 31
0.0
 11
184.7966531372445
 21
15.6568148956691
 31
0.0
 11
184.8745127592863
 21
15.6568148956691
 31
0.0
 11
184.9593448847945
 21
15.6568148956691
 31
0.0
 11
185.0372045068362
 21
15.6568148956691
 31
0.0
 11
185.0941466184787
 21
15.6568148956691
 31
0.0
 11
185.1162262127891
 21
15.6568148956691
 31
0.0
 11
185.1162262127891
 21
15.68210596174351
 31
0.0
 11
185.1162262127891
 21
15.74878240866696
 31
0.0
 11
185.1162262127891
 21
15.84304910948976
 31
0.0
 11
185.1162262127891
 21
15.95111093726224
 31
0.0
 11
185.1162262127891
 21
16.05917276503473
 31
0.0
 11
185.1162262127891
 21
16.15343946585753
 31
0.0
 11
185.1162262127891
 21
16.22011591278098
 31
0.0
 11
185.1162262127891
 21
16.24540697885539
 31
0.0
 11
185.1393181988666
 21
16.24373213107803
 31
0.0
 11
185.1943837041285
 21
16.23973826330123
 31
0.0
 11
185.2601070491184
 21
16.23497138885797
 31
0.0
 11
185.3151725543802
 21
16.23097752108117
 31
0.0
 11
185.3382645404578
 21
16.22930267330381
 31
0.0
 11
185.3249012644362
 21
16.20789677921193
 31
0.0
 11
185.2874469028653
 21
16.1945011455347
 31
0.0
 11
185.2874469028653
 21
16.17139743948579
 31
0.0
 11
185.2874469028653
 21
16.1104876689932
 31
0.0
 11
185.2874469028653
 21
16.02437385553816
 31
0.0
 11
185.2874469028653
 21
15.9256580206019
 31
0.0
 11
185.2874469028653
 21
15.82694218566564
 31
0.0
 11
185.2874469028653
 21
15.7408283722106
 31
0.0
 11
185.2874469028653
 21
15.67991860171801
 31
0.0
 11
185.2874469028653
 21
15.6568148956691
 31
0.0
 11
185.3126150604809
 21
15.6568148956691
 31
0.0
 11
185.3755354545199
 21
15.6568148956691
 31
0.0
 11
185.4573319667706
 21
15.6568148956691
 31
0.0
 11
185.5391284790212
 21
15.6568148956691
 31
0.0
 11
185.6020488730602
 21
15.6568148956691
 31
0.0
 11
185.6272170306758
 21
15.6568148956691
 31
0.0
 11
185.6272170306758
 21
15.63046404932154
 31
0.0
 11
185.6272170306758
 21
15.5724921873569
 31
0.0
 11
185.6272170306758
 21
15.51452032539226
 31
0.0
 11
185.6272170306758
 21
15.4881694790447
 31
0.0
 11
185.6020488730602
 21
15.4881694790447
 31
0.0
 11
185.5391284790212
 21
15.4881694790447
 31
0.0
 11
185.4573319667705
 21
15.4881694790447
 31
0.0
 11
185.3755354545199
 21
15.4881694790447
 31
0.0
 11
185.3126150604809
 21
15.4881694790447
 31
0.0
 11
185.2874469028653
 21
15.4881694790447
 31
0.0
 11
185.2874469028653
 21
15.46536458293928
 31
0.0
 11
185.2874469028653
 21
15.41098367684173
 31
0.0
 11
185.2874469028653
 21
15.34607743408015
 31
0.0
 11
185.2874469028653
 21
15.2916965279826
 31
0.0
 11
185.2874469028653
 21
15.26889163187718
 31
0.0
  0
SPLINE
  5
AB
102
{ACAD_REACTORS
330
C8
102
}
330
48
100
AcDbEntity
  8
_U_30EC_U_30A4_U_30E4_U_30FC_1
  6
Continuous
 62
     2
100
AcDbSpline
210
0.0
220
0.0
230
1.0
 70
    11
 71
     3
 72
    91
 73
    87
 74
    85
 42
0.000000001
 43
0.0000000001
 44
0.00000001
 40
0.0
 40
0.0
 40
0.0
 40
0.0
 40
0.0345987051695434
 40
0.1258134969461369
 40
0.2547723404888987
 40
0.4026032099154409
 40
0.5504340793417273
 40
0.6793929228836932
 40
0.7706077146571888
 40
0.8052064287781777
 40
1.12485239061536
 40
1.427402236308949
 40
1.706356627453586
 40
1.955541417875249
 40
2.169485938566384
 40
2.344350786664831
 40
2.480568411561956
 40
2.590440557428949
 40
2.649189927151149
 40
2.749320643306343
 40
2.91263273988001
 40
3.147745656000157
 40
3.24482749638506
 40
3.338490056946626
 40
3.583815413207036
 40
3.76142394323838
 40
3.886956104362537
 40
3.985855451886673
 40
4.091766255337502
 40
4.250186473811696
 40
4.422734315084364
 40
4.628285684838461
 40
4.872093227758306
 40
5.152549652145415
 40
5.464967135837403
 40
5.803201477852313
 40
6.160362988813779
 40
6.193449448275863
 40
6.284170385501517
 40
6.419718138764359
 40
6.587285046385637
 40
6.774063446723523
 40
6.967245678113506
 40
7.15402407881752
 40
7.321590987025878
 40
7.457138740890236
 40
7.547859678555972
 40
7.580946138182532
 40
7.608533084714586
 40
7.669224367077564
 40
7.729915649429786
 40
7.757502595949838
 40
7.790278062553321
 40
7.88014627743079
 40
8.014419963180224
 40
8.180411842397753
 40
8.365434637679222
 40
8.556801071622495
 40
8.741823866830607
 40
8.907815745916174
 40
9.0420894315073
 40
9.131957646249425
 40
9.164733112797002
 40
9.415425063139914
 40
9.667986180958465
 40
9.694169807462604
 40
9.756607686047536
 40
9.831130315322373
 40
9.893568193899839
 40
9.919751820398655
 40
9.950967964690486
 40
9.996421631210586
 40
10.2208798103745
 40
10.44341866197537
 40
10.47847970788849
 40
10.5709133743875
 40
10.7015954546123
 40
10.85140174170358
 40
11.00120802880481
 40
11.13189010907386
 40
11.22432377583011
 40
11.2593848093896
 40
11.28697175596148
 40
11.34766303835923
 40
11.40835432042074
 40
11.43594125892108
 40
11.43594125892108
 40
11.43594125892108
 40
11.43594125892108
 10
190.081811433329
 20
15.55242795125079
 30
0.0
 10
190.0702785844941
 20
15.55242790287917
 30
0.0
 10
190.0283409445
 20
15.55242773704166
 30
0.0
 10
189.9434129719026
 20
15.55243125800911
 30
0.0
 10
189.8207688553129
 20
15.5524092643588
 30
0.0
 10
189.6791206916993
 20
15.55250801177056
 30
0.0
 10
189.5379753698491
 20
15.55214686232422
 30
0.0
 10
189.4141351317904
 20
15.55321883609091
 30
0.0
 10
189.3317217825382
 20
15.5509224909127
 30
0.0
 10
189.1727791229693
 20
15.56048569373423
 30
0.0
 10
189.3503402353376
 20
15.19785394311373
 30
0.0
 10
189.3379739205453
 20
14.95243127723118
 30
0.0
 10
189.4064519473865
 20
14.6686250132484
 30
0.0
 10
189.4693024320971
 20
14.43250999939041
 30
0.0
 10
189.5452253431728
 20
14.23326740396136
 30
0.0
 10
189.6303189577017
 20
14.07745347451383
 30
0.0
 10
189.7244607592936
 20
13.976578577814
 30
0.0
 10
189.8282648207727
 20
13.92465852638976
 30
0.0
 10
189.9125872030774
 20
13.97606484379622
 30
0.0
 10
189.9351322179452
 20
14.09144544037522
 30
0.0
 10
189.9745730975372
 20
14.21885149702386
 30
0.0
 10
189.9202919734942
 20
14.53622328086746
 30
0.0
 10
190.0451218072473
 20
14.38982180140914
 30
0.0
 10
190.2019291513603
 20
14.3579530033116
 30
0.0
 10
190.0947720007056
 20
14.1242135776763
 30
0.0
 10
190.0808711209867
 20
13.95972776583656
 30
0.0
 10
190.0234709467225
 20
13.83130869122486
 30
0.0
 10
189.9335020145009
 20
13.76018802352829
 30
0.0
 10
189.8095274657879
 20
13.74432324142256
 30
0.0
 10
189.6634273196861
 20
13.77993797554175
 30
0.0
 10
189.5243894320285
 20
13.90000570500278
 30
0.0
 10
189.4102003962144
 20
14.07435682550323
 30
0.0
 10
189.3146141301486
 20
14.29946603111243
 30
0.0
 10
189.2318652572627
 20
14.56388246006446
 30
0.0
 10
189.1807179256411
 20
14.88187933098545
 30
0.0
 10
189.077018920734
 20
15.15543728488916
 30
0.0
 10
189.204284120852
 20
15.56005818612869
 30
0.0
 10
189.0357890623019
 20
15.5511236784968
 30
0.0
 10
188.9511995787077
 20
15.55315961418365
 30
0.0
 10
188.8189876387628
 20
15.55213937388408
 30
0.0
 10
188.6560505094104
 20
15.55253230318431
 30
0.0
 10
188.4733759170534
 20
15.5523569631337
 30
0.0
 10
188.2847057373383
 20
15.5526010530747
 30
0.0
 10
188.101446902019
 20
15.55185657906238
 30
0.0
 10
187.9404746832718
 20
15.55416360522428
 30
0.0
 10
187.8029808335277
 20
15.54799804883664
 30
0.0
 10
187.7289590372312
 20
15.56032838458213
 30
0.0
 10
187.6613215186857
 20
15.54329323723558
 30
0.0
 10
187.673237371927
 20
15.5952443844753
 30
0.0
 10
187.6655677285694
 20
15.64071424966531
 30
0.0
 10
187.6732592225117
 20
15.68614453703708
 30
0.0
 10
187.6613141797762
 20
15.73802395984573
 30
0.0
 10
187.7283588305868
 20
15.72119143490266
 30
0.0
 10
187.8017375665677
 20
15.73335409092673
 30
0.0
 10
187.9379128305273
 20
15.7272723107496
 30
0.0
 10
188.0973811801513
 20
15.7295483431506
 30
0.0
 10
188.2789173085837
 20
15.72881233998964
 30
0.0
 10
188.465803486218
 20
15.72905954196136
 30
0.0
 10
188.6468012316836
 20
15.72886400799256
 30
0.0
 10
188.8080802578879
 20
15.72932234714841
 30
0.0
 10
188.9393882124887
 20
15.72812673751208
 30
0.0
 10
189.0225051322597
 20
15.73051347319744
 30
0.0
 10
189.1556236547815
 20
15.72230605725467
 30
0.0
 10
189.0645893502658
 20
15.97752868952657
 30
0.0
 10
188.978963307442
 20
16.24164358328261
 30
0.0
 10
189.0990589003455
 20
16.22904442969173
 30
0.0
 10
189.1514264948545
 20
16.22694235763081
 30
0.0
 10
189.2214497569717
 20
16.2253539988966
 30
0.0
 10
189.2671922337818
 20
16.21602567538115
 30
0.0
 10
189.3220812646934
 20
16.22545966915426
 30
0.0
 10
189.2963574785682
 20
16.17733028655173
 30
0.0
 10
189.1825397571454
 20
16.18266829744178
 30
0.0
 10
189.3159346621135
 20
15.95449174576776
 30
0.0
 10
189.1943658735471
 20
15.72156856595925
 30
0.0
 10
189.3223188769413
 20
15.73087258884441
 30
0.0
 10
189.4049048406461
 20
15.72801001754682
 30
0.0
 10
189.5307214850824
 20
15.72923437412304
 30
0.0
 10
189.6741469838059
 20
15.72932431888967
 30
0.0
 10
189.8157420951728
 20
15.72746163183855
 30
0.0
 10
189.9459127249968
 20
15.73333075937164
 30
0.0
 10
190.0193452286191
 20
15.72070340823206
 30
0.0
 10
190.0891112922097
 20
15.73877563110415
 30
0.0
 10
190.0775772605396
 20
15.68612850546328
 30
0.0
 10
190.0833184346683
 20
15.64221317686549
 30
0.0
 10
190.0816615770912
 20
15.5908998267655
 30
0.0
 10
190.081775756167
 20
15.56158792021636
 30
0.0
 10
190.081811433329
 20
15.55242795125079
 30
0.0
 11
190.081811433329
 21
15.55242795125079
 31
0.0
 11
190.0472127192052
 21
15.55242795125079
 31
0.0
 11
189.9559979274242
 21
15.55242795125079
 31
0.0
 11
189.8270390838718
 21
15.55242795125079
 31
0.0
 11
189.6792082144336
 21
15.55242795125079
 31
0.0
 11
189.5313773449955
 21
15.55242795125079
 31
0.0
 11
189.402418501443
 21
15.55242795125079
 31
0.0
 11
189.311203709662
 21
15.55242795125079
 31
0.0
 11
189.2766049955382
 21
15.55242795125079
 31
0.0
 11
189.3083140497693
 21
15.23435864930123
 31
0.0
 11
189.3527866656866
 21
14.93509522788084
 31
0.0
 11
189.409238911832
 21
14.6619126951258
 31
0.0
 11
189.4768868567479
 21
14.42208605917233
 31
0.0
 11
189.5549465689762
 21
14.22289032815661
 31
0.0
 11
189.6426341170592
 21
14.07160051021485
 31
0.0
 11
189.7391655695389
 21
13.97549161348325
 31
0.0
 11
189.8437569949575
 21
13.94183864609801
 31
0.0
 11
189.8943077302786
 21
13.97177376978843
 31
0.0
 11
189.9310588991552
 21
14.06491619815053
 31
0.0
 11
189.9562640977528
 21
14.22627151712057
 31
0.0
 11
189.9721769222368
 21
14.4608453126348
 31
0.0
 11
190.0494082682584
 21
14.40202182306622
 31
0.0
 11
190.1327184184385
 21
14.35921885432688
 31
0.0
 11
190.1066365811217
 21
14.1152838866101
 31
0.0
 11
190.0673317805105
 21
13.94207902887563
 31
0.0
 11
190.0105702596765
 21
13.83011272445919
 31
0.0
 11
189.9321182616911
 21
13.76989341669647
 31
0.0
 11
189.8277420296257
 21
13.75192954892319
 31
0.0
 11
189.6738595065098
 21
13.78957440012363
 31
0.0
 11
189.5388902376748
 21
13.89707348877405
 31
0.0
 11
189.4221739916163
 21
14.06627361744811
 31
0.0
 11
189.32305053683
 21
14.28902158871946
 31
0.0
 11
189.2408596418114
 21
14.55716420516175
 31
0.0
 11
189.1749410750559
 21
14.86254826934863
 31
0.0
 11
189.1246346050594
 21
15.19702058385376
 31
0.0
 11
189.0892800003172
 21
15.55242795125079
 31
0.0
 11
189.0561935405844
 21
15.55242795125079
 31
0.0
 11
188.9654726026075
 21
15.55242795125079
 31
0.0
 11
188.8299248482186
 21
15.55242795125079
 31
0.0
 11
188.6623579392495
 21
15.55242795125079
 31
0.0
 11
188.4755795375324
 21
15.55242795125079
 31
0.0
 11
188.2823973048993
 21
15.55242795125079
 31
0.0
 11
188.0956189031822
 21
15.55242795125079
 31
0.0
 11
187.9280519942132
 21
15.55242795125079
 31
0.0
 11
187.7925042398242
 21
15.55242795125079
 31
0.0
 11
187.7017833018473
 21
15.55242795125079
 31
0.0
 11
187.6686968421146
 21
15.55242795125079
 31
0.0
 11
187.6686968421146
 21
15.58001489785848
 31
0.0
 11
187.6686968421146
 21
15.64070618039539
 31
0.0
 11
187.6686968421146
 21
15.70139746293231
 31
0.0
 11
187.6686968421146
 21
15.72898440954
 31
0.0
 11
187.7014723087632
 21
15.72898440954
 31
0.0
 11
187.7913405237674
 21
15.72898440954
 31
0.0
 11
187.9256142097149
 21
15.72898440954
 31
0.0
 11
188.0916060891933
 21
15.72898440954
 31
0.0
 11
188.2766288847902
 21
15.72898440954
 31
0.0
 11
188.4679953190933
 21
15.72898440954
 31
0.0
 11
188.6530181146902
 21
15.72898440954
 31
0.0
 11
188.8190099941686
 21
15.72898440954
 31
0.0
 11
188.9532836801161
 21
15.72898440954
 31
0.0
 11
189.0431518951203
 21
15.72898440954
 31
0.0
 11
189.0759273617689
 21
15.72898440954
 31
0.0
 11
189.0659183950104
 21
15.97947647544959
 31
0.0
 11
189.0599112510664
 21
16.23196614552541
 31
0.0
 11
189.086057587066
 21
16.2305692160813
 31
0.0
 11
189.148406542142
 21
16.22723807663767
 31
0.0
 11
189.22282303691
 21
16.22326220052753
 31
0.0
 11
189.285171991986
 21
16.21993106108389
 31
0.0
 11
189.3113183279856
 21
16.21853413163979
 31
0.0
 11
189.2982931113041
 21
16.1901652861608
 31
0.0
 11
189.2551649266406
 21
16.17581274276168
 31
0.0
 11
189.2574991961821
 21
15.95136670115109
 31
0.0
 11
189.2658452735903
 21
15.72898440954
 31
0.0
 11
189.3009063195165
 21
15.72898440954
 31
0.0
 11
189.3933399860495
 21
15.72898440954
 31
0.0
 11
189.5240220663201
 21
15.72898440954
 31
0.0
 11
189.6738283534596
 21
15.72898440954
 31
0.0
 11
189.8236346405992
 21
15.72898440954
 31
0.0
 11
189.9543167208698
 21
15.72898440954
 31
0.0
 11
190.0467503874027
 21
15.72898440954
 31
0.0
 11
190.081811433329
 21
15.72898440954
 31
0.0
 11
190.081811433329
 21
15.70139746293231
 31
0.0
 11
190.081811433329
 21
15.64070618039539
 31
0.0
 11
190.081811433329
 21
15.58001489785848
 31
0.0
 11
190.081811433329
 21
15.55242795125079
 31
0.0
  0
SPLINE
  5
AC
102
{ACAD_REACTORS
330
C9
102
}
330
48
100
AcDbEntity
  8
_U_30EC_U_30A4_U_30E4_U_30FC_1
  6
Continuous
 62
     2
100
AcDbSpline
210
0.0
220
0.0
230
1.0
 70
    11
 71
     3
 72
    75
 73
    71
 74
    69
 42
0.000000001
 43
0.0000000001
 44
0.00000001
 40
0.0
 40
0.0
 40
0.0
 40
0.0
 40
0.0342546099129709
 40
0.12456224144324
 40
0.2522385480897589
 40
0.3985991922940786
 40
0.5449598364980963
 40
0.6726361431439012
 40
0.7629437746737138
 40
0.7971983935298186
 40
1.101723623449659
 40
1.408591244036593
 40
1.433332471690293
 40
1.487763172450079
 40
1.542193873081901
 40
1.566935100592444
 40
1.923523931821694
 40
2.271755704953495
 40
2.590579755100743
 40
2.858943305580981
 40
2.889120339308945
 40
2.918305855190898
 40
2.941366645531026
 40
2.996357760972928
 40
3.061992318140489
 40
3.116983433626688
 40
3.140044223997382
 40
3.411273122936263
 40
3.732441619740864
 40
3.761068217532565
 40
3.837787499630134
 40
3.948858699125782
 40
4.080541049104174
 40
4.219093782625568
 40
4.350776132722131
 40
4.461847332405477
 40
4.538566614678218
 40
4.567193212544466
 40
4.594907573998724
 40
4.666381453557263
 40
4.764111044010845
 40
4.870592538125648
 40
4.968322128642042
 40
5.039796008286756
 40
5.067510369784187
 40
5.094263603185401
 40
5.153120716668037
 40
5.211977830150484
 40
5.238731063551488
 40
5.272290535138755
 40
5.36338052944456
 40
5.497618415781266
 40
5.660621563453479
 40
5.83800734174918
 40
6.01539311991056
 40
6.178396267038157
 40
6.312634151842137
 40
6.403724143059127
 40
6.437283612672222
 40
6.46403684626084
 40
6.522893960004454
 40
6.58175107148372
 40
6.608504301590666
 40
6.637253941280814
 40
6.711397748902693
 40
6.812778057283277
 40
6.923237199249054
 40
7.024617507623669
 40
7.098761315207351
 40
7.127510946007301
 40
7.127510946007301
 40
7.127510946007301
 40
7.127510946007301
 10
188.4418622390565
 20
14.9584912847327
 30
0.0
 10
188.4418622819707
 20
14.94707313408726
 30
0.0
 10
188.4418624481129
 20
14.90555257842634
 30
0.0
 10
188.4418593081788
 20
14.82146922003778
 30
0.0
 10
188.4418788279802
 20
14.70004497322333
 30
0.0
 10
188.4417912187738
 20
14.55980494047453
 30
0.0
 10
188.4421116235231
 20
14.42006556794581
 30
0.0
 10
188.4411605909741
 20
14.29745038894933
 30
0.0
 10
188.4431978595968
 20
14.21587074438047
 30
0.0
 10
188.4349433178747
 20
14.06271267077702
 30
0.0
 10
188.7430797940901
 20
14.22560236054729
 30
0.0
 10
189.0350645173737
 20
14.39482938688001
 30
0.0
 10
189.0408354448707
 20
14.2597323578191
 30
0.0
 10
189.0455471719891
 20
14.21617221160444
 30
0.0
 10
189.0482535411918
 20
14.17211249350546
 30
0.0
 10
189.0672545672957
 20
14.02272590363137
 30
0.0
 10
188.6583942247303
 20
14.08681172241266
 30
0.0
 10
188.3793710348832
 20
13.9729634141102
 30
0.0
 10
188.1018081587167
 20
13.87364095811149
 30
0.0
 10
187.8099837184401
 20
13.91630687596347
 30
0.0
 10
187.7869144678659
 20
13.81321679744544
 30
0.0
 10
187.7537474383333
 20
13.78691091244471
 30
0.0
 10
187.748065396274
 20
13.83455309036309
 30
0.0
 10
187.7284214559045
 20
13.87180336115074
 30
0.0
 10
187.7095089485624
 20
13.93007387847569
 30
0.0
 10
187.6942849867708
 20
13.97385201007813
 30
0.0
 10
187.6477246372935
 20
14.08759421046314
 30
0.0
 10
187.9890897312451
 20
14.0557630112005
 30
0.0
 10
188.2679649367386
 20
14.02161435106478
 30
0.0
 10
188.2617753034907
 20
14.1691397647965
 30
0.0
 10
188.2630935452773
 20
14.24013150908831
 30
0.0
 10
188.2624831689948
 20
14.34719767958662
 30
0.0
 10
188.2625871570725
 20
14.47398529785999
 30
0.0
 10
188.2629987964055
 20
14.60849243496052
 30
0.0
 10
188.2613907841968
 20
14.73395549951188
 30
0.0
 10
188.2659902567925
 20
14.84505246719122
 30
0.0
 10
188.256418650221
 20
14.90761886800694
 30
0.0
 10
188.2704001783691
 20
14.96595388295007
 30
0.0
 10
188.2147384386705
 20
14.95289710582244
 30
0.0
 10
188.1575655197821
 20
14.96136307749505
 30
0.0
 10
188.0616048925648
 20
14.95729976080642
 30
0.0
 10
187.9633767522821
 20
14.9597088985248
 30
0.0
 10
187.8672582457561
 20
14.95551600613394
 30
0.0
 10
187.8104648525812
 20
14.96429346441168
 30
0.0
 10
187.7550356873385
 20
14.95094936850127
 30
0.0
 10
187.7670679427918
 20
15.00036910959263
 30
0.0
 10
187.7592003173937
 20
15.04393988030401
 30
0.0
 10
187.766629556383
 20
15.08830469118531
 30
0.0
 10
187.7551930564144
 20
15.13902297763998
 30
0.0
 10
187.8232102370134
 20
15.1216246075775
 30
0.0
 10
187.8968496879747
 20
15.13417450237194
 30
0.0
 10
188.0325064058211
 20
15.12799677011103
 30
0.0
 10
188.1884909024526
 20
15.1302920309309
 30
0.0
 10
188.3615926358144
 20
15.12940968262536
 30
0.0
 10
188.5346942964182
 20
15.13029207142414
 30
0.0
 10
188.6906789811218
 20
15.12799662955556
 30
0.0
 10
188.8263351889798
 20
15.13417486262437
 30
0.0
 10
188.8999756705653
 20
15.12162394218341
 30
0.0
 10
188.9679914174724
 20
15.13902373012148
 30
0.0
 10
188.9565590885923
 20
15.08830130414561
 30
0.0
 10
188.9639539458297
 20
15.04397060811114
 30
0.0
 10
188.9562039912273
 20
15.00028307550202
 30
0.0
 10
188.9681203741877
 20
14.95063590098483
 30
0.0
 10
188.9108170223618
 20
14.96461411338431
 30
0.0
 10
188.8520145789773
 20
14.9553975567326
 30
0.0
 10
188.75252936332
 20
14.95952268164935
 30
0.0
 10
188.6494280098349
 20
14.95822760025893
 30
0.0
 10
188.5537846354575
 20
14.95854077077647
 30
0.0
 10
188.4857467971616
 20
14.9584877669715
 30
0.0
 10
188.4514462213444
 20
14.95849051871662
 30
0.0
 10
188.4418622390565
 20
14.9584912847327
 30
0.0
 11
188.4418622390565
 21
14.9584912847327
 31
0.0
 11
188.4418622390565
 21
14.9242366658719
 31
0.0
 11
188.4418622390565
 21
14.83392903432981
 31
0.0
 11
188.4418622390565
 21
14.70625272766684
 31
0.0
 11
188.4418622390565
 21
14.55989208344344
 31
0.0
 11
188.4418622390565
 21
14.41353143922005
 31
0.0
 11
188.4418622390565
 21
14.28585513255708
 31
0.0
 11
188.4418622390565
 21
14.19554750101499
 31
0.0
 11
188.4418622390565
 21
14.16129288215419
 31
0.0
 11
188.7391932644568
 21
14.22709475713774
 31
0.0
 11
189.0384623627245
 21
14.29496038212071
 31
0.0
 11
189.0405487124976
 21
14.27030727882827
 31
0.0
 11
189.0451386819987
 21
14.2160704515849
 31
0.0
 11
189.0497286514996
 21
14.16183362434153
 31
0.0
 11
189.0518150012728
 21
14.13718052104909
 31
0.0
 11
188.705639688924
 21
14.05163370140902
 31
0.0
 11
188.3669653138838
 21
13.97060877629905
 31
0.0
 11
188.0563731516688
 21
13.89862764024931
 31
0.0
 11
187.7944444777956
 21
13.84021218778989
 31
0.0
 11
187.7817515029293
 21
13.81283442738017
 31
0.0
 11
187.7569794787514
 21
13.79740260446738
 31
0.0
 11
187.7491867589502
 21
13.8191068339064
 31
0.0
 11
187.7306041194242
 21
13.8708630733379
 31
0.0
 11
187.7084248399901
 21
13.93263664943357
 31
0.0
 11
187.6898422004641
 21
13.98439288886508
 31
0.0
 11
187.6820494806629
 21
14.0060971183041
 31
0.0
 11
187.9482776335932
 21
14.05794001759668
 31
0.0
 11
188.2626334936289
 21
14.12373968771908
 31
0.0
 11
188.2626334936289
 21
14.15236628569623
 31
0.0
 11
188.2626334936289
 21
14.22908556827498
 31
0.0
 11
188.2626334936289
 21
14.34015676842631
 31
0.0
 11
188.2626334936289
 21
14.47183911912119
 31
0.0
 11
188.2626334936289
 21
14.61039185333058
 31
0.0
 11
188.2626334936289
 21
14.74207420402546
 31
0.0
 11
188.2626334936289
 21
14.8531454041768
 31
0.0
 11
188.2626334936289
 21
14.92986468675555
 31
0.0
 11
188.2626334936289
 21
14.9584912847327
 31
0.0
 11
188.2349191321108
 21
14.9584912847327
 31
0.0
 11
188.1634452524063
 21
14.9584912847327
 31
0.0
 11
188.0657156617901
 21
14.9584912847327
 31
0.0
 11
187.9592341675364
 21
14.9584912847327
 31
0.0
 11
187.8615045769201
 21
14.9584912847327
 31
0.0
 11
187.7900306972156
 21
14.9584912847327
 31
0.0
 11
187.7623163356976
 21
14.9584912847327
 31
0.0
 11
187.7623163356976
 21
14.98524451823295
 31
0.0
 11
187.7623163356976
 21
15.0441016319335
 31
0.0
 11
187.7623163356976
 21
15.10295874563405
 31
0.0
 11
187.7623163356976
 21
15.1297119791343
 31
0.0
 11
187.7958758072876
 21
15.1297119791343
 31
0.0
 11
187.8869658016031
 21
15.1297119791343
 31
0.0
 11
188.021203687963
 21
15.1297119791343
 31
0.0
 11
188.1842068356856
 21
15.1297119791343
 31
0.0
 11
188.3615926140897
 21
15.1297119791343
 31
0.0
 11
188.5389783924938
 21
15.1297119791343
 31
0.0
 11
188.7019815402165
 21
15.1297119791343
 31
0.0
 11
188.8362194265763
 21
15.1297119791343
 31
0.0
 11
188.9273094208919
 21
15.1297119791343
 31
0.0
 11
188.9608688924819
 21
15.1297119791343
 31
0.0
 11
188.9608688924819
 21
15.10295874563405
 31
0.0
 11
188.9608688924819
 21
15.0441016319335
 31
0.0
 11
188.9608688924819
 21
14.98524451823295
 31
0.0
 11
188.9608688924819
 21
14.9584912847327
 31
0.0
 11
188.9321192527878
 21
14.9584912847327
 31
0.0
 11
188.8579754451555
 21
14.9584912847327
 31
0.0
 11
188.7565951367605
 21
14.9584912847327
 31
0.0
 11
188.6461359947778
 21
14.9584912847327
 31
0.0
 11
188.5447556863828
 21
14.9584912847327
 31
0.0
 11
188.4706118787506
 21
14.9584912847327
 31
0.0
 11
188.4418622390565
 21
14.9584912847327
 31
0.0
  0
SPLINE
  5
AD
102
{ACAD_REACTORS
330
CA
102
}
330
48
100
AcDbEntity
  8
_U_30EC_U_30A4_U_30E4_U_30FC_1
  6
Continuous
 62
     2
100
AcDbSpline
210
0.0
220
0.0
230
1.0
 70
    11
 71
     3
 72
    15
 73
    11
 74
     9
 42
0.000000001
 43
0.0000000001
 44
0.00000001
 40
0.0
 40
0.0
 40
0.0
 40
0.0
 40
0.278553598509599
 40
0.5215624748198451
 40
0.6076917376040695
 40
0.6938210001741842
 40
0.9405019146455755
 40
1.221691403489171
 40
1.300471877081125
 40
1.37925234168495
 40
1.37925234168495
 40
1.37925234168495
 40
1.37925234168495
 10
189.5681493631
 20
16.22930267330381
 30
0.0
 10
189.6296017794178
 20
16.17691646592715
 30
0.0
 10
189.7446649974113
 20
16.07882876798221
 30
0.0
 10
190.0397348497245
 20
15.92889785897225
 30
0.0
 10
189.9025147631857
 20
15.84343227515019
 30
0.0
 10
189.8041227843779
 20
15.71085785201553
 30
0.0
 10
189.7130033590649
 20
16.01616985781421
 30
0.0
 10
189.3636839480655
 20
16.0796786946537
 30
0.0
 10
189.511925837657
 20
16.17896509880877
 30
0.0
 10
189.5494081874237
 20
16.21252348402382
 30
0.0
 10
189.5681493631
 20
16.22930267330381
 30
0.0
 11
189.5681493631
 21
16.22930267330381
 31
0.0
 11
189.7919222440596
 21
16.06341774278975
 31
0.0
 11
189.9695046306384
 21
15.8975328122757
 31
0.0
 11
189.9066308127979
 21
15.83866743034595
 31
0.0
 11
189.8437569949575
 21
15.7798020484162
 31
0.0
 11
189.6688535117725
 21
15.95375677059493
 31
0.0
 11
189.447825685614
 21
16.12757920110698
 31
0.0
 11
189.507987524357
 21
16.17844093720539
 31
0.0
 11
189.5681493631
 21
16.22930267330381
 31
0.0
  0
SPLINE
  5
AE
102
{ACAD_REACTORS
330
CB
102
}
330
48
100
AcDbEntity
  8
_U_30EC_U_30A4_U_30E4_U_30FC_1
  6
Continuous
 62
     2
100
AcDbSpline
210
0.0
220
0.0
230
1.0
 70
    11
 71
     3
 72
    35
 73
    31
 74
    29
 42
0.000000001
 43
0.0000000001
 44
0.00000001
 40
0.0
 40
0.0
 40
0.0
 40
0.0
 40
0.0335231036620811
 40
0.0713218571712283
 40
0.4278866681487327
 40
0.8116865841964109
 40
1.198190238000072
 40
1.561379546812705
 40
1.659983174622001
 40
1.759315573807119
 40
2.132719617230997
 40
2.525233363588759
 40
2.910815397779666
 40
3.265244364303273
 40
3.592606723581967
 40
3.964386154603926
 40
4.359942131737752
 40
4.758154118639257
 40
4.843846538699933
 40
4.936650065543182
 40
5.256616602537242
 40
5.581707404415935
 40
5.899719158308074
 40
6.198363494280676
 40
6.466301046615732
 40
6.493895311537053
 40
6.559697020196789
 40
6.638234543442364
 40
6.704036252154087
 40
6.731630508422865
 40
6.731630508422865
 40
6.731630508422865
 40
6.731630508422865
 10
191.9736010568669
 20
16.23463843719139
 30
0.0
 10
191.9676006097788
 20
16.22480690542326
 30
0.0
 10
191.9548344099157
 20
16.20388988579801
 30
0.0
 10
191.7949362006555
 20
16.17127126532685
 30
0.0
 10
192.2322025842337
 20
15.88206680336709
 30
0.0
 10
192.4345394828261
 20
15.68041138358441
 30
0.0
 10
192.6819564267974
 20
15.43749387603276
 30
0.0
 10
193.1831513624604
 20
15.36047662757789
 30
0.0
 10
193.0125562198971
 20
15.21876939174654
 30
0.0
 10
192.9383299463202
 20
15.01710366209119
 30
0.0
 10
192.6131432248189
 20
15.36956287174729
 30
0.0
 10
192.3277741670664
 20
15.53175212559565
 30
0.0
 10
192.0337604077658
 20
15.73687130053047
 30
0.0
 10
191.8084452691134
 20
16.2182748859546
 30
0.0
 10
191.5993085055522
 20
15.75343046609223
 30
0.0
 10
191.3207873674835
 20
15.54350952252915
 30
0.0
 10
191.0371383177209
 20
15.37424456359981
 30
0.0
 10
190.7078639527832
 20
15.00142360907945
 30
0.0
 10
190.6277012318225
 20
15.19708014459
 30
0.0
 10
190.4759724909745
 20
15.32491104190603
 30
0.0
 10
190.9083395826795
 20
15.40454031765935
 30
0.0
 10
191.0962565329765
 20
15.6002663491548
 30
0.0
 10
191.3468477420503
 20
15.81632996916757
 30
0.0
 10
191.5714350470162
 20
15.98190992300064
 30
0.0
 10
191.6259775409713
 20
16.26133964636828
 30
0.0
 10
191.7494661029012
 20
16.24737950408081
 30
0.0
 10
191.8060273344521
 20
16.2452126886765
 30
0.0
 10
191.8761870984945
 20
16.24046859881364
 30
0.0
 10
191.9333414022106
 20
16.23709429350546
 30
0.0
 10
191.9644190320839
 20
16.23519854711124
 30
0.0
 10
191.9736010568669
 20
16.23463843719139
 30
0.0
 11
191.9736010568669
 21
16.23463843719139
 31
0.0
 11
191.9525319069884
 21
16.20856374969788
 31
0.0
 11
191.9174464559425
 21
16.1945011455347
 31
0.0
 11
192.1512374769095
 21
15.92527961131385
 31
0.0
 11
192.4414585957566
 21
15.67413407969263
 31
0.0
 11
192.7612797483684
 21
15.45710987618787
 31
0.0
 11
193.0838708706289
 21
15.29025232631639
 31
0.0
 11
193.0213299868077
 21
15.2140203558493
 31
0.0
 11
192.9688035818976
 21
15.1297119791343
 31
0.0
 11
192.6436279095815
 21
15.31326404831584
 31
0.0
 11
192.3237227768436
 21
15.5407013974343
 31
0.0
 11
192.0354200158608
 21
15.79673855123312
 31
0.0
 11
191.8050514588095
 21
16.0660900344557
 31
0.0
 11
191.5995531719517
 21
15.81126348721039
 31
0.0
 11
191.3288301341536
 21
15.55645182277757
 31
0.0
 11
191.0119538423247
 21
15.31969466354857
 31
0.0
 11
190.6679957933742
 21
15.11903163191468
 31
0.0
 11
190.6218855341338
 21
15.19126067703557
 31
0.0
 11
190.5636970460349
 21
15.26355586798968
 31
0.0
 11
190.8433040489015
 21
15.41911456961747
 31
0.0
 11
191.1093004621154
 21
15.60601009790408
 31
0.0
 11
191.3499997459747
 21
15.81384496285212
 31
0.0
 11
191.5537153607775
 21
16.03222167446419
 31
0.0
 11
191.7087607668219
 21
16.25074274274289
 31
0.0
 11
191.7363041569866
 21
16.24906789496553
 31
0.0
 11
191.8019845489177
 21
16.24507402718876
 31
0.0
 11
191.8803772747711
 21
16.24030715274552
 31
0.0
 11
191.9460576667022
 21
16.23631328496874
 31
0.0
 11
191.9736010568669
 21
16.23463843719139
 31
0.0
  0
SPLINE
  5
AF
102
{ACAD_REACTORS
330
CC
102
}
330
48
100
AcDbEntity
  8
_U_30EC_U_30A4_U_30E4_U_30FC_1
  6
Continuous
 62
     2
100
AcDbSpline
210
0.0
220
0.0
230
1.0
 70
    11
 71
     3
 72
    91
 73
    87
 74
    85
 42
0.000000001
 43
0.0000000001
 44
0.00000001
 40
0.0
 40
0.0
 40
0.0
 40
0.0
 40
0.0267532254356684
 40
0.0856103386464066
 40
0.1444674521996532
 40
0.1712206856618408
 40
0.203941600564243
 40
0.2955601971652377
 40
0.4362601844617096
 40
0.6162252844507428
 40
0.8256392189704875
 40
1.054685709844457
 40
1.293548478893577
 40
1.532411247938321
 40
1.761457738799586
 40
1.970871673298583
 40
2.150836773256807
 40
2.291536760495668
 40
2.383155356836746
 40
2.415876284101395
 40
2.442629517488036
 40
2.501486630949164
 40
2.560343744424308
 40
2.587096977826579
 40
2.617068194441006
 40
2.699247336756176
 40
2.82203264346646
 40
2.973822353258018
 40
3.14301470482346
 40
3.318007936880039
 40
3.487200288186872
 40
3.63898999754841
 40
3.761775303794908
 40
3.843954445753243
 40
3.873925662229939
 40
3.890812773500704
 40
3.907699884771913
 40
3.937960767857573
 40
3.980983618142556
 40
4.199085915228698
 40
4.439444339237492
 40
4.677588241261166
 40
5.050698317838081
 40
5.448212454763524
 40
5.85529121804505
 40
6.138575438885757
 40
6.417434507584622
 40
6.444551104394299
 40
6.504207617363586
 40
6.563864130314898
 40
6.590980727104486
 40
6.848609460381855
 40
7.109611990668802
 40
7.3529109044465
 40
7.557830220705933
 40
7.587518925913822
 40
7.65283407737623
 40
7.718149228846181
 40
7.747837934062455
 40
7.854880190301431
 40
7.97651125740392
 40
8.369487896592748
 40
8.757514959224098
 40
9.126072419331562
 40
9.460639380392626
 40
9.746695593036367
 40
9.77756994311908
 40
9.807050320932225
 40
9.830377336129345
 40
9.88600329543642
 40
9.952395569430307
 40
10.00802152870665
 40
10.03134854388257
 40
10.21356951009624
 40
10.42203479292901
 40
10.66154556731101
 40
10.91693789564344
 40
11.15832906556607
 40
11.18982674596665
 40
11.27286608520449
 40
11.39026653033397
 40
11.52484752840933
 40
11.65942852648492
 40
11.77682897161534
 40
11.85986831085733
 40
11.89136598230478
 40
11.89136598230478
 40
11.89136598230478
 40
11.89136598230478
 10
190.7027885008196
 20
14.70699600701778
 30
0.0
 10
190.7028237765288
 20
14.71587847311991
 30
0.0
 10
190.7029366710796
 20
14.74430237047352
 30
0.0
 10
190.7012984568489
 20
14.79409639169809
 30
0.0
 10
190.7069750292911
 20
14.8365756447816
 30
0.0
 10
190.6956928731706
 20
14.88730154856852
 30
0.0
 10
190.7632296979032
 20
14.87012900740114
 30
0.0
 10
190.8388029210701
 20
14.88290227166001
 30
0.0
 10
190.9828357056001
 20
14.87629729457387
 30
0.0
 10
191.1569419185427
 20
14.87888462206471
 30
0.0
 10
191.3639599611003
 20
14.87800591955557
 30
0.0
 10
191.5894688172378
 20
14.87828207920032
 30
0.0
 10
191.8251162293406
 20
14.87818339658668
 30
0.0
 10
192.0607640531349
 20
14.87828184412772
 30
0.0
 10
192.2862717580626
 20
14.87800678190793
 30
0.0
 10
192.4932934632805
 20
14.87888186270739
 30
0.0
 10
192.667388891529
 20
14.87630522678452
 30
0.0
 10
192.8114492071986
 20
14.88288290449218
 30
0.0
 10
192.8869691915293
 20
14.87016243405608
 30
0.0
 10
192.9545776037031
 20
14.88726400191693
 30
0.0
 10
192.9430840140676
 20
14.83674785802945
 30
0.0
 10
192.9505104581735
 20
14.79253252226507
 30
0.0
 10
192.9428838927986
 20
14.74867966503615
 30
0.0
 10
192.9546489459426
 20
14.69878374479334
 30
0.0
 10
192.8930788491983
 20
14.71393227712518
 30
0.0
 10
192.8256791738672
 20
14.70310665350679
 30
0.0
 10
192.7013004056222
 20
14.70852031626242
 30
0.0
 10
192.5554428236572
 20
14.70649205390791
 30
0.0
 10
192.3893576440086
 20
14.70715777578393
 30
0.0
 10
192.2188412621725
 20
14.70689643521248
 30
0.0
 10
192.0519790855389
 20
14.707215533911
 30
0.0
 10
191.9087346827105
 20
14.70635302590768
 30
0.0
 10
191.7773313869834
 20
14.70863300482994
 30
0.0
 10
191.7239859134656
 20
14.70407704374208
 30
0.0
 10
191.6485188456912
 20
14.70999914992883
 30
0.0
 10
191.6769075779233
 20
14.70094169343358
 30
0.0
 10
191.7033652409543
 20
14.69725912268933
 30
0.0
 10
191.6633522907702
 20
14.6665427196828
 30
0.0
 10
191.5713663691869
 20
14.6766759117462
 30
0.0
 10
191.543939620707
 20
14.4303250224779
 30
0.0
 10
191.4478793967234
 20
14.27499558764375
 30
0.0
 10
191.1917277964474
 20
13.94525417931568
 30
0.0
 10
191.7627537732762
 20
14.08430022210457
 30
0.0
 10
192.0173656320518
 20
14.08291779973366
 30
0.0
 10
192.6279647048617
 20
13.99790569242094
 30
0.0
 10
192.3340698578084
 20
14.29685417558209
 30
0.0
 10
192.0133304286515
 20
14.44330856901789
 30
0.0
 10
192.1313543360434
 20
14.50025540818293
 30
0.0
 10
192.1724716466261
 20
14.52420099873352
 30
0.0
 10
192.2156812394411
 20
14.54599758811232
 30
0.0
 10
192.3174574094451
 20
14.609287212539
 30
0.0
 10
192.4328867625247
 20
14.35147151408788
 30
0.0
 10
192.6329591642278
 20
14.21616041113688
 30
0.0
 10
192.7269077387228
 20
14.03792795138886
 30
0.0
 10
192.9558829746393
 20
13.8799782102705
 30
0.0
 10
192.8596031846709
 20
13.82915972576299
 30
0.0
 10
192.8167959763779
 20
13.79881292523055
 30
0.0
 10
192.771824352878
 20
13.77466130281464
 30
0.0
 10
192.7121720925215
 20
13.72552146747572
 30
0.0
 10
192.6789731061325
 20
13.8599747567361
 30
0.0
 10
192.5582013350796
 20
14.0159426528658
 30
0.0
 10
192.1970976005979
 20
13.88569928059558
 30
0.0
 10
191.8385061955541
 20
13.90224694409484
 30
0.0
 10
191.457092045008
 20
13.89331229351868
 30
0.0
 10
191.1703455282891
 20
13.82882671672402
 30
0.0
 10
190.8592055599714
 20
13.94230668192832
 30
0.0
 10
190.8268737818788
 20
13.83122259927766
 30
0.0
 10
190.7896178253318
 20
13.81196313850016
 30
0.0
 10
190.7865737632754
 20
13.858747840873
 30
0.0
 10
190.7679892860606
 20
13.89806853919136
 30
0.0
 10
190.7512436616779
 20
13.95765983478235
 30
0.0
 10
190.7383730915754
 20
14.00201969871283
 30
0.0
 10
190.7042327806431
 20
14.09106331120203
 30
0.0
 10
190.9482714457753
 20
14.02181042943772
 30
0.0
 10
191.1441394486671
 20
14.00030369057741
 30
0.0
 10
191.2395426381277
 20
14.28226484478466
 30
0.0
 10
191.2945135769598
 20
14.44363045421126
 30
0.0
 10
191.5159619357156
 20
14.71391177589744
 30
0.0
 10
191.3849239381217
 20
14.7054844685374
 30
0.0
 10
191.3110026555854
 20
14.70779008496976
 30
0.0
 10
191.1977459876244
 20
14.70671378321664
 30
0.0
 10
191.0694251807485
 20
14.70707639076516
 30
0.0
 10
190.9404252030415
 20
14.70697724466091
 30
0.0
 10
190.8287840946292
 20
14.70699932712579
 30
0.0
 10
190.7514663970025
 20
14.70699579189676
 30
0.0
 10
190.713287653201
 20
14.70699595845087
 30
0.0
 10
190.7027885008196
 20
14.70699600701778
 30
0.0
 11
190.7027885008196
 21
14.70699600701778
 31
0.0
 11
190.7027885008196
 21
14.73374924051803
 31
0.0
 11
190.7027885008196
 21
14.79260635421859
 31
0.0
 11
190.7027885008196
 21
14.85146346791915
 31
0.0
 11
190.7027885008196
 21
14.8782167014194
 31
0.0
 11
190.7355094280989
 21
14.8782167014194
 31
0.0
 11
190.8271280244809
 21
14.8782167014194
 31
0.0
 11
190.9678280117819
 21
14.8782167014194
 31
0.0
 11
191.147793111818
 21
14.8782167014194
 31
0.0
 11
191.3572070464054
 21
14.8782167014194
 31
0.0
 11
191.5862535373604
 21
14.8782167014194
 31
0.0
 11
191.8251163064993
 21
14.8782167014194
 31
0.0
 11
192.0639790756381
 21
14.8782167014194
 31
0.0
 11
192.2930255665931
 21
14.8782167014194
 31
0.0
 11
192.5024395011806
 21
14.8782167014194
 31
0.0
 11
192.6824046012168
 21
14.8782167014194
 31
0.0
 11
192.8231045885177
 21
14.8782167014194
 31
0.0
 11
192.9147231848997
 21
14.8782167014194
 31
0.0
 11
192.947444112179
 21
14.8782167014194
 31
0.0
 11
192.947444112179
 21
14.85146346791915
 31
0.0
 11
192.947444112179
 21
14.79260635421859
 31
0.0
 11
192.947444112179
 21
14.73374924051803
 31
0.0
 11
192.947444112179
 21
14.70699600701778
 31
0.0
 11
192.9174728954758
 21
14.70699600701778
 31
0.0
 11
192.8352937529027
 21
14.70699600701778
 31
0.0
 11
192.712508445764
 21
14.70699600701778
 31
0.0
 11
192.5607187353642
 21
14.70699600701778
 31
0.0
 11
192.3915263830078
 21
14.70699600701778
 31
0.0
 11
192.2165331499991
 21
14.70699600701778
 31
0.0
 11
192.0473407976427
 21
14.70699600701778
 31
0.0
 11
191.8955510872428
 21
14.70699600701778
 31
0.0
 11
191.7727657801042
 21
14.70699600701778
 31
0.0
 11
191.690586637531
 21
14.70699600701778
 31
0.0
 11
191.6606154208279
 21
14.70699600701778
 31
0.0
 11
191.6766359412526
 21
14.70165583340798
 31
0.0
 11
191.6926564616772
 21
14.69631565979819
 31
0.0
 11
191.6706155681421
 21
14.67558114591445
 31
0.0
 11
191.6284861855364
 21
14.66685871536109
 31
0.0
 11
191.5365235541378
 21
14.46909247312658
 31
0.0
 11
191.4279078521764
 21
14.25467511978511
 31
0.0
 11
191.3127500824807
 21
14.0462255905162
 31
0.0
 11
191.685736667502
 21
14.05582441253033
 31
0.0
 11
192.0830700036151
 21
14.06781232404999
 31
0.0
 11
192.4899342191146
 21
14.08102711828539
 31
0.0
 11
192.2983119496979
 21
14.28966761302487
 31
0.0
 11
192.0966752013698
 21
14.48229420151839
 31
0.0
 11
192.1204947794749
 21
14.49525327269571
 31
0.0
 11
192.1728978513061
 21
14.52376322928579
 31
0.0
 11
192.2253009231374
 21
14.55227318587589
 31
0.0
 11
192.2491205012425
 21
14.5652322570532
 31
0.0
 11
192.4387101558627
 21
14.39079508370273
 31
0.0
 11
192.6200310940436
 21
14.20305846374098
 31
0.0
 11
192.7777729231148
 21
14.01782380992441
 31
0.0
 11
192.8966252504059
 21
13.85089253500948
 31
0.0
 11
192.8715408217924
 21
13.83501202286069
 31
0.0
 11
192.8163550788427
 21
13.80007489613334
 31
0.0
 11
192.7611693358929
 21
13.76513776940599
 31
0.0
 11
192.7360849072794
 21
13.7492572572572
 31
0.0
 11
192.6775518151613
 21
13.83887824681813
 31
0.0
 11
192.6050015078458
 21
13.93650288221031
 31
0.0
 11
192.2125412924095
 21
13.91636286943761
 31
0.0
 11
191.824947406956
 21
13.89803302999776
 31
0.0
 11
191.4567378976213
 21
13.88202178722397
 31
0.0
 11
191.1224308105412
 21
13.86883756444946
 31
0.0
 11
190.8365441918518
 21
13.85898878500748
 31
0.0
 11
190.8211862321741
 21
13.83220523466697
 31
0.0
 11
190.7937434290546
 21
13.82143559057249
 31
0.0
 11
190.786792719232
 21
13.84370299445581
 31
0.0
 11
190.7702179496548
 21
13.89680218833141
 31
0.0
 11
190.7504351601596
 21
13.96017864553778
 31
0.0
 11
190.7338603905825
 21
14.01327783941338
 31
0.0
 11
190.7269096807599
 21
14.0355452432967
 31
0.0
 11
190.9091199859153
 21
14.03751638912954
 31
0.0
 11
191.1174975848588
 21
14.04356211829469
 31
0.0
 11
191.2303203127216
 21
14.25483550301557
 31
0.0
 11
191.3407936722036
 21
14.48509813155883
 31
0.0
 11
191.4358254265628
 21
14.70699600701778
 31
0.0
 11
191.4043277461597
 21
14.70699600701778
 31
0.0
 11
191.3212884069154
 21
14.70699600701778
 31
0.0
 11
191.2038879617768
 21
14.70699600701778
 31
0.0
 11
191.0693069636912
 21
14.70699600701778
 31
0.0
 11
190.9347259656055
 21
14.70699600701778
 31
0.0
 11
190.817325520467
 21
14.70699600701778
 31
0.0
 11
190.7342861812226
 21
14.70699600701778
 31
0.0
 11
190.7027885008196
 21
14.70699600701778
 31
0.0
  0
SPLINE
  5
B0
102
{ACAD_REACTORS
330
CD
102
}
330
48
100
AcDbEntity
  8
_U_30EC_U_30A4_U_30E4_U_30FC_1
  6
Continuous
 62
     2
100
AcDbSpline
210
0.0
220
0.0
230
1.0
 70
    11
 71
     3
 72
   131
 73
   127
 74
   125
 42
0.000000001
 43
0.0000000001
 44
0.00000001
 40
0.0
 40
0.0
 40
0.0
 40
0.0
 40
0.0195577029826037
 40
0.0426490537460468
 40
0.2863607575855684
 40
0.534494843618874
 40
0.7842238845573117
 40
0.8737315789467223
 40
0.9803832810312899
 40
1.092842274517032
 40
1.199761146656785
 40
1.289788768186485
 40
1.35157358078615
 40
1.370727117561376
 40
1.41640093601777
 40
1.470914848355876
 40
1.516588666791647
 40
1.535742203552728
 40
1.63421659229311
 40
1.760283341174936
 40
1.89796668668201
 40
2.031216387368786
 40
2.049689751137782
 40
2.10111560164672
 40
2.179502577739841
 40
2.27885931831396
 40
2.393194462258621
 40
2.516516648383742
 40
2.642834515405875
 40
2.766156701983383
 40
2.880491846754502
 40
2.979848588358548
 40
3.058235565443729
 40
3.109661416668885
 40
3.128134780704062
 40
3.146783742386379
 40
3.19125434331524
 40
3.244332157315899
 40
3.288802758225774
 40
3.307451719895045
 40
3.327717853844657
 40
3.383747753580021
 40
3.468388665924415
 40
3.574487837698725
 40
3.694892515728835
 40
3.822449946851978
 40
3.950007377920373
 40
4.070412055800467
 40
4.176511227368028
 40
4.261152139501476
 40
4.317182039076672
 40
4.337448172964592
 40
4.620011002696181
 40
4.885096638397487
 40
4.9453730435182
 40
5.014107710488507
 40
5.070481727651956
 40
5.319246955636486
 40
5.584812164506
 40
5.859000912056882
 40
6.133746937542011
 40
6.401732212968803
 40
6.420736683995394
 40
6.472845717451045
 40
6.550702743893972
 40
6.646951193874181
 40
6.754234497930505
 40
6.865196086587283
 40
6.972479390357742
 40
7.068727839771904
 40
7.146584865450913
 40
7.198693898189142
 40
7.217698368905283
 40
7.234950401630759
 40
7.276089864269806
 40
7.325191803515916
 40
7.366331266090302
 40
7.383583298769653
 40
7.402779163492059
 40
7.453386443254462
 40
7.524934666445492
 40
7.606953361405831
 40
7.688972056429011
 40
7.760520279784262
 40
7.811127559734532
 40
7.830323424546154
 40
7.847844055299778
 40
7.894799345666818
 40
7.962779392744499
 40
8.04337429356054
 40
8.128174145149437
 40
8.208769044817231
 40
8.276749090376928
 40
8.323704379669483
 40
8.341225010056213
 40
8.358497614800362
 40
8.401679126686538
 40
8.457815092185596
 40
8.513951057728
 40
8.5571325697079
 40
8.574405174504943
 40
8.602340668616277
 40
8.643455660539768
 40
8.66322527196644
 40
8.715345156564087
 40
8.789031889628433
 40
8.873502045520167
 40
8.9579721943238
 40
9.031658925567697
 40
9.08377881123439
 40
9.103548423002856
 40
9.119550083123421
 40
9.160817522379695
 40
9.217244429110089
 40
9.278724491644574
 40
9.33515139829533
 40
9.376418837357626
 40
9.392420497300414
 40
9.401196302734606
 40
9.417494229384028
 40
9.4262700277493
 40
9.440875075477335
 40
9.475702496998517
 40
9.517270709865684
 40
9.552098131993855
 40
9.566703169884065
 40
9.566703169884065
 40
9.566703169884065
 40
9.566703169884065
 10
194.6170254148479
 20
15.67015871511029
 30
0.0
 10
194.6134345093371
 20
15.66453690702161
 30
0.0
 10
194.6056039123625
 20
15.65227754419114
 30
0.0
 10
194.512996897455
 20
15.61601916040971
 30
0.0
 10
194.4887622233246
 20
15.40148444212718
 30
0.0
 10
194.385870984594
 20
15.22197284509709
 30
0.0
 10
194.1220492364304
 20
15.03615573798146
 30
0.0
 10
194.284547156918
 20
14.95959336566082
 30
0.0
 10
194.3607225760838
 20
14.89856693195446
 30
0.0
 10
194.4492171072758
 20
14.83515804544762
 30
0.0
 10
194.5389930233111
 20
14.77525634219565
 30
0.0
 10
194.5883817636046
 20
14.72102154849214
 30
0.0
 10
194.6745708157382
 20
14.69286240541839
 30
0.0
 10
194.6411260674229
 20
14.65713309652818
 30
0.0
 10
194.6214671166311
 20
14.62550387991913
 30
0.0
 10
194.5919888217883
 20
14.58475872796075
 30
0.0
 10
194.5688989446032
 20
14.5550466348965
 30
0.0
 10
194.5380205968358
 20
14.502114226685
 30
0.0
 10
194.472919336574
 20
14.62740334938905
 30
0.0
 10
194.3796000122416
 20
14.6821390023394
 30
0.0
 10
194.2950636285138
 20
14.73916423939342
 30
0.0
 10
194.1722498125744
 20
14.89675287427523
 30
0.0
 10
194.1764450847301
 20
14.82035806766838
 30
0.0
 10
194.1751478652679
 20
14.77361280161297
 30
0.0
 10
194.1758126448078
 20
14.69584785812603
 30
0.0
 10
194.1755549986958
 20
14.59902068324423
 30
0.0
 10
194.1756431239922
 20
14.4865027907881
 30
0.0
 10
194.1756077302282
 20
14.36524085945699
 30
0.0
 10
194.175651175828
 20
14.2408689785896
 30
0.0
 10
194.1755199942406
 20
14.11967683631335
 30
0.0
 10
194.1759477562047
 20
14.00691148919741
 30
0.0
 10
194.1746678202312
 20
13.91082913768742
 30
0.0
 10
194.1779759851042
 20
13.83113826468697
 30
0.0
 10
194.1715197740088
 20
13.78815175788782
 30
0.0
 10
194.1806208705556
 20
13.74955432372039
 30
0.0
 10
194.1447910339936
 20
13.75810887724068
 30
0.0
 10
194.1115223815252
 20
13.75342519985443
 30
0.0
 10
194.0604562576042
 20
13.75351298759782
 30
0.0
 10
194.0269723972814
 20
13.75794430283818
 30
0.0
 10
193.9907585408754
 20
13.74960793842506
 30
0.0
 10
194.0009782568667
 20
13.79145277179281
 30
0.0
 10
193.9936487887773
 20
13.83778560820171
 30
0.0
 10
193.9973633136103
 20
13.92374831106012
 30
0.0
 10
193.9959480554897
 20
14.02605142704847
 30
0.0
 10
193.9964105554639
 20
14.1445322393151
 30
0.0
 10
193.9962773686232
 20
14.26957683153355
 30
0.0
 10
193.9963015910045
 20
14.39475828107049
 30
0.0
 10
193.9963354925552
 20
14.51286645379058
 30
0.0
 10
193.9962060293133
 20
14.61628748709516
 30
0.0
 10
193.9965507549081
 20
14.69932036153667
 30
0.0
 10
193.9958698278691
 20
14.75143368521244
 30
0.0
 10
193.9994586600623
 20
14.87912907821361
 30
0.0
 10
193.7826171386438
 20
14.58048716819616
 30
0.0
 10
193.6021354921951
 20
14.35263981511522
 30
0.0
 10
193.5490322295612
 20
14.4937344328982
 30
0.0
 10
193.5200429133149
 20
14.54325767560945
 30
0.0
 10
193.419664806282
 20
14.64641779790106
 30
0.0
 10
193.7405127723261
 20
14.72695035023785
 30
0.0
 10
193.868989700543
 20
14.91066283036438
 30
0.0
 10
194.090645432536
 20
15.11931995771761
 30
0.0
 10
194.1770224894069
 20
15.2933921122835
 30
0.0
 10
194.4549394229075
 20
15.56967051342514
 30
0.0
 10
194.3346247839284
 20
15.56534559551116
 30
0.0
 10
194.2863197351348
 20
15.56614856202556
 30
0.0
 10
194.2102377454905
 20
15.56574582146587
 30
0.0
 10
194.116701000975
 20
15.56590275611612
 30
0.0
 10
194.0117594788557
 20
15.56582502576227
 30
0.0
 10
193.9033887738717
 20
15.56595464378557
 30
0.0
 10
193.7981454235897
 20
15.56554393490694
 30
0.0
 10
193.7056237819412
 20
15.56682073671594
 30
0.0
 10
193.6268130800707
 20
15.56340766534853
 30
0.0
 10
193.5839674565379
 20
15.57023350036323
 30
0.0
 10
193.5449499586516
 20
15.56065064201126
 30
0.0
 10
193.5526365271863
 20
15.59420779565546
 30
0.0
 10
193.5485464404312
 20
15.62523550322236
 30
0.0
 10
193.5485531368814
 20
15.67236529270903
 30
0.0
 10
193.5526239724911
 20
15.70340941646782
 30
0.0
 10
193.5449495574583
 20
15.73701861635905
 30
0.0
 10
193.5834819405495
 20
15.72748410420875
 30
0.0
 10
193.6241228014479
 20
15.73397435498074
 30
0.0
 10
193.6951471850463
 20
15.73100150650257
 30
0.0
 10
193.7729318149634
 20
15.7317476139916
 30
0.0
 10
193.8507292246474
 20
15.73247814044528
 30
0.0
 10
193.9217232089908
 20
15.72954235514163
 30
0.0
 10
193.9624279791821
 20
15.73595468772955
 30
0.0
 10
194.000985348991
 20
15.72650524176007
 30
0.0
 10
193.9927342754929
 20
15.76264692158787
 30
0.0
 10
193.9982346669358
 20
15.80129837613229
 30
0.0
 10
193.9955754206164
 20
15.86913528561841
 30
0.0
 10
193.9965815471534
 20
15.94591641538741
 30
0.0
 10
193.996017801832
 20
16.02849393582756
 30
0.0
 10
193.9970714526594
 20
16.10517329229878
 30
0.0
 10
193.994267586313
 20
16.17331990776698
 30
0.0
 10
194.0000702721305
 20
16.21132399809345
 30
0.0
 10
193.9915654551159
 20
16.24758448077644
 30
0.0
 10
194.0255610233125
 20
16.2375572377185
 30
0.0
 10
194.0594575683099
 20
16.24073266813705
 30
0.0
 10
194.1126669060347
 20
16.23508965640608
 30
0.0
 10
194.1660768574483
 20
16.23434774436425
 30
0.0
 10
194.199591464949
 20
16.22819223482979
 30
0.0
 10
194.2388086183039
 20
16.23346029773594
 30
0.0
 10
194.2120263698492
 20
16.19253380793488
 30
0.0
 10
194.1708111001725
 20
16.20371204538117
 30
0.0
 10
194.1782641540874
 20
16.1586705619213
 30
0.0
 10
194.1742227952185
 20
16.11412278028151
 30
0.0
 10
194.1761714049642
 20
16.04223572621709
 30
0.0
 10
194.1752364849759
 20
15.96168630588775
 30
0.0
 10
194.176510719003
 20
15.88173995404999
 30
0.0
 10
194.1732043793864
 20
15.80841837083186
 30
0.0
 10
194.1802106179962
 20
15.76688643002572
 30
0.0
 10
194.1701440380126
 20
15.72752418568115
 30
0.0
 10
194.2029814803922
 20
15.73468063430984
 30
0.0
 10
194.2364577296482
 20
15.73027243137947
 30
0.0
 10
194.2915053476019
 20
15.732179433479
 30
0.0
 10
194.3489502595316
 20
15.73185366407291
 30
0.0
 10
194.402302624831
 20
15.73106308733085
 30
0.0
 10
194.4398540896639
 20
15.73313959118077
 30
0.0
 10
194.4623172523238
 20
15.73022338167112
 30
0.0
 10
194.4751678073731
 20
15.73572552644059
 30
0.0
 10
194.4858255685889
 20
15.73801118197794
 30
0.0
 10
194.4986635650143
 20
15.74494972588057
 30
0.0
 10
194.514599103307
 20
15.72853046313675
 30
0.0
 10
194.5410623920892
 20
15.71709122319452
 30
0.0
 10
194.5726805253757
 20
15.69644687835193
 30
0.0
 10
194.5987255892151
 20
15.68116869628296
 30
0.0
 10
194.6128517723973
 20
15.67266976323186
 30
0.0
 10
194.6170254148479
 20
15.67015871511029
 30
0.0
 11
194.6170254148479
 21
15.67015871511029
 31
0.0
 11
194.6049990002244
 21
15.65473571164189
 31
0.0
 11
194.5848961795566
 21
15.64337406233921
 31
0.0
 11
194.4778986355814
 21
15.42440620231163
 31
0.0
 11
194.3477039934325
 21
15.21317201512162
 31
0.0
 11
194.1996540366071
 21
15.01206059027479
 31
0.0
 11
194.2734958253735
 21
14.9614738493538
 31
0.0
 11
194.36056643118
 21
14.89988411653741
 31
0.0
 11
194.4518003750405
 21
14.83413160594429
 31
0.0
 11
194.5381321779688
 21
14.77105653169308
 31
0.0
 11
194.6104963609787
 21
14.71749910790247
 31
0.0
 11
194.6598274450843
 21
14.6802995486911
 31
0.0
 11
194.6486940702213
 21
14.664714108695
 31
0.0
 11
194.6221452532403
 21
14.6275488287043
 31
0.0
 11
194.5904579555534
 21
14.58319026871539
 31
0.0
 11
194.5639091385724
 21
14.54602498872469
 31
0.0
 11
194.5527757637094
 21
14.53043954872859
 31
0.0
 11
194.4807013362948
 21
14.59754008690623
 31
0.0
 11
194.3852856985381
 21
14.67993354174673
 31
0.0
 11
194.279326415217
 21
14.76785017366918
 31
0.0
 11
194.1756210511091
 21
14.85152024309269
 31
0.0
 11
194.1756210511091
 21
14.83304687900865
 31
0.0
 11
194.1756210511091
 21
14.78162102763957
 31
0.0
 11
194.1756210511091
 21
14.70323405031
 31
0.0
 11
194.1756210511091
 21
14.60387730834449
 31
0.0
 11
194.1756210511091
 21
14.48954216306761
 31
0.0
 11
194.1756210511091
 21
14.36621997580389
 31
0.0
 11
194.1756210511091
 21
14.23990210787789
 31
0.0
 11
194.1756210511091
 21
14.11657992061417
 31
0.0
 11
194.1756210511091
 21
14.00224477533729
 31
0.0
 11
194.1756210511091
 21
13.90288803337178
 31
0.0
 11
194.1756210511091
 21
13.82450105604221
 31
0.0
 11
194.1756210511091
 21
13.77307520467313
 31
0.0
 11
194.1756210511091
 21
13.75460184058909
 31
0.0
 11
194.1569720893627
 21
13.75460184058909
 31
0.0
 11
194.112501488275
 21
13.75460184058909
 31
0.0
 11
194.0594236740737
 21
13.75460184058909
 31
0.0
 11
194.014953072986
 21
13.75460184058909
 31
0.0
 11
193.9963041112396
 21
13.75460184058909
 31
0.0
 11
193.9963041112396
 21
13.77486797460216
 31
0.0
 11
193.9963041112396
 21
13.83089787452064
 31
0.0
 11
193.9963041112396
 21
13.91553878716345
 31
0.0
 11
193.9963041112396
 21
14.02163795934951
 31
0.0
 11
193.9963041112396
 21
14.14204263789774
 31
0.0
 11
193.9963041112396
 21
14.26960006962705
 31
0.0
 11
193.9963041112396
 21
14.39715750135635
 31
0.0
 11
193.9963041112396
 21
14.51756217990458
 31
0.0
 11
193.9963041112396
 21
14.62366135209064
 31
0.0
 11
193.9963041112396
 21
14.70830226473345
 31
0.0
 11
193.9963041112396
 21
14.76433216465193
 31
0.0
 11
193.9963041112396
 21
14.784598298665
 31
0.0
 11
193.7883272849482
 21
14.59331998274058
 31
0.0
 11
193.5763486358425
 21
14.43414885430821
 31
0.0
 11
193.5495629014483
 21
14.48814671952098
 31
0.0
 11
193.5138765415025
 21
14.54689140572026
 31
0.0
 11
193.4799697494124
 21
14.59192871537979
 31
0.0
 11
193.6830287742319
 21
14.73563387201057
 31
0.0
 11
193.881853195826
 21
14.91168423529992
 31
0.0
 11
194.0677041444179
 21
15.11327514524952
 31
0.0
 11
194.2318427502303
 21
15.33360194186111
 31
0.0
 11
194.3655301434864
 21
15.56585996513638
 31
0.0
 11
194.3465256724482
 21
15.56585996513638
 31
0.0
 11
194.2944166389562
 21
15.56585996513638
 31
0.0
 11
194.2165596124447
 21
15.56585996513638
 31
0.0
 11
194.1203111623478
 21
15.56585996513638
 31
0.0
 11
194.0130278580997
 21
15.56585996513638
 31
0.0
 11
193.9020662691345
 21
15.56585996513638
 31
0.0
 11
193.7947829648864
 21
15.56585996513638
 31
0.0
 11
193.6985345147895
 21
15.56585996513638
 31
0.0
 11
193.620677488278
 21
15.56585996513638
 31
0.0
 11
193.568568454786
 21
15.56585996513638
 31
0.0
 11
193.5495639837478
 21
15.56585996513638
 31
0.0
 11
193.5495639837478
 21
15.58311199790984
 31
0.0
 11
193.5495639837478
 21
15.62425146067734
 31
0.0
 11
193.5495639837478
 21
15.67335340010952
 31
0.0
 11
193.5495639837478
 21
15.71449286287701
 31
0.0
 11
193.5495639837478
 21
15.73174489565048
 31
0.0
 11
193.568759848601
 21
15.73174489565048
 31
0.0
 11
193.6193671286684
 21
15.73174489565048
 31
0.0
 11
193.690915352212
 21
15.73174489565048
 31
0.0
 11
193.7729340474937
 21
15.73174489565048
 31
0.0
 11
193.8549527427754
 21
15.73174489565048
 31
0.0
 11
193.926500966319
 21
15.73174489565048
 31
0.0
 11
193.9771082463865
 21
15.73174489565048
 31
0.0
 11
193.9963041112396
 21
15.73174489565048
 31
0.0
 11
193.9963041112396
 21
15.74926552655221
 31
0.0
 11
193.9963041112396
 21
15.79622081736884
 31
0.0
 11
193.9963041112396
 21
15.86420086526755
 31
0.0
 11
193.9963041112396
 21
15.9447957674155
 31
0.0
 11
193.9963041112396
 21
16.02959562097986
 31
0.0
 11
193.9963041112396
 21
16.11019052312781
 31
0.0
 11
193.9963041112396
 21
16.17817057102652
 31
0.0
 11
193.9963041112396
 21
16.22512586184315
 31
0.0
 11
193.9963041112396
 21
16.24264649274488
 31
0.0
 11
194.0135484112112
 21
16.24165806167517
 31
0.0
 11
194.0566591611401
 21
16.2391869840009
 31
0.0
 11
194.1127031360478
 21
16.23597458302434
 31
0.0
 11
194.1687471109554
 21
16.23276218204779
 31
0.0
 11
194.2118578608843
 21
16.23029110437352
 31
0.0
 11
194.2291021608559
 21
16.22930267330381
 31
0.0
 11
194.2143774674852
 21
16.2055629337264
 31
0.0
 11
194.1756210511091
 21
16.19183767331319
 31
0.0
 11
194.1756210511091
 21
16.172068061773
 31
0.0
 11
194.1756210511091
 21
16.11994817680339
 31
0.0
 11
194.1756210511091
 21
16.04626144288085
 31
0.0
 11
194.1756210511091
 21
15.96179128448184
 31
0.0
 11
194.1756210511091
 21
15.87732112608282
 31
0.0
 11
194.1756210511091
 21
15.80363439216028
 31
0.0
 11
194.1756210511091
 21
15.75151450719068
 31
0.0
 11
194.1756210511091
 21
15.73174489565048
 31
0.0
 11
194.1916227112937
 21
15.73174489565048
 31
0.0
 11
194.2328901507171
 21
15.73174489565048
 31
0.0
 11
194.2893170576838
 21
15.73174489565048
 31
0.0
 11
194.3507971204982
 21
15.73174489565048
 31
0.0
 11
194.4072240274649
 21
15.73174489565048
 31
0.0
 11
194.4484914668883
 21
15.73174489565048
 31
0.0
 11
194.4644931270729
 21
15.73174489565048
 31
0.0
 11
194.4728206422925
 21
15.73451387455924
 31
0.0
 11
194.4882860277004
 21
15.73965626396122
 31
0.0
 11
194.49661354292
 21
15.74242524286998
 31
0.0
 11
194.5091363776005
 21
15.73490952398297
 31
0.0
 11
194.5389985218386
 21
15.71698742509857
 31
0.0
 11
194.5746404359293
 21
15.6955965328817
 31
0.0
 11
194.6045025801674
 21
15.6776744339973
 31
0.0
 11
194.6170254148479
 21
15.67015871511029
 31
0.0
  0
SPLINE
  5
B1
102
{ACAD_REACTORS
330
CE
102
}
330
48
100
AcDbEntity
  8
_U_30EC_U_30A4_U_30E4_U_30FC_1
  6
Continuous
 62
     2
100
AcDbSpline
210
0.0
220
0.0
230
1.0
 70
    11
 71
     3
 72
   124
 73
   120
 74
   118
 42
0.000000001
 43
0.0000000001
 44
0.00000001
 40
0.0
 40
0.0
 40
0.0
 40
0.0
 40
0.0278187229624226
 40
0.1011590162383985
 40
0.2048470170590239
 40
0.3237088716558961
 40
0.4425707262522
 40
0.5462587270699263
 40
0.6195990203312082
 40
0.647417752257866
 40
0.6750060736115242
 40
0.7357003855242759
 40
0.7963946998054474
 40
0.8239830245571766
 40
0.8540933811103144
 40
0.9373396629409256
 40
1.063094687343263
 40
1.22073126863813
 40
1.399622220914804
 40
1.589140358637846
 40
1.778658496423984
 40
1.957549448940651
 40
2.115186030873301
 40
2.240941056914633
 40
2.324187341760731
 40
2.354297700109581
 40
2.381886024672089
 40
2.442580338710674
 40
2.503274652750696
 40
2.530862977314805
 40
2.560983949278758
 40
2.640393784453132
 40
2.752662861759384
 40
2.881361560118401
 40
3.010060258455504
 40
3.122329335705708
 40
3.201739170818322
 40
3.231860142753711
 40
3.264298024030768
 40
3.352343701778635
 40
3.482095226869158
 40
3.639650650173416
 40
3.811108022565871
 40
3.982565394928376
 40
4.140120818152956
 40
4.269872343141665
 40
4.357918020802726
 40
4.390355902044353
 40
4.423256253992922
 40
4.508104530073472
 40
4.624121560637239
 40
4.750528176031996
 40
4.866545206602471
 40
4.951393482692457
 40
4.984293834645858
 40
5.01145083324277
 40
5.071196230152549
 40
5.130941627057619
 40
5.158098625649282
 40
5.190998977601972
 40
5.275847253689798
 40
5.391864284257289
 40
5.518270899648834
 40
5.634287930209873
 40
5.719136206288547
 40
5.752036558236463
 40
5.78213094628349
 40
5.862783906229667
 40
5.97955013177554
 40
6.117984316640951
 40
6.263641154588501
 40
6.402075339414714
 40
6.518841564908517
 40
6.599494524816103
 40
6.62958891284934
 40
6.654403028226917
 40
6.713575149488684
 40
6.784199939330031
 40
6.843372060494134
 40
6.868186175803351
 40
6.896246243202413
 40
6.939586233758776
 40
6.967846564565411
 40
7.043584251090349
 40
7.153234334452216
 40
7.283231855734975
 40
7.42001185603602
 40
7.55000937658038
 40
7.659659458835788
 40
7.735397144417787
 40
7.763657474851961
 40
7.796409728011618
 40
7.880876065096892
 40
7.996370852466278
 40
8.122208446419172
 40
8.237703224799766
 40
8.322169562011489
 40
8.354921815206474
 40
8.38207881330825
 40
8.441824209207551
 40
8.501569605240693
 40
8.52872660348627
 40
8.56147885669629
 40
8.64594519387834
 40
8.76143998086588
 40
8.887277580765023
 40
9.002772362001544
 40
9.087238696661736
 40
9.119990949236218
 40
9.152428830613918
 40
9.240474508639132
 40
9.37022603415008
 40
9.527781457984963
 40
9.69923883098195
 40
9.870696203979136
 40
10.02825162781456
 40
10.15800315332617
 40
10.24604883135172
 40
10.27848670378575
 40
10.27848670378575
 40
10.27848670378575
 40
10.27848670378575
 10
195.3821827564384
 20
14.01410517385759
 30
0.0
 10
195.3914554737524
 20
14.01410498511276
 30
0.0
 10
195.4251744536861
 20
14.01410430876716
 30
0.0
 10
195.4934706812466
 20
14.01411807243307
 30
0.0
 10
195.592014171158
 20
14.01403224219546
 30
0.0
 10
195.7062066464812
 20
14.01441755612253
 30
0.0
 10
195.8185894417072
 20
14.01300835897547
 30
0.0
 10
195.9214376600117
 20
14.01719117422244
 30
0.0
 10
195.980683987485
 20
14.00823089251985
 30
0.0
 10
196.0371265937033
 20
14.02164434526062
 30
0.0
 10
196.0246255586955
 20
13.97087198613362
 30
0.0
 10
196.0329549635705
 20
13.92589320939069
 30
0.0
 10
196.0248170841119
 20
13.8805675299049
 30
0.0
 10
196.0370529214458
 20
13.82931932408467
 30
0.0
 10
195.9747773490334
 20
13.84447955365278
 30
0.0
 10
195.9060513026869
 20
13.83359750710744
 30
0.0
 10
195.7782756749591
 20
13.83911304747974
 30
0.0
 10
195.6262984511644
 20
13.837008512537
 30
0.0
 10
195.4502695972522
 20
13.83771002588476
 30
0.0
 10
195.2644431934287
 20
13.83745237531293
 30
0.0
 10
195.0786167437175
 20
13.83771005144606
 30
0.0
 10
194.9025880142167
 20
13.83700841847732
 30
0.0
 10
194.7506104154193
 20
13.83911332229991
 30
0.0
 10
194.6228357664553
 20
13.83359680767642
 30
0.0
 10
194.554107783658
 20
13.84448077125944
 30
0.0
 10
194.4918349042881
 20
13.82931786684211
 30
0.0
 10
194.5040616290017
 20
13.88057510805174
 30
0.0
 10
194.4960004462595
 20
13.92582473272427
 30
0.0
 10
194.5040675809892
 20
13.97106357955325
 30
0.0
 10
194.4918238487082
 20
14.0223417690996
 30
0.0
 10
194.5525017120697
 20
14.00749577363136
 30
0.0
 10
194.6162810745734
 20
14.01756448170737
 30
0.0
 10
194.7277314353502
 20
14.01294644212002
 30
0.0
 10
194.8497533443822
 20
14.0141332890547
 30
0.0
 10
194.9719538137824
 20
14.01515863900637
 30
0.0
 10
195.0829794287392
 20
14.01092475623403
 30
0.0
 10
195.1476517413958
 20
14.02018584521741
 30
0.0
 10
195.2091162810502
 20
14.00604423049684
 30
0.0
 10
195.1930065601338
 20
14.07235527884518
 30
0.0
 10
195.2042980327359
 20
14.14447790121978
 30
0.0
 10
195.1987400822561
 20
14.27513760888287
 30
0.0
 10
195.2008035061692
 20
14.42607323708243
 30
0.0
 10
195.2000167127295
 20
14.59335873107887
 30
0.0
 10
195.2007845215628
 20
14.76061110332304
 30
0.0
 10
195.1988038785629
 20
14.91163289269915
 30
0.0
 10
195.2041306156621
 20
15.04206069552996
 30
0.0
 10
195.1933101388426
 20
15.114654426059
 30
0.0
 10
195.2090326429876
 20
15.18150469436799
 30
0.0
 10
195.143270813249
 20
15.16580512490825
 30
0.0
 10
195.0756367830764
 20
15.17609243083996
 30
0.0
 10
194.961588529381
 20
15.17113786847122
 30
0.0
 10
194.8451242674903
 20
15.17414128030476
 30
0.0
 10
194.7306554121477
 20
15.16880303143389
 30
0.0
 10
194.6640324657812
 20
15.18001268074826
 30
0.0
 10
194.5990769715185
 20
15.16349132665012
 30
0.0
 10
194.6107989758708
 20
15.21473720477059
 30
0.0
 10
194.6032830189122
 20
15.25950333784091
 30
0.0
 10
194.6107989878835
 20
15.3042694489796
 30
0.0
 10
194.5990769505347
 20
15.3555153612974
 30
0.0
 10
194.66403263392
 20
15.33899381766814
 30
0.0
 10
194.7306533339821
 20
15.35020571373942
 30
0.0
 10
194.8451352858064
 20
15.34485436710663
 30
0.0
 10
194.9615454436963
 20
15.34791188771116
 30
0.0
 10
195.0757660174642
 20
15.34278499010707
 30
0.0
 10
195.1430150439227
 20
15.35345733355597
 30
0.0
 10
195.2083325941439
 20
15.33742082669075
 30
0.0
 10
195.1941391448553
 20
15.39949685750052
 30
0.0
 10
195.2036059462996
 20
15.46586761628762
 30
0.0
 10
195.1990269004085
 20
15.58239972741966
 30
0.0
 10
195.2007696555949
 20
15.71426685022376
 30
0.0
 10
195.1997551495392
 20
15.85615960150274
 30
0.0
 10
195.2017191344373
 20
15.98769050702581
 30
0.0
 10
195.1964668553852
 20
16.10524577283005
 30
0.0
 10
195.2073408763474
 20
16.16947789001586
 30
0.0
 10
195.1919536641854
 20
16.2310880254505
 30
0.0
 10
195.2407591537801
 20
16.21702407382113
 30
0.0
 10
195.2853995564726
 20
16.21954742075316
 30
0.0
 10
195.3538643946743
 20
16.2151279740171
 30
0.0
 10
195.3959106169103
 20
16.20613025544035
 30
0.0
 10
195.4487544758776
 20
16.21411714866508
 30
0.0
 10
195.4207035002014
 20
16.17113917611679
 30
0.0
 10
195.3749142248595
 20
16.1825955204384
 30
0.0
 10
195.3869539073266
 20
16.12173520005141
 30
0.0
 10
195.3796086070642
 20
16.05769299468777
 30
0.0
 10
195.3831195826163
 20
15.94909368863915
 30
0.0
 10
195.3819806760175
 20
15.82494319144755
 30
0.0
 10
195.3819174780263
 20
15.69189719829879
 30
0.0
 10
195.3832872966869
 20
15.56797381249556
 30
0.0
 10
195.3791638801314
 20
15.45868337849338
 30
0.0
 10
195.3877763103565
 20
15.39608580094169
 30
0.0
 10
195.3746757454402
 20
15.33740133296364
 30
0.0
 10
195.4393884328199
 20
15.35362113810901
 30
0.0
 10
195.5060405953157
 20
15.34270260383311
 30
0.0
 10
195.6198779541103
 20
15.34793740173754
 30
0.0
 10
195.7357259122097
 20
15.34485547516912
 30
0.0
 10
195.8496924263281
 20
15.35018259812511
 30
0.0
 10
195.91603410181
 20
15.33904208166541
 30
0.0
 10
195.9807188525481
 20
15.35546979593176
 30
0.0
 10
195.9689820772723
 20
15.3042592521005
 30
0.0
 10
195.9765168063041
 20
15.25950334121
 30
0.0
 10
195.9689820992258
 20
15.21474739010028
 30
0.0
 10
195.9807188140737
 20
15.16353690871041
 30
0.0
 10
195.9160344075253
 20
15.17996427794221
 30
0.0
 10
195.8496886430826
 20
15.16882784447271
 30
0.0
 10
195.7357459487013
 20
15.17413115893121
 30
0.0
 10
195.6197995623055
 20
15.17114764593545
 30
0.0
 10
195.5062756882124
 20
15.17606892268394
 30
0.0
 10
195.4389231318805
 20
15.16585087513521
 30
0.0
 10
195.3734285122496
 20
15.18145996138817
 30
0.0
 10
195.3891713619218
 20
15.11463851827412
 30
0.0
 10
195.3783275998215
 20
15.04207057815879
 30
0.0
 10
195.3836581629792
 20
14.91162247614417
 30
0.0
 10
195.3817136151857
 20
14.76064558185227
 30
0.0
 10
195.3823133683214
 20
14.5932224393416
 30
0.0
 10
195.3821506559605
 20
14.42656176118373
 30
0.0
 10
195.3821895488136
 20
14.27360142921638
 30
0.0
 10
195.38218164131
 20
14.14849178985707
 30
0.0
 10
195.3821828382746
 20
14.06507890991422
 30
0.0
 10
195.3821827716209
 20
14.02491778281978
 30
0.0
 10
195.3821827564384
 20
14.01410517385759
 30
0.0
 11
195.3821827564384
 21
14.01410517385759
 31
0.0
 11
195.4100014883675
 21
14.01410517385759
 31
0.0
 11
195.4833417816353
 21
14.01410517385759
 31
0.0
 11
195.5870297824623
 21
14.01410517385759
 31
0.0
 11
195.7058916370687
 21
14.01410517385759
 31
0.0
 11
195.8247534916752
 21
14.01410517385759
 31
0.0
 11
195.9284414925021
 21
14.01410517385759
 31
0.0
 11
196.0017817857699
 21
14.01410517385759
 31
0.0
 11
196.0296005176991
 21
14.01410517385759
 31
0.0
 11
196.0296005176991
 21
13.98651684921171
 31
0.0
 11
196.0296005176991
 21
13.92582253499079
 31
0.0
 11
196.0296005176991
 21
13.86512822076986
 31
0.0
 11
196.0296005176991
 21
13.83753989612399
 31
0.0
 11
195.9994901593494
 21
13.83753989612399
 31
0.0
 11
195.9162438745005
 21
13.83753989612399
 31
0.0
 11
195.7904888484522
 21
13.83753989612399
 31
0.0
 11
195.6328522665042
 21
13.83753989612399
 31
0.0
 11
195.4539613139565
 21
13.83753989612399
 31
0.0
 11
195.2644431761088
 21
13.83753989612399
 31
0.0
 11
195.0749250382613
 21
13.83753989612399
 31
0.0
 11
194.8960340857136
 21
13.83753989612399
 31
0.0
 11
194.7383975037656
 21
13.83753989612399
 31
0.0
 11
194.6126424777171
 21
13.83753989612399
 31
0.0
 11
194.5293961928682
 21
13.83753989612399
 31
0.0
 11
194.4992858345186
 21
13.83753989612399
 31
0.0
 11
194.4992858345186
 21
13.86512822076987
 31
0.0
 11
194.4992858345186
 21
13.92582253499079
 31
0.0
 11
194.4992858345186
 21
13.98651684921171
 31
0.0
 11
194.4992858345186
 21
14.01410517385759
 31
0.0
 11
194.5294068064946
 21
14.01410517385759
 31
0.0
 11
194.6088166417039
 21
14.01410517385759
 31
0.0
 11
194.721085719069
 21
14.01410517385759
 31
0.0
 11
194.8497844175117
 21
14.01410517385759
 31
0.0
 11
194.9784831159545
 21
14.01410517385759
 31
0.0
 11
195.0907521933195
 21
14.01410517385759
 31
0.0
 11
195.1701620285289
 21
14.01410517385759
 31
0.0
 11
195.2002830005049
 21
14.01410517385759
 31
0.0
 11
195.2002830005049
 21
14.04654305523837
 31
0.0
 11
195.2002830005049
 21
14.13458873327192
 31
0.0
 11
195.2002830005049
 21
14.26434025879504
 31
0.0
 11
195.2002830005049
 21
14.42189568264455
 31
0.0
 11
195.2002830005049
 21
14.59335305565725
 31
0.0
 11
195.2002830005049
 21
14.76481042866995
 31
0.0
 11
195.2002830005049
 21
14.92236585251946
 31
0.0
 11
195.2002830005049
 21
15.05211737804258
 31
0.0
 11
195.2002830005049
 21
15.14016305607613
 31
0.0
 11
195.2002830005049
 21
15.17260093745691
 31
0.0
 11
195.1673826485529
 21
15.17260093745691
 31
0.0
 11
195.0825343724663
 21
15.17260093745691
 31
0.0
 11
194.9665173418989
 21
15.17260093745691
 31
0.0
 11
194.8401107265045
 21
15.17260093745691
 31
0.0
 11
194.724093695937
 21
15.17260093745691
 31
0.0
 11
194.6392454198503
 21
15.17260093745691
 31
0.0
 11
194.6063450678984
 21
15.17260093745691
 31
0.0
 11
194.6063450678984
 21
15.19975793614803
 31
0.0
 11
194.6063450678984
 21
15.2595033332685
 31
0.0
 11
194.6063450678984
 21
15.31924873038897
 31
0.0
 11
194.6063450678984
 21
15.34640572908009
 31
0.0
 11
194.6392454198504
 21
15.34640572908009
 31
0.0
 11
194.724093695937
 21
15.34640572908009
 31
0.0
 11
194.8401107265045
 21
15.34640572908009
 31
0.0
 11
194.9665173418989
 21
15.34640572908009
 31
0.0
 11
195.0825343724663
 21
15.34640572908009
 31
0.0
 11
195.1673826485529
 21
15.34640572908009
 31
0.0
 11
195.2002830005049
 21
15.34640572908009
 31
0.0
 11
195.2002830005049
 21
15.37650011731369
 31
0.0
 11
195.2002830005049
 21
15.45715307777973
 31
0.0
 11
195.2002830005049
 21
15.57391930412609
 31
0.0
 11
195.2002830005049
 21
15.71235349000064
 31
0.0
 11
195.2002830005049
 21
15.85801032905125
 31
0.0
 11
195.2002830005049
 21
15.9964445149258
 31
0.0
 11
195.2002830005049
 21
16.11321074127216
 31
0.0
 11
195.2002830005049
 21
16.1938637017382
 31
0.0
 11
195.2002830005049
 21
16.2239580899718
 31
0.0
 11
195.2250405288619
 21
16.22228324219444
 31
0.0
 11
195.284077711867
 21
16.21828937441767
 31
0.0
 11
195.3545414464215
 21
16.21352249997442
 31
0.0
 11
195.4135786294266
 21
16.20952863219764
 31
0.0
 11
195.4383361577836
 21
16.20785378442028
 31
0.0
 11
195.4233067224031
 21
16.18415814206513
 31
0.0
 11
195.3821827564384
 21
16.17047697887409
 31
0.0
 11
195.3821827564384
 21
16.14221664794837
 31
0.0
 11
195.3821827564384
 21
16.06647896106744
 31
0.0
 11
195.3821827564384
 21
15.95682887707564
 31
0.0
 11
195.3821827564384
 21
15.82683135481733
 31
0.0
 11
195.3821827564384
 21
15.69005135313684
 31
0.0
 11
195.3821827564384
 21
15.56005383087853
 31
0.0
 11
195.3821827564384
 21
15.45040374688674
 31
0.0
 11
195.3821827564384
 21
15.37466606000581
 31
0.0
 11
195.3821827564384
 21
15.34640572908009
 31
0.0
 11
195.4149350096116
 21
15.34640572908009
 31
0.0
 11
195.4994013467423
 21
15.34640572908009
 31
0.0
 11
195.6148961342477
 21
15.34640572908009
 31
0.0
 11
195.7407337385446
 21
15.34640572908009
 31
0.0
 11
195.8562285260499
 21
15.34640572908009
 31
0.0
 11
195.9406948631807
 21
15.34640572908009
 31
0.0
 11
195.9734471163539
 21
15.34640572908009
 31
0.0
 11
195.9734471163539
 21
15.31924873038897
 31
0.0
 11
195.9734471163539
 21
15.2595033332685
 31
0.0
 11
195.9734471163539
 21
15.19975793614803
 31
0.0
 11
195.9734471163539
 21
15.17260093745691
 31
0.0
 11
195.9406948631807
 21
15.17260093745691
 31
0.0
 11
195.85622852605
 21
15.17260093745691
 31
0.0
 11
195.7407337385446
 21
15.17260093745691
 31
0.0
 11
195.6148961342477
 21
15.17260093745691
 31
0.0
 11
195.4994013467423
 21
15.17260093745691
 31
0.0
 11
195.4149350096116
 21
15.17260093745691
 31
0.0
 11
195.3821827564384
 21
15.17260093745691
 31
0.0
 11
195.3821827564384
 21
15.14016305607613
 31
0.0
 11
195.3821827564384
 21
15.05211737804258
 31
0.0
 11
195.3821827564384
 21
14.92236585251946
 31
0.0
 11
195.3821827564384
 21
14.76481042866995
 31
0.0
 11
195.3821827564384
 21
14.59335305565725
 31
0.0
 11
195.3821827564384
 21
14.42189568264455
 31
0.0
 11
195.3821827564384
 21
14.26434025879504
 31
0.0
 11
195.3821827564384
 21
14.13458873327192
 31
0.0
 11
195.3821827564384
 21
14.04654305523837
 31
0.0
 11
195.3821827564384
 21
14.01410517385759
 31
0.0
  0
SPLINE
  5
B2
102
{ACAD_REACTORS
330
CF
102
}
330
48
100
AcDbEntity
  8
_U_30EC_U_30A4_U_30E4_U_30FC_1
  6
Continuous
 62
     2
100
AcDbSpline
210
0.0
220
0.0
230
1.0
 70
     8
 71
     3
 72
    62
 73
    58
 74
    56
 42
0.000000001
 43
0.0000000001
 44
0.00000001
 40
0.0
 40
0.0
 40
0.0
 40
0.0
 40
0.0598250028308485
 40
0.2024846486897047
 40
0.3727558389220178
 40
0.5154154847934933
 40
0.5752404975784202
 40
0.9332326775485974
 40
1.290451762839321
 40
1.602077253145707
 40
1.69993163411198
 40
1.799359756424976
 40
2.270120149657001
 40
2.804661928461474
 40
2.88234228738318
 40
3.07654318571902
 40
3.329004354835464
 40
3.581465524568273
 40
3.775666424543543
 40
3.853346784558159
 40
3.899120679594905
 40
3.984129341791903
 40
4.029903236817251
 40
4.105797496059406
 40
4.295533144152362
 40
4.542189486611598
 40
4.788845828875543
 40
4.978581476409923
 40
5.054475735244164
 40
5.621734664339169
 40
6.130867242037116
 40
6.225249780948346
 40
6.318913039727017
 40
6.663579954558557
 40
7.047498900224364
 40
7.43523079157528
 40
7.498943906667692
 40
7.650875181209629
 40
7.832212509001111
 40
7.984143783696497
 40
8.047856898902623
 40
8.091554632732143
 40
8.172707566963824
 40
8.216405300767558
 40
8.289021782160415
 40
8.46218416075676
 40
8.668861838004869
 40
8.842024215263404
 40
8.9146406954746
 40
8.989881580860809
 40
9.155411528826727
 40
9.320941477743522
 40
9.396182352486779
 40
9.454709011143326
 40
9.58346766017026
 40
9.71222630901254
 40
9.770752957988993
 40
9.770752957988993
 40
9.770752957988993
 40
9.770752957988993
 10
187.1521871691833
 20
14.93980288195948
 30
0.0
 10
187.1322348171623
 20
14.93980875568669
 30
0.0
 10
187.0647037716465
 20
14.93982863806155
 30
0.0
 10
186.9410612161788
 20
14.93949362520324
 30
0.0
 10
186.7863180150057
 20
14.9410767375051
 30
0.0
 10
186.669734948248
 20
14.93686078860493
 30
0.0
 10
186.4550942634242
 20
14.95215205331624
 30
0.0
 10
186.8518948407229
 20
14.59198721286193
 30
0.0
 10
186.8945656069268
 20
14.37510503397167
 30
0.0
 10
187.3189162146612
 20
14.19325062511446
 30
0.0
 10
187.1439821496074
 20
14.08985196568075
 30
0.0
 10
187.0194523925083
 20
13.87831523212721
 30
0.0
 10
186.7666277235944
 20
14.34806081001567
 30
0.0
 10
186.4797602893627
 20
14.99511516984521
 30
0.0
 10
186.490633592666
 20
14.68782672154694
 30
0.0
 10
186.4882892777959
 20
14.52288616971779
 30
0.0
 10
186.4861096126411
 20
14.28879670711696
 30
0.0
 10
186.4980774396346
 20
14.04498072421787
 30
0.0
 10
186.4687984740631
 20
13.8985579686099
 30
0.0
 10
186.511452262547
 20
13.75113490174544
 30
0.0
 10
186.4239814005639
 20
13.76685797306226
 30
0.0
 10
186.3768527606744
 20
13.7669430354346
 30
0.0
 10
186.2898973207713
 20
13.75109425482915
 30
0.0
 10
186.3313474021722
 20
13.89527771422768
 30
0.0
 10
186.3029875004285
 20
14.03855052698461
 30
0.0
 10
186.3145973775299
 20
14.27674947365269
 30
0.0
 10
186.3124175648272
 20
14.50517235240351
 30
0.0
 10
186.3103111127994
 20
14.66705729375999
 30
0.0
 10
186.3208035438323
 20
14.98153709333756
 30
0.0
 10
186.0128963252893
 20
14.29229470872438
 30
0.0
 10
185.7055258267458
 20
13.8147675024307
 30
0.0
 10
185.5851367066274
 20
14.03741112637427
 30
0.0
 10
185.4074607910724
 20
14.15011034955577
 30
0.0
 10
185.8853326362895
 20
14.32548143465463
 30
0.0
 10
185.9353959057207
 20
14.56091929252032
 30
0.0
 10
186.3583799621717
 20
14.95322989344606
 30
0.0
 10
186.127675427354
 20
14.93655307029063
 30
0.0
 10
186.0049685859341
 20
14.94269518948769
 30
0.0
 10
185.8325483095663
 20
14.93312822699572
 30
0.0
 10
185.7213224694449
 20
14.95448818489663
 30
0.0
 10
185.6025779627449
 20
14.92136265357418
 30
0.0
 10
185.6183169706686
 20
15.00203900606883
 30
0.0
 10
185.6178550933762
 20
15.04645414290854
 30
0.0
 10
185.6027881889932
 20
15.12967081778535
 30
0.0
 10
185.7372380935443
 20
15.09062651983886
 30
0.0
 10
185.8619755545747
 20
15.11739729328425
 30
0.0
 10
186.062875523728
 20
15.10063949044055
 30
0.0
 10
186.1921540949353
 20
15.12204225913006
 30
0.0
 10
186.3328419928294
 20
15.08868778853423
 30
0.0
 10
186.2980927452614
 20
15.22651875785071
 30
0.0
 10
186.3222185666713
 20
15.34963257349485
 30
0.0
 10
186.2967086182392
 20
15.47024055670341
 30
0.0
 10
186.3333251146685
 20
15.60539865141501
 30
0.0
 10
186.2211417027769
 20
15.58094545781896
 30
0.0
 10
186.1280356457136
 20
15.59307749842028
 30
0.0
 10
186.0191547579819
 20
15.5895763007
 30
0.0
 10
185.9569697640964
 20
15.58981755951609
 30
0.0
 10
185.9375369557246
 20
15.5898929512415
 30
0.0
 11
187.1521871691833
 21
14.93980288195948
 31
0.0
 11
187.0923621563982
 21
14.93980288195948
 31
0.0
 11
186.949702510526
 21
14.93980288195948
 31
0.0
 11
186.7794313202914
 21
14.93980288195948
 31
0.0
 11
186.6367716744192
 21
14.93980288195948
 31
0.0
 11
186.5769466616341
 21
14.93980288195948
 31
0.0
 11
186.7679960754843
 21
14.6370512796689
 31
0.0
 11
186.994127278563
 21
14.36051890576685
 31
0.0
 11
187.2244526173372
 21
14.1506125349346
 31
0.0
 11
187.1521596330704
 21
14.0846640366872
 31
0.0
 11
187.0879364402643
 21
14.00876059052558
 31
0.0
 11
186.7732818215559
 21
14.35891458349364
 31
0.0
 11
186.4886640249976
 21
14.811382951436
 31
0.0
 11
186.4886640249976
 21
14.73370259137313
 31
0.0
 11
186.4886640249976
 21
14.53950169121594
 31
0.0
 11
186.4886640249976
 21
14.28704052101159
 31
0.0
 11
186.4886640249976
 21
14.03457935080725
 31
0.0
 11
186.4886640249976
 21
13.84037845065006
 31
0.0
 11
186.4886640249976
 21
13.76269809058718
 31
0.0
 11
186.4428901295605
 21
13.76269809058718
 31
0.0
 11
186.3578814666058
 21
13.76269809058718
 31
0.0
 11
186.3121075711687
 21
13.76269809058718
 31
0.0
 11
186.3121075711687
 21
13.83859234982746
 31
0.0
 11
186.3121075711687
 21
14.02832799792817
 31
0.0
 11
186.3121075711687
 21
14.27498434045908
 31
0.0
 11
186.3121075711687
 21
14.52164068299
 31
0.0
 11
186.3121075711687
 21
14.71137633109071
 31
0.0
 11
186.3121075711687
 21
14.78727059033099
 31
0.0
 11
185.9987626399267
 21
14.31440946197697
 31
0.0
 11
185.6352328662149
 21
13.95795177109389
 31
0.0
 11
185.5773927461628
 21
14.03253450545025
 31
0.0
 11
185.5094852305342
 21
14.09704322939248
 31
0.0
 11
185.7750721898319
 21
14.31672219795893
 31
0.0
 11
186.0233764972061
 21
14.60953395971697
 31
0.0
 11
186.226498280526
 21
14.93980288195948
 31
0.0
 11
186.1627851652721
 21
14.93980288195948
 31
0.0
 11
186.0108538904359
 21
14.93980288195948
 31
0.0
 11
185.8295165624056
 21
14.93980288195948
 31
0.0
 11
185.6775852875694
 21
14.93980288195948
 31
0.0
 11
185.6138721723155
 21
14.93980288195948
 31
0.0
 11
185.6138721723155
 21
14.98350061600208
 31
0.0
 11
185.6138721723155
 21
15.06465355065261
 31
0.0
 11
185.6138721723155
 21
15.1083512846952
 31
0.0
 11
185.6864886537962
 21
15.1083512846952
 31
0.0
 11
185.8596510327118
 21
15.1083512846952
 31
0.0
 11
186.0663287107724
 21
15.1083512846952
 31
0.0
 11
186.239491089688
 21
15.1083512846952
 31
0.0
 11
186.3121075711687
 21
15.1083512846952
 31
0.0
 11
186.3121075711687
 21
15.18359217009306
 31
0.0
 11
186.3121075711687
 21
15.34912211796835
 31
0.0
 11
186.3121075711687
 21
15.51465206584364
 31
0.0
 11
186.3121075711687
 21
15.5898929512415
 31
0.0
 11
186.2535809125055
 21
15.5898929512415
 31
0.0
 11
186.1248222634467
 21
15.5898929512415
 31
0.0
 11
185.9960636143877
 21
15.5898929512415
 31
0.0
 11
185.9375369557246
 21
15.5898929512415
 31
0.0
  0
SPLINE
  5
B3
102
{ACAD_REACTORS
330
CF
102
}
330
48
100
AcDbEntity
  8
_U_30EC_U_30A4_U_30E4_U_30FC_1
  6
Continuous
 62
     2
100
AcDbSpline
210
0.0
220
0.0
230
1.0
 70
     8
 71
     3
 72
    70
 73
    66
 74
    64
 42
0.000000001
 43
0.0000000001
 44
0.00000001
 40
0.0
 40
0.0
 40
0.0
 40
0.0
 40
0.0241731073021472
 40
0.0846058988987013
 40
0.1631685280353284
 40
0.2417311571789756
 40
0.3021639488292751
 40
0.3263370654895541
 40
0.3533118254248863
 40
0.4228783438922058
 40
0.5179999095313278
 40
0.6216398239465925
 40
0.7167613891499457
 40
0.7863279069649579
 40
0.8133026791761516
 40
0.8372943998771356
 40
0.8945054261372554
 40
0.9627895541962331
 40
1.020000580349044
 40
1.043992300975142
 40
1.07193434552286
 40
1.113121768772875
 40
1.1452251993322
 40
1.225483775412738
 40
1.32981992377145
 40
1.43415607199434
 40
1.514414647795763
 40
1.546518078208373
 40
1.578974764260146
 40
1.662678849314141
 40
1.77713137366839
 40
1.90183337747481
 40
2.016285900500628
 40
2.099989982527995
 40
2.132446666570353
 40
2.158782354486077
 40
2.216720867907868
 40
2.274659381334287
 40
2.300995069256223
 40
2.333451754066195
 40
2.417155836543905
 40
2.531608358985344
 40
2.656310362283867
 40
2.770762886389
 40
2.854466971340194
 40
2.886923657364
 40
2.913597976833436
 40
2.982389642875243
 40
3.076451716947113
 40
3.178937260458734
 40
3.272999334740144
 40
3.341791001059373
 40
3.368465320663685
 40
3.396976080738907
 40
3.472140811846143
 40
3.578408190308832
 40
3.700226892456269
 40
3.822045594634486
 40
3.928312973256593
 40
4.00347770531499
 40
4.031988456867055
 40
4.058324144797861
 40
4.11626265823704
 40
4.174201171400857
 40
4.200536849608796
 40
4.200536849608796
 40
4.200536849608796
 40
4.200536849608796
 10
185.9857704961609
 20
15.75844135397711
 30
0.0
 10
185.9938259544679
 20
15.75844359811692
 30
0.0
 10
186.0220200663241
 20
15.75845146032804
 30
0.0
 10
186.0765534803672
 20
15.75830754828377
 30
0.0
 10
186.1482891808604
 20
15.75909120499903
 30
0.0
 10
186.2236240137062
 20
15.75627570463817
 30
0.0
 10
186.2713052366439
 20
15.76298403400963
 30
0.0
 10
186.3195071245616
 20
15.75197563692439
 30
0.0
 10
186.3062571799873
 20
15.80546402997039
 30
0.0
 10
186.3151093964538
 20
15.86049583543097
 30
0.0
 10
186.3108698036285
 20
15.95419908726114
 30
0.0
 10
186.313348348128
 20
16.04959482218536
 30
0.0
 10
186.3090938706059
 20
16.14356821983391
 30
0.0
 10
186.3179818665847
 20
16.19795062438015
 30
0.0
 10
186.3046977409945
 20
16.25233997691463
 30
0.0
 10
186.3514119277109
 20
16.2384221633536
 30
0.0
 10
186.3943254545736
 20
16.24103877374046
 30
0.0
 10
186.4605443456685
 20
16.23648422450756
 30
0.0
 10
186.5013342271799
 20
16.22778162134161
 30
0.0
 10
186.5525145690818
 20
16.23531799890196
 30
0.0
 10
186.5253720487201
 20
16.19349970223282
 30
0.0
 10
186.4803096055706
 20
16.20284992072606
 30
0.0
 10
186.4942065045051
 20
16.13841207371843
 30
0.0
 10
186.4858414431653
 20
16.07378219627406
 30
0.0
 10
186.4903632178399
 20
15.97529141193894
 30
0.0
 10
186.4854741311166
 20
15.87595932842576
 30
0.0
 10
186.4950258992082
 20
15.81293115552975
 30
0.0
 10
186.47997614552
 20
15.74964011499794
 30
0.0
 10
186.5449159457208
 20
15.76515072944275
 30
0.0
 10
186.6116246399497
 20
15.75499387697818
 30
0.0
 10
186.7241435470827
 20
15.75988800099373
 30
0.0
 10
186.8390235448954
 20
15.7569120473279
 30
0.0
 10
186.9519871999747
 20
15.76221664184996
 30
0.0
 10
187.0176267597678
 20
15.75107306472095
 30
0.0
 10
187.0816276691054
 20
15.76744532319863
 30
0.0
 10
187.070314288919
 20
15.71761689905281
 30
0.0
 10
187.077533987151
 20
15.67416715212128
 30
0.0
 10
187.0703142611271
 20
15.63071745587451
 30
0.0
 10
187.0816277175994
 20
15.58088895196882
 30
0.0
 10
187.0176263598972
 20
15.59726166091369
 30
0.0
 10
186.9519921240459
 20
15.58611271661594
 30
0.0
 10
186.8389974317332
 20
15.5914485720686
 30
0.0
 10
186.7242456548643
 20
15.58834345663828
 30
0.0
 10
186.6113183686861
 20
15.59364894682594
 30
0.0
 10
186.5455220903585
 20
15.58257300019599
 30
0.0
 10
186.4816097975358
 20
15.59887597847624
 30
0.0
 10
186.4936015165125
 20
15.54423524395747
 30
0.0
 10
186.4862104613005
 20
15.48854295047847
 30
0.0
 10
186.4892684841983
 20
15.39649689140575
 30
0.0
 10
186.4893422785682
 20
15.30179109873105
 30
0.0
 10
186.486031357836
 20
15.20952782902269
 30
0.0
 10
186.4939505989903
 20
15.15435768736143
 30
0.0
 10
186.4815076611617
 20
15.10058169100139
 30
0.0
 10
186.5389116551631
 20
15.11453768862784
 30
0.0
 10
186.5994708140383
 20
15.10511457884229
 30
0.0
 10
186.7048680855081
 20
15.10942885928707
 30
0.0
 10
186.8204294070622
 20
15.10835504612034
 30
0.0
 10
186.9359688877797
 20
15.10725965900998
 30
0.0
 10
187.0414181130841
 20
15.11162525770635
 30
0.0
 10
187.1018680471804
 20
15.10209426030674
 30
0.0
 10
187.159283773911
 20
15.11617289606382
 30
0.0
 10
187.1477773876709
 20
15.06707153265684
 30
0.0
 10
187.1537566781749
 20
15.0256465801865
 30
0.0
 10
187.1520311050801
 20
14.97651677966694
 30
0.0
 10
187.1521500122971
 20
14.94854428447606
 30
0.0
 10
187.1521871691833
 20
14.93980288195948
 30
0.0
 11
185.9857704961609
 21
15.75844135397711
 31
0.0
 11
186.0099436128282
 21
15.75844135397711
 31
0.0
 11
186.0703764044962
 21
15.75844135397711
 31
0.0
 11
186.1489390336648
 21
15.75844135397711
 31
0.0
 11
186.2275016628334
 21
15.75844135397711
 31
0.0
 11
186.2879344545015
 21
15.75844135397711
 31
0.0
 11
186.3121075711687
 21
15.75844135397711
 31
0.0
 11
186.3121075711687
 21
15.78541612620069
 31
0.0
 11
186.3121075711687
 21
15.85498264404044
 31
0.0
 11
186.3121075711687
 21
15.9501042092499
 31
0.0
 11
186.3121075711687
 21
16.0537441235826
 31
0.0
 11
186.3121075711687
 21
16.14886568879206
 31
0.0
 11
186.3121075711687
 21
16.21843220663181
 31
0.0
 11
186.3121075711687
 21
16.24540697885539
 31
0.0
 11
186.3360407604892
 21
16.24373213107803
 31
0.0
 11
186.3931122119458
 21
16.23973826330123
 31
0.0
 11
186.461229750781
 21
16.23497138885796
 31
0.0
 11
186.5183012022376
 21
16.23097752108117
 31
0.0
 11
186.5422343915581
 21
16.22930267330381
 31
0.0
 11
186.527497273123
 21
16.2055629337264
 31
0.0
 11
186.4886640249976
 21
16.19183767331319
 31
0.0
 11
186.4886640249976
 21
16.15973424225126
 31
0.0
 11
186.4886640249976
 21
16.07947566459643
 31
0.0
 11
186.4886640249976
 21
15.97513951364515
 31
0.0
 11
186.4886640249976
 21
15.87080336269387
 31
0.0
 11
186.4886640249976
 21
15.79054478503904
 31
0.0
 11
186.4886640249976
 21
15.75844135397711
 31
0.0
 11
186.5211207110824
 21
15.75844135397711
 31
0.0
 11
186.6048247962486
 21
15.75844135397711
 31
0.0
 11
186.7192773208635
 21
15.75844135397711
 31
0.0
 11
186.8439793252946
 21
15.75844135397711
 31
0.0
 11
186.9584318499095
 21
15.75844135397711
 31
0.0
 11
187.0421359350757
 21
15.75844135397711
 31
0.0
 11
187.0745926211605
 21
15.75844135397711
 31
0.0
 11
187.0745926211605
 21
15.73210566604967
 31
0.0
 11
187.0745926211605
 21
15.6741671526093
 31
0.0
 11
187.0745926211605
 21
15.61622863916894
 31
0.0
 11
187.0745926211605
 21
15.5898929512415
 31
0.0
 11
187.0421359350757
 21
15.5898929512415
 31
0.0
 11
186.9584318499095
 21
15.5898929512415
 31
0.0
 11
186.8439793252946
 21
15.5898929512415
 31
0.0
 11
186.7192773208635
 21
15.5898929512415
 31
0.0
 11
186.6048247962486
 21
15.5898929512415
 31
0.0
 11
186.5211207110824
 21
15.5898929512415
 31
0.0
 11
186.4886640249976
 21
15.5898929512415
 31
0.0
 11
186.4886640249976
 21
15.56321863152028
 31
0.0
 11
186.4886640249976
 21
15.4944269648708
 31
0.0
 11
186.4886640249976
 21
15.40036489006439
 31
0.0
 11
186.4886640249976
 21
15.29787934587232
 31
0.0
 11
186.4886640249976
 21
15.20381727106589
 31
0.0
 11
186.4886640249976
 21
15.13502560441642
 31
0.0
 11
186.4886640249976
 21
15.1083512846952
 31
0.0
 11
186.5171747850993
 21
15.1083512846952
 31
0.0
 11
186.5923395162766
 21
15.1083512846952
 31
0.0
 11
186.6986068948376
 21
15.1083512846952
 31
0.0
 11
186.8204255970904
 21
15.1083512846952
 31
0.0
 11
186.9422442993433
 21
15.1083512846952
 31
0.0
 11
187.0485116779043
 21
15.1083512846952
 31
0.0
 11
187.1236764090816
 21
15.1083512846952
 31
0.0
 11
187.1521871691833
 21
15.1083512846952
 31
0.0
 11
187.1521871691833
 21
15.08201559676774
 31
0.0
 11
187.1521871691833
 21
15.02407708332734
 31
0.0
 11
187.1521871691833
 21
14.96613856988693
 31
0.0
 11
187.1521871691833
 21
14.93980288195948
 31
0.0
  0
SPLINE
  5
B4
102
{ACAD_REACTORS
330
CF
102
}
330
48
100
AcDbEntity
  8
_U_30EC_U_30A4_U_30E4_U_30FC_1
  6
Continuous
 62
     2
100
AcDbSpline
210
0.0
220
0.0
230
1.0
 70
     8
 71
     3
 72
    24
 73
    20
 74
    18
 42
0.000000001
 43
0.0000000001
 44
0.00000001
 40
0.0
 40
0.0
 40
0.0
 40
0.0
 40
0.2211075008753727
 40
0.4273218586245883
 40
0.5080174679239311
 40
0.5914835907870056
 40
0.8143265690192673
 40
1.054651302686584
 40
1.295452694023188
 40
1.518109231328857
 40
1.540864321905473
 40
1.595126460622735
 40
1.659890947896049
 40
1.714153085187436
 40
1.736908174961709
 40
1.764951100735411
 40
1.801562291220975
 40
1.953914424543662
 40
2.126104167379719
 40
2.126104167379719
 40
2.126104167379719
 40
2.126104167379719
 10
185.9375369556889
 20
15.5898929511302
 30
0.0
 10
185.9112579081812
 20
15.53097628234377
 30
0.0
 10
185.8604698894426
 20
15.41711139679258
 30
0.0
 10
185.8131784839111
 20
15.14441958233109
 30
0.0
 10
185.7043482802619
 20
15.24445482575459
 30
0.0
 10
185.5514800279638
 20
15.27118593367326
 30
0.0
 10
185.76861551812
 20
15.48518135017636
 30
0.0
 10
185.7838483674381
 20
15.7033211778249
 30
0.0
 10
185.8906889492001
 20
15.8845157906643
 30
0.0
 10
185.8305380947078
 20
16.16913226311406
 30
0.0
 10
185.9334317395403
 20
16.14114089222456
 30
0.0
 10
185.9779933468151
 20
16.13243251602304
 30
0.0
 10
186.0380842395398
 20
16.12139654183358
 30
0.0
 10
186.0756619587439
 20
16.10767523055564
 30
0.0
 10
186.1252466928607
 20
16.10756076160224
 30
0.0
 10
186.0930158919326
 20
16.07306592398629
 30
0.0
 10
186.0171802221882
 20
16.08404104537962
 30
0.0
 10
186.0429447159694
 20
15.89858969582456
 30
0.0
 10
186.005589676385
 20
15.80702313549594
 30
0.0
 10
185.9857704961609
 20
15.75844135397711
 30
0.0
 11
185.9375369556889
 21
15.5898929511302
 31
0.0
 11
185.8616471328553
 21
15.38221708318562
 31
0.0
 11
185.7717402238433
 21
15.19663392356191
 31
0.0
 11
185.701149392311
 21
15.23573272563553
 31
0.0
 11
185.6245525192652
 21
15.26889163187718
 31
0.0
 11
185.7214026947456
 21
15.46958801203539
 31
0.0
 11
185.7994641467471
 21
15.69688163177027
 31
0.0
 11
185.8589716929721
 21
15.93021436608695
 31
0.0
 11
185.9001601511227
 21
16.14902808999059
 31
0.0
 11
185.9224183822215
 21
16.14429889221399
 31
0.0
 11
185.9754957025341
 21
16.13302157443903
 31
0.0
 11
186.0388460525845
 21
16.11956154999796
 31
0.0
 11
186.0919233728971
 21
16.108284232223
 31
0.0
 11
186.1141816039959
 21
16.1035550344464
 31
0.0
 11
186.0964097157461
 21
16.08186250841013
 31
0.0
 11
186.0606122998072
 21
16.0741862844537
 31
0.0
 11
186.028195330148
 21
15.92532288171316
 31
0.0
 11
185.9857704961609
 21
15.75844135397711
 31
0.0
  0
LWPOLYLINE
  5
B5
102
{ACAD_REACTORS
330
D0
102
}
330
48
100
AcDbEntity
  8
_U_30EC_U_30A4_U_30E4_U_30FC_1
  6
Continuous
 62
     2
100
AcDbPolyline
 90
        5
 70
     1
 43
0.0
 10
191.1602971697032
 20
15.39722336795629
 10
192.4578138032673
 20
15.39722336795629
 10
192.4578138032673
 20
15.2287543402206
 10
191.1602971697032
 20
15.2287543402206
 10
191.1602971697032
 20
15.39722336795629
  0
MTEXT
  5
B7
330
48
100
AcDbEntity
  8
1
 62
   250
100
AcDbMText
 10
25.0
 20
5.0
 30
0.0
 40
3.5
 41
0.0
 71
     4
 72
     1
  1
備考欄の文字列 原点位置=4
  7
CONVERTER_11
 73
     1
 44
0.54545454545455
  0
MTEXT
  5
B8
330
48
100
AcDbEntity
  8
1
 62
     2
100
AcDbMText
 10
89.50000000000003
 20
24.00000000000009
 30
0.0
 40
3.5
 41
0.0
 71
     5
 72
     1
  1
尺度
  7
CONVERTER_11
 73
     1
 44
0.54545454545455
  0
MTEXT
  5
B9
330
48
100
AcDbEntity
  8
1
 62
     2
100
AcDbMText
 10
135.5
 20
25.00000000000009
 30
0.0
 40
3.0
 41
0.0
 71
     5
 72
     1
  1
製図
  7
CONVERTER_11
 73
     1
 44
0.59090909090909
  0
MTEXT
  5
BA
330
48
100
AcDbEntity
  8
1
 62
     2
100
AcDbMText
 10
152.5000000000001
 20
25.00000000000009
 30
0.0
 40
3.0
 41
0.0
 71
     5
 72
     1
  1
設計
  7
CONVERTER_11
 73
     1
 44
0.59090909090909
  0
MTEXT
  5
BB
330
48
100
AcDbEntity
  8
1
 62
     2
100
AcDbMText
 10
118.5
 20
25.00000000000009
 30
0.0
 40
3.0
 41
0.0
 71
     5
 72
     1
  1
検図
  7
CONVERTER_11
 73
     1
 44
0.59090909090909
  0
MTEXT
  5
BC
330
48
100
AcDbEntity
  8
1
 62
     2
100
AcDbMText
 10
175.0000000000001
 20
23.50000000000009
 30
0.0
 40
3.5
 41
0.0
 71
     5
 72
     1
  1
第三角法
  7
CONVERTER_11
 73
     1
 44
0.54545454545455
  0
MTEXT
  5
BD
330
48
100
AcDbEntity
  8
1
 62
     2
100
AcDbMText
 10
101.5
 20
25.00000000000009
 30
0.0
 40
3.0
 41
0.0
 71
     5
 72
     1
  1
承認
  7
CONVERTER_11
 73
     1
 44
0.59090909090909
  0
MTEXT
  5
BE
330
48
100
AcDbEntity
  8
1
 62
     2
100
AcDbMText
 10
29.0
 20
14.25
 30
0.0
 40
3.5
 41
0.0
 71
     5
 72
     1
  1
品番
  7
CONVERTER_11
 73
     1
 44
0.72727272727273
  0
MTEXT
  5
BF
330
48
100
AcDbEntity
  8
1
 62
     2
100
AcDbMText
 10
29.0
 20
22.75
 30
0.0
 40
3.5
 41
0.0
 71
     5
 72
     1
  1
品名
  7
CONVERTER_11
 73
     1
 44
0.72727272727273
  0
MTEXT
  5
C0
330
48
100
AcDbEntity
  8
1
 62
     2
100
AcDbMText
 10
29.0
 20
33.99999999999999
 30
0.0
 40
3.5
 41
0.0
 71
     5
 72
     1
  1
備考
  7
CONVERTER_11
 73
     1
 44
0.45454545454545
  0
MTEXT
  5
C1
330
48
100
AcDbEntity
  8
1
 62
     2
100
AcDbMText
 10
32.5
 20
282.0000000000003
 30
0.0
 40
5.0
 41
0.0
 71
     5
 72
     1
  1
図番
  7
CONVERTER_11
 73
     1
 44
0.45454545454545
  0
HATCH
  5
C2
330
48
100
AcDbEntity
  8
1
  6
Continuous
 62
     2
100
AcDbHatch
 10
0.0
 20
0.0
 30
0.0
210
0.0
220
0.0
230
1.0
  2
CUSTOM0
 70
     0
 71
     1
 91
        1
 92
        1
 93
        1
 72
     4
 94
        3
 73
     0
 74
     0
 95
       99
 96
       95
 40
0.0
 40
0.0
 40
0.0
 40
0.0
 40
0.079641717227271
 40
0.1621768542356966
 40
0.2486489160958475
 40
0.3404969668525419
 40
0.4381912511165495
 40
0.5434463660245812
 40
0.6518115192847579
 40
0.7530190937886813
 40
0.8492196919725135
 40
0.9419290312998767
 40
1.034249663570052
 40
1.12907860062028
 40
1.226697027573299
 40
1.327220425421728
 40
1.470572134938068
 40
1.595489863371303
 40
1.719934125348462
 40
1.850576620127503
 40
1.989059629987361
 40
2.134139054227004
 40
2.280698007207299
 40
2.424529739039543
 40
2.565929576985958
 40
2.708239260773578
 40
2.861717887443733
 40
3.045168540347453
 40
3.183798301138683
 40
3.31481396145548
 40
3.442083470447332
 40
3.569912708372967
 40
3.702177512509425
 40
3.842307559659553
 40
3.992872223245981
 40
4.156750662218339
 40
4.310981861107644
 40
4.445859909322684
 40
4.57239393613168
 40
4.701656719781998
 40
4.768279086008502
 40
4.835960697898422
 40
4.912788918729363
 40
5.006285208481563
 40
5.026909478751611
 40
5.047533749021119
 40
5.101808031471207
 40
5.162325165538498
 40
5.226919745995811
 40
5.29423180659669
 40
5.364544852554822
 40
5.438319055467878
 40
5.517877651324211
 40
5.607647714861523
 40
5.700449642544339
 40
5.788251142364005
 40
5.872714706039695
 40
5.955167292575176
 40
6.037192395190306
 40
6.120669181469033
 40
6.206848616686244
 40
6.296680855416628
 40
6.442558392872467
 40
6.568190371608165
 40
6.692904567360218
 40
6.824220446557004
 40
6.963121850329283
 40
7.107843738851053
 40
7.253431663907141
 40
7.395187468036515
 40
7.533140753237631
 40
7.67055045717508
 40
7.816236511769114
 40
7.98769165735904
 40
8.142277421969105
 40
8.293662615414828
 40
8.442962460879132
 40
8.591598316185163
 40
8.743678992361636
 40
8.903725323698964
 40
9.076307008890325
 40
9.265578604680433
 40
9.459203795360578
 40
9.617619810273265
 40
9.753609671361694
 40
9.874873300003907
 40
9.95452018497762
 40
10.02416413719235
 40
10.0976976440543
 40
10.18909955924954
 40
10.20974586420122
 40
10.2303921826337
 40
10.30057101881253
 40
10.37632012987527
 40
10.37632012987527
 40
10.37632012987527
 40
10.37632012987527
 10
170.1465954835851
 20
14.13795663215998
 10
170.1632217851219
 20
14.11720608845316
 10
170.1970784206577
 20
14.074951117119
 10
170.2599822541036
 20
14.02029811392075
 10
170.3332500940394
 20
13.97299025121053
 10
170.4175969238636
 20
13.93527231437938
 10
170.5132240615461
 20
13.91040619731952
 10
170.6171853775347
 20
13.90309559345935
 10
170.7224020220405
 20
13.91142322794055
 10
170.8206626371334
 20
13.94149179651525
 10
170.9058986427548
 20
13.98848822971878
 10
170.9779220206104
 20
14.0495299125085
 10
171.0350917709096
 20
14.12412969578586
 10
171.0767868747438
 20
14.21002464660178
 10
171.1026952846293
 20
14.30485850432213
 10
171.1118037332653
 20
14.41854979038368
 10
171.0986864796488
 20
14.54332587770781
 10
171.0325330334414
 20
14.66014719171893
 10
170.9369370919569
 20
14.74512539577377
 10
170.8249681022369
 20
14.81416684459161
 10
170.6993659583269
 20
14.87204142045893
 10
170.5656691620856
 20
14.92373723284338
 10
170.4313122818831
 20
14.97899092397185
 10
170.3051983986877
 20
15.04939770641645
 10
170.1926579987535
 20
15.13785540731252
 10
170.0969963064459
 20
15.24981067868478
 10
170.0334157151826
 20
15.39949910101384
 10
170.0200706505017
 20
15.55932794385146
 10
170.0320510987448
 20
15.71048405306848
 10
170.0712298928841
 20
15.8380924459154
 10
170.1354987750909
 20
15.95080874030844
 10
170.223820499974
 20
16.04648609268686
 10
170.3338091207628
 20
16.12354214985749
 10
170.4632284401265
 20
16.18151396936283
 10
170.6111838967793
 20
16.21739177588823
 10
170.7682069455487
 20
16.22746719050559
 10
170.917494046643
 20
16.2186363776259
 10
171.0596253614171
 20
16.19074899340353
 10
171.1595922609625
 20
16.1341331470114
 10
171.3125074736186
 20
16.08674602105506
 10
171.2455131717168
 20
16.00197553001186
 10
171.2296479120268
 20
15.93438901873486
 10
171.1978750531297
 20
15.86926092793189
 10
171.2150202209571
 20
15.76723453256956
 10
171.1666427208232
 20
15.77493211681903
 10
171.1315789440766
 20
15.76806771724811
 10
171.1296697985718
 20
15.83263831158198
 10
171.0985692931989
 20
15.87825639621394
 10
171.0664551628455
 20
15.93561036628454
 10
171.0208038475168
 20
15.98540462692557
 10
170.9658508218387
 20
16.02994813718998
 10
170.9010841173007
 20
16.06763988836547
 10
170.8232377310597
 20
16.0928337579135
 10
170.7355160553352
 20
16.09931230998107
 10
170.6452903277807
 20
16.09235709285608
 10
170.5594594694065
 20
16.06909190460923
 10
170.4828343638596
 20
16.03131644107552
 10
170.4165265636202
 20
15.98051641089563
 10
170.3622560536963
 20
15.91731143407216
 10
170.3224925345459
 20
15.8427645571037
 10
170.2976775510588
 20
15.75917313997765
 10
170.289212426287
 20
15.65192948382289
 10
170.3019697987104
 20
15.52965457267564
 10
170.3681548409274
 20
15.41149724291215
 10
170.4640977399833
 20
15.32606325709529
 10
170.5757914963183
 20
15.2558336230673
 10
170.7010863668703
 20
15.19659162305303
 10
170.8349823941449
 20
15.14616708086143
 10
170.968993033315
 20
15.0932251698438
 10
171.0950885316915
 20
15.0275017062517
 10
171.2076216638418
 20
14.94480352537328
 10
171.3031370284232
 20
14.83996006310066
 10
171.3672706486963
 20
14.69937117251572
 10
171.3811103725278
 20
14.5406540945159
 10
171.367395471223
 20
14.38153155217877
 10
171.3244739153986
 20
14.23483828819207
 10
171.2545906329065
 20
14.10119796587144
 10
171.1574592213829
 20
13.98532387699293
 10
171.0347806023657
 20
13.89089981770094
 10
170.8874408413168
 20
13.82179270651974
 10
170.7177132497124
 20
13.77953210858859
 10
170.5317404979597
 20
13.76781736230415
 10
170.3528955926184
 20
13.77809486683442
 10
170.1881733753744
 20
13.81966573769152
 10
170.0834410841057
 20
13.88797642883944
 10
169.9350960790366
 20
13.93675219032107
 10
169.9980378194729
 20
14.02976591290843
 10
170.0072274430059
 20
14.10296536248285
 10
170.0303711301232
 20
14.1693629450135
 10
170.0034588335317
 20
14.26974809527582
 10
170.0521338956339
 20
14.26234033517378
 10
170.0916530580698
 20
14.26894063620896
 10
170.0996204944702
 20
14.19078703218938
 10
170.1305436967923
 20
14.15600927375861
 10
170.1465954835851
 20
14.13795663215998
 97
        1
330
A4
 75
     1
 76
     2
 52
45.0
 41
0.1
 77
     0
 78
     1
 53
45.0
 43
0.0
 44
0.0
 45
-0.282842712474619
 46
0.0
 79
     0
 98
        1
 10
0.0
 20
0.0
  0
HATCH
  5
C3
330
48
100
AcDbEntity
  8
1
  6
Continuous
 62
     2
100
AcDbHatch
 10
0.0
 20
0.0
 30
0.0
210
0.0
220
0.0
230
1.0
  2
CUSTOM1
 70
     0
 71
     1
 91
        2
 92
        1
 93
        1
 72
     4
 94
        3
 73
     0
 74
     0
 95
       57
 96
       53
 40
0.0
 40
0.0
 40
0.0
 40
0.0
 40
0.0471632082810121
 40
0.0914861054633049
 40
0.1357762519703
 40
0.1826527001610727
 40
0.2295203288572635
 40
0.2737751972221658
 40
0.3181310461543124
 40
0.3652607198399453
 40
0.457100728631508
 40
0.5671851029166065
 40
0.6894623283869417
 40
0.818175827254643
 40
0.951008722927457
 40
1.085852229674206
 40
1.218126164475411
 40
1.34354513114245
 40
1.454537202956923
 40
1.567187607530875
 40
1.680710966642466
 40
1.794226869736859
 40
1.900009184247687
 40
2.004085860448138
 40
2.108162674451911
 40
2.21400015015537
 40
2.496038577352246
 40
2.762350745479414
 40
2.997275353279518
 40
3.18511008213783
 40
3.246407890064003
 40
3.312607550212678
 40
3.378877742711666
 40
3.440140399651551
 40
4.10050169600659
 40
4.754913085563691
 40
5.411331693424031
 40
6.077890432568772
 40
6.110575292671051
 40
6.143260152775831
 40
6.367989363395206
 40
6.610525374951607
 40
6.863389136467363
 40
7.119380025547647
 40
7.376036605091131
 40
7.631164770966397
 40
7.87672242545644
 40
8.10495373585601
 40
8.312916685924302
 40
8.497730294941334
 40
8.651018984313895
 40
8.764738853624646
 40
8.764738853624646
 40
8.764738853624646
 40
8.764738853624646
 10
174.7922649500514
 20
13.81626739612929
 10
174.7766616726932
 20
13.81826231079081
 10
174.7463947960302
 20
13.82213201360304
 10
174.7010994202252
 20
13.82341984967276
 10
174.6559553129349
 20
13.82308683554058
 10
174.60990171234
 20
13.82314658674232
 10
174.5640496172097
 20
13.82325813650008
 10
174.5183711648166
 20
13.82277833456599
 10
174.4750811541608
 20
13.82461109618726
 10
174.4039947951514
 20
13.80049556814654
 10
174.4057477261442
 20
13.92184693977255
 10
174.3586196370569
 20
14.00726239751233
 10
174.3191478251762
 20
14.12486929345136
 10
174.2706635532646
 20
14.24232752540441
 10
174.2201017402523
 20
14.36405935761512
 10
174.1718634610476
 20
14.49075967862461
 10
174.1135232947595
 20
14.59933687784958
 10
174.0980892667262
 20
14.75620657134414
 10
173.9566586330636
 20
14.72373446548326
 10
173.8508397414904
 20
14.73512888682173
 10
173.7358569725223
 20
14.73392591514624
 10
173.6253142252141
 20
14.73506945347414
 10
173.5176583522783
 20
14.73418350037535
 10
173.4121322529242
 20
14.73416602390513
 10
173.3109192682012
 20
14.72714032472419
 10
173.1266804827754
 20
14.75135859859865
 10
173.1157393685411
 20
14.44741691121886
 10
173.008769163475
 20
14.22353177253397
 10
172.9098148604347
 20
14.03895314292496
 10
172.9225090524007
 20
13.79530204804206
 10
172.8050091716397
 20
13.82508046753203
 10
172.7422055868311
 20
13.82258089509612
 10
172.67858720934
 20
13.82344075102811
 10
172.3946014194075
 20
13.78098039941934
 10
173.0251638499383
 20
14.50081952444791
 10
173.1087645289072
 20
15.01276539435729
 10
173.4929252789338
 20
15.53353743550049
 10
173.4777208288565
 20
16.23519626253207
 10
173.7239265722697
 20
16.22345633081254
 10
173.8256346157561
 20
16.2322500445277
 10
173.8249752035818
 20
15.98059650730347
 10
173.942831715583
 20
15.79818020733962
 10
174.0315515260484
 20
15.55563740662863
 10
174.1322292485261
 20
15.32340030530134
 10
174.2311142712242
 20
15.08674644566911
 10
174.3299676990671
 20
14.85461739170098
 10
174.4256166390925
 20
14.63122222788785
 10
174.5159904573271
 20
14.42272549049317
 10
174.5989944568188
 20
14.23308448529322
 10
174.6726088582799
 20
14.06663106068099
 10
174.7342815895546
 20
13.92917699626101
 10
174.7749458885605
 20
13.84999239430037
 10
174.7922649500514
 20
13.81626739612929
 97
        1
330
A5
 92
       16
 93
        1
 72
     4
 94
        3
 73
     0
 74
     0
 95
       25
 96
       21
 40
0.0
 40
0.0
 40
0.0
 40
0.0
 40
0.0911479969065103
 40
0.1858117896205795
 40
0.2804128399735337
 40
0.3715889190715642
 40
0.4679080494219556
 40
0.5642683809229223
 40
0.6605683222645563
 40
0.7569653015811094
 40
0.856134817252366
 40
1.092615965104414
 40
1.374867658142029
 40
1.611348812011782
 40
1.710518328425439
 40
1.809403163726764
 40
2.045205463294284
 40
2.326646917622365
 40
2.562449217190847
 40
2.661334043834173
 40
2.661334043834173
 40
2.661334043834173
 40
2.661334043834173
 10
173.2683700567199
 20
14.88614538197288
 10
173.2987525917923
 20
14.88598079714552
 10
173.3606895889112
 20
14.88564528689921
 10
173.4541356960331
 20
14.88269055452001
 10
173.5475095236359
 20
14.87977752877152
 10
173.6417760753477
 20
14.87894201643415
 10
173.7354964790968
 20
14.87996644658047
 10
173.8352040303204
 20
14.87916977470966
 10
173.9188949546314
 20
14.88921410235226
 10
174.0637996315046
 20
14.86234617674158
 10
173.9396132444802
 20
15.03665530280048
 10
173.8965867286283
 20
15.1965171100609
 10
173.7808922142209
 20
15.45518458550217
 10
173.7017565431257
 20
15.5923105286186
 10
173.6431576621816
 20
15.80937033134081
 10
173.5864803939438
 20
15.5926613421343
 10
173.5052809900477
 20
15.45327012438237
 10
173.4063701281488
 20
15.20406969370194
 10
173.325362509426
 20
15.0192583022607
 10
173.2813683325838
 20
14.91650446856113
 10
173.2683700567199
 20
14.88614538197288
 97
        1
330
A6
 75
     1
 76
     2
 52
45.0
 41
0.1
 77
     0
 78
     1
 53
45.0
 43
0.0
 44
0.0
 45
-0.282842712474619
 46
0.0
 79
     0
 98
        1
 10
0.0
 20
0.0
  0
HATCH
  5
C4
330
48
100
AcDbEntity
  8
1
  6
Continuous
 62
     2
100
AcDbHatch
 10
0.0
 20
0.0
 30
0.0
210
0.0
220
0.0
230
1.0
  2
CUSTOM2
 70
     0
 71
     1
 91
        1
 92
        1
 93
        1
 72
     4
 94
        3
 73
     0
 74
     0
 95
       95
 96
       91
 40
0.0
 40
0.0
 40
0.0
 40
0.0
 40
0.6550406656911663
 40
1.308087289031915
 40
1.420803739835768
 40
1.566130759770805
 40
1.7570673418884
 40
2.006513545026406
 40
2.087328263121524
 40
2.185328872295647
 40
2.294612454748385
 40
2.408936380534803
 40
2.526802767798552
 40
2.646360524615598
 40
2.762535723971566
 40
2.870057342870139
 40
2.96688344843158
 40
3.050803243518198
 40
3.11581822243655
 40
3.156030057150208
 40
3.213914225080142
 40
3.276689026450629
 40
3.342960320981264
 40
3.40423066715046
 40
3.453822809493294
 40
3.532499827188353
 40
3.63477518850707
 40
3.754909333008029
 40
3.889736761660548
 40
4.035769602175129
 40
4.187256681197512
 40
4.338733685675893
 40
4.488478734676038
 40
4.63470831783153
 40
4.771493189921181
 40
4.892686571561064
 40
5.199775528944305
 40
5.46035356692955
 40
5.667603142345372
 40
5.814722905404337
 40
5.828990806219664
 40
5.855488336304389
 40
5.869756237118749
 40
6.189796507762705
 40
6.531890469872935
 40
6.883053637016848
 40
7.230512024911405
 40
7.566966656764436
 40
7.885203559707333
 40
8.172887439719153
 40
8.418011594062675
 40
8.443926721190596
 40
8.510760470613087
 40
8.6021453937956
 40
8.701714041647046
 40
8.793098965075282
 40
8.859932715057857
 40
8.885847842603507
 40
9.242301256612695
 40
9.589275455016695
 40
9.92180854316406
 40
10.23479624298456
 40
10.29968150889174
 40
10.35323493887765
 40
10.40154625355147
 40
10.46482922477814
 40
10.5597390066839
 40
10.69239545985599
 40
10.84920353475658
 40
11.01626328594757
 40
11.18672024367428
 40
11.35372582577198
 40
11.50257442292412
 40
11.6186649502328
 40
11.71329869152861
 40
11.82511050573893
 40
11.94464880845704
 40
12.06929242642493
 40
12.1970729043516
 40
12.32562632860516
 40
12.45034565331262
 40
12.56646595170315
 40
12.67099007414619
 40
12.76077625936763
 40
12.82703233506676
 40
12.87429132785973
 40
12.89831990323313
 40
12.92234847860001
 40
13.53984767410299
 40
14.18294284359337
 40
14.18294284359337
 40
14.18294284359337
 40
14.18294284359337
 10
177.3067935648022
 20
14.7089803820173
 10
177.1752019758551
 20
14.82265058603235
 10
176.9124193802728
 20
15.04964496316157
 10
176.3997393441023
 20
15.89214462956286
 10
176.4106654595362
 20
15.5342337757702
 10
176.4041226527993
 20
15.39267392272134
 10
176.4028026631773
 20
15.19421305299283
 10
176.4018117602538
 20
15.02150296045986
 10
176.4024101751974
 20
14.87865373257581
 10
176.4038994301882
 20
14.78265005413356
 10
176.4055683588473
 20
14.6754550326314
 10
176.4071934954619
 20
14.56164211517581
 10
176.4092429501686
 20
14.44441572604589
 10
176.4123165501928
 20
14.3265641123297
 10
176.4156339697043
 20
14.21228087320621
 10
176.419360534028
 20
14.10521401867279
 10
176.4217338161426
 20
14.01007408766927
 10
176.4278718888359
 20
13.92558557205702
 10
176.4239784495947
 20
13.86923087298147
 10
176.4455230443077
 20
13.79825022472355
 10
176.3680940058618
 20
13.82902677604491
 10
176.311635324019
 20
13.82011242517622
 10
176.2540495896806
 20
13.82896218398279
 10
176.1690163478474
 20
13.79738225225947
 10
176.2009714146382
 20
13.88095155992195
 10
176.199070528254
 20
13.94882608968313
 10
176.21079600473
 20
14.05233256764421
 10
176.2164241053
 20
14.17002125616695
 10
176.2237902178941
 20
14.30388609164424
 10
176.232075970161
 20
14.44764152872634
 10
176.2398851897427
 20
14.59714022843449
 10
176.2457571222659
 20
14.74792549402082
 10
176.2503667817968
 20
14.89699943878444
 10
176.2542632117542
 20
15.04122913163027
 10
176.2570715126564
 20
15.1758390521302
 10
176.2576698755022
 20
15.36469614347354
 10
176.2616023867151
 20
15.58975494313153
 10
176.2442175378498
 20
15.86367091125708
 10
176.2850417342582
 20
16.02787112098596
 10
176.1995153256003
 20
16.22749661465095
 10
176.2660558907688
 20
16.22385458403975
 10
176.2838724273231
 20
16.22413447160851
 10
176.4056801797501
 20
16.22632927398611
 10
176.5080770335464
 20
15.94675118721513
 10
176.7580021509356
 20
15.74563008536004
 10
176.9870035331111
 20
15.4779261498791
 10
177.224515121311
 20
15.22646413862384
 10
177.4486090740772
 20
14.98969974061351
 10
177.675071628301
 20
14.73218692583082
 10
177.8325687886516
 20
14.61649335056926
 10
178.0472129612675
 20
14.27997152538794
 10
178.0422645974619
 20
14.40464754091604
 10
178.0433931602547
 20
14.46327691935737
 10
178.0428877841518
 20
14.55043662371978
 10
178.0430475158114
 20
14.64416143182873
 10
178.0430054891319
 20
14.73018971297036
 10
178.0430202040374
 20
14.79153891945497
 10
178.0429706255985
 20
14.94135231520995
 10
178.0458811522811
 20
15.17989612510107
 10
178.0259521041162
 20
15.54486509868701
 10
178.0750433936247
 20
15.80799631993417
 10
177.917795150918
 20
16.21928904947747
 10
178.0762112872422
 20
16.16398282551749
 10
178.1311680478629
 20
16.16199686500178
 10
178.182788776674
 20
16.16264778248252
 10
178.2713198965365
 20
16.20369527738242
 10
178.220489830317
 20
16.05696326622989
 10
178.2313389930284
 20
15.95019971954436
 10
178.2166036994848
 20
15.79085705414119
 10
178.2099976446204
 20
15.62853061652879
 10
178.2014961399916
 20
15.459925218924
 10
178.1943227202199
 20
15.29814814703542
 10
178.188906321539
 20
15.15422331457933
 10
178.1871713967649
 20
15.03437493466926
 10
178.1875440672319
 20
14.92686101590515
 10
178.1873656126264
 20
14.81820024645587
 10
178.1877010863141
 20
14.69953570165531
 10
178.1890040622183
 20
14.57555163512742
 10
178.1908887351574
 20
14.44858294171106
 10
178.1925004454852
 20
14.32153861551034
 10
178.194140313743
 20
14.19854884492179
 10
178.1962570745753
 20
14.08300931383762
 10
178.1963848422364
 20
13.98090903955841
 10
178.2006514396554
 20
13.89009848838161
 10
178.190844008529
 20
13.83213621208792
 10
178.2118474771688
 20
13.76517130132036
 10
178.1725639739897
 20
13.77291153966695
 10
177.9595307117741
 20
13.75755254145195
 10
177.7636297943189
 20
14.31403058094468
 10
177.4611197631544
 20
14.57556035348513
 10
177.3067935648022
 20
14.7089803820173
 97
        1
330
A7
 75
     1
 76
     2
 52
45.0
 41
0.1
 77
     0
 78
     1
 53
45.0
 43
0.0
 44
0.0
 45
-0.282842712474619
 46
0.0
 79
     0
 98
        1
 10
0.0
 20
0.0
  0
HATCH
  5
C5
330
48
100
AcDbEntity
  8
1
  6
Continuous
 62
     2
100
AcDbHatch
 10
0.0
 20
0.0
 30
0.0
210
0.0
220
0.0
230
1.0
  2
CUSTOM3
 70
     0
 71
     1
 91
        1
 92
        1
 93
        1
 72
     4
 94
        3
 73
     0
 74
     0
 95
      110
 96
      106
 40
0.0
 40
0.0
 40
0.0
 40
0.0
 40
0.2203406257278051
 40
0.4407808782838128
 40
0.5952494494615103
 40
0.7488431659393089
 40
0.902358183130965
 40
1.056801968670407
 40
1.210736449099964
 40
1.363041386539871
 40
1.515315729683184
 40
1.669377239148163
 40
1.721611652756634
 40
1.773199502942973
 40
1.824933793210066
 40
1.877110426488015
 40
1.982682281206832
 40
2.078781667087671
 40
2.17280964082239
 40
2.271937807379043
 40
2.378349933379438
 40
2.494131557736628
 40
2.626681683943731
 40
2.783145050796102
 40
2.890701232940927
 40
2.993130312454774
 40
3.099869730691783
 40
3.220237816691326
 40
3.352695482737583
 40
3.481732806389797
 40
3.593499473690336
 40
3.674323013331853
 40
3.817951711952718
 40
3.946167120793715
 40
4.061405053453485
 40
4.16648079600304
 40
4.262478775059162
 40
4.350736673551147
 40
4.433071991253977
 40
4.511216293814523
 40
4.564262454117837
 40
4.618474415571469
 40
4.670128488754073
 40
4.722296879126326
 40
4.8195409453142
 40
4.931194984128054
 40
5.049996040257697
 40
5.168643755415242
 40
5.283970811762397
 40
5.392260784910166
 40
5.486512254876241
 40
5.559178233949669
 40
5.59142585285332
 40
5.626215969637694
 40
5.66715583867425
 40
5.717449290214006
 40
5.738402360944635
 40
5.784499116553636
 40
5.830595872164642
 40
5.851548942897514
 40
5.873019280661627
 40
5.924217778408169
 40
5.985325662817544
 40
6.036524160567556
 40
6.057994498334084
 40
6.236847789607328
 40
6.381409928945528
 40
6.49319042417853
 40
6.574067534230291
 40
6.691018086205328
 40
6.814881554220302
 40
6.94430782324017
 40
7.071266716065795
 40
7.193488604461693
 40
7.309042773127945
 40
7.414007203170519
 40
7.505140441886341
 40
7.531150360599552
 40
7.559221645322076
 40
7.5872022189208
 40
7.612569159499028
 40
7.66255080948089
 40
7.702878875764008
 40
7.857328205230823
 40
8.01079956808844
 40
8.16525639965742
 40
8.322232698713844
 40
8.479564855016445
 40
8.635216230290649
 40
8.790882550925623
 40
8.948305154947219
 40
9.16827183903292
 40
9.387358980987155
 40
9.608047961033428
 40
9.832914234792648
 40
9.858338694962981
 40
9.925366817229984
 40
10.02013071422756
 40
10.12876249858994
 40
10.23739428295244
 40
10.33215817995185
 40
10.39918630222387
 40
10.42461076239777
 40
10.64992019336936
 40
10.8718852453118
 40
10.8718852453118
 40
10.8718852453118
 40
10.8718852453118
 10
179.9057788376619
 20
15.73923260398189
 10
179.9092864933542
 20
15.80616462073804
 10
179.9163033987664
 20
15.94005891915858
 10
179.8198027599072
 20
16.22548554971468
 10
180.0510134726109
 20
16.16284386190282
 10
180.1919290057156
 20
16.17001554055998
 10
180.3490417757588
 20
16.16235883078244
 10
180.5025913427287
 20
16.16252752283043
 10
180.6545104935082
 20
16.16182040535431
 10
180.8142214813232
 20
16.17210158351647
 10
180.9408972601118
 20
16.15496511080749
 10
181.1370821122082
 20
16.22727260107145
 10
181.1034395279078
 20
16.1264069908012
 10
181.1052011317184
 20
16.07619253947674
 10
181.1027342073458
 20
16.0271233558647
 10
181.1347076966012
 20
15.94063490847005
 10
181.0010399903256
 20
15.98997438608336
 10
180.9172208688057
 20
15.98430634314172
 10
180.8173861139324
 20
15.99465516706297
 10
180.7186576720146
 20
16.00086450411087
 10
180.612153277111
 20
16.00697763816779
 10
180.491051169806
 20
16.01588883484595
 10
180.3703381502453
 20
16.0052160591238
 10
180.1812553843438
 20
16.06468503080362
 10
180.2129028505311
 20
15.90558320077541
 10
180.1995563316833
 20
15.80839128339907
 10
180.197495842645
 20
15.69634065110105
 10
180.1958188044671
 20
15.57699685629352
 10
180.1973336794233
 20
15.45032592155112
 10
180.195658247867
 20
15.3230158801612
 10
180.2058844271658
 20
15.22451566404468
 10
180.1779006596583
 20
15.08388702625637
 10
180.3508029999305
 20
15.13989551134098
 10
180.4645020202772
 20
15.12719951478499
 10
180.5840151672239
 20
15.13448377051257
 10
180.6888491425072
 20
15.1387801705676
 10
180.7843084898612
 20
15.14330568258978
 10
180.8763823507033
 20
15.15149201146201
 10
180.9476551782439
 20
15.14643850638114
 10
181.0544931705684
 20
15.18536425031677
 10
181.0226603598036
 20
15.10517122005881
 10
181.0266164503929
 20
15.05562936846036
 10
181.0234502392014
 20
15.00557478039821
 10
181.0550791490584
 20
14.92128847612016
 10
180.9210133677692
 20
14.97425365495164
 10
180.82923227932
 20
14.96540080890436
 10
180.7079729189602
 20
14.97570049965157
 10
180.5914113119771
 20
14.977489117675
 10
180.4783375745879
 20
14.97787017109694
 10
180.3679246308471
 20
14.9841544947218
 10
180.2898124067841
 20
14.97189133255371
 10
180.1913625833645
 20
15.00453887616128
 10
180.2012355173561
 20
14.94769748054208
 10
180.1973923244402
 20
14.91392130557987
 10
180.1966789884268
 20
14.87119604709415
 10
180.1963369642975
 20
14.83401607262159
 10
180.1963834255345
 20
14.79487237370776
 10
180.1963649429927
 20
14.75716849497688
 10
180.1963703431806
 20
14.71944955232403
 10
180.1963697214201
 20
14.68994324745148
 10
180.1963698151545
 20
14.65873577699299
 10
180.1963704287921
 20
14.61414424908083
 10
180.1963671499337
 20
14.55963956508849
 10
180.196375962348
 20
14.51505540201446
 10
180.1963359653419
 20
14.4311780858574
 10
180.1976024270254
 20
14.31737520677676
 10
180.1950274117842
 20
14.16830395933708
 10
180.2065009381719
 20
14.06597203813905
 10
180.1823506222265
 20
13.93338903885841
 10
180.3332993946476
 20
13.97895732272026
 10
180.4428436671556
 20
13.96427012162356
 10
180.5733970473921
 20
13.96920435125063
 10
180.6990312209514
 20
13.97257705323373
 10
180.8188730625602
 20
13.97711497498776
 10
180.9391362611427
 20
13.99048536181997
 10
181.0222761663517
 20
13.98068712782599
 10
181.1456080421074
 20
14.0412621462333
 10
181.1244269203958
 20
13.98532460134025
 10
181.1235950270118
 20
13.95939249372349
 10
181.121896370756
 20
13.93197256190941
 10
181.121797488883
 20
13.89738195206385
 10
181.120365930133
 20
13.86050408220767
 10
181.1532804192191
 20
13.76846841021809
 10
180.9551306988108
 20
13.84132015974837
 10
180.8300548294892
 20
13.81825726508614
 10
180.6673071295156
 20
13.82454021985794
 10
180.5129366450002
 20
13.82260943909933
 10
180.3566670436944
 20
13.82393762599276
 10
180.1970544465282
 20
13.8205987248787
 10
180.0540326342238
 20
13.83265795728247
 10
179.8197144881627
 20
13.76952001976917
 10
179.9173810751198
 20
14.05620527466318
 10
179.900686878006
 20
14.24988308142662
 10
179.9146296709685
 20
14.47848242880297
 10
179.9142987846634
 20
14.63384593955051
 10
179.9143078119264
 20
14.7396633644413
 10
179.9143055876317
 20
14.80205784124217
 10
179.914306555189
 20
14.89220425248329
 10
179.9143065473262
 20
14.99621167157439
 10
179.9143053861104
 20
15.10022131375298
 10
179.9143090971502
 20
15.19036243688768
 10
179.9143011051052
 20
15.25276803097215
 10
179.914333427502
 20
15.3586883596112
 10
179.9131440788319
 20
15.51626716544739
 10
179.9082216489257
 20
15.66528219822065
 10
179.9057788376619
 20
15.73923260398189
 97
        1
330
A8
 75
     1
 76
     2
 52
45.0
 41
0.1
 77
     0
 78
     1
 53
45.0
 43
0.0
 44
0.0
 45
-0.282842712474619
 46
0.0
 79
     0
 98
        1
 10
0.0
 20
0.0
  0
HATCH
  5
C6
330
48
100
AcDbEntity
  8
1
  6
Continuous
 62
     2
100
AcDbHatch
 10
0.0
 20
0.0
 30
0.0
210
0.0
220
0.0
230
1.0
  2
CUSTOM4
 70
     0
 71
     1
 91
        1
 92
        1
 93
        1
 72
     4
 94
        3
 73
     0
 74
     0
 95
       47
 96
       43
 40
0.0
 40
0.0
 40
0.0
 40
0.0
 40
0.2207912809957693
 40
0.445940418630319
 40
0.4902387190458269
 40
0.5327473892722002
 40
0.5742260451225077
 40
0.6155432630560651
 40
0.6568164066315282
 40
0.6982511618780523
 40
0.7407663929316121
 40
0.7851366743174171
 40
1.010288833836183
 40
1.231080507002081
 40
1.451765243652264
 40
1.676638205891546
 40
1.720461045359519
 40
1.830018144043384
 40
1.972442372353019
 40
2.114866600677388
 40
2.224423699395016
 40
2.268246538883258
 40
2.493628801207069
 40
2.715602830286498
 40
2.934211330706227
 40
3.149502369855221
 40
3.231387784850783
 40
3.318231873853819
 40
3.405143198197864
 40
3.486970301720218
 40
3.70225817249366
 40
3.920866283533866
 40
4.142839325931685
 40
4.368221903865128
 40
4.412044743359609
 40
4.521601842095625
 40
4.664026070452107
 40
4.80645029880882
 40
4.916007397546514
 40
4.959830237042838
 40
5.184703515846869
 40
5.405387250767197
 40
5.405387250767197
 40
5.405387250767197
 40
5.405387250767197
 10
182.6507427258645
 20
15.73406440953869
 10
182.6568139420003
 20
15.79758482501207
 10
182.6690762107244
 20
15.92587938689622
 10
182.5604706879413
 20
16.20166220174079
 10
182.6761985896605
 20
16.17188133432049
 10
182.7171842509016
 20
16.16765556262829
 10
182.7591205797519
 20
16.16310446389605
 10
182.8004196625711
 20
16.16201982929488
 10
182.8417032115556
 20
16.16310338195226
 10
182.8836148270648
 20
16.1676611271135
 10
182.9245983549019
 20
16.17187430209727
 10
183.0404922843488
 20
16.20177611317533
 10
182.9295652727457
 20
15.92339806609888
 10
182.9574856365269
 20
15.74283140824953
 10
182.940426734697
 20
15.50961042346472
 10
182.9414637282104
 20
15.34906622543147
 10
182.9414099399405
 20
15.22284817558723
 10
182.9414277372482
 20
15.12428963336242
 10
182.9414188581081
 20
14.99280702442964
 10
182.9414263928035
 20
14.86132844968651
 10
182.9414129405129
 20
14.76276222694091
 10
182.9414531717493
 20
14.63639735624153
 10
182.9406746403817
 20
14.47482068822871
 10
182.9565958319268
 20
14.24361821892915
 10
182.9333468885408
 20
14.05874351972004
 10
183.0360183444365
 20
13.78935602770056
 10
182.8820238362837
 20
13.82660112685823
 10
182.8004129802833
 20
13.82137994680543
 10
182.7188192292583
 20
13.82660620378357
 10
182.5648513666844
 20
13.78937069885387
 10
182.6674183421918
 20
14.05875129862883
 10
182.6442045316088
 20
14.24361585325416
 10
182.6600444655139
 20
14.47482218565639
 10
182.6593296313428
 20
14.63639712308505
 10
182.6593664569906
 20
14.76276231210521
 10
182.6593549000271
 20
14.86132756635983
 10
182.6593575019213
 20
14.9928112741722
 10
182.6593648531779
 20
15.12427548031201
 10
182.6593442541351
 20
15.22287786275328
 10
182.6594082192028
 20
15.34896149354428
 10
182.658173394759
 20
15.51210091383771
 10
182.6532040396745
 20
15.66054183777549
 10
182.6507427258645
 20
15.73406440953869
 97
        1
330
A9
 75
     1
 76
     2
 52
45.0
 41
0.1
 77
     0
 78
     1
 53
45.0
 43
0.0
 44
0.0
 45
-0.282842712474619
 46
0.0
 79
     0
 98
        1
 10
0.0
 20
0.0
  0
HATCH
  5
C7
330
48
100
AcDbEntity
  8
1
  6
Continuous
 62
     2
100
AcDbHatch
 10
0.0
 20
0.0
 30
0.0
210
0.0
220
0.0
230
1.0
  2
CUSTOM5
 70
     0
 71
     1
 91
        1
 92
        1
 93
        1
 72
     4
 94
        3
 73
     0
 74
     0
 95
      118
 96
      114
 40
0.0
 40
0.0
 40
0.0
 40
0.0
 40
0.1054708162973325
 40
0.2466098270051825
 40
0.3965912874591371
 40
0.5285525069754171
 40
0.6156245055642761
 40
0.6431434105797862
 40
0.7036850037986481
 40
0.7642265984504792
 40
0.7917455052355068
 40
0.9287404319990369
 40
1.106572819088141
 40
1.287544879681178
 40
1.317578308030697
 40
1.399928030857335
 40
1.522968204800112
 40
1.675072986590738
 40
1.844616533180821
 40
2.019973001638888
 40
2.189516548880205
 40
2.341621331585545
 40
2.464661506320684
 40
2.54701122964725
 40
2.577044658168216
 40
2.603797890893258
 40
2.662655002908945
 40
2.721512114949729
 40
2.74826534770288
 40
2.774215307344955
 40
2.845959313407286
 40
2.95433855658848
 40
3.090194227585657
 40
3.244367517100622
 40
3.407699615844376
 40
3.571031714539522
 40
3.725205003920196
 40
3.861060674729696
 40
3.969439917716386
 40
4.041183923629058
 40
4.067133883213051
 40
4.311886746012279
 40
4.547897258335665
 40
4.764747083044085
 40
4.952749679951815
 40
5.045772974195914
 40
5.137862019645093
 40
5.330543169793102
 40
5.553448265244074
 40
5.795083855888252
 40
6.043293412177324
 40
6.28576169554129
 40
6.313902908752802
 40
6.384255941793392
 40
6.475714884766981
 40
6.567173827759015
 40
6.637526860839793
 40
6.665668074074156
 40
6.692018920328118
 40
6.749990782071165
 40
6.80796264379051
 40
6.834313490017972
 40
6.856393084245251
 40
6.913335195649903
 40
6.991194817302538
 40
7.076026942283771
 40
7.153886563725318
 40
7.210828674844872
 40
7.232908268931207
 40
7.25819933492373
 40
7.324875781592385
 40
7.419142481925049
 40
7.527204308841999
 40
7.635266135230586
 40
7.729532834168579
 40
7.796209279292905
 40
7.821500344594855
 40
7.844652988850926
 40
7.899863140541677
 40
7.965759128053815
 40
8.020969279771071
 40
8.044121924046538
 40
8.069356610160598
 40
8.109134395441398
 40
8.132238100191113
 40
8.193147867786479
 40
8.279261678876658
 40
8.377977512673876
 40
8.476693347146668
 40
8.562807160411724
 40
8.623716930826513
 40
8.646820636853468
 40
8.67198879377428
 40
8.734909185828192
 40
8.816705695188906
 40
8.898502204815477
 40
8.961422597377938
 40
8.98659075455105
 40
9.012941600733194
 40
9.070913462380256
 40
9.128885324081727
 40
9.155236170325036
 40
9.180404327929079
 40
9.243324721948152
 40
9.325121234211945
 40
9.4069177466376
 40
9.469838141978055
 40
9.49500628827083
 40
9.517811184378976
 40
9.572192090486993
 40
9.637098333281239
 40
9.691479239515456
 40
9.7142841256435
 40
9.7142841256435
 40
9.7142841256435
 40
9.7142841256435
 10
185.2874469028653
 20
15.26889163187718
 10
185.3090990569038
 20
15.2411186924281
 10
185.3597257109473
 20
15.17618054561236
 10
185.4349383202592
 20
15.06891060312897
 10
185.5248482274346
 20
14.95377438266626
 10
185.5709169676674
 20
14.85357045748315
 10
185.6655825294656
 20
14.78434006814943
 10
185.6204439320414
 20
14.73771639678271
 10
185.5947047785791
 20
14.69660308866039
 10
185.5645196708013
 20
14.6606597172794
 10
185.5193684730563
 20
14.58579782596093
 10
185.4710504458563
 20
14.80782524253609
 10
185.3968539713073
 20
14.84510677337711
 10
185.2836047324606
 20
15.11610202130611
 10
185.288513357817
 20
15.00095328446237
 10
185.2868486556306
 20
14.92836675781636
 10
185.2876830076714
 20
14.80625588483995
 10
185.2873609540264
 20
14.65913800810469
 10
185.2875076912455
 20
14.49307063956564
 10
185.2872950092722
 20
14.32187554608609
 10
185.2879497252034
 20
14.15552828635505
 10
185.2859192461138
 20
14.009351730557
 10
185.2913460399931
 20
13.88471047474617
 10
185.2804930868707
 20
13.81718656540633
 10
185.2956739155555
 20
13.75549061417029
 10
185.2457895108134
 20
13.76727503897007
 10
185.2017150342522
 20
13.75943822779976
 10
185.1582371630201
 20
13.76760441372708
 10
185.1092346786489
 20
13.75538056738475
 10
185.1218731234826
 20
13.8096066724932
 10
185.113018296845
 20
13.86936918907564
 10
185.1175058770314
 20
13.97922029044376
 10
185.1157960135992
 20
14.11029975405684
 10
185.1163550915987
 20
14.26198011444333
 10
185.1161928768695
 20
14.42211074929958
 10
185.1162269924676
 20
14.58236865674571
 10
185.1162514960127
 20
14.73370247520444
 10
185.1161453543226
 20
14.86582156338605
 10
185.1164299141931
 20
14.97294802533198
 10
185.1158675547568
 20
15.03808619579477
 10
185.1180765083691
 20
15.16618957858682
 10
185.0319435998603
 20
14.79097610391575
 10
184.95551408185
 20
14.63918193123396
 10
184.8660040767833
 20
14.47766206446309
 10
184.7640413217327
 20
14.20471848820183
 10
184.7187976491039
 20
14.36717346596517
 10
184.610235594167
 20
14.45605432058127
 10
184.7995791751753
 20
14.60549794961414
 10
184.85653405457
 20
14.7974913697493
 10
184.9717520993352
 20
15.02899622906758
 10
184.9940151630134
 20
15.21797259759068
 10
185.1771905152139
 20
15.49454089325936
 10
185.0538033597553
 20
15.48698978832099
 10
184.9925684166834
 20
15.48856772366123
 10
184.9081999617065
 20
15.48882592573678
 10
184.8204235085966
 20
15.48544845751211
 10
184.7656768696123
 20
15.49394814982025
 10
184.7104703026025
 20
15.48048561049793
 10
184.7222823035537
 20
15.52931442126767
 10
184.7142496151795
 20
15.5726900489671
 10
184.7228186104678
 20
15.61509438309573
 10
184.7102943409158
 20
15.66267796552117
 10
184.7555101538735
 20
15.65267212995106
 10
184.8014815562725
 20
15.6589410517406
 10
184.8777222047711
 20
15.6559356140587
 10
184.9561296131994
 20
15.65770448278539
 10
185.0323992648934
 20
15.65464793981658
 10
185.0783009459475
 20
15.66103971376175
 10
185.1231733965401
 20
15.65093822978895
 10
185.1105552275635
 20
15.70157201581897
 10
185.1191936582707
 20
15.75501261882068
 10
185.1152361595444
 20
15.8486325513168
 10
185.1162325068335
 20
15.95112606688924
 10
185.1171927413074
 20
16.05353270248164
 10
185.1133211458007
 20
16.14735929609324
 10
185.1217789814365
 20
16.20036542840354
 10
185.1093075932836
 20
16.25211435651191
 10
185.1542106389851
 20
16.2385074722676
 10
185.1955083836773
 20
16.24100480320587
 10
185.259534428105
 20
16.23648060574489
 10
185.2986111148787
 20
16.22781003043308
 10
185.3476543498742
 20
16.23515102070687
 10
185.3225080030591
 20
16.19602896051758
 10
185.2815901333723
 20
16.2056384245581
 10
185.2910109616604
 20
16.15540148169779
 10
185.2855647318746
 20
16.1038594563949
 10
185.2881699601803
 20
16.0195970758452
 10
185.2870102202154
 20
15.92559135583408
 10
185.2883591064231
 20
15.83196865395524
 10
185.284997010151
 20
15.74679517552222
 10
185.2920959917768
 20
15.69716856072042
 10
185.2812569154546
 20
15.64993694969987
 10
185.3304010225245
 20
15.6620167493685
 10
185.3794877630147
 20
15.65447393363009
 10
185.4573714280641
 20
15.65686070361431
 10
185.5350365172896
 20
15.65899381905413
 10
185.5845393931354
 20
15.65193391922452
 10
185.6344594750639
 20
15.66360151936212
 10
185.6223198516881
 20
15.61540235371393
 10
185.6305838229143
 20
15.57249219801237
 10
185.6223198650784
 20
15.52958201851388
 10
185.6344594549854
 20
15.48138288754869
 10
185.5845395158747
 20
15.49305034471516
 10
185.5350350651202
 20
15.4859920243505
 10
185.4573784382973
 20
15.48811665228609
 10
185.379464386576
 20
15.49053389365765
 10
185.3304500352717
 20
15.48291848194491
 10
185.2813246108943
 20
15.49507952557597
 10
185.2915559988571
 20
15.45073013424162
 10
185.2856677678053
 20
15.40925436202914
 10
185.2878788305568
 20
15.34915394315304
 10
185.2874109346146
 20
15.30225782762888
 10
185.2874386992913
 20
15.27650146418195
 10
185.2874469028653
 20
15.26889163187718
 97
        1
330
AA
 75
     1
 76
     2
 52
45.0
 41
0.1
 77
     0
 78
     1
 53
45.0
 43
0.0
 44
0.0
 45
-0.282842712474619
 46
0.0
 79
     0
 98
        1
 10
0.0
 20
0.0
  0
HATCH
  5
C8
330
48
100
AcDbEntity
  8
1
  6
Continuous
 62
     2
100
AcDbHatch
 10
0.0
 20
0.0
 30
0.0
210
0.0
220
0.0
230
1.0
  2
CUSTOM6
 70
     0
 71
     1
 91
        1
 92
        1
 93
        1
 72
     4
 94
        3
 73
     0
 74
     0
 95
       91
 96
       87
 40
0.0
 40
0.0
 40
0.0
 40
0.0
 40
0.0345987051695434
 40
0.1258134969461369
 40
0.2547723404888987
 40
0.4026032099154409
 40
0.5504340793417273
 40
0.6793929228836932
 40
0.7706077146571888
 40
0.8052064287781777
 40
1.12485239061536
 40
1.427402236308949
 40
1.706356627453586
 40
1.955541417875249
 40
2.169485938566384
 40
2.344350786664831
 40
2.480568411561956
 40
2.590440557428949
 40
2.649189927151149
 40
2.749320643306343
 40
2.91263273988001
 40
3.147745656000157
 40
3.24482749638506
 40
3.338490056946626
 40
3.583815413207036
 40
3.76142394323838
 40
3.886956104362537
 40
3.985855451886673
 40
4.091766255337502
 40
4.250186473811696
 40
4.422734315084364
 40
4.628285684838461
 40
4.872093227758306
 40
5.152549652145415
 40
5.464967135837403
 40
5.803201477852313
 40
6.160362988813779
 40
6.193449448275863
 40
6.284170385501517
 40
6.419718138764359
 40
6.587285046385637
 40
6.774063446723523
 40
6.967245678113506
 40
7.15402407881752
 40
7.321590987025878
 40
7.457138740890236
 40
7.547859678555972
 40
7.580946138182532
 40
7.608533084714586
 40
7.669224367077564
 40
7.729915649429786
 40
7.757502595949838
 40
7.790278062553321
 40
7.88014627743079
 40
8.014419963180224
 40
8.180411842397753
 40
8.365434637679222
 40
8.556801071622495
 40
8.741823866830607
 40
8.907815745916174
 40
9.0420894315073
 40
9.131957646249425
 40
9.164733112797002
 40
9.415425063139914
 40
9.667986180958465
 40
9.694169807462604
 40
9.756607686047536
 40
9.831130315322373
 40
9.893568193899839
 40
9.919751820398655
 40
9.950967964690486
 40
9.996421631210586
 40
10.2208798103745
 40
10.44341866197537
 40
10.47847970788849
 40
10.5709133743875
 40
10.7015954546123
 40
10.85140174170358
 40
11.00120802880481
 40
11.13189010907386
 40
11.22432377583011
 40
11.2593848093896
 40
11.28697175596148
 40
11.34766303835923
 40
11.40835432042074
 40
11.43594125892108
 40
11.43594125892108
 40
11.43594125892108
 40
11.43594125892108
 10
190.081811433329
 20
15.55242795125079
 10
190.0702785844941
 20
15.55242790287917
 10
190.0283409445
 20
15.55242773704166
 10
189.9434129719026
 20
15.55243125800911
 10
189.8207688553129
 20
15.5524092643588
 10
189.6791206916993
 20
15.55250801177056
 10
189.5379753698491
 20
15.55214686232422
 10
189.4141351317904
 20
15.55321883609091
 10
189.3317217825382
 20
15.5509224909127
 10
189.1727791229693
 20
15.56048569373423
 10
189.3503402353376
 20
15.19785394311373
 10
189.3379739205453
 20
14.95243127723118
 10
189.4064519473865
 20
14.6686250132484
 10
189.4693024320971
 20
14.43250999939041
 10
189.5452253431728
 20
14.23326740396136
 10
189.6303189577017
 20
14.07745347451383
 10
189.7244607592936
 20
13.976578577814
 10
189.8282648207727
 20
13.92465852638976
 10
189.9125872030774
 20
13.97606484379622
 10
189.9351322179452
 20
14.09144544037522
 10
189.9745730975372
 20
14.21885149702386
 10
189.9202919734942
 20
14.53622328086746
 10
190.0451218072473
 20
14.38982180140914
 10
190.2019291513603
 20
14.3579530033116
 10
190.0947720007056
 20
14.1242135776763
 10
190.0808711209867
 20
13.95972776583656
 10
190.0234709467225
 20
13.83130869122486
 10
189.9335020145009
 20
13.76018802352829
 10
189.8095274657879
 20
13.74432324142256
 10
189.6634273196861
 20
13.77993797554175
 10
189.5243894320285
 20
13.90000570500278
 10
189.4102003962144
 20
14.07435682550323
 10
189.3146141301486
 20
14.29946603111243
 10
189.2318652572627
 20
14.56388246006446
 10
189.1807179256411
 20
14.88187933098545
 10
189.077018920734
 20
15.15543728488916
 10
189.204284120852
 20
15.56005818612869
 10
189.0357890623019
 20
15.5511236784968
 10
188.9511995787077
 20
15.55315961418365
 10
188.8189876387628
 20
15.55213937388408
 10
188.6560505094104
 20
15.55253230318431
 10
188.4733759170534
 20
15.5523569631337
 10
188.2847057373383
 20
15.5526010530747
 10
188.101446902019
 20
15.55185657906238
 10
187.9404746832718
 20
15.55416360522428
 10
187.8029808335277
 20
15.54799804883664
 10
187.7289590372312
 20
15.56032838458213
 10
187.6613215186857
 20
15.54329323723558
 10
187.673237371927
 20
15.5952443844753
 10
187.6655677285694
 20
15.64071424966531
 10
187.6732592225117
 20
15.68614453703708
 10
187.6613141797762
 20
15.73802395984573
 10
187.7283588305868
 20
15.72119143490266
 10
187.8017375665677
 20
15.73335409092673
 10
187.9379128305273
 20
15.7272723107496
 10
188.0973811801513
 20
15.7295483431506
 10
188.2789173085837
 20
15.72881233998964
 10
188.465803486218
 20
15.72905954196136
 10
188.6468012316836
 20
15.72886400799256
 10
188.8080802578879
 20
15.72932234714841
 10
188.9393882124887
 20
15.72812673751208
 10
189.0225051322597
 20
15.73051347319744
 10
189.1556236547815
 20
15.72230605725467
 10
189.0645893502658
 20
15.97752868952657
 10
188.978963307442
 20
16.24164358328261
 10
189.0990589003455
 20
16.22904442969173
 10
189.1514264948545
 20
16.22694235763081
 10
189.2214497569717
 20
16.2253539988966
 10
189.2671922337818
 20
16.21602567538115
 10
189.3220812646934
 20
16.22545966915426
 10
189.2963574785682
 20
16.17733028655173
 10
189.1825397571454
 20
16.18266829744178
 10
189.3159346621135
 20
15.95449174576776
 10
189.1943658735471
 20
15.72156856595925
 10
189.3223188769413
 20
15.73087258884441
 10
189.4049048406461
 20
15.72801001754682
 10
189.5307214850824
 20
15.72923437412304
 10
189.6741469838059
 20
15.72932431888967
 10
189.8157420951728
 20
15.72746163183855
 10
189.9459127249968
 20
15.73333075937164
 10
190.0193452286191
 20
15.72070340823206
 10
190.0891112922097
 20
15.73877563110415
 10
190.0775772605396
 20
15.68612850546328
 10
190.0833184346683
 20
15.64221317686549
 10
190.0816615770912
 20
15.5908998267655
 10
190.081775756167
 20
15.56158792021636
 10
190.081811433329
 20
15.55242795125079
 97
        1
330
AB
 75
     1
 76
     2
 52
45.0
 41
0.1
 77
     0
 78
     1
 53
45.0
 43
0.0
 44
0.0
 45
-0.282842712474619
 46
0.0
 79
     0
 98
        1
 10
0.0
 20
0.0
  0
HATCH
  5
C9
330
48
100
AcDbEntity
  8
1
  6
Continuous
 62
     2
100
AcDbHatch
 10
0.0
 20
0.0
 30
0.0
210
0.0
220
0.0
230
1.0
  2
CUSTOM7
 70
     0
 71
     1
 91
        1
 92
        1
 93
        1
 72
     4
 94
        3
 73
     0
 74
     0
 95
       75
 96
       71
 40
0.0
 40
0.0
 40
0.0
 40
0.0
 40
0.0342546099129709
 40
0.12456224144324
 40
0.2522385480897589
 40
0.3985991922940786
 40
0.5449598364980963
 40
0.6726361431439012
 40
0.7629437746737138
 40
0.7971983935298186
 40
1.101723623449659
 40
1.408591244036593
 40
1.433332471690293
 40
1.487763172450079
 40
1.542193873081901
 40
1.566935100592444
 40
1.923523931821694
 40
2.271755704953495
 40
2.590579755100743
 40
2.858943305580981
 40
2.889120339308945
 40
2.918305855190898
 40
2.941366645531026
 40
2.996357760972928
 40
3.061992318140489
 40
3.116983433626688
 40
3.140044223997382
 40
3.411273122936263
 40
3.732441619740864
 40
3.761068217532565
 40
3.837787499630134
 40
3.948858699125782
 40
4.080541049104174
 40
4.219093782625568
 40
4.350776132722131
 40
4.461847332405477
 40
4.538566614678218
 40
4.567193212544466
 40
4.594907573998724
 40
4.666381453557263
 40
4.764111044010845
 40
4.870592538125648
 40
4.968322128642042
 40
5.039796008286756
 40
5.067510369784187
 40
5.094263603185401
 40
5.153120716668037
 40
5.211977830150484
 40
5.238731063551488
 40
5.272290535138755
 40
5.36338052944456
 40
5.497618415781266
 40
5.660621563453479
 40
5.83800734174918
 40
6.01539311991056
 40
6.178396267038157
 40
6.312634151842137
 40
6.403724143059127
 40
6.437283612672222
 40
6.46403684626084
 40
6.522893960004454
 40
6.58175107148372
 40
6.608504301590666
 40
6.637253941280814
 40
6.711397748902693
 40
6.812778057283277
 40
6.923237199249054
 40
7.024617507623669
 40
7.098761315207351
 40
7.127510946007301
 40
7.127510946007301
 40
7.127510946007301
 40
7.127510946007301
 10
188.4418622390565
 20
14.9584912847327
 10
188.4418622819707
 20
14.94707313408726
 10
188.4418624481129
 20
14.90555257842634
 10
188.4418593081788
 20
14.82146922003778
 10
188.4418788279802
 20
14.70004497322333
 10
188.4417912187738
 20
14.55980494047453
 10
188.4421116235231
 20
14.42006556794581
 10
188.4411605909741
 20
14.29745038894933
 10
188.4431978595968
 20
14.21587074438047
 10
188.4349433178747
 20
14.06271267077702
 10
188.7430797940901
 20
14.22560236054729
 10
189.0350645173737
 20
14.39482938688001
 10
189.0408354448707
 20
14.2597323578191
 10
189.0455471719891
 20
14.21617221160444
 10
189.0482535411918
 20
14.17211249350546
 10
189.0672545672957
 20
14.02272590363137
 10
188.6583942247303
 20
14.08681172241266
 10
188.3793710348832
 20
13.9729634141102
 10
188.1018081587167
 20
13.87364095811149
 10
187.8099837184401
 20
13.91630687596347
 10
187.7869144678659
 20
13.81321679744544
 10
187.7537474383333
 20
13.78691091244471
 10
187.748065396274
 20
13.83455309036309
 10
187.7284214559045
 20
13.87180336115074
 10
187.7095089485624
 20
13.93007387847569
 10
187.6942849867708
 20
13.97385201007813
 10
187.6477246372935
 20
14.08759421046314
 10
187.9890897312451
 20
14.0557630112005
 10
188.2679649367386
 20
14.02161435106478
 10
188.2617753034907
 20
14.1691397647965
 10
188.2630935452773
 20
14.24013150908831
 10
188.2624831689948
 20
14.34719767958662
 10
188.2625871570725
 20
14.47398529785999
 10
188.2629987964055
 20
14.60849243496052
 10
188.2613907841968
 20
14.73395549951188
 10
188.2659902567925
 20
14.84505246719122
 10
188.256418650221
 20
14.90761886800694
 10
188.2704001783691
 20
14.96595388295007
 10
188.2147384386705
 20
14.95289710582244
 10
188.1575655197821
 20
14.96136307749505
 10
188.0616048925648
 20
14.95729976080642
 10
187.9633767522821
 20
14.9597088985248
 10
187.8672582457561
 20
14.95551600613394
 10
187.8104648525812
 20
14.96429346441168
 10
187.7550356873385
 20
14.95094936850127
 10
187.7670679427918
 20
15.00036910959263
 10
187.7592003173937
 20
15.04393988030401
 10
187.766629556383
 20
15.08830469118531
 10
187.7551930564144
 20
15.13902297763998
 10
187.8232102370134
 20
15.1216246075775
 10
187.8968496879747
 20
15.13417450237194
 10
188.0325064058211
 20
15.12799677011103
 10
188.1884909024526
 20
15.1302920309309
 10
188.3615926358144
 20
15.12940968262536
 10
188.5346942964182
 20
15.13029207142414
 10
188.6906789811218
 20
15.12799662955556
 10
188.8263351889798
 20
15.13417486262437
 10
188.8999756705653
 20
15.12162394218341
 10
188.9679914174724
 20
15.13902373012148
 10
188.9565590885923
 20
15.08830130414561
 10
188.9639539458297
 20
15.04397060811114
 10
188.9562039912273
 20
15.00028307550202
 10
188.9681203741877
 20
14.95063590098483
 10
188.9108170223618
 20
14.96461411338431
 10
188.8520145789773
 20
14.9553975567326
 10
188.75252936332
 20
14.95952268164935
 10
188.6494280098349
 20
14.95822760025893
 10
188.5537846354575
 20
14.95854077077647
 10
188.4857467971616
 20
14.9584877669715
 10
188.4514462213444
 20
14.95849051871662
 10
188.4418622390565
 20
14.9584912847327
 97
        1
330
AC
 75
     1
 76
     2
 52
45.0
 41
0.1
 77
     0
 78
     1
 53
45.0
 43
0.0
 44
0.0
 45
-0.282842712474619
 46
0.0
 79
     0
 98
        1
 10
0.0
 20
0.0
  0
HATCH
  5
CA
330
48
100
AcDbEntity
  8
1
  6
Continuous
 62
     2
100
AcDbHatch
 10
0.0
 20
0.0
 30
0.0
210
0.0
220
0.0
230
1.0
  2
CUSTOM8
 70
     0
 71
     1
 91
        1
 92
        1
 93
        1
 72
     4
 94
        3
 73
     0
 74
     0
 95
       15
 96
       11
 40
0.0
 40
0.0
 40
0.0
 40
0.0
 40
0.278553598509599
 40
0.5215624748198451
 40
0.6076917376040695
 40
0.6938210001741842
 40
0.9405019146455755
 40
1.221691403489171
 40
1.300471877081125
 40
1.37925234168495
 40
1.37925234168495
 40
1.37925234168495
 40
1.37925234168495
 10
189.5681493631
 20
16.22930267330381
 10
189.6296017794178
 20
16.17691646592715
 10
189.7446649974113
 20
16.07882876798221
 10
190.0397348497245
 20
15.92889785897225
 10
189.9025147631857
 20
15.84343227515019
 10
189.8041227843779
 20
15.71085785201553
 10
189.7130033590649
 20
16.01616985781421
 10
189.3636839480655
 20
16.0796786946537
 10
189.511925837657
 20
16.17896509880877
 10
189.5494081874237
 20
16.21252348402382
 10
189.5681493631
 20
16.22930267330381
 97
        1
330
AD
 75
     1
 76
     2
 52
45.0
 41
0.1
 77
     0
 78
     1
 53
45.0
 43
0.0
 44
0.0
 45
-0.282842712474619
 46
0.0
 79
     0
 98
        1
 10
0.0
 20
0.0
  0
HATCH
  5
CB
330
48
100
AcDbEntity
  8
1
  6
Continuous
 62
     2
100
AcDbHatch
 10
0.0
 20
0.0
 30
0.0
210
0.0
220
0.0
230
1.0
  2
CUSTOM9
 70
     0
 71
     1
 91
        1
 92
        1
 93
        1
 72
     4
 94
        3
 73
     0
 74
     0
 95
       35
 96
       31
 40
0.0
 40
0.0
 40
0.0
 40
0.0
 40
0.0335231036620811
 40
0.0713218571712283
 40
0.4278866681487327
 40
0.8116865841964109
 40
1.198190238000072
 40
1.561379546812705
 40
1.659983174622001
 40
1.759315573807119
 40
2.132719617230997
 40
2.525233363588759
 40
2.910815397779666
 40
3.265244364303273
 40
3.592606723581967
 40
3.964386154603926
 40
4.359942131737752
 40
4.758154118639257
 40
4.843846538699933
 40
4.936650065543182
 40
5.256616602537242
 40
5.581707404415935
 40
5.899719158308074
 40
6.198363494280676
 40
6.466301046615732
 40
6.493895311537053
 40
6.559697020196789
 40
6.638234543442364
 40
6.704036252154087
 40
6.731630508422865
 40
6.731630508422865
 40
6.731630508422865
 40
6.731630508422865
 10
191.9736010568669
 20
16.23463843719139
 10
191.9676006097788
 20
16.22480690542326
 10
191.9548344099157
 20
16.20388988579801
 10
191.7949362006555
 20
16.17127126532685
 10
192.2322025842337
 20
15.88206680336709
 10
192.4345394828261
 20
15.68041138358441
 10
192.6819564267974
 20
15.43749387603276
 10
193.1831513624604
 20
15.36047662757789
 10
193.0125562198971
 20
15.21876939174654
 10
192.9383299463202
 20
15.01710366209119
 10
192.6131432248189
 20
15.36956287174729
 10
192.3277741670664
 20
15.53175212559565
 10
192.0337604077658
 20
15.73687130053047
 10
191.8084452691134
 20
16.2182748859546
 10
191.5993085055522
 20
15.75343046609223
 10
191.3207873674835
 20
15.54350952252915
 10
191.0371383177209
 20
15.37424456359981
 10
190.7078639527832
 20
15.00142360907945
 10
190.6277012318225
 20
15.19708014459
 10
190.4759724909745
 20
15.32491104190603
 10
190.9083395826795
 20
15.40454031765935
 10
191.0962565329765
 20
15.6002663491548
 10
191.3468477420503
 20
15.81632996916757
 10
191.5714350470162
 20
15.98190992300064
 10
191.6259775409713
 20
16.26133964636828
 10
191.7494661029012
 20
16.24737950408081
 10
191.8060273344521
 20
16.2452126886765
 10
191.8761870984945
 20
16.24046859881364
 10
191.9333414022106
 20
16.23709429350546
 10
191.9644190320839
 20
16.23519854711124
 10
191.9736010568669
 20
16.23463843719139
 97
        1
330
AE
 75
     1
 76
     2
 52
45.0
 41
0.1
 77
     0
 78
     1
 53
45.0
 43
0.0
 44
0.0
 45
-0.282842712474619
 46
0.0
 79
     0
 98
        1
 10
0.0
 20
0.0
  0
HATCH
  5
CC
330
48
100
AcDbEntity
  8
1
  6
Continuous
 62
     2
100
AcDbHatch
 10
0.0
 20
0.0
 30
0.0
210
0.0
220
0.0
230
1.0
  2
CUSTOM10
 70
     0
 71
     1
 91
        1
 92
        1
 93
        1
 72
     4
 94
        3
 73
     0
 74
     0
 95
       91
 96
       87
 40
0.0
 40
0.0
 40
0.0
 40
0.0
 40
0.0267532254356684
 40
0.0856103386464066
 40
0.1444674521996532
 40
0.1712206856618408
 40
0.203941600564243
 40
0.2955601971652377
 40
0.4362601844617096
 40
0.6162252844507428
 40
0.8256392189704875
 40
1.054685709844457
 40
1.293548478893577
 40
1.532411247938321
 40
1.761457738799586
 40
1.970871673298583
 40
2.150836773256807
 40
2.291536760495668
 40
2.383155356836746
 40
2.415876284101395
 40
2.442629517488036
 40
2.501486630949164
 40
2.560343744424308
 40
2.587096977826579
 40
2.617068194441006
 40
2.699247336756176
 40
2.82203264346646
 40
2.973822353258018
 40
3.14301470482346
 40
3.318007936880039
 40
3.487200288186872
 40
3.63898999754841
 40
3.761775303794908
 40
3.843954445753243
 40
3.873925662229939
 40
3.890812773500704
 40
3.907699884771913
 40
3.937960767857573
 40
3.980983618142556
 40
4.199085915228698
 40
4.439444339237492
 40
4.677588241261166
 40
5.050698317838081
 40
5.448212454763524
 40
5.85529121804505
 40
6.138575438885757
 40
6.417434507584622
 40
6.444551104394299
 40
6.504207617363586
 40
6.563864130314898
 40
6.590980727104486
 40
6.848609460381855
 40
7.109611990668802
 40
7.3529109044465
 40
7.557830220705933
 40
7.587518925913822
 40
7.65283407737623
 40
7.718149228846181
 40
7.747837934062455
 40
7.854880190301431
 40
7.97651125740392
 40
8.369487896592748
 40
8.757514959224098
 40
9.126072419331562
 40
9.460639380392626
 40
9.746695593036367
 40
9.77756994311908
 40
9.807050320932225
 40
9.830377336129345
 40
9.88600329543642
 40
9.952395569430307
 40
10.00802152870665
 40
10.03134854388257
 40
10.21356951009624
 40
10.42203479292901
 40
10.66154556731101
 40
10.91693789564344
 40
11.15832906556607
 40
11.18982674596665
 40
11.27286608520449
 40
11.39026653033397
 40
11.52484752840933
 40
11.65942852648492
 40
11.77682897161534
 40
11.85986831085733
 40
11.89136598230478
 40
11.89136598230478
 40
11.89136598230478
 40
11.89136598230478
 10
190.7027885008196
 20
14.70699600701778
 10
190.7028237765288
 20
14.71587847311991
 10
190.7029366710796
 20
14.74430237047352
 10
190.7012984568489
 20
14.79409639169809
 10
190.7069750292911
 20
14.8365756447816
 10
190.6956928731706
 20
14.88730154856852
 10
190.7632296979032
 20
14.87012900740114
 10
190.8388029210701
 20
14.88290227166001
 10
190.9828357056001
 20
14.87629729457387
 10
191.1569419185427
 20
14.87888462206471
 10
191.3639599611003
 20
14.87800591955557
 10
191.5894688172378
 20
14.87828207920032
 10
191.8251162293406
 20
14.87818339658668
 10
192.0607640531349
 20
14.87828184412772
 10
192.2862717580626
 20
14.87800678190793
 10
192.4932934632805
 20
14.87888186270739
 10
192.667388891529
 20
14.87630522678452
 10
192.8114492071986
 20
14.88288290449218
 10
192.8869691915293
 20
14.87016243405608
 10
192.9545776037031
 20
14.88726400191693
 10
192.9430840140676
 20
14.83674785802945
 10
192.9505104581735
 20
14.79253252226507
 10
192.9428838927986
 20
14.74867966503615
 10
192.9546489459426
 20
14.69878374479334
 10
192.8930788491983
 20
14.71393227712518
 10
192.8256791738672
 20
14.70310665350679
 10
192.7013004056222
 20
14.70852031626242
 10
192.5554428236572
 20
14.70649205390791
 10
192.3893576440086
 20
14.70715777578393
 10
192.2188412621725
 20
14.70689643521248
 10
192.0519790855389
 20
14.707215533911
 10
191.9087346827105
 20
14.70635302590768
 10
191.7773313869834
 20
14.70863300482994
 10
191.7239859134656
 20
14.70407704374208
 10
191.6485188456912
 20
14.70999914992883
 10
191.6769075779233
 20
14.70094169343358
 10
191.7033652409543
 20
14.69725912268933
 10
191.6633522907702
 20
14.6665427196828
 10
191.5713663691869
 20
14.6766759117462
 10
191.543939620707
 20
14.4303250224779
 10
191.4478793967234
 20
14.27499558764375
 10
191.1917277964474
 20
13.94525417931568
 10
191.7627537732762
 20
14.08430022210457
 10
192.0173656320518
 20
14.08291779973366
 10
192.6279647048617
 20
13.99790569242094
 10
192.3340698578084
 20
14.29685417558209
 10
192.0133304286515
 20
14.44330856901789
 10
192.1313543360434
 20
14.50025540818293
 10
192.1724716466261
 20
14.52420099873352
 10
192.2156812394411
 20
14.54599758811232
 10
192.3174574094451
 20
14.609287212539
 10
192.4328867625247
 20
14.35147151408788
 10
192.6329591642278
 20
14.21616041113688
 10
192.7269077387228
 20
14.03792795138886
 10
192.9558829746393
 20
13.8799782102705
 10
192.8596031846709
 20
13.82915972576299
 10
192.8167959763779
 20
13.79881292523055
 10
192.771824352878
 20
13.77466130281464
 10
192.7121720925215
 20
13.72552146747572
 10
192.6789731061325
 20
13.8599747567361
 10
192.5582013350796
 20
14.0159426528658
 10
192.1970976005979
 20
13.88569928059558
 10
191.8385061955541
 20
13.90224694409484
 10
191.457092045008
 20
13.89331229351868
 10
191.1703455282891
 20
13.82882671672402
 10
190.8592055599714
 20
13.94230668192832
 10
190.8268737818788
 20
13.83122259927766
 10
190.7896178253318
 20
13.81196313850016
 10
190.7865737632754
 20
13.858747840873
 10
190.7679892860606
 20
13.89806853919136
 10
190.7512436616779
 20
13.95765983478235
 10
190.7383730915754
 20
14.00201969871283
 10
190.7042327806431
 20
14.09106331120203
 10
190.9482714457753
 20
14.02181042943772
 10
191.1441394486671
 20
14.00030369057741
 10
191.2395426381277
 20
14.28226484478466
 10
191.2945135769598
 20
14.44363045421126
 10
191.5159619357156
 20
14.71391177589744
 10
191.3849239381217
 20
14.7054844685374
 10
191.3110026555854
 20
14.70779008496976
 10
191.1977459876244
 20
14.70671378321664
 10
191.0694251807485
 20
14.70707639076516
 10
190.9404252030415
 20
14.70697724466091
 10
190.8287840946292
 20
14.70699932712579
 10
190.7514663970025
 20
14.70699579189676
 10
190.713287653201
 20
14.70699595845087
 10
190.7027885008196
 20
14.70699600701778
 97
        1
330
AF
 75
     1
 76
     2
 52
45.0
 41
0.1
 77
     0
 78
     1
 53
45.0
 43
0.0
 44
0.0
 45
-0.282842712474619
 46
0.0
 79
     0
 98
        1
 10
0.0
 20
0.0
  0
HATCH
  5
CD
330
48
100
AcDbEntity
  8
1
  6
Continuous
 62
     2
100
AcDbHatch
 10
0.0
 20
0.0
 30
0.0
210
0.0
220
0.0
230
1.0
  2
CUSTOM11
 70
     0
 71
     1
 91
        1
 92
        1
 93
        1
 72
     4
 94
        3
 73
     0
 74
     0
 95
      131
 96
      127
 40
0.0
 40
0.0
 40
0.0
 40
0.0
 40
0.0195577029826037
 40
0.0426490537460468
 40
0.2863607575855684
 40
0.534494843618874
 40
0.7842238845573117
 40
0.8737315789467223
 40
0.9803832810312899
 40
1.092842274517032
 40
1.199761146656785
 40
1.289788768186485
 40
1.35157358078615
 40
1.370727117561376
 40
1.41640093601777
 40
1.470914848355876
 40
1.516588666791647
 40
1.535742203552728
 40
1.63421659229311
 40
1.760283341174936
 40
1.89796668668201
 40
2.031216387368786
 40
2.049689751137782
 40
2.10111560164672
 40
2.179502577739841
 40
2.27885931831396
 40
2.393194462258621
 40
2.516516648383742
 40
2.642834515405875
 40
2.766156701983383
 40
2.880491846754502
 40
2.979848588358548
 40
3.058235565443729
 40
3.109661416668885
 40
3.128134780704062
 40
3.146783742386379
 40
3.19125434331524
 40
3.244332157315899
 40
3.288802758225774
 40
3.307451719895045
 40
3.327717853844657
 40
3.383747753580021
 40
3.468388665924415
 40
3.574487837698725
 40
3.694892515728835
 40
3.822449946851978
 40
3.950007377920373
 40
4.070412055800467
 40
4.176511227368028
 40
4.261152139501476
 40
4.317182039076672
 40
4.337448172964592
 40
4.620011002696181
 40
4.885096638397487
 40
4.9453730435182
 40
5.014107710488507
 40
5.070481727651956
 40
5.319246955636486
 40
5.584812164506
 40
5.859000912056882
 40
6.133746937542011
 40
6.401732212968803
 40
6.420736683995394
 40
6.472845717451045
 40
6.550702743893972
 40
6.646951193874181
 40
6.754234497930505
 40
6.865196086587283
 40
6.972479390357742
 40
7.068727839771904
 40
7.146584865450913
 40
7.198693898189142
 40
7.217698368905283
 40
7.234950401630759
 40
7.276089864269806
 40
7.325191803515916
 40
7.366331266090302
 40
7.383583298769653
 40
7.402779163492059
 40
7.453386443254462
 40
7.524934666445492
 40
7.606953361405831
 40
7.688972056429011
 40
7.760520279784262
 40
7.811127559734532
 40
7.830323424546154
 40
7.847844055299778
 40
7.894799345666818
 40
7.962779392744499
 40
8.04337429356054
 40
8.128174145149437
 40
8.208769044817231
 40
8.276749090376928
 40
8.323704379669483
 40
8.341225010056213
 40
8.358497614800362
 40
8.401679126686538
 40
8.457815092185596
 40
8.513951057728
 40
8.5571325697079
 40
8.574405174504943
 40
8.602340668616277
 40
8.643455660539768
 40
8.66322527196644
 40
8.715345156564087
 40
8.789031889628433
 40
8.873502045520167
 40
8.9579721943238
 40
9.031658925567697
 40
9.08377881123439
 40
9.103548423002856
 40
9.119550083123421
 40
9.160817522379695
 40
9.217244429110089
 40
9.278724491644574
 40
9.33515139829533
 40
9.376418837357626
 40
9.392420497300414
 40
9.401196302734606
 40
9.417494229384028
 40
9.4262700277493
 40
9.440875075477335
 40
9.475702496998517
 40
9.517270709865684
 40
9.552098131993855
 40
9.566703169884065
 40
9.566703169884065
 40
9.566703169884065
 40
9.566703169884065
 10
194.6170254148479
 20
15.67015871511029
 10
194.6134345093371
 20
15.66453690702161
 10
194.6056039123625
 20
15.65227754419114
 10
194.512996897455
 20
15.61601916040971
 10
194.4887622233246
 20
15.40148444212718
 10
194.385870984594
 20
15.22197284509709
 10
194.1220492364304
 20
15.03615573798146
 10
194.284547156918
 20
14.95959336566082
 10
194.3607225760838
 20
14.89856693195446
 10
194.4492171072758
 20
14.83515804544762
 10
194.5389930233111
 20
14.77525634219565
 10
194.5883817636046
 20
14.72102154849214
 10
194.6745708157382
 20
14.69286240541839
 10
194.6411260674229
 20
14.65713309652818
 10
194.6214671166311
 20
14.62550387991913
 10
194.5919888217883
 20
14.58475872796075
 10
194.5688989446032
 20
14.5550466348965
 10
194.5380205968358
 20
14.502114226685
 10
194.472919336574
 20
14.62740334938905
 10
194.3796000122416
 20
14.6821390023394
 10
194.2950636285138
 20
14.73916423939342
 10
194.1722498125744
 20
14.89675287427523
 10
194.1764450847301
 20
14.82035806766838
 10
194.1751478652679
 20
14.77361280161297
 10
194.1758126448078
 20
14.69584785812603
 10
194.1755549986958
 20
14.59902068324423
 10
194.1756431239922
 20
14.4865027907881
 10
194.1756077302282
 20
14.36524085945699
 10
194.175651175828
 20
14.2408689785896
 10
194.1755199942406
 20
14.11967683631335
 10
194.1759477562047
 20
14.00691148919741
 10
194.1746678202312
 20
13.91082913768742
 10
194.1779759851042
 20
13.83113826468697
 10
194.1715197740088
 20
13.78815175788782
 10
194.1806208705556
 20
13.74955432372039
 10
194.1447910339936
 20
13.75810887724068
 10
194.1115223815252
 20
13.75342519985443
 10
194.0604562576042
 20
13.75351298759782
 10
194.0269723972814
 20
13.75794430283818
 10
193.9907585408754
 20
13.74960793842506
 10
194.0009782568667
 20
13.79145277179281
 10
193.9936487887773
 20
13.83778560820171
 10
193.9973633136103
 20
13.92374831106012
 10
193.9959480554897
 20
14.02605142704847
 10
193.9964105554639
 20
14.1445322393151
 10
193.9962773686232
 20
14.26957683153355
 10
193.9963015910045
 20
14.39475828107049
 10
193.9963354925552
 20
14.51286645379058
 10
193.9962060293133
 20
14.61628748709516
 10
193.9965507549081
 20
14.69932036153667
 10
193.9958698278691
 20
14.75143368521244
 10
193.9994586600623
 20
14.87912907821361
 10
193.7826171386438
 20
14.58048716819616
 10
193.6021354921951
 20
14.35263981511522
 10
193.5490322295612
 20
14.4937344328982
 10
193.5200429133149
 20
14.54325767560945
 10
193.419664806282
 20
14.64641779790106
 10
193.7405127723261
 20
14.72695035023785
 10
193.868989700543
 20
14.91066283036438
 10
194.090645432536
 20
15.11931995771761
 10
194.1770224894069
 20
15.2933921122835
 10
194.4549394229075
 20
15.56967051342514
 10
194.3346247839284
 20
15.56534559551116
 10
194.2863197351348
 20
15.56614856202556
 10
194.2102377454905
 20
15.56574582146587
 10
194.116701000975
 20
15.56590275611612
 10
194.0117594788557
 20
15.56582502576227
 10
193.9033887738717
 20
15.56595464378557
 10
193.7981454235897
 20
15.56554393490694
 10
193.7056237819412
 20
15.56682073671594
 10
193.6268130800707
 20
15.56340766534853
 10
193.5839674565379
 20
15.57023350036323
 10
193.5449499586516
 20
15.56065064201126
 10
193.5526365271863
 20
15.59420779565546
 10
193.5485464404312
 20
15.62523550322236
 10
193.5485531368814
 20
15.67236529270903
 10
193.5526239724911
 20
15.70340941646782
 10
193.5449495574583
 20
15.73701861635905
 10
193.5834819405495
 20
15.72748410420875
 10
193.6241228014479
 20
15.73397435498074
 10
193.6951471850463
 20
15.73100150650257
 10
193.7729318149634
 20
15.7317476139916
 10
193.8507292246474
 20
15.73247814044528
 10
193.9217232089908
 20
15.72954235514163
 10
193.9624279791821
 20
15.73595468772955
 10
194.000985348991
 20
15.72650524176007
 10
193.9927342754929
 20
15.76264692158787
 10
193.9982346669358
 20
15.80129837613229
 10
193.9955754206164
 20
15.86913528561841
 10
193.9965815471534
 20
15.94591641538741
 10
193.996017801832
 20
16.02849393582756
 10
193.9970714526594
 20
16.10517329229878
 10
193.994267586313
 20
16.17331990776698
 10
194.0000702721305
 20
16.21132399809345
 10
193.9915654551159
 20
16.24758448077644
 10
194.0255610233125
 20
16.2375572377185
 10
194.0594575683099
 20
16.24073266813705
 10
194.1126669060347
 20
16.23508965640608
 10
194.1660768574483
 20
16.23434774436425
 10
194.199591464949
 20
16.22819223482979
 10
194.2388086183039
 20
16.23346029773594
 10
194.2120263698492
 20
16.19253380793488
 10
194.1708111001725
 20
16.20371204538117
 10
194.1782641540874
 20
16.1586705619213
 10
194.1742227952185
 20
16.11412278028151
 10
194.1761714049642
 20
16.04223572621709
 10
194.1752364849759
 20
15.96168630588775
 10
194.176510719003
 20
15.88173995404999
 10
194.1732043793864
 20
15.80841837083186
 10
194.1802106179962
 20
15.76688643002572
 10
194.1701440380126
 20
15.72752418568115
 10
194.2029814803922
 20
15.73468063430984
 10
194.2364577296482
 20
15.73027243137947
 10
194.2915053476019
 20
15.732179433479
 10
194.3489502595316
 20
15.73185366407291
 10
194.402302624831
 20
15.73106308733085
 10
194.4398540896639
 20
15.73313959118077
 10
194.4623172523238
 20
15.73022338167112
 10
194.4751678073731
 20
15.73572552644059
 10
194.4858255685889
 20
15.73801118197794
 10
194.4986635650143
 20
15.74494972588057
 10
194.514599103307
 20
15.72853046313675
 10
194.5410623920892
 20
15.71709122319452
 10
194.5726805253757
 20
15.69644687835193
 10
194.5987255892151
 20
15.68116869628296
 10
194.6128517723973
 20
15.67266976323186
 10
194.6170254148479
 20
15.67015871511029
 97
        1
330
B0
 75
     1
 76
     2
 52
45.0
 41
0.1
 77
     0
 78
     1
 53
45.0
 43
0.0
 44
0.0
 45
-0.282842712474619
 46
0.0
 79
     0
 98
        1
 10
0.0
 20
0.0
  0
HATCH
  5
CE
330
48
100
AcDbEntity
  8
1
  6
Continuous
 62
     2
100
AcDbHatch
 10
0.0
 20
0.0
 30
0.0
210
0.0
220
0.0
230
1.0
  2
CUSTOM12
 70
     0
 71
     1
 91
        1
 92
        1
 93
        1
 72
     4
 94
        3
 73
     0
 74
     0
 95
      124
 96
      120
 40
0.0
 40
0.0
 40
0.0
 40
0.0
 40
0.0278187229624226
 40
0.1011590162383985
 40
0.2048470170590239
 40
0.3237088716558961
 40
0.4425707262522
 40
0.5462587270699263
 40
0.6195990203312082
 40
0.647417752257866
 40
0.6750060736115242
 40
0.7357003855242759
 40
0.7963946998054474
 40
0.8239830245571766
 40
0.8540933811103144
 40
0.9373396629409256
 40
1.063094687343263
 40
1.22073126863813
 40
1.399622220914804
 40
1.589140358637846
 40
1.778658496423984
 40
1.957549448940651
 40
2.115186030873301
 40
2.240941056914633
 40
2.324187341760731
 40
2.354297700109581
 40
2.381886024672089
 40
2.442580338710674
 40
2.503274652750696
 40
2.530862977314805
 40
2.560983949278758
 40
2.640393784453132
 40
2.752662861759384
 40
2.881361560118401
 40
3.010060258455504
 40
3.122329335705708
 40
3.201739170818322
 40
3.231860142753711
 40
3.264298024030768
 40
3.352343701778635
 40
3.482095226869158
 40
3.639650650173416
 40
3.811108022565871
 40
3.982565394928376
 40
4.140120818152956
 40
4.269872343141665
 40
4.357918020802726
 40
4.390355902044353
 40
4.423256253992922
 40
4.508104530073472
 40
4.624121560637239
 40
4.750528176031996
 40
4.866545206602471
 40
4.951393482692457
 40
4.984293834645858
 40
5.01145083324277
 40
5.071196230152549
 40
5.130941627057619
 40
5.158098625649282
 40
5.190998977601972
 40
5.275847253689798
 40
5.391864284257289
 40
5.518270899648834
 40
5.634287930209873
 40
5.719136206288547
 40
5.752036558236463
 40
5.78213094628349
 40
5.862783906229667
 40
5.97955013177554
 40
6.117984316640951
 40
6.263641154588501
 40
6.402075339414714
 40
6.518841564908517
 40
6.599494524816103
 40
6.62958891284934
 40
6.654403028226917
 40
6.713575149488684
 40
6.784199939330031
 40
6.843372060494134
 40
6.868186175803351
 40
6.896246243202413
 40
6.939586233758776
 40
6.967846564565411
 40
7.043584251090349
 40
7.153234334452216
 40
7.283231855734975
 40
7.42001185603602
 40
7.55000937658038
 40
7.659659458835788
 40
7.735397144417787
 40
7.763657474851961
 40
7.796409728011618
 40
7.880876065096892
 40
7.996370852466278
 40
8.122208446419172
 40
8.237703224799766
 40
8.322169562011489
 40
8.354921815206474
 40
8.38207881330825
 40
8.441824209207551
 40
8.501569605240693
 40
8.52872660348627
 40
8.56147885669629
 40
8.64594519387834
 40
8.76143998086588
 40
8.887277580765023
 40
9.002772362001544
 40
9.087238696661736
 40
9.119990949236218
 40
9.152428830613918
 40
9.240474508639132
 40
9.37022603415008
 40
9.527781457984963
 40
9.69923883098195
 40
9.870696203979136
 40
10.02825162781456
 40
10.15800315332617
 40
10.24604883135172
 40
10.27848670378575
 40
10.27848670378575
 40
10.27848670378575
 40
10.27848670378575
 10
195.3821827564384
 20
14.01410517385759
 10
195.3914554737524
 20
14.01410498511276
 10
195.4251744536861
 20
14.01410430876716
 10
195.4934706812466
 20
14.01411807243307
 10
195.592014171158
 20
14.01403224219546
 10
195.7062066464812
 20
14.01441755612253
 10
195.8185894417072
 20
14.01300835897547
 10
195.9214376600117
 20
14.01719117422244
 10
195.980683987485
 20
14.00823089251985
 10
196.0371265937033
 20
14.02164434526062
 10
196.0246255586955
 20
13.97087198613362
 10
196.0329549635705
 20
13.92589320939069
 10
196.0248170841119
 20
13.8805675299049
 10
196.0370529214458
 20
13.82931932408467
 10
195.9747773490334
 20
13.84447955365278
 10
195.9060513026869
 20
13.83359750710744
 10
195.7782756749591
 20
13.83911304747974
 10
195.6262984511644
 20
13.837008512537
 10
195.4502695972522
 20
13.83771002588476
 10
195.2644431934287
 20
13.83745237531293
 10
195.0786167437175
 20
13.83771005144606
 10
194.9025880142167
 20
13.83700841847732
 10
194.7506104154193
 20
13.83911332229991
 10
194.6228357664553
 20
13.83359680767642
 10
194.554107783658
 20
13.84448077125944
 10
194.4918349042881
 20
13.82931786684211
 10
194.5040616290017
 20
13.88057510805174
 10
194.4960004462595
 20
13.92582473272427
 10
194.5040675809892
 20
13.97106357955325
 10
194.4918238487082
 20
14.0223417690996
 10
194.5525017120697
 20
14.00749577363136
 10
194.6162810745734
 20
14.01756448170737
 10
194.7277314353502
 20
14.01294644212002
 10
194.8497533443822
 20
14.0141332890547
 10
194.9719538137824
 20
14.01515863900637
 10
195.0829794287392
 20
14.01092475623403
 10
195.1476517413958
 20
14.02018584521741
 10
195.2091162810502
 20
14.00604423049684
 10
195.1930065601338
 20
14.07235527884518
 10
195.2042980327359
 20
14.14447790121978
 10
195.1987400822561
 20
14.27513760888287
 10
195.2008035061692
 20
14.42607323708243
 10
195.2000167127295
 20
14.59335873107887
 10
195.2007845215628
 20
14.76061110332304
 10
195.1988038785629
 20
14.91163289269915
 10
195.2041306156621
 20
15.04206069552996
 10
195.1933101388426
 20
15.114654426059
 10
195.2090326429876
 20
15.18150469436799
 10
195.143270813249
 20
15.16580512490825
 10
195.0756367830764
 20
15.17609243083996
 10
194.961588529381
 20
15.17113786847122
 10
194.8451242674903
 20
15.17414128030476
 10
194.7306554121477
 20
15.16880303143389
 10
194.6640324657812
 20
15.18001268074826
 10
194.5990769715185
 20
15.16349132665012
 10
194.6107989758708
 20
15.21473720477059
 10
194.6032830189122
 20
15.25950333784091
 10
194.6107989878835
 20
15.3042694489796
 10
194.5990769505347
 20
15.3555153612974
 10
194.66403263392
 20
15.33899381766814
 10
194.7306533339821
 20
15.35020571373942
 10
194.8451352858064
 20
15.34485436710663
 10
194.9615454436963
 20
15.34791188771116
 10
195.0757660174642
 20
15.34278499010707
 10
195.1430150439227
 20
15.35345733355597
 10
195.2083325941439
 20
15.33742082669075
 10
195.1941391448553
 20
15.39949685750052
 10
195.2036059462996
 20
15.46586761628762
 10
195.1990269004085
 20
15.58239972741966
 10
195.2007696555949
 20
15.71426685022376
 10
195.1997551495392
 20
15.85615960150274
 10
195.2017191344373
 20
15.98769050702581
 10
195.1964668553852
 20
16.10524577283005
 10
195.2073408763474
 20
16.16947789001586
 10
195.1919536641854
 20
16.2310880254505
 10
195.2407591537801
 20
16.21702407382113
 10
195.2853995564726
 20
16.21954742075316
 10
195.3538643946743
 20
16.2151279740171
 10
195.3959106169103
 20
16.20613025544035
 10
195.4487544758776
 20
16.21411714866508
 10
195.4207035002014
 20
16.17113917611679
 10
195.3749142248595
 20
16.1825955204384
 10
195.3869539073266
 20
16.12173520005141
 10
195.3796086070642
 20
16.05769299468777
 10
195.3831195826163
 20
15.94909368863915
 10
195.3819806760175
 20
15.82494319144755
 10
195.3819174780263
 20
15.69189719829879
 10
195.3832872966869
 20
15.56797381249556
 10
195.3791638801314
 20
15.45868337849338
 10
195.3877763103565
 20
15.39608580094169
 10
195.3746757454402
 20
15.33740133296364
 10
195.4393884328199
 20
15.35362113810901
 10
195.5060405953157
 20
15.34270260383311
 10
195.6198779541103
 20
15.34793740173754
 10
195.7357259122097
 20
15.34485547516912
 10
195.8496924263281
 20
15.35018259812511
 10
195.91603410181
 20
15.33904208166541
 10
195.9807188525481
 20
15.35546979593176
 10
195.9689820772723
 20
15.3042592521005
 10
195.9765168063041
 20
15.25950334121
 10
195.9689820992258
 20
15.21474739010028
 10
195.9807188140737
 20
15.16353690871041
 10
195.9160344075253
 20
15.17996427794221
 10
195.8496886430826
 20
15.16882784447271
 10
195.7357459487013
 20
15.17413115893121
 10
195.6197995623055
 20
15.17114764593545
 10
195.5062756882124
 20
15.17606892268394
 10
195.4389231318805
 20
15.16585087513521
 10
195.3734285122496
 20
15.18145996138817
 10
195.3891713619218
 20
15.11463851827412
 10
195.3783275998215
 20
15.04207057815879
 10
195.3836581629792
 20
14.91162247614417
 10
195.3817136151857
 20
14.76064558185227
 10
195.3823133683214
 20
14.5932224393416
 10
195.3821506559605
 20
14.42656176118373
 10
195.3821895488136
 20
14.27360142921638
 10
195.38218164131
 20
14.14849178985707
 10
195.3821828382746
 20
14.06507890991422
 10
195.3821827716209
 20
14.02491778281978
 10
195.3821827564384
 20
14.01410517385759
 97
        1
330
B1
 75
     1
 76
     2
 52
45.0
 41
0.1
 77
     0
 78
     1
 53
45.0
 43
0.0
 44
0.0
 45
-0.282842712474619
 46
0.0
 79
     0
 98
        1
 10
0.0
 20
0.0
  0
HATCH
  5
CF
330
48
100
AcDbEntity
  8
1
  6
Continuous
 62
     2
100
AcDbHatch
 10
0.0
 20
0.0
 30
0.0
210
0.0
220
0.0
230
1.0
  2
CUSTOM13
 70
     0
 71
     1
 91
        1
 92
        1
 93
        3
 72
     4
 94
        3
 73
     0
 74
     0
 95
       24
 96
       20
 40
0.0
 40
0.0
 40
0.0
 40
0.0
 40
0.2211075008753727
 40
0.4273218586245883
 40
0.5080174679239311
 40
0.5914835907870056
 40
0.8143265690192673
 40
1.054651302686584
 40
1.295452694023188
 40
1.518109231328857
 40
1.540864321905473
 40
1.595126460622735
 40
1.659890947896049
 40
1.714153085187436
 40
1.736908174961709
 40
1.764951100735411
 40
1.801562291220975
 40
1.953914424543662
 40
2.126104167379719
 40
2.126104167379719
 40
2.126104167379719
 40
2.126104167379719
 10
185.9375369556889
 20
15.5898929511302
 10
185.9112579081812
 20
15.53097628234377
 10
185.8604698894426
 20
15.41711139679258
 10
185.8131784839111
 20
15.14441958233109
 10
185.7043482802619
 20
15.24445482575459
 10
185.5514800279638
 20
15.27118593367326
 10
185.76861551812
 20
15.48518135017636
 10
185.7838483674381
 20
15.7033211778249
 10
185.8906889492001
 20
15.8845157906643
 10
185.8305380947078
 20
16.16913226311406
 10
185.9334317395403
 20
16.14114089222456
 10
185.9779933468151
 20
16.13243251602304
 10
186.0380842395398
 20
16.12139654183358
 10
186.0756619587439
 20
16.10767523055564
 10
186.1252466928607
 20
16.10756076160224
 10
186.0930158919326
 20
16.07306592398629
 10
186.0171802221882
 20
16.08404104537962
 10
186.0429447159694
 20
15.89858969582456
 10
186.005589676385
 20
15.80702313549594
 10
185.9857704961609
 20
15.75844135397711
 72
     4
 94
        3
 73
     0
 74
     0
 95
       70
 96
       66
 40
0.0
 40
0.0
 40
0.0
 40
0.0
 40
0.0241731073021472
 40
0.0846058988987013
 40
0.1631685280353284
 40
0.2417311571789756
 40
0.3021639488292751
 40
0.3263370654895541
 40
0.3533118254248863
 40
0.4228783438922058
 40
0.5179999095313278
 40
0.6216398239465925
 40
0.7167613891499457
 40
0.7863279069649579
 40
0.8133026791761516
 40
0.8372943998771356
 40
0.8945054261372554
 40
0.9627895541962331
 40
1.020000580349044
 40
1.043992300975142
 40
1.07193434552286
 40
1.113121768772875
 40
1.1452251993322
 40
1.225483775412738
 40
1.32981992377145
 40
1.43415607199434
 40
1.514414647795763
 40
1.546518078208373
 40
1.578974764260146
 40
1.662678849314141
 40
1.77713137366839
 40
1.90183337747481
 40
2.016285900500628
 40
2.099989982527995
 40
2.132446666570353
 40
2.158782354486077
 40
2.216720867907868
 40
2.274659381334287
 40
2.300995069256223
 40
2.333451754066195
 40
2.417155836543905
 40
2.531608358985344
 40
2.656310362283867
 40
2.770762886389
 40
2.854466971340194
 40
2.886923657364
 40
2.913597976833436
 40
2.982389642875243
 40
3.076451716947113
 40
3.178937260458734
 40
3.272999334740144
 40
3.341791001059373
 40
3.368465320663685
 40
3.396976080738907
 40
3.472140811846143
 40
3.578408190308832
 40
3.700226892456269
 40
3.822045594634486
 40
3.928312973256593
 40
4.00347770531499
 40
4.031988456867055
 40
4.058324144797861
 40
4.11626265823704
 40
4.174201171400857
 40
4.200536849608796
 40
4.200536849608796
 40
4.200536849608796
 40
4.200536849608796
 10
185.9857704961609
 20
15.75844135397711
 10
185.9938259544679
 20
15.75844359811692
 10
186.0220200663241
 20
15.75845146032804
 10
186.0765534803672
 20
15.75830754828377
 10
186.1482891808604
 20
15.75909120499903
 10
186.2236240137062
 20
15.75627570463817
 10
186.2713052366439
 20
15.76298403400963
 10
186.3195071245616
 20
15.75197563692439
 10
186.3062571799873
 20
15.80546402997039
 10
186.3151093964538
 20
15.86049583543097
 10
186.3108698036285
 20
15.95419908726114
 10
186.313348348128
 20
16.04959482218536
 10
186.3090938706059
 20
16.14356821983391
 10
186.3179818665847
 20
16.19795062438015
 10
186.3046977409945
 20
16.25233997691463
 10
186.3514119277109
 20
16.2384221633536
 10
186.3943254545736
 20
16.24103877374046
 10
186.4605443456685
 20
16.23648422450756
 10
186.5013342271799
 20
16.22778162134161
 10
186.5525145690818
 20
16.23531799890196
 10
186.5253720487201
 20
16.19349970223282
 10
186.4803096055706
 20
16.20284992072606
 10
186.4942065045051
 20
16.13841207371843
 10
186.4858414431653
 20
16.07378219627406
 10
186.4903632178399
 20
15.97529141193894
 10
186.4854741311166
 20
15.87595932842576
 10
186.4950258992082
 20
15.81293115552975
 10
186.47997614552
 20
15.74964011499794
 10
186.5449159457208
 20
15.76515072944275
 10
186.6116246399497
 20
15.75499387697818
 10
186.7241435470827
 20
15.75988800099373
 10
186.8390235448954
 20
15.7569120473279
 10
186.9519871999747
 20
15.76221664184996
 10
187.0176267597678
 20
15.75107306472095
 10
187.0816276691054
 20
15.76744532319863
 10
187.070314288919
 20
15.71761689905281
 10
187.077533987151
 20
15.67416715212128
 10
187.0703142611271
 20
15.63071745587451
 10
187.0816277175994
 20
15.58088895196882
 10
187.0176263598972
 20
15.59726166091369
 10
186.9519921240459
 20
15.58611271661594
 10
186.8389974317332
 20
15.5914485720686
 10
186.7242456548643
 20
15.58834345663828
 10
186.6113183686861
 20
15.59364894682594
 10
186.5455220903585
 20
15.58257300019599
 10
186.4816097975358
 20
15.59887597847624
 10
186.4936015165125
 20
15.54423524395747
 10
186.4862104613005
 20
15.48854295047847
 10
186.4892684841983
 20
15.39649689140575
 10
186.4893422785682
 20
15.30179109873105
 10
186.486031357836
 20
15.20952782902269
 10
186.4939505989903
 20
15.15435768736143
 10
186.4815076611617
 20
15.10058169100139
 10
186.5389116551631
 20
15.11453768862784
 10
186.5994708140383
 20
15.10511457884229
 10
186.7048680855081
 20
15.10942885928707
 10
186.8204294070622
 20
15.10835504612034
 10
186.9359688877797
 20
15.10725965900998
 10
187.0414181130841
 20
15.11162525770635
 10
187.1018680471804
 20
15.10209426030674
 10
187.159283773911
 20
15.11617289606382
 10
187.1477773876709
 20
15.06707153265684
 10
187.1537566781749
 20
15.0256465801865
 10
187.1520311050801
 20
14.97651677966694
 10
187.1521500122971
 20
14.94854428447606
 10
187.1521871691833
 20
14.93980288195948
 72
     4
 94
        3
 73
     0
 74
     0
 95
       62
 96
       58
 40
0.0
 40
0.0
 40
0.0
 40
0.0
 40
0.0598250028308485
 40
0.2024846486897047
 40
0.3727558389220178
 40
0.5154154847934933
 40
0.5752404975784202
 40
0.9332326775485974
 40
1.290451762839321
 40
1.602077253145707
 40
1.69993163411198
 40
1.799359756424976
 40
2.270120149657001
 40
2.804661928461474
 40
2.88234228738318
 40
3.07654318571902
 40
3.329004354835464
 40
3.581465524568273
 40
3.775666424543543
 40
3.853346784558159
 40
3.899120679594905
 40
3.984129341791903
 40
4.029903236817251
 40
4.105797496059406
 40
4.295533144152362
 40
4.542189486611598
 40
4.788845828875543
 40
4.978581476409923
 40
5.054475735244164
 40
5.621734664339169
 40
6.130867242037116
 40
6.225249780948346
 40
6.318913039727017
 40
6.663579954558557
 40
7.047498900224364
 40
7.43523079157528
 40
7.498943906667692
 40
7.650875181209629
 40
7.832212509001111
 40
7.984143783696497
 40
8.047856898902623
 40
8.091554632732143
 40
8.172707566963824
 40
8.216405300767558
 40
8.289021782160415
 40
8.46218416075676
 40
8.668861838004869
 40
8.842024215263404
 40
8.9146406954746
 40
8.989881580860809
 40
9.155411528826727
 40
9.320941477743522
 40
9.396182352486779
 40
9.454709011143326
 40
9.58346766017026
 40
9.71222630901254
 40
9.770752957988993
 40
9.770752957988993
 40
9.770752957988993
 40
9.770752957988993
 10
187.1521871691833
 20
14.93980288195948
 10
187.1322348171623
 20
14.93980875568669
 10
187.0647037716465
 20
14.93982863806155
 10
186.9410612161788
 20
14.93949362520324
 10
186.7863180150057
 20
14.9410767375051
 10
186.669734948248
 20
14.93686078860493
 10
186.4550942634242
 20
14.95215205331624
 10
186.8518948407229
 20
14.59198721286193
 10
186.8945656069268
 20
14.37510503397167
 10
187.3189162146612
 20
14.19325062511446
 10
187.1439821496074
 20
14.08985196568075
 10
187.0194523925083
 20
13.87831523212721
 10
186.7666277235944
 20
14.34806081001567
 10
186.4797602893627
 20
14.99511516984521
 10
186.490633592666
 20
14.68782672154694
 10
186.4882892777959
 20
14.52288616971779
 10
186.4861096126411
 20
14.28879670711696
 10
186.4980774396346
 20
14.04498072421787
 10
186.4687984740631
 20
13.8985579686099
 10
186.511452262547
 20
13.75113490174544
 10
186.4239814005639
 20
13.76685797306226
 10
186.3768527606744
 20
13.7669430354346
 10
186.2898973207713
 20
13.75109425482915
 10
186.3313474021722
 20
13.89527771422768
 10
186.3029875004285
 20
14.03855052698461
 10
186.3145973775299
 20
14.27674947365269
 10
186.3124175648272
 20
14.50517235240351
 10
186.3103111127994
 20
14.66705729375999
 10
186.3208035438323
 20
14.98153709333756
 10
186.0128963252893
 20
14.29229470872438
 10
185.7055258267458
 20
13.8147675024307
 10
185.5851367066274
 20
14.03741112637427
 10
185.4074607910724
 20
14.15011034955577
 10
185.8853326362895
 20
14.32548143465463
 10
185.9353959057207
 20
14.56091929252032
 10
186.3583799621717
 20
14.95322989344606
 10
186.127675427354
 20
14.93655307029063
 10
186.0049685859341
 20
14.94269518948769
 10
185.8325483095663
 20
14.93312822699572
 10
185.7213224694449
 20
14.95448818489663
 10
185.6025779627449
 20
14.92136265357418
 10
185.6183169706686
 20
15.00203900606883
 10
185.6178550933762
 20
15.04645414290854
 10
185.6027881889932
 20
15.12967081778535
 10
185.7372380935443
 20
15.09062651983886
 10
185.8619755545747
 20
15.11739729328425
 10
186.062875523728
 20
15.10063949044055
 10
186.1921540949353
 20
15.12204225913006
 10
186.3328419928294
 20
15.08868778853423
 10
186.2980927452614
 20
15.22651875785071
 10
186.3222185666713
 20
15.34963257349485
 10
186.2967086182392
 20
15.47024055670341
 10
186.3333251146685
 20
15.60539865141501
 10
186.2211417027769
 20
15.58094545781896
 10
186.1280356457136
 20
15.59307749842028
 10
186.0191547579819
 20
15.5895763007
 10
185.9569697640964
 20
15.58981755951609
 10
185.9375369557246
 20
15.5898929512415
 97
        3
330
B3
330
B4
330
B2
 75
     1
 76
     2
 52
45.0
 41
0.1
 77
     0
 78
     1
 53
45.0
 43
0.0
 44
0.0
 45
-0.282842712474619
 46
0.0
 79
     0
 98
        1
 10
0.0
 20
0.0
  0
HATCH
  5
D0
330
48
100
AcDbEntity
  8
1
  6
Continuous
 62
     2
100
AcDbHatch
 10
0.0
 20
0.0
 30
0.0
210
0.0
220
0.0
230
1.0
  2
CUSTOM14
 70
     0
 71
     1
 91
        1
 92
        1
 93
        4
 72
     1
 10
192.4578138032673
 20
15.2287543402206
 11
191.1602971697032
 21
15.2287543402206
 72
     1
 10
191.1602971697032
 20
15.2287543402206
 11
191.1602971697032
 21
15.39722336795629
 72
     1
 10
191.1602971697032
 20
15.39722336795629
 11
192.4578138032673
 21
15.39722336795629
 72
     1
 10
192.4578138032673
 20
15.39722336795629
 11
192.4578138032673
 21
15.2287543402206
 97
        1
330
B5
 75
     1
 76
     2
 52
45.0
 41
0.1
 77
     0
 78
     1
 53
45.0
 43
0.0
 44
0.0
 45
-0.282842712474619
 46
0.0
 79
     0
 98
        1
 10
0.0
 20
0.0
  0
ENDBLK
  5
4A
330
48
100
AcDbEntity
  8
0
100
AcDbBlockEnd
  0
BLOCK
  5
4D
330
4B
100
AcDbEntity
  8
0
100
AcDbBlockBegin
  2
開示A4枠
 70
     0
 10
0.0
 20
0.0
 30
0.0
  3
開示A4枠
  1

  0
INSERT
  5
4C
330
4B
100
AcDbEntity
  8
1
100
AcDbBlockReference
  2
開示A4
 10
0.0
 20
0.0
 30
0.0
  0
ENDBLK
  5
4E
330
4B
100
AcDbEntity
  8
0
100
AcDbBlockEnd
  0
BLOCK
  5
50
330
4F
100
AcDbEntity
  8
0
100
AcDbBlockBegin
  2
92-80
 70
     0
 10
117.333486238532
 20
35.9412844036703
 30
0.0
  3
92-80
  1

  0
LINE
  5
D1
330
4F
100
AcDbEntity
  8
1
  6
Continuous
 62
     7
100
AcDbLine
 10
102.9233505213656
 20
125.0394267439208
 30
0.0
 11
112.1733505213656
 21
125.0394267439208
 31
0.0
  0
LINE
  5
D2
330
4F
100
AcDbEntity
  8
1
  6
Continuous
 62
     7
100
AcDbLine
 10
102.9233505213656
 20
123.0394267439208
 30
0.0
 11
112.1733505213656
 21
123.0394267439208
 31
0.0
  0
LINE
  5
D3
330
4F
100
AcDbEntity
  8
1
  6
Continuous
 62
     7
100
AcDbLine
 10
102.9233505213656
 20
123.0394267439208
 30
0.0
 11
102.9233505213656
 21
125.0394267439208
 31
0.0
  0
LINE
  5
D4
330
4F
100
AcDbEntity
  8
1
  6
Continuous
 62
     7
100
AcDbLine
 10
112.1733505213656
 20
123.0394267439208
 30
0.0
 11
121.4233505213656
 21
123.0394267439208
 31
0.0
  0
LINE
  5
D5
330
4F
100
AcDbEntity
  8
1
  6
Continuous
 62
     7
100
AcDbLine
 10
112.1733505213656
 20
125.0394267439208
 30
0.0
 11
121.4233505213656
 21
125.0394267439208
 31
0.0
  0
LINE
  5
D6
330
4F
100
AcDbEntity
  8
1
  6
Continuous
 62
     7
100
AcDbLine
 10
121.4233505213656
 20
125.0394267439208
 30
0.0
 11
121.4233505213656
 21
123.0394267439208
 31
0.0
  0
ARC
  5
D7
330
4F
100
AcDbEntity
  8
1
  6
Continuous
 62
     7
100
AcDbCircle
 10
112.1733505213656
 20
182.705928232753
 30
0.0
 40
9.25
100
AcDbArc
 50
0.0
 51
180.0
  0
ARC
  5
D8
330
4F
100
AcDbEntity
  8
1
  6
Continuous
 62
     7
100
AcDbCircle
 10
112.1733505213656
 20
182.705928232753
 30
0.0
 40
9.25
100
AcDbArc
 50
180.0
 51
0.0
  0
CIRCLE
  5
D9
330
4F
100
AcDbEntity
  8
1
  6
Continuous
 62
     7
100
AcDbCircle
 10
112.1733505213656
 20
182.705928232753
 30
0.0
 40
5.75
  0
ENDBLK
  5
51
330
4F
100
AcDbEntity
  8
0
100
AcDbBlockEnd
  0
BLOCK
  5
F4
330
EB
100
AcDbEntity
  8
0
100
AcDbBlockBegin
  2
*D4
 70
     1
 10
0.0
 20
0.0
 30
0.0
  3
*D4
  1

  0
LINE
  5
EC
330
EB
100
AcDbEntity
  8
0
  6
Continuous
 62
     2
100
AcDbLine
 10
92.42335052136558
 20
125.0394267439208
 30
0.0
 11
92.42335052136558
 21
132.0394267439208
 31
0.0
  0
LINE
  5
ED
330
EB
100
AcDbEntity
  8
0
  6
Continuous
 62
     2
100
AcDbLine
 10
92.42335052136558
 20
123.0394267439208
 30
0.0
 11
92.42335052136558
 21
125.0394267439208
 31
0.0
  0
LINE
  5
EE
330
EB
100
AcDbEntity
  8
0
  6
Continuous
 62
     2
100
AcDbLine
 10
92.42335052136558
 20
116.0394267439208
 30
0.0
 11
92.42335052136558
 21
123.0394267439208
 31
0.0
  0
LINE
  5
EF
330
EB
100
AcDbEntity
  8
0
  6
Continuous
 62
     2
100
AcDbLine
 10
102.9233505213656
 20
125.0394267439208
 30
0.0
 11
91.42335052136558
 21
125.0394267439208
 31
0.0
  0
LINE
  5
F0
330
EB
100
AcDbEntity
  8
0
  6
Continuous
 62
     2
100
AcDbLine
 10
102.9233505213656
 20
123.0394267439208
 30
0.0
 11
91.42335052136558
 21
123.0394267439208
 31
0.0
  0
SOLID
  5
F1
330
EB
100
AcDbEntity
  8
0
 62
     2
100
AcDbTrace
 10
92.88413426292146
 20
119.5394267439208
 30
0.0
 11
91.96256677980969
 21
119.5394267439208
 31
0.0
 12
92.42335052136558
 22
123.0394267439208
 32
0.0
 13
92.42335052136558
 23
123.0394267439208
 33
0.0
  0
SOLID
  5
F2
330
EB
100
AcDbEntity
  8
0
 62
     2
100
AcDbTrace
 10
91.96256677980969
 20
128.5394267439208
 30
0.0
 11
92.88413426292146
 21
128.5394267439208
 31
0.0
 12
92.42335052136558
 22
125.0394267439208
 32
0.0
 13
92.42335052136558
 23
125.0394267439208
 33
0.0
  0
MTEXT
  5
F3
330
EB
100
AcDbEntity
  8
0
 62
     7
100
AcDbMText
 10
91.42335052136558
 20
126.5891022691677
 30
0.0
 40
3.5
 41
0.0
 71
     7
 72
     1
  1
2
  7
CONVERTER_12
 11
0.0
 21
1.0
 31
0.0
 73
     1
 44
0.60024009603842
  0
ENDBLK
  5
F5
330
EB
100
AcDbEntity
  8
0
100
AcDbBlockEnd
  0
BLOCK
  5
FF
330
F8
100
AcDbEntity
  8
0
100
AcDbBlockBegin
  2
*D5
 70
     1
 10
0.0
 20
0.0
 30
0.0
  3
*D5
  1

  0
LINE
  5
F9
330
F8
100
AcDbEntity
  8
1
  6
Continuous
 62
     2
100
AcDbLine
 10
102.9233505213656
 20
202.955928232753
 30
0.0
 11
121.4233505213656
 21
202.955928232753
 31
0.0
  0
LINE
  5
FA
330
F8
100
AcDbEntity
  8
1
  6
Continuous
 62
     2
100
AcDbLine
 10
121.4233505213656
 20
182.705928232753
 30
0.0
 11
121.4233505213656
 21
203.955928232753
 31
0.0
  0
LINE
  5
FB
330
F8
100
AcDbEntity
  8
1
  6
Continuous
 62
     2
100
AcDbLine
 10
102.9233505213656
 20
182.705928232753
 30
0.0
 11
102.9233505213656
 21
203.955928232753
 31
0.0
  0
SOLID
  5
FC
330
F8
100
AcDbEntity
  8
1
 62
     2
100
AcDbTrace
 10
106.4233505213656
 20
203.4167119743089
 30
0.0
 11
106.4233505213656
 21
202.4951444911971
 31
0.0
 12
102.9233505213656
 22
202.955928232753
 32
0.0
 13
102.9233505213656
 23
202.955928232753
 33
0.0
  0
SOLID
  5
FD
330
F8
100
AcDbEntity
  8
1
 62
     2
100
AcDbTrace
 10
117.9233505213656
 20
202.4951444911971
 30
0.0
 11
117.9233505213656
 21
203.4167119743089
 31
0.0
 12
121.4233505213656
 22
202.955928232753
 32
0.0
 13
121.4233505213656
 23
202.955928232753
 33
0.0
  0
MTEXT
  5
FE
330
F8
100
AcDbEntity
  8
1
 62
     7
100
AcDbMText
 10
107.2497897638643
 20
204.3059212756767
 30
0.0
 40
3.5
 41
0.0
 71
     7
 72
     1
  1
\C7;{\Fgdt;n}\C7;18,5
  7
CONVERTER_12
 11
0.9999999999970619
 21
2.424068405545306E-6
 31
0.0
 73
     1
 44
0.60024009603842
  0
ENDBLK
  5
100
330
F8
100
AcDbEntity
  8
0
100
AcDbBlockEnd
  0
BLOCK
  5
108
330
103
100
AcDbEntity
  8
0
100
AcDbBlockBegin
  2
*D6
 70
     1
 10
0.0
 20
0.0
 30
0.0
  3
*D6
  1

  0
LINE
  5
104
330
103
100
AcDbEntity
  8
1
  6
Continuous
 62
     2
100
AcDbLine
 10
120.704860486731
 20
189.6495107166635
 30
0.0
 11
94.37986660906387
 21
168.2242569081259
 31
0.0
  0
SOLID
  5
105
330
103
100
AcDbEntity
  8
1
 62
     2
100
AcDbTrace
 10
105.2899889520117
 20
176.5096265001043
 30
0.0
 11
104.7082635126048
 21
177.2243866970066
 31
0.0
 12
107.7136975849245
 22
179.0763282979815
 32
0.0
 13
107.7136975849245
 23
179.0763282979815
 33
0.0
  0
SOLID
  5
106
330
103
100
AcDbEntity
  8
1
 62
     2
100
AcDbTrace
 10
119.0567120907194
 20
188.9022299654016
 30
0.0
 11
119.6384375301264
 21
188.1874697684994
 31
0.0
 12
116.6330034578066
 22
186.3355281675244
 32
0.0
 13
116.6330034578066
 23
186.3355281675244
 33
0.0
  0
MTEXT
  5
107
330
103
100
AcDbEntity
  8
1
 62
     7
100
AcDbMText
 10
94.55923678185084
 20
170.1108481042027
 30
0.0
 40
3.5
 41
0.0
 71
     7
 72
     1
  1
\C7;{\Fgdt;n}\C7;11,5
  7
CONVERTER_12
 11
0.7755918150332237
 21
0.6312347712645984
 31
0.0
 73
     1
 44
0.60024009603842
  0
ENDBLK
  5
109
330
103
100
AcDbEntity
  8
0
100
AcDbBlockEnd
  0
ENDSEC
  0
SECTION
  2
ENTITIES
  0
INSERT
  5
52
330
1F
100
AcDbEntity
  8
0
100
AcDbBlockReference
  2
開示A4枠
 10
0.0
 20
0.0
 30
0.0
  0
INSERT
  5
53
330
1F
100
AcDbEntity
  8
0
100
AcDbBlockReference
  2
92-80
 10
117.333486238532
 20
35.9412844036703
 30
0.0
  0
LINE
  5
DA
330
1F
100
AcDbEntity
  8
1
  6
DASH_CENTER
 62
     2
100
AcDbLine
 10
99.87138708862881
 20
182.705928232753
 30
0.0
 11
124.3713870886288
 21
182.705928232753
 31
0.0
  0
LINE
  5
DB
330
1F
100
AcDbEntity
  8
1
  6
DASH_CENTER
 62
     2
100
AcDbLine
 10
112.1733505213656
 20
194.955928232753
 30
0.0
 11
112.1733505213656
 21
170.455928232753
 31
0.0
  0
LINE
  5
DC
330
1F
100
AcDbEntity
  8
1
  6
DASH_CENTER
 62
     2
100
AcDbLine
 10
112.1733505213656
 20
128.0394267439208
 30
0.0
 11
112.1733505213656
 21
120.0394267439208
 31
0.0
  0
MTEXT
  5
DE
330
1F
100
AcDbEntity
  8
1
 62
     7
100
AcDbMText
 10
157.5
 20
12.5
 30
0.0
 40
2.5
 41
0.0
 71
     5
 72
     1
  1
2
  7
CONVERTER_12
 73
     1
 44
0.7202881152461
  0
MTEXT
  5
DF
330
1F
100
AcDbEntity
  8
1
 62
     7
100
AcDbMText
 10
151.75
 20
12.5
 30
0.0
 40
2.5
 41
0.0
 71
     5
 72
     1
  1
04
  7
CONVERTER_12
 73
     1
 44
0.7202881152461
  0
MTEXT
  5
E0
330
1F
100
AcDbEntity
  8
1
 62
     7
100
AcDbMText
 10
140.5
 20
12.5
 30
0.0
 40
2.5
 41
0.0
 71
     5
 72
     1
  1
2
  7
CONVERTER_12
 73
     1
 44
0.7202881152461
  0
MTEXT
  5
E1
330
1F
100
AcDbEntity
  8
1
 62
     7
100
AcDbMText
 10
134.75
 20
12.5
 30
0.0
 40
2.5
 41
0.0
 71
     5
 72
     1
  1
04
  7
CONVERTER_12
 73
     1
 44
0.7202881152461
  0
MTEXT
  5
E2
330
1F
100
AcDbEntity
  8
1
 62
     7
100
AcDbMText
 10
123.5
 20
12.5
 30
0.0
 40
2.5
 41
0.0
 71
     5
 72
     1
  1
2
  7
CONVERTER_12
 73
     1
 44
0.7202881152461
  0
MTEXT
  5
E3
330
1F
100
AcDbEntity
  8
1
 62
     7
100
AcDbMText
 10
117.75
 20
12.5
 30
0.0
 40
2.5
 41
0.0
 71
     5
 72
     1
  1
04
  7
CONVERTER_12
 73
     1
 44
0.7202881152461
  0
MTEXT
  5
E4
330
1F
100
AcDbEntity
  8
1
 62
     7
100
AcDbMText
 10
100.75
 20
12.5
 30
0.0
 40
2.5
 41
0.0
 71
     5
 72
     1
  1
04
  7
CONVERTER_12
 73
     1
 44
0.7202881152461
  0
MTEXT
  5
E5
330
1F
100
AcDbEntity
  8
1
 62
     7
100
AcDbMText
 10
106.5
 20
12.5
 30
0.0
 40
2.5
 41
0.0
 71
     5
 72
     1
  1
2
  7
CONVERTER_12
 73
     1
 44
0.7202881152461
  0
MTEXT
  5
E6
330
1F
100
AcDbEntity
  8
1
 62
     7
100
AcDbMText
 10
93.75000000000003
 20
17.0
 30
0.0
 40
3.5
 41
0.0
 71
     5
 72
     1
  1
1
  7
CONVERTER_12
 73
     1
 44
0.7202881152461
  0
MTEXT
  5
E7
330
1F
100
AcDbEntity
  8
1
 62
     7
100
AcDbMText
 10
57.00000000000003
 20
14.25
 30
0.0
 40
3.5
 41
0.0
 71
     5
 72
     1
  1
P40-5S-13
  7
CONVERTER_12
 73
     1
 44
0.7202881152461
  0
MTEXT
  5
E8
330
1F
100
AcDbEntity
  8
1
 62
     7
100
AcDbMText
 10
57.00000000000003
 20
22.75000000000009
 30
0.0
 40
3.5
 41
0.0
 71
     5
 72
     1
  1
ジョイントパッキン
  7
CONVERTER_11
 73
     1
 44
0.54545454545455
  0
MTEXT
  5
E9
330
1F
100
AcDbEntity
  8
1
 62
     7
100
AcDbMText
 10
85.25000000000003
 20
17.0
 30
0.0
 40
3.5
 41
0.0
 71
     5
 72
     1
  1
1
  7
CONVERTER_12
 73
     1
 44
0.7202881152461
  0
MTEXT
  5
EA
330
1F
100
AcDbEntity
  8
0
 62
     7
100
AcDbMText
 10
34.0
 20
34.0000000000001
 30
0.0
 40
3.5
 41
0.0
 71
     4
 72
     1
  1
3個入
  7
CONVERTER_11
 73
     1
 44
0.63636363636364
  0
DIMENSION
  5
F7
330
1F
100
AcDbEntity
  8
0
100
AcDbDimension
  2
*D4
 10
92.42335052136558
 20
123.0394267439208
 30
0.0
 11
89.67335052136558
 21
127.6391022691677
 31
0.0
 70
    32
  1
<>
 71
     5
 42
-1.0
 53
90.0
  3
ME10_DIM_10
100
AcDbAlignedDimension
 13
102.9233505213656
 23
125.0394267439208
 33
0.0
 14
102.9233505213656
 24
123.0394267439208
 34
0.0
 50
90.0
100
AcDbRotatedDimension
  0
DIMENSION
  5
102
330
1F
100
AcDbEntity
  8
1
100
AcDbDimension
  2
*D5
 10
102.9233505213656
 20
202.955928232753
 30
0.0
 11
112.3072897638559
 21
205.880928232753
 31
0.0
 70
    33
  1
<>
 71
     5
 42
-1.0
 53
0.00013888888889
  3
ME10_DIM_11
100
AcDbAlignedDimension
 13
121.4233505213656
 23
182.705928232753
 33
0.0
 14
102.9233505213656
 24
182.705928232753
 34
0.0
  0
INSERT
  5
10A
330
1F
100
AcDbEntity
  8
1
100
AcDbBlockReference
  2
*D6
 10
0.0
 20
0.0
 30
0.0
  0
ENDSEC
  0
SECTION
  2
OBJECTS
  0
DICTIONARY
  5
C
330
0
100
AcDbDictionary
281
     1
  3
ACAD_GROUP
350
D
  3
ACAD_LAYOUT
350
1A
  3
ACAD_MATERIAL
350
3B
  3
ACAD_MLEADERSTYLE
350
10D
  3
ACAD_MLINESTYLE
350
17
  3
ACAD_PLOTSETTINGS
350
19
  3
ACAD_PLOTSTYLENAME
350
E
  3
ACAD_VISUALSTYLE
350
2A
  3
AcDbVariableDictionary
350
10B
  0
DICTIONARY
  5
D
102
{ACAD_REACTORS
330
C
102
}
330
C
100
AcDbDictionary
281
     1
  0
DICTIONARY
  5
1A
102
{ACAD_REACTORS
330
C
102
}
330
C
100
AcDbDictionary
281
     1
  3
Layout1
350
1E
  3
Layout2
350
26
  3
Model
350
22
  0
DICTIONARY
  5
3B
102
{ACAD_REACTORS
330
C
102
}
330
C
100
AcDbDictionary
281
     1
  3
ByBlock
350
3D
  3
ByLayer
350
3C
  3
Global
350
3E
  0
DICTIONARY
  5
10D
102
{ACAD_REACTORS
330
C
102
}
330
C
100
AcDbDictionary
281
     1
  0
DICTIONARY
  5
17
102
{ACAD_REACTORS
330
C
102
}
330
C
100
AcDbDictionary
281
     1
  3
Standard
350
18
  0
DICTIONARY
  5
19
102
{ACAD_REACTORS
330
C
102
}
330
C
100
AcDbDictionary
281
     1
  0
ACDBDICTIONARYWDFLT
  5
E
102
{ACAD_REACTORS
330
C
102
}
330
C
100
AcDbDictionary
281
     1
  3
Normal
350
F
100
AcDbDictionaryWithDefault
340
F
  0
DICTIONARY
  5
2A
102
{ACAD_REACTORS
330
C
102
}
330
C
100
AcDbDictionary
281
     1
  3
2dWireframe
350
2F
  3
3D Hidden
350
31
  3
3dWireframe
350
30
  3
Basic
350
32
  3
Brighten
350
36
  3
ColorChange
350
3A
  3
Conceptual
350
34
  3
Dim
350
35
  3
Facepattern
350
39
  3
Flat
350
2B
  3
FlatWithEdges
350
2C
  3
Gouraud
350
2D
  3
GouraudWithEdges
350
2E
  3
Linepattern
350
38
  3
Realistic
350
33
  3
Thicken
350
37
  0
DICTIONARY
  5
10B
102
{ACAD_REACTORS
330
C
102
}
330
C
100
AcDbDictionary
281
     1
  3
DIMASSOC
350
10E
  3
HIDETEXT
350
10F
  0
LAYOUT
  5
1E
102
{ACAD_REACTORS
330
1A
102
}
330
1A
100
AcDbPlotSettings
  1

  2
none_device
  4

  6

 40
0.0
 41
0.0
 42
0.0
 43
0.0
 44
0.0
 45
0.0
 46
0.0
 47
0.0
 48
0.0
 49
0.0
140
0.0
141
0.0
142
1.0
143
1.0
 70
   688
 72
     0
 73
     0
 74
     5
  7

 75
    16
147
1.0
148
0.0
149
0.0
100
AcDbLayout
  1
Layout1
 70
     1
 71
     1
 10
0.0
 20
0.0
 11
12.0
 21
9.0
 12
0.0
 22
0.0
 32
0.0
 14
1.00000000000000E+20
 24
1.00000000000000E+20
 34
1.00000000000000E+20
 15
-1.00000000000000E+20
 25
-1.00000000000000E+20
 35
-1.00000000000000E+20
146
0.0
 13
0.0
 23
0.0
 33
0.0
 16
1.0
 26
0.0
 36
0.0
 17
0.0
 27
1.0
 37
0.0
 76
     0
330
1B
  0
LAYOUT
  5
26
102
{ACAD_REACTORS
330
1A
102
}
330
1A
100
AcDbPlotSettings
  1

  2
none_device
  4

  6

 40
0.0
 41
0.0
 42
0.0
 43
0.0
 44
0.0
 45
0.0
 46
0.0
 47
0.0
 48
0.0
 49
0.0
140
0.0
141
0.0
142
1.0
143
1.0
 70
   688
 72
     0
 73
     0
 74
     5
  7

 75
    16
147
1.0
148
0.0
149
0.0
100
AcDbLayout
  1
Layout2
 70
     1
 71
     2
 10
0.0
 20
0.0
 11
0.0
 21
0.0
 12
0.0
 22
0.0
 32
0.0
 14
0.0
 24
0.0
 34
0.0
 15
0.0
 25
0.0
 35
0.0
146
0.0
 13
0.0
 23
0.0
 33
0.0
 16
1.0
 26
0.0
 36
0.0
 17
0.0
 27
1.0
 37
0.0
 76
     0
330
23
  0
LAYOUT
  5
22
102
{ACAD_REACTORS
330
1A
102
}
330
1A
100
AcDbPlotSettings
  1

  2
none_device
  4

  6

 40
0.0
 41
0.0
 42
0.0
 43
0.0
 44
0.0
 45
0.0
 46
0.0
 47
0.0
 48
0.0
 49
0.0
140
0.0
141
0.0
142
1.0
143
1.0
 70
  1712
 72
     0
 73
     0
 74
     0
  7

 75
     0
147
1.0
148
0.0
149
0.0
100
AcDbLayout
  1
Model
 70
     1
 71
     0
 10
0.0
 20
0.0
 11
12.0
 21
9.0
 12
0.0
 22
0.0
 32
0.0
 14
0.0
 24
0.0
 34
0.0
 15
210.0000000000001
 25
297.0
 35
0.0
146
0.0
 13
0.0
 23
0.0
 33
0.0
 16
1.0
 26
0.0
 36
0.0
 17
0.0
 27
1.0
 37
0.0
 76
     0
330
1F
331
29
  0
MATERIAL
  5
3D
102
{ACAD_REACTORS
330
3B
102
}
102
{ACAD_XDICTIONARY
360
132
102
}
330
3B
100
AcDbMaterial
  1
ByBlock
  0
MATERIAL
  5
3C
102
{ACAD_REACTORS
330
3B
102
}
102
{ACAD_XDICTIONARY
360
130
102
}
330
3B
100
AcDbMaterial
  1
ByLayer
  0
MATERIAL
  5
3E
102
{ACAD_REACTORS
330
3B
102
}
102
{ACAD_XDICTIONARY
360
134
102
}
330
3B
100
AcDbMaterial
  1
Global
  0
MLINESTYLE
  5
18
102
{ACAD_REACTORS
330
17
102
}
330
17
100
AcDbMlineStyle
  2
Standard
 70
     0
  3

 62
   256
 51
90.0
 52
90.0
 71
     2
 49
0.5
 62
   256
  6
BYLAYER
 49
-0.5
 62
   256
  6
BYLAYER
  0
ACDBPLACEHOLDER
  5
F
102
{ACAD_REACTORS
330
E
102
}
330
E
  0
VISUALSTYLE
  5
2F
102
{ACAD_REACTORS
330
2A
102
}
102
{ACAD_XDICTIONARY
360
118
102
}
330
2A
100
AcDbVisualStyle
  2
2dWireframe
 70
     4
 71
     0
 72
     2
 73
     0
 90
        0
 40
-0.6
 41
-30.0
 62
     5
 63
     7
 74
     1
 91
        4
 64
     7
 65
   257
 75
     1
175
     1
 42
1.0
 92
        0
 66
   257
 43
1.0
 76
     1
 77
     6
 78
     2
 67
     7
 79
     5
170
     0
171
     0
290
     0
174
     0
 93
        1
 44
0.0
173
     0
291
     0
 45
0.0
1001
ACAD
1000
AcDbSavedByObjectVersion
1070
     0
  0
VISUALSTYLE
  5
31
102
{ACAD_REACTORS
330
2A
102
}
102
{ACAD_XDICTIONARY
360
11C
102
}
330
2A
100
AcDbVisualStyle
  2
3D Hidden
 70
     6
 71
     1
 72
     2
 73
     2
 90
        0
 40
-0.6
 41
-30.0
 62
     5
 63
     7
 74
     2
 91
        2
 64
     7
 65
   257
 75
     2
175
     1
 42
40.0
 92
        0
 66
   257
 43
1.0
 76
     1
 77
     6
 78
     2
 67
     7
 79
     3
170
     0
171
     0
290
     0
174
     0
 93
        1
 44
0.0
173
     0
291
     0
 45
0.0
1001
ACAD
1000
AcDbSavedByObjectVersion
1070
     0
  0
VISUALSTYLE
  5
30
102
{ACAD_REACTORS
330
2A
102
}
102
{ACAD_XDICTIONARY
360
11A
102
}
330
2A
100
AcDbVisualStyle
  2
3dWireframe
 70
     5
 71
     0
 72
     2
 73
     0
 90
        0
 40
-0.6
 41
-30.0
 62
     5
 63
     7
 74
     1
 91
        4
 64
     7
 65
   257
 75
     1
175
     1
 42
1.0
 92
        0
 66
   257
 43
1.0
 76
     1
 77
     6
 78
     2
 67
     7
 79
     5
170
     0
171
     0
290
     0
174
     0
 93
        1
 44
0.0
173
     0
291
     0
 45
0.0
1001
ACAD
1000
AcDbSavedByObjectVersion
1070
     0
  0
VISUALSTYLE
  5
32
102
{ACAD_REACTORS
330
2A
102
}
102
{ACAD_XDICTIONARY
360
11E
102
}
330
2A
100
AcDbVisualStyle
  2
Basic
 70
     7
 71
     1
 72
     0
 73
     1
 90
        0
 40
-0.6
 41
-30.0
 62
     5
 63
     7
 74
     0
 91
        4
 64
     7
 65
   257
 75
     1
175
     1
 42
1.0
 92
        8
 66
     7
 43
1.0
 76
     1
 77
     6
 78
     2
 67
     7
 79
     5
170
     0
171
     0
290
     0
174
     0
 93
        1
 44
0.0
173
     0
291
     1
 45
0.0
1001
ACAD
1000
AcDbSavedByObjectVersion
1070
     0
  0
VISUALSTYLE
  5
36
102
{ACAD_REACTORS
330
2A
102
}
102
{ACAD_XDICTIONARY
360
126
102
}
330
2A
100
AcDbVisualStyle
  2
Brighten
 70
    12
 71
     2
 72
     2
 73
     0
 90
        0
 40
-0.6
 41
-30.0
 62
     5
 63
     7
 74
     1
 91
        4
 64
     7
 65
   257
 75
     1
175
     1
 42
1.0
 92
        8
 66
     7
 43
1.0
 76
     1
 77
     6
 78
     2
 67
     7
 79
     5
170
     0
171
     0
290
     0
174
     0
 93
        1
 44
50.0
173
     0
291
     1
 45
0.0
1001
ACAD
1000
AcDbSavedByObjectVersion
1070
     0
  0
VISUALSTYLE
  5
3A
102
{ACAD_REACTORS
330
2A
102
}
102
{ACAD_XDICTIONARY
360
12E
102
}
330
2A
100
AcDbVisualStyle
  2
ColorChange
 70
    16
 71
     2
 72
     2
 73
     3
 90
        0
 40
-0.6
 41
-30.0
 62
     5
 63
     8
 74
     1
 91
        4
 64
     7
 65
   257
 75
     1
175
     1
 42
1.0
 92
        8
 66
     8
 43
1.0
 76
     1
 77
     6
 78
     2
 67
     7
 79
     5
170
     0
171
     0
290
     0
174
     0
 93
        1
 44
0.0
173
     0
291
     1
 45
0.0
1001
ACAD
1000
AcDbSavedByObjectVersion
1070
     0
  0
VISUALSTYLE
  5
34
102
{ACAD_REACTORS
330
2A
102
}
102
{ACAD_XDICTIONARY
360
122
102
}
330
2A
100
AcDbVisualStyle
  2
Conceptual
 70
     9
 71
     3
 72
     2
 73
     0
 90
        0
 40
-0.6
 41
-30.0
 62
     5
 63
     7
 74
     2
 91
        2
 64
     7
 65
   257
 75
     1
175
     1
 42
40.0
 92
        8
 66
     7
 43
1.0
 76
     1
 77
     6
 78
     2
 67
     7
 79
     3
170
     0
171
     0
290
     0
174
     0
 93
        1
 44
0.0
173
     0
291
     0
 45
0.0
1001
ACAD
1000
AcDbSavedByObjectVersion
1070
     0
  0
VISUALSTYLE
  5
35
102
{ACAD_REACTORS
330
2A
102
}
102
{ACAD_XDICTIONARY
360
124
102
}
330
2A
100
AcDbVisualStyle
  2
Dim
 70
    11
 71
     2
 72
     2
 73
     0
 90
        0
 40
-0.6
 41
-30.0
 62
     5
 63
     7
 74
     1
 91
        4
 64
     7
 65
   257
 75
     1
175
     1
 42
1.0
 92
        8
 66
     7
 43
1.0
 76
     1
 77
     6
 78
     2
 67
     7
 79
     5
170
     0
171
     0
290
     0
174
     0
 93
        1
 44
-50.0
173
     0
291
     1
 45
0.0
1001
ACAD
1000
AcDbSavedByObjectVersion
1070
     0
  0
VISUALSTYLE
  5
39
102
{ACAD_REACTORS
330
2A
102
}
102
{ACAD_XDICTIONARY
360
12C
102
}
330
2A
100
AcDbVisualStyle
  2
Facepattern
 70
    15
 71
     2
 72
     2
 73
     0
 90
        0
 40
-0.6
 41
-30.0
 62
     5
 63
     7
 74
     1
 91
        4
 64
     7
 65
   257
 75
     1
175
     1
 42
1.0
 92
        8
 66
     7
 43
1.0
 76
     1
 77
     6
 78
     2
 67
     7
 79
     5
170
     0
171
     0
290
     0
174
     0
 93
        1
 44
0.0
173
     0
291
     1
 45
0.0
1001
ACAD
1000
AcDbSavedByObjectVersion
1070
     0
  0
VISUALSTYLE
  5
2B
102
{ACAD_REACTORS
330
2A
102
}
102
{ACAD_XDICTIONARY
360
110
102
}
330
2A
100
AcDbVisualStyle
  2
Flat
 70
     0
 71
     2
 72
     1
 73
     1
 90
        2
 40
-0.6
 41
30.0
 62
     5
 63
     7
 74
     0
 91
        4
 64
     7
 65
   257
 75
     1
175
     1
 42
1.0
 92
        8
 66
     7
 43
1.0
 76
     1
 77
     6
 78
     2
 67
     7
 79
     5
170
     0
171
     0
290
     0
174
     0
 93
       13
 44
0.0
173
     0
291
     1
 45
0.0
1001
ACAD
1000
AcDbSavedByObjectVersion
1070
     0
  0
VISUALSTYLE
  5
2C
102
{ACAD_REACTORS
330
2A
102
}
102
{ACAD_XDICTIONARY
360
112
102
}
330
2A
100
AcDbVisualStyle
  2
FlatWithEdges
 70
     1
 71
     2
 72
     1
 73
     1
 90
        2
 40
-0.6
 41
30.0
 62
     5
 63
     7
 74
     1
 91
        4
 64
     7
 65
   257
 75
     1
175
     1
 42
1.0
 92
        0
 66
   257
 43
1.0
 76
     1
 77
     6
 78
     2
 67
     7
 79
     5
170
     0
171
     0
290
     0
174
     0
 93
       13
 44
0.0
173
     0
291
     1
 45
0.0
1001
ACAD
1000
AcDbSavedByObjectVersion
1070
     0
  0
VISUALSTYLE
  5
2D
102
{ACAD_REACTORS
330
2A
102
}
102
{ACAD_XDICTIONARY
360
114
102
}
330
2A
100
AcDbVisualStyle
  2
Gouraud
 70
     2
 71
     2
 72
     2
 73
     1
 90
        2
 40
-0.6
 41
30.0
 62
     5
 63
     7
 74
     0
 91
        4
 64
     7
 65
   257
 75
     1
175
     1
 42
1.0
 92
        0
 66
     7
 43
1.0
 76
     1
 77
     6
 78
     2
 67
     7
 79
     5
170
     0
171
     0
290
     0
174
     0
 93
       13
 44
0.0
173
     0
291
     1
 45
0.0
1001
ACAD
1000
AcDbSavedByObjectVersion
1070
     0
  0
VISUALSTYLE
  5
2E
102
{ACAD_REACTORS
330
2A
102
}
102
{ACAD_XDICTIONARY
360
116
102
}
330
2A
100
AcDbVisualStyle
  2
GouraudWithEdges
 70
     3
 71
     2
 72
     2
 73
     1
 90
        2
 40
-0.6
 41
30.0
 62
     5
 63
     7
 74
     1
 91
        4
 64
     7
 65
   257
 75
     1
175
     1
 42
1.0
 92
        0
 66
   257
 43
1.0
 76
     1
 77
     6
 78
     2
 67
     7
 79
     5
170
     0
171
     0
290
     0
174
     0
 93
       13
 44
0.0
173
     0
291
     1
 45
0.0
1001
ACAD
1000
AcDbSavedByObjectVersion
1070
     0
  0
VISUALSTYLE
  5
38
102
{ACAD_REACTORS
330
2A
102
}
102
{ACAD_XDICTIONARY
360
12A
102
}
330
2A
100
AcDbVisualStyle
  2
Linepattern
 70
    14
 71
     2
 72
     2
 73
     0
 90
        0
 40
-0.6
 41
-30.0
 62
     5
 63
     7
 74
     1
 91
        4
 64
     7
 65
   257
 75
     7
175
     7
 42
1.0
 92
        8
 66
     7
 43
1.0
 76
     1
 77
     6
 78
     2
 67
     7
 79
     5
170
     0
171
     0
290
     0
174
     0
 93
        1
 44
0.0
173
     0
291
     1
 45
0.0
1001
ACAD
1000
AcDbSavedByObjectVersion
1070
     0
  0
VISUALSTYLE
  5
33
102
{ACAD_REACTORS
330
2A
102
}
102
{ACAD_XDICTIONARY
360
120
102
}
330
2A
100
AcDbVisualStyle
  2
Realistic
 70
     8
 71
     2
 72
     2
 73
     0
 90
        0
 40
-0.6
 41
-30.0
 62
     5
 63
     7
 74
     1
 91
        0
 64
     7
 65
   257
 75
     1
175
     1
 42
1.0
 92
        8
 66
     8
 43
1.0
 76
     1
 77
     6
 78
     2
 67
     7
 79
     5
170
     0
171
     0
290
     0
174
     0
 93
       13
 44
0.0
173
     0
291
     0
 45
0.0
1001
ACAD
1000
AcDbSavedByObjectVersion
1070
     0
  0
VISUALSTYLE
  5
37
102
{ACAD_REACTORS
330
2A
102
}
102
{ACAD_XDICTIONARY
360
128
102
}
330
2A
100
AcDbVisualStyle
  2
Thicken
 70
    13
 71
     2
 72
     2
 73
     0
 90
        0
 40
-0.6
 41
-30.0
 62
     5
 63
     7
 74
     1
 91
        4
 64
     7
 65
   257
 75
     1
175
     1
 42
1.0
 92
       12
 66
     7
 43
1.0
 76
     1
 77
     6
 78
     2
 67
     7
 79
     5
170
     0
171
     0
290
     0
174
     0
 93
        1
 44
0.0
173
     0
291
     1
 45
0.0
1001
ACAD
1000
AcDbSavedByObjectVersion
1070
     0
  0
DICTIONARYVAR
  5
10E
102
{ACAD_REACTORS
330
10B
102
}
330
10B
100
DictionaryVariables
280
     0
  1
2
  0
DICTIONARYVAR
  5
10F
102
{ACAD_REACTORS
330
10B
102
}
330
10B
100
DictionaryVariables
280
     0
  1
1
  0
DICTIONARY
  5
132
330
3D
100
AcDbDictionary
280
     1
281
     1
  3
ACAD_XREC_ROUNDTRIP
360
133
  0
DICTIONARY
  5
130
330
3C
100
AcDbDictionary
280
     1
281
     1
  3
ACAD_XREC_ROUNDTRIP
360
131
  0
DICTIONARY
  5
134
330
3E
100
AcDbDictionary
280
     1
281
     1
  3
ACAD_XREC_ROUNDTRIP
360
135
  0
DICTIONARY
  5
118
330
2F
100
AcDbDictionary
280
     1
281
     1
  3
ACAD_XREC_ROUNDTRIP
360
119
  0
DICTIONARY
  5
11C
330
31
100
AcDbDictionary
280
     1
281
     1
  3
ACAD_XREC_ROUNDTRIP
360
11D
  0
DICTIONARY
  5
11A
330
30
100
AcDbDictionary
280
     1
281
     1
  3
ACAD_XREC_ROUNDTRIP
360
11B
  0
DICTIONARY
  5
11E
330
32
100
AcDbDictionary
280
     1
281
     1
  3
ACAD_XREC_ROUNDTRIP
360
11F
  0
DICTIONARY
  5
126
330
36
100
AcDbDictionary
280
     1
281
     1
  3
ACAD_XREC_ROUNDTRIP
360
127
  0
DICTIONARY
  5
12E
330
3A
100
AcDbDictionary
280
     1
281
     1
  3
ACAD_XREC_ROUNDTRIP
360
12F
  0
DICTIONARY
  5
122
330
34
100
AcDbDictionary
280
     1
281
     1
  3
ACAD_XREC_ROUNDTRIP
360
123
  0
DICTIONARY
  5
124
330
35
100
AcDbDictionary
280
     1
281
     1
  3
ACAD_XREC_ROUNDTRIP
360
125
  0
DICTIONARY
  5
12C
330
39
100
AcDbDictionary
280
     1
281
     1
  3
ACAD_XREC_ROUNDTRIP
360
12D
  0
DICTIONARY
  5
110
330
2B
100
AcDbDictionary
280
     1
281
     1
  3
ACAD_XREC_ROUNDTRIP
360
111
  0
DICTIONARY
  5
112
330
2C
100
AcDbDictionary
280
     1
281
     1
  3
ACAD_XREC_ROUNDTRIP
360
113
  0
DICTIONARY
  5
114
330
2D
100
AcDbDictionary
280
     1
281
     1
  3
ACAD_XREC_ROUNDTRIP
360
115
  0
DICTIONARY
  5
116
330
2E
100
AcDbDictionary
280
     1
281
     1
  3
ACAD_XREC_ROUNDTRIP
360
117
  0
DICTIONARY
  5
12A
330
38
100
AcDbDictionary
280
     1
281
     1
  3
ACAD_XREC_ROUNDTRIP
360
12B
  0
DICTIONARY
  5
120
330
33
100
AcDbDictionary
280
     1
281
     1
  3
ACAD_XREC_ROUNDTRIP
360
121
  0
DICTIONARY
  5
128
330
37
100
AcDbDictionary
280
     1
281
     1
  3
ACAD_XREC_ROUNDTRIP
360
129
  0
XRECORD
  5
133
102
{ACAD_REACTORS
330
132
102
}
330
132
100
AcDbXrecord
280
     1
102
MATERIAL
148
0.0
149
0.0
149
0.0
 93
        0
 94
      127
282
     0
 72
     1
 77
     1
171
     1
175
     1
179
     1
273
     0
  0
XRECORD
  5
131
102
{ACAD_REACTORS
330
130
102
}
330
130
100
AcDbXrecord
280
     1
102
MATERIAL
148
0.0
149
0.0
149
0.0
 93
        0
 94
      127
282
     0
 72
     1
 77
     1
171
     1
175
     1
179
     1
273
     0
  0
XRECORD
  5
135
102
{ACAD_REACTORS
330
134
102
}
330
134
100
AcDbXrecord
280
     1
102
MATERIAL
148
0.0
149
0.0
149
0.0
 93
        0
 94
      127
282
     0
 72
     1
 77
     1
171
     1
175
     1
179
     1
273
     0
  0
XRECORD
  5
119
102
{ACAD_REACTORS
330
118
102
}
330
118
100
AcDbXrecord
280
     1
102
RTVSPropertyOp0
 70
     1
102
RTVSPropertyOp1
 70
     1
102
RTVSPropertyOp2
 70
     1
102
RTVSPropertyOp3
 70
     1
102
RTVSPropertyOp4
 70
     1
102
RTVSPropertyOp5
 70
     1
102
RTVSPropertyOp6
 70
     1
102
RTVSPropertyOp7
 70
     1
102
RTVSPropertyOp8
 70
     1
102
RTVSPropertyOp9
 70
     1
102
RTVSPropertyOp10
 70
     1
102
RTVSPropertyOp11
 70
     1
102
RTVSPropertyOp12
 70
     1
102
RTVSPropertyOp13
 70
     1
102
RTVSPropertyOp14
 70
     1
102
RTVSPropertyOp15
 70
     1
102
RTVSPropertyOp16
 70
     1
102
RTVSPropertyOp17
 70
     1
102
RTVSPropertyOp18
 70
     1
102
RTVSPropertyOp19
 70
     1
102
RTVSPropertyOp20
 70
     1
102
RTVSPropertyOp21
 70
     1
102
RTVSPropertyOp22
 70
     1
102
RTVSPropertyOp23
 70
     1
102
RTVSPropertyOp24
 70
     1
102
RTVSPropertyOp25
 70
     1
102
RTVSPropertyOp26
 70
     1
102
RTVSPropertyOp27
 70
     1
102
RTVSPropertyOp28
 70
     1
102
RTVSPropertyOp29
 70
     1
102
RTVSPropertyOp30
 70
     1
102
RTVSPropertyOp31
 70
     1
102
RTVSPropertyOp32
 70
     1
  0
XRECORD
  5
11D
102
{ACAD_REACTORS
330
11C
102
}
330
11C
100
AcDbXrecord
280
     1
102
RTVSPropertyOp0
 70
     1
102
RTVSPropertyOp1
 70
     1
102
RTVSPropertyOp2
 70
     1
102
RTVSPropertyOp3
 70
     1
102
RTVSPropertyOp4
 70
     1
102
RTVSPropertyOp5
 70
     1
102
RTVSPropertyOp6
 70
     1
102
RTVSPropertyOp7
 70
     1
102
RTVSPropertyOp8
 70
     1
102
RTVSPropertyOp9
 70
     1
102
RTVSPropertyOp10
 70
     1
102
RTVSPropertyOp11
 70
     1
102
RTVSPropertyOp12
 70
     1
102
RTVSPropertyOp13
 70
     1
102
RTVSPropertyOp14
 70
     1
102
RTVSPropertyOp15
 70
     1
102
RTVSPropertyOp16
 70
     1
102
RTVSPropertyOp17
 70
     1
102
RTVSPropertyOp18
 70
     1
102
RTVSPropertyOp19
 70
     1
102
RTVSPropertyOp20
 70
     1
102
RTVSPropertyOp21
 70
     1
102
RTVSPropertyOp22
 70
     1
102
RTVSPropertyOp23
 70
     1
102
RTVSPropertyOp24
 70
     1
102
RTVSPropertyOp25
 70
     1
102
RTVSPropertyOp26
 70
     1
102
RTVSPropertyOp27
 70
     1
102
RTVSPropertyOp28
 70
     1
102
RTVSPropertyOp29
 70
     1
102
RTVSPropertyOp30
 70
     1
102
RTVSPropertyOp31
 70
     1
102
RTVSPropertyOp32
 70
     1
  0
XRECORD
  5
11B
102
{ACAD_REACTORS
330
11A
102
}
330
11A
100
AcDbXrecord
280
     1
102
RTVSPropertyOp0
 70
     1
102
RTVSPropertyOp1
 70
     1
102
RTVSPropertyOp2
 70
     1
102
RTVSPropertyOp3
 70
     1
102
RTVSPropertyOp4
 70
     1
102
RTVSPropertyOp5
 70
     1
102
RTVSPropertyOp6
 70
     1
102
RTVSPropertyOp7
 70
     1
102
RTVSPropertyOp8
 70
     1
102
RTVSPropertyOp9
 70
     1
102
RTVSPropertyOp10
 70
     1
102
RTVSPropertyOp11
 70
     1
102
RTVSPropertyOp12
 70
     1
102
RTVSPropertyOp13
 70
     1
102
RTVSPropertyOp14
 70
     1
102
RTVSPropertyOp15
 70
     1
102
RTVSPropertyOp16
 70
     1
102
RTVSPropertyOp17
 70
     1
102
RTVSPropertyOp18
 70
     1
102
RTVSPropertyOp19
 70
     1
102
RTVSPropertyOp20
 70
     1
102
RTVSPropertyOp21
 70
     1
102
RTVSPropertyOp22
 70
     1
102
RTVSPropertyOp23
 70
     1
102
RTVSPropertyOp24
 70
     1
102
RTVSPropertyOp25
 70
     1
102
RTVSPropertyOp26
 70
     1
102
RTVSPropertyOp27
 70
     1
102
RTVSPropertyOp28
 70
     1
102
RTVSPropertyOp29
 70
     1
102
RTVSPropertyOp30
 70
     1
102
RTVSPropertyOp31
 70
     1
102
RTVSPropertyOp32
 70
     1
  0
XRECORD
  5
11F
102
{ACAD_REACTORS
330
11E
102
}
330
11E
100
AcDbXrecord
280
     1
102
RTVSPropertyOp0
 70
     1
102
RTVSPropertyOp1
 70
     1
102
RTVSPropertyOp2
 70
     1
102
RTVSPropertyOp3
 70
     1
102
RTVSPropertyOp4
 70
     1
102
RTVSPropertyOp5
 70
     1
102
RTVSPropertyOp6
 70
     1
102
RTVSPropertyOp7
 70
     1
102
RTVSPropertyOp8
 70
     1
102
RTVSPropertyOp9
 70
     1
102
RTVSPropertyOp10
 70
     1
102
RTVSPropertyOp11
 70
     1
102
RTVSPropertyOp12
 70
     1
102
RTVSPropertyOp13
 70
     1
102
RTVSPropertyOp14
 70
     1
102
RTVSPropertyOp15
 70
     1
102
RTVSPropertyOp16
 70
     1
102
RTVSPropertyOp17
 70
     1
102
RTVSPropertyOp18
 70
     1
102
RTVSPropertyOp19
 70
     1
102
RTVSPropertyOp20
 70
     1
102
RTVSPropertyOp21
 70
     1
102
RTVSPropertyOp22
 70
     1
102
RTVSPropertyOp23
 70
     1
102
RTVSPropertyOp24
 70
     1
102
RTVSPropertyOp25
 70
     1
102
RTVSPropertyOp26
 70
     1
102
RTVSPropertyOp27
 70
     1
102
RTVSPropertyOp28
 70
     1
102
RTVSPropertyOp29
 70
     1
102
RTVSPropertyOp30
 70
     1
102
RTVSPropertyOp31
 70
     1
102
RTVSPropertyOp32
 70
     1
  0
XRECORD
  5
127
102
{ACAD_REACTORS
330
126
102
}
330
126
100
AcDbXrecord
280
     1
102
RTVSPropertyOp0
 70
     1
102
RTVSPropertyOp1
 70
     1
102
RTVSPropertyOp2
 70
     1
102
RTVSPropertyOp3
 70
     1
102
RTVSPropertyOp4
 70
     1
102
RTVSPropertyOp5
 70
     1
102
RTVSPropertyOp6
 70
     1
102
RTVSPropertyOp7
 70
     1
102
RTVSPropertyOp8
 70
     1
102
RTVSPropertyOp9
 70
     1
102
RTVSPropertyOp10
 70
     1
102
RTVSPropertyOp11
 70
     1
102
RTVSPropertyOp12
 70
     1
102
RTVSPropertyOp13
 70
     1
102
RTVSPropertyOp14
 70
     1
102
RTVSPropertyOp15
 70
     1
102
RTVSPropertyOp16
 70
     1
102
RTVSPropertyOp17
 70
     1
102
RTVSPropertyOp18
 70
     1
102
RTVSPropertyOp19
 70
     1
102
RTVSPropertyOp20
 70
     1
102
RTVSPropertyOp21
 70
     1
102
RTVSPropertyOp22
 70
     1
102
RTVSPropertyOp23
 70
     1
102
RTVSPropertyOp24
 70
     1
102
RTVSPropertyOp25
 70
     1
102
RTVSPropertyOp26
 70
     1
102
RTVSPropertyOp27
 70
     1
102
RTVSPropertyOp28
 70
     1
102
RTVSPropertyOp29
 70
     1
102
RTVSPropertyOp30
 70
     1
102
RTVSPropertyOp31
 70
     1
102
RTVSPropertyOp32
 70
     1
  0
XRECORD
  5
12F
102
{ACAD_REACTORS
330
12E
102
}
330
12E
100
AcDbXrecord
280
     1
102
RTVSPropertyOp0
 70
     1
102
RTVSPropertyOp1
 70
     1
102
RTVSPropertyOp2
 70
     1
102
RTVSPropertyOp3
 70
     1
102
RTVSPropertyOp4
 70
     1
102
RTVSPropertyOp5
 70
     1
102
RTVSPropertyOp6
 70
     1
102
RTVSPropertyOp7
 70
     1
102
RTVSPropertyOp8
 70
     1
102
RTVSPropertyOp9
 70
     1
102
RTVSPropertyOp10
 70
     1
102
RTVSPropertyOp11
 70
     1
102
RTVSPropertyOp12
 70
     1
102
RTVSPropertyOp13
 70
     1
102
RTVSPropertyOp14
 70
     1
102
RTVSPropertyOp15
 70
     1
102
RTVSPropertyOp16
 70
     1
102
RTVSPropertyOp17
 70
     1
102
RTVSPropertyOp18
 70
     1
102
RTVSPropertyOp19
 70
     1
102
RTVSPropertyOp20
 70
     1
102
RTVSPropertyOp21
 70
     1
102
RTVSPropertyOp22
 70
     1
102
RTVSPropertyOp23
 70
     1
102
RTVSPropertyOp24
 70
     1
102
RTVSPropertyOp25
 70
     1
102
RTVSPropertyOp26
 70
     1
102
RTVSPropertyOp27
 70
     1
102
RTVSPropertyOp28
 70
     1
102
RTVSPropertyOp29
 70
     1
102
RTVSPropertyOp30
 70
     1
102
RTVSPropertyOp31
 70
     1
102
RTVSPropertyOp32
 70
     1
  0
XRECORD
  5
123
102
{ACAD_REACTORS
330
122
102
}
330
122
100
AcDbXrecord
280
     1
102
RTVSPropertyOp0
 70
     1
102
RTVSPropertyOp1
 70
     1
102
RTVSPropertyOp2
 70
     1
102
RTVSPropertyOp3
 70
     1
102
RTVSPropertyOp4
 70
     1
102
RTVSPropertyOp5
 70
     1
102
RTVSPropertyOp6
 70
     1
102
RTVSPropertyOp7
 70
     1
102
RTVSPropertyOp8
 70
     1
102
RTVSPropertyOp9
 70
     1
102
RTVSPropertyOp10
 70
     1
102
RTVSPropertyOp11
 70
     1
102
RTVSPropertyOp12
 70
     1
102
RTVSPropertyOp13
 70
     1
102
RTVSPropertyOp14
 70
     1
102
RTVSPropertyOp15
 70
     1
102
RTVSPropertyOp16
 70
     1
102
RTVSPropertyOp17
 70
     1
102
RTVSPropertyOp18
 70
     1
102
RTVSPropertyOp19
 70
     1
102
RTVSPropertyOp20
 70
     1
102
RTVSPropertyOp21
 70
     1
102
RTVSPropertyOp22
 70
     1
102
RTVSPropertyOp23
 70
     1
102
RTVSPropertyOp24
 70
     1
102
RTVSPropertyOp25
 70
     1
102
RTVSPropertyOp26
 70
     1
102
RTVSPropertyOp27
 70
     1
102
RTVSPropertyOp28
 70
     1
102
RTVSPropertyOp29
 70
     1
102
RTVSPropertyOp30
 70
     1
102
RTVSPropertyOp31
 70
     1
102
RTVSPropertyOp32
 70
     1
  0
XRECORD
  5
125
102
{ACAD_REACTORS
330
124
102
}
330
124
100
AcDbXrecord
280
     1
102
RTVSPropertyOp0
 70
     1
102
RTVSPropertyOp1
 70
     1
102
RTVSPropertyOp2
 70
     1
102
RTVSPropertyOp3
 70
     1
102
RTVSPropertyOp4
 70
     1
102
RTVSPropertyOp5
 70
     1
102
RTVSPropertyOp6
 70
     1
102
RTVSPropertyOp7
 70
     1
102
RTVSPropertyOp8
 70
     1
102
RTVSPropertyOp9
 70
     1
102
RTVSPropertyOp10
 70
     1
102
RTVSPropertyOp11
 70
     1
102
RTVSPropertyOp12
 70
     1
102
RTVSPropertyOp13
 70
     1
102
RTVSPropertyOp14
 70
     1
102
RTVSPropertyOp15
 70
     1
102
RTVSPropertyOp16
 70
     1
102
RTVSPropertyOp17
 70
     1
102
RTVSPropertyOp18
 70
     1
102
RTVSPropertyOp19
 70
     1
102
RTVSPropertyOp20
 70
     1
102
RTVSPropertyOp21
 70
     1
102
RTVSPropertyOp22
 70
     1
102
RTVSPropertyOp23
 70
     1
102
RTVSPropertyOp24
 70
     1
102
RTVSPropertyOp25
 70
     1
102
RTVSPropertyOp26
 70
     1
102
RTVSPropertyOp27
 70
     1
102
RTVSPropertyOp28
 70
     1
102
RTVSPropertyOp29
 70
     1
102
RTVSPropertyOp30
 70
     1
102
RTVSPropertyOp31
 70
     1
102
RTVSPropertyOp32
 70
     1
  0
XRECORD
  5
12D
102
{ACAD_REACTORS
330
12C
102
}
330
12C
100
AcDbXrecord
280
     1
102
RTVSPropertyOp0
 70
     1
102
RTVSPropertyOp1
 70
     1
102
RTVSPropertyOp2
 70
     1
102
RTVSPropertyOp3
 70
     1
102
RTVSPropertyOp4
 70
     1
102
RTVSPropertyOp5
 70
     1
102
RTVSPropertyOp6
 70
     1
102
RTVSPropertyOp7
 70
     1
102
RTVSPropertyOp8
 70
     1
102
RTVSPropertyOp9
 70
     1
102
RTVSPropertyOp10
 70
     1
102
RTVSPropertyOp11
 70
     1
102
RTVSPropertyOp12
 70
     1
102
RTVSPropertyOp13
 70
     1
102
RTVSPropertyOp14
 70
     1
102
RTVSPropertyOp15
 70
     1
102
RTVSPropertyOp16
 70
     1
102
RTVSPropertyOp17
 70
     1
102
RTVSPropertyOp18
 70
     1
102
RTVSPropertyOp19
 70
     1
102
RTVSPropertyOp20
 70
     1
102
RTVSPropertyOp21
 70
     1
102
RTVSPropertyOp22
 70
     1
102
RTVSPropertyOp23
 70
     1
102
RTVSPropertyOp24
 70
     1
102
RTVSPropertyOp25
 70
     1
102
RTVSPropertyOp26
 70
     1
102
RTVSPropertyOp27
 70
     1
102
RTVSPropertyOp28
 70
     1
102
RTVSPropertyOp29
 70
     1
102
RTVSPropertyOp30
 70
     1
102
RTVSPropertyOp31
 70
     1
102
RTVSPropertyOp32
 70
     1
  0
XRECORD
  5
111
102
{ACAD_REACTORS
330
110
102
}
330
110
100
AcDbXrecord
280
     1
102
RTVSPropertyOp0
 70
     1
102
RTVSPropertyOp1
 70
     1
102
RTVSPropertyOp2
 70
     1
102
RTVSPropertyOp3
 70
     1
102
RTVSPropertyOp4
 70
     1
102
RTVSPropertyOp5
 70
     1
102
RTVSPropertyOp6
 70
     1
102
RTVSPropertyOp7
 70
     1
102
RTVSPropertyOp8
 70
     1
102
RTVSPropertyOp9
 70
     1
102
RTVSPropertyOp10
 70
     1
102
RTVSPropertyOp11
 70
     1
102
RTVSPropertyOp12
 70
     1
102
RTVSPropertyOp13
 70
     1
102
RTVSPropertyOp14
 70
     1
102
RTVSPropertyOp15
 70
     1
102
RTVSPropertyOp16
 70
     1
102
RTVSPropertyOp17
 70
     1
102
RTVSPropertyOp18
 70
     1
102
RTVSPropertyOp19
 70
     1
102
RTVSPropertyOp20
 70
     1
102
RTVSPropertyOp21
 70
     1
102
RTVSPropertyOp22
 70
     1
102
RTVSPropertyOp23
 70
     1
102
RTVSPropertyOp24
 70
     1
102
RTVSPropertyOp25
 70
     1
102
RTVSPropertyOp26
 70
     1
102
RTVSPropertyOp27
 70
     1
102
RTVSPropertyOp28
 70
     1
102
RTVSPropertyOp29
 70
     1
102
RTVSPropertyOp30
 70
     1
102
RTVSPropertyOp31
 70
     1
102
RTVSPropertyOp32
 70
     1
  0
XRECORD
  5
113
102
{ACAD_REACTORS
330
112
102
}
330
112
100
AcDbXrecord
280
     1
102
RTVSPropertyOp0
 70
     1
102
RTVSPropertyOp1
 70
     1
102
RTVSPropertyOp2
 70
     1
102
RTVSPropertyOp3
 70
     1
102
RTVSPropertyOp4
 70
     1
102
RTVSPropertyOp5
 70
     1
102
RTVSPropertyOp6
 70
     1
102
RTVSPropertyOp7
 70
     1
102
RTVSPropertyOp8
 70
     1
102
RTVSPropertyOp9
 70
     1
102
RTVSPropertyOp10
 70
     1
102
RTVSPropertyOp11
 70
     1
102
RTVSPropertyOp12
 70
     1
102
RTVSPropertyOp13
 70
     1
102
RTVSPropertyOp14
 70
     1
102
RTVSPropertyOp15
 70
     1
102
RTVSPropertyOp16
 70
     1
102
RTVSPropertyOp17
 70
     1
102
RTVSPropertyOp18
 70
     1
102
RTVSPropertyOp19
 70
     1
102
RTVSPropertyOp20
 70
     1
102
RTVSPropertyOp21
 70
     1
102
RTVSPropertyOp22
 70
     1
102
RTVSPropertyOp23
 70
     1
102
RTVSPropertyOp24
 70
     1
102
RTVSPropertyOp25
 70
     1
102
RTVSPropertyOp26
 70
     1
102
RTVSPropertyOp27
 70
     1
102
RTVSPropertyOp28
 70
     1
102
RTVSPropertyOp29
 70
     1
102
RTVSPropertyOp30
 70
     1
102
RTVSPropertyOp31
 70
     1
102
RTVSPropertyOp32
 70
     1
  0
XRECORD
  5
115
102
{ACAD_REACTORS
330
114
102
}
330
114
100
AcDbXrecord
280
     1
102
RTVSPropertyOp0
 70
     1
102
RTVSPropertyOp1
 70
     1
102
RTVSPropertyOp2
 70
     1
102
RTVSPropertyOp3
 70
     1
102
RTVSPropertyOp4
 70
     1
102
RTVSPropertyOp5
 70
     1
102
RTVSPropertyOp6
 70
     1
102
RTVSPropertyOp7
 70
     1
102
RTVSPropertyOp8
 70
     1
102
RTVSPropertyOp9
 70
     1
102
RTVSPropertyOp10
 70
     1
102
RTVSPropertyOp11
 70
     1
102
RTVSPropertyOp12
 70
     1
102
RTVSPropertyOp13
 70
     1
102
RTVSPropertyOp14
 70
     1
102
RTVSPropertyOp15
 70
     1
102
RTVSPropertyOp16
 70
     1
102
RTVSPropertyOp17
 70
     1
102
RTVSPropertyOp18
 70
     1
102
RTVSPropertyOp19
 70
     1
102
RTVSPropertyOp20
 70
     1
102
RTVSPropertyOp21
 70
     1
102
RTVSPropertyOp22
 70
     1
102
RTVSPropertyOp23
 70
     1
102
RTVSPropertyOp24
 70
     1
102
RTVSPropertyOp25
 70
     1
102
RTVSPropertyOp26
 70
     1
102
RTVSPropertyOp27
 70
     1
102
RTVSPropertyOp28
 70
     1
102
RTVSPropertyOp29
 70
     1
102
RTVSPropertyOp30
 70
     1
102
RTVSPropertyOp31
 70
     1
102
RTVSPropertyOp32
 70
     1
  0
XRECORD
  5
117
102
{ACAD_REACTORS
330
116
102
}
330
116
100
AcDbXrecord
280
     1
102
RTVSPropertyOp0
 70
     1
102
RTVSPropertyOp1
 70
     1
102
RTVSPropertyOp2
 70
     1
102
RTVSPropertyOp3
 70
     1
102
RTVSPropertyOp4
 70
     1
102
RTVSPropertyOp5
 70
     1
102
RTVSPropertyOp6
 70
     1
102
RTVSPropertyOp7
 70
     1
102
RTVSPropertyOp8
 70
     1
102
RTVSPropertyOp9
 70
     1
102
RTVSPropertyOp10
 70
     1
102
RTVSPropertyOp11
 70
     1
102
RTVSPropertyOp12
 70
     1
102
RTVSPropertyOp13
 70
     1
102
RTVSPropertyOp14
 70
     1
102
RTVSPropertyOp15
 70
     1
102
RTVSPropertyOp16
 70
     1
102
RTVSPropertyOp17
 70
     1
102
RTVSPropertyOp18
 70
     1
102
RTVSPropertyOp19
 70
     1
102
RTVSPropertyOp20
 70
     1
102
RTVSPropertyOp21
 70
     1
102
RTVSPropertyOp22
 70
     1
102
RTVSPropertyOp23
 70
     1
102
RTVSPropertyOp24
 70
     1
102
RTVSPropertyOp25
 70
     1
102
RTVSPropertyOp26
 70
     1
102
RTVSPropertyOp27
 70
     1
102
RTVSPropertyOp28
 70
     1
102
RTVSPropertyOp29
 70
     1
102
RTVSPropertyOp30
 70
     1
102
RTVSPropertyOp31
 70
     1
102
RTVSPropertyOp32
 70
     1
  0
XRECORD
  5
12B
102
{ACAD_REACTORS
330
12A
102
}
330
12A
100
AcDbXrecord
280
     1
102
RTVSPropertyOp0
 70
     1
102
RTVSPropertyOp1
 70
     1
102
RTVSPropertyOp2
 70
     1
102
RTVSPropertyOp3
 70
     1
102
RTVSPropertyOp4
 70
     1
102
RTVSPropertyOp5
 70
     1
102
RTVSPropertyOp6
 70
     1
102
RTVSPropertyOp7
 70
     1
102
RTVSPropertyOp8
 70
     1
102
RTVSPropertyOp9
 70
     1
102
RTVSPropertyOp10
 70
     1
102
RTVSPropertyOp11
 70
     1
102
RTVSPropertyOp12
 70
     1
102
RTVSPropertyOp13
 70
     1
102
RTVSPropertyOp14
 70
     1
102
RTVSPropertyOp15
 70
     1
102
RTVSPropertyOp16
 70
     1
102
RTVSPropertyOp17
 70
     1
102
RTVSPropertyOp18
 70
     1
102
RTVSPropertyOp19
 70
     1
102
RTVSPropertyOp20
 70
     1
102
RTVSPropertyOp21
 70
     1
102
RTVSPropertyOp22
 70
     1
102
RTVSPropertyOp23
 70
     1
102
RTVSPropertyOp24
 70
     1
102
RTVSPropertyOp25
 70
     1
102
RTVSPropertyOp26
 70
     1
102
RTVSPropertyOp27
 70
     1
102
RTVSPropertyOp28
 70
     1
102
RTVSPropertyOp29
 70
     1
102
RTVSPropertyOp30
 70
     1
102
RTVSPropertyOp31
 70
     1
102
RTVSPropertyOp32
 70
     1
  0
XRECORD
  5
121
102
{ACAD_REACTORS
330
120
102
}
330
120
100
AcDbXrecord
280
     1
102
RTVSPropertyOp0
 70
     1
102
RTVSPropertyOp1
 70
     1
102
RTVSPropertyOp2
 70
     1
102
RTVSPropertyOp3
 70
     1
102
RTVSPropertyOp4
 70
     1
102
RTVSPropertyOp5
 70
     1
102
RTVSPropertyOp6
 70
     1
102
RTVSPropertyOp7
 70
     1
102
RTVSPropertyOp8
 70
     1
102
RTVSPropertyOp9
 70
     1
102
RTVSPropertyOp10
 70
     1
102
RTVSPropertyOp11
 70
     1
102
RTVSPropertyOp12
 70
     1
102
RTVSPropertyOp13
 70
     1
102
RTVSPropertyOp14
 70
     1
102
RTVSPropertyOp15
 70
     1
102
RTVSPropertyOp16
 70
     1
102
RTVSPropertyOp17
 70
     1
102
RTVSPropertyOp18
 70
     1
102
RTVSPropertyOp19
 70
     1
102
RTVSPropertyOp20
 70
     1
102
RTVSPropertyOp21
 70
     1
102
RTVSPropertyOp22
 70
     1
102
RTVSPropertyOp23
 70
     1
102
RTVSPropertyOp24
 70
     1
102
RTVSPropertyOp25
 70
     1
102
RTVSPropertyOp26
 70
     1
102
RTVSPropertyOp27
 70
     1
102
RTVSPropertyOp28
 70
     1
102
RTVSPropertyOp29
 70
     1
102
RTVSPropertyOp30
 70
     1
102
RTVSPropertyOp31
 70
     1
102
RTVSPropertyOp32
 70
     1
  0
XRECORD
  5
129
102
{ACAD_REACTORS
330
128
102
}
330
128
100
AcDbXrecord
280
     1
102
RTVSPropertyOp0
 70
     1
102
RTVSPropertyOp1
 70
     1
102
RTVSPropertyOp2
 70
     1
102
RTVSPropertyOp3
 70
     1
102
RTVSPropertyOp4
 70
     1
102
RTVSPropertyOp5
 70
     1
102
RTVSPropertyOp6
 70
     1
102
RTVSPropertyOp7
 70
     1
102
RTVSPropertyOp8
 70
     1
102
RTVSPropertyOp9
 70
     1
102
RTVSPropertyOp10
 70
     1
102
RTVSPropertyOp11
 70
     1
102
RTVSPropertyOp12
 70
     1
102
RTVSPropertyOp13
 70
     1
102
RTVSPropertyOp14
 70
     1
102
RTVSPropertyOp15
 70
     1
102
RTVSPropertyOp16
 70
     1
102
RTVSPropertyOp17
 70
     1
102
RTVSPropertyOp18
 70
     1
102
RTVSPropertyOp19
 70
     1
102
RTVSPropertyOp20
 70
     1
102
RTVSPropertyOp21
 70
     1
102
RTVSPropertyOp22
 70
     1
102
RTVSPropertyOp23
 70
     1
102
RTVSPropertyOp24
 70
     1
102
RTVSPropertyOp25
 70
     1
102
RTVSPropertyOp26
 70
     1
102
RTVSPropertyOp27
 70
     1
102
RTVSPropertyOp28
 70
     1
102
RTVSPropertyOp29
 70
     1
102
RTVSPropertyOp30
 70
     1
102
RTVSPropertyOp31
 70
     1
102
RTVSPropertyOp32
 70
     1
  0
ENDSEC
  0
EOF
