  0
SECTION
  2
HEADER
  9
$ACADVER
  1
AC1015
  9
$ACADMAINTVER
 70
     6
  9
$DWGCODEPAGE
  3
ANSI_932
  9
$INSBASE
 10
0.0
 20
0.0
 30
0.0
  9
$EXTMIN
 10
0.0
 20
0.0
 30
0.0
  9
$EXTMAX
 10
209.9999999999999
 20
297.0
 30
0.0
  9
$LIMMIN
 10
0.0
 20
0.0
  9
$LIMMAX
 10
12.0
 20
9.0
  9
$ORTHOMODE
 70
     0
  9
$REGENMODE
 70
     1
  9
$FILLMODE
 70
     1
  9
$QTEXTMODE
 70
     0
  9
$MIRRTEXT
 70
     1
  9
$LTSCALE
 40
1.0
  9
$ATTMODE
 70
     1
  9
$TEXTSIZE
 40
0.2
  9
$TRACEWID
 40
0.05
  9
$TEXTSTYLE
  7
Standard
  9
$CLAYER
  8
0
  9
$CELTYPE
  6
ByLayer
  9
$CECOLOR
 62
   256
  9
$CELTSCALE
 40
1.0
  9
$DISPSILH
 70
     0
  9
$DIMSCALE
 40
1.0
  9
$DIMASZ
 40
0.18
  9
$DIMEXO
 40
0.0625
  9
$DIMDLI
 40
0.38
  9
$DIMRND
 40
0.0
  9
$DIMDLE
 40
0.0
  9
$DIMEXE
 40
0.18
  9
$DIMTP
 40
0.0
  9
$DIMTM
 40
0.0
  9
$DIMTXT
 40
0.18
  9
$DIMCEN
 40
0.09
  9
$DIMTSZ
 40
0.0
  9
$DIMTOL
 70
     0
  9
$DIMLIM
 70
     0
  9
$DIMTIH
 70
     1
  9
$DIMTOH
 70
     1
  9
$DIMSE1
 70
     0
  9
$DIMSE2
 70
     0
  9
$DIMTAD
 70
     0
  9
$DIMZIN
 70
     0
  9
$DIMBLK
  1

  9
$DIMASO
 70
     1
  9
$DIMSHO
 70
     1
  9
$DIMPOST
  1

  9
$DIMAPOST
  1

  9
$DIMALT
 70
     0
  9
$DIMALTD
 70
     2
  9
$DIMALTF
 40
25.4
  9
$DIMLFAC
 40
1.0
  9
$DIMTOFL
 70
     0
  9
$DIMTVP
 40
0.0
  9
$DIMTIX
 70
     0
  9
$DIMSOXD
 70
     0
  9
$DIMSAH
 70
     0
  9
$DIMBLK1
  1

  9
$DIMBLK2
  1

  9
$DIMSTYLE
  2
Standard
  9
$DIMCLRD
 70
     0
  9
$DIMCLRE
 70
     0
  9
$DIMCLRT
 70
     0
  9
$DIMTFAC
 40
1.0
  9
$DIMGAP
 40
0.09
  9
$DIMJUST
 70
     0
  9
$DIMSD1
 70
     0
  9
$DIMSD2
 70
     0
  9
$DIMTOLJ
 70
     1
  9
$DIMTZIN
 70
     0
  9
$DIMALTZ
 70
     0
  9
$DIMALTTZ
 70
     0
  9
$DIMUPT
 70
     0
  9
$DIMDEC
 70
     4
  9
$DIMTDEC
 70
     4
  9
$DIMALTU
 70
     2
  9
$DIMALTTD
 70
     2
  9
$DIMTXSTY
  7
Standard
  9
$DIMAUNIT
 70
     0
  9
$DIMADEC
 70
     0
  9
$DIMALTRND
 40
0.0
  9
$DIMAZIN
 70
     0
  9
$DIMDSEP
 70
    46
  9
$DIMATFIT
 70
     3
  9
$DIMFRAC
 70
     0
  9
$DIMLDRBLK
  1

  9
$DIMLUNIT
 70
     2
  9
$DIMLWD
 70
    -2
  9
$DIMLWE
 70
    -2
  9
$DIMTMOVE
 70
     0
  9
$LUNITS
 70
     2
  9
$LUPREC
 70
     4
  9
$SKETCHINC
 40
0.1
  9
$FILLETRAD
 40
0.5
  9
$AUNITS
 70
     0
  9
$AUPREC
 70
     0
  9
$MENU
  1
.
  9
$ELEVATION
 40
0.0
  9
$PELEVATION
 40
0.0
  9
$THICKNESS
 40
0.0
  9
$LIMCHECK
 70
     0
  9
$CHAMFERA
 40
0.5
  9
$CHAMFERB
 40
0.5
  9
$CHAMFERC
 40
1.0
  9
$CHAMFERD
 40
0.0
  9
$SKPOLY
 70
     0
  9
$TDCREATE
 40
2460469.401573599
  9
$TDUCREATE
 40
2460469.026573599
  9
$TDUPDATE
 40
2460469.401574676
  9
$TDUUPDATE
 40
2460469.026574676
  9
$TDINDWG
 40
0.0000000116
  9
$TDUSRTIMER
 40
0.0000000116
  9
$USRTIMER
 70
     1
  9
$ANGBASE
 50
0.0
  9
$ANGDIR
 70
     0
  9
$PDMODE
 70
     0
  9
$PDSIZE
 40
0.0
  9
$PLINEWID
 40
0.0
  9
$SPLFRAME
 70
     0
  9
$SPLINETYPE
 70
     6
  9
$SPLINESEGS
 70
     8
  9
$HANDSEED
  5
13A
  9
$SURFTAB1
 70
     6
  9
$SURFTAB2
 70
     6
  9
$SURFTYPE
 70
     6
  9
$SURFU
 70
     6
  9
$SURFV
 70
     6
  9
$UCSBASE
  2

  9
$UCSNAME
  2

  9
$UCSORG
 10
0.0
 20
0.0
 30
0.0
  9
$UCSXDIR
 10
1.0
 20
0.0
 30
0.0
  9
$UCSYDIR
 10
0.0
 20
1.0
 30
0.0
  9
$UCSORTHOREF
  2

  9
$UCSORTHOVIEW
 70
     0
  9
$UCSORGTOP
 10
0.0
 20
0.0
 30
0.0
  9
$UCSORGBOTTOM
 10
0.0
 20
0.0
 30
0.0
  9
$UCSORGLEFT
 10
0.0
 20
0.0
 30
0.0
  9
$UCSORGRIGHT
 10
0.0
 20
0.0
 30
0.0
  9
$UCSORGFRONT
 10
0.0
 20
0.0
 30
0.0
  9
$UCSORGBACK
 10
0.0
 20
0.0
 30
0.0
  9
$PUCSBASE
  2

  9
$PUCSNAME
  2

  9
$PUCSORG
 10
0.0
 20
0.0
 30
0.0
  9
$PUCSXDIR
 10
1.0
 20
0.0
 30
0.0
  9
$PUCSYDIR
 10
0.0
 20
1.0
 30
0.0
  9
$PUCSORTHOREF
  2

  9
$PUCSORTHOVIEW
 70
     0
  9
$PUCSORGTOP
 10
0.0
 20
0.0
 30
0.0
  9
$PUCSORGBOTTOM
 10
0.0
 20
0.0
 30
0.0
  9
$PUCSORGLEFT
 10
0.0
 20
0.0
 30
0.0
  9
$PUCSORGRIGHT
 10
0.0
 20
0.0
 30
0.0
  9
$PUCSORGFRONT
 10
0.0
 20
0.0
 30
0.0
  9
$PUCSORGBACK
 10
0.0
 20
0.0
 30
0.0
  9
$USERI1
 70
     0
  9
$USERI2
 70
     0
  9
$USERI3
 70
     0
  9
$USERI4
 70
     0
  9
$USERI5
 70
     0
  9
$USERR1
 40
18.1
  9
$USERR2
 40
0.0
  9
$USERR3
 40
0.0
  9
$USERR4
 40
0.0
  9
$USERR5
 40
0.0
  9
$WORLDVIEW
 70
     1
  9
$SHADEDGE
 70
     3
  9
$SHADEDIF
 70
    70
  9
$TILEMODE
 70
     1
  9
$MAXACTVP
 70
    64
  9
$PINSBASE
 10
0.0
 20
0.0
 30
0.0
  9
$PLIMCHECK
 70
     0
  9
$PEXTMIN
 10
1.00000000000000E+20
 20
1.00000000000000E+20
 30
1.00000000000000E+20
  9
$PEXTMAX
 10
-1.00000000000000E+20
 20
-1.00000000000000E+20
 30
-1.00000000000000E+20
  9
$PLIMMIN
 10
0.0
 20
0.0
  9
$PLIMMAX
 10
12.0
 20
9.0
  9
$UNITMODE
 70
     0
  9
$VISRETAIN
 70
     1
  9
$PLINEGEN
 70
     0
  9
$PSLTSCALE
 70
     1
  9
$TREEDEPTH
 70
  3020
  9
$CMLSTYLE
  2
Standard
  9
$CMLJUST
 70
     0
  9
$CMLSCALE
 40
1.0
  9
$PROXYGRAPHICS
 70
     1
  9
$MEASUREMENT
 70
     1
  9
$CELWEIGHT
370
    -1
  9
$ENDCAPS
280
     0
  9
$JOINSTYLE
280
     0
  9
$LWDISPLAY
290
     0
  9
$INSUNITS
 70
     4
  9
$HYPERLINKBASE
  1

  9
$STYLESHEET
  1

  9
$XEDIT
290
     1
  9
$CEPSNTYPE
380
     0
  9
$PSTYLEMODE
290
     1
  9
$FINGERPRINTGUID
  2
{86456A18-CD7A-4989-A09A-6FB7517D6AD7}
  9
$VERSIONGUID
  2
{FAEB1C32-E019-11D5-929B-00C0DF256EC4}
  9
$EXTNAMES
290
     1
  9
$PSVPSCALE
 40
0.0
  9
$OLESTARTUP
290
     0
  0
ENDSEC
  0
SECTION
  2
CLASSES
  0
CLASS
  1
ACDBDICTIONARYWDFLT
  2
AcDbDictionaryWithDefault
  3
ObjectDBX Classes
 90
        0
280
     0
281
     0
  0
CLASS
  1
VISUALSTYLE
  2
AcDbVisualStyle
  3
ObjectDBX Classes
 90
     4095
280
     0
281
     0
  0
CLASS
  1
MATERIAL
  2
AcDbMaterial
  3
ObjectDBX Classes
 90
     1153
280
     0
281
     0
  0
CLASS
  1
DICTIONARYVAR
  2
AcDbDictionaryVar
  3
ObjectDBX Classes
 90
        0
280
     0
281
     0
  0
CLASS
  1
ACDBPLACEHOLDER
  2
AcDbPlaceHolder
  3
ObjectDBX Classes
 90
        0
280
     0
281
     0
  0
CLASS
  1
LAYOUT
  2
AcDbLayout
  3
ObjectDBX Classes
 90
        0
280
     0
281
     0
  0
ENDSEC
  0
SECTION
  2
TABLES
  0
TABLE
  2
VPORT
  5
8
330
0
100
AcDbSymbolTable
 70
     1
  0
VPORT
  5
29
330
8
100
AcDbSymbolTableRecord
100
AcDbViewportTableRecord
  2
*Active
 70
     0
 10
0.0
 20
0.0
 11
1.0
 21
1.0
 12
104.9999999999999
 22
148.5
 13
0.0
 23
0.0
 14
0.5
 24
0.5
 15
0.5
 25
0.5
 16
0.0
 26
0.0
 36
1.0
 17
0.0
 27
0.0
 37
0.0
 40
326.7
 41
1.60267857142857
 42
50.0
 43
0.0
 44
0.0
 50
0.0
 51
0.0
 71
     0
 72
   100
 73
     1
 74
     3
 75
     0
 76
     0
 77
     0
 78
     0
281
     0
 65
     1
110
0.0
120
0.0
130
0.0
111
1.0
121
0.0
131
0.0
112
0.0
122
1.0
132
0.0
 79
     0
146
0.0
  0
ENDTAB
  0
TABLE
  2
LTYPE
  5
5
330
0
100
AcDbSymbolTable
 70
     8
  0
LTYPE
  5
14
330
5
100
AcDbSymbolTableRecord
100
AcDbLinetypeTableRecord
  2
ByBlock
 70
     0
  3

 72
    65
 73
     0
 40
0.0
  0
LTYPE
  5
15
330
5
100
AcDbSymbolTableRecord
100
AcDbLinetypeTableRecord
  2
ByLayer
 70
     0
  3

 72
    65
 73
     0
 40
0.0
  0
LTYPE
  5
16
330
5
100
AcDbSymbolTableRecord
100
AcDbLinetypeTableRecord
  2
Continuous
 70
     0
  3
Solid line
 72
    65
 73
     0
 40
0.0
  0
LTYPE
  5
3F
330
5
100
AcDbSymbolTableRecord
100
AcDbLinetypeTableRecord
  2
DASHED
 70
     0
  3
Dashed
 72
    65
 73
     2
 40
15.0
 49
7.0
 74
     0
 49
-8.0
 74
     0
  0
LTYPE
  5
40
330
5
100
AcDbSymbolTableRecord
100
AcDbLinetypeTableRecord
  2
DOTTED
 70
     0
  3
Dotted
 72
    65
 73
     2
 40
1.0
 49
0.0
 74
     0
 49
-1.0
 74
     0
  0
LTYPE
  5
41
330
5
100
AcDbSymbolTableRecord
100
AcDbLinetypeTableRecord
  2
DOT_CENTER
 70
     0
  3
Dot_Center
 72
    65
 73
     4
 40
14.0
 49
12.0
 74
     0
 49
-1.0
 74
     0
 49
0.0
 74
     0
 49
-1.0
 74
     0
  0
LTYPE
  5
42
330
5
100
AcDbSymbolTableRecord
100
AcDbLinetypeTableRecord
  2
LONG_DASHED
 70
     0
  3
Long_Dashed
 72
    65
 73
     2
 40
15.0
 49
10.0
 74
     0
 49
-5.0
 74
     0
  0
LTYPE
  5
43
330
5
100
AcDbSymbolTableRecord
100
AcDbLinetypeTableRecord
  2
DASH_CENTER
 70
     0
  3
Dash_Center
 72
    65
 73
     4
 40
14.0
 49
11.0
 74
     0
 49
-1.0
 74
     0
 49
1.0
 74
     0
 49
-1.0
 74
     0
  0
LTYPE
  5
44
330
5
100
AcDbSymbolTableRecord
100
AcDbLinetypeTableRecord
  2
PHANTOM
 70
     0
  3
Phantom
 72
    65
 73
     6
 40
13.0
 49
10.0
 74
     0
 49
-1.0
 74
     0
 49
0.0
 74
     0
 49
-1.0
 74
     0
 49
0.0
 74
     0
 49
-1.0
 74
     0
  0
LTYPE
  5
45
330
5
100
AcDbSymbolTableRecord
100
AcDbLinetypeTableRecord
  2
CENTER_DASH_DASH
 70
     0
  3
Center_Dash_Dash
 72
    65
 73
     6
 40
14.0
 49
9.0
 74
     0
 49
-1.0
 74
     0
 49
1.0
 74
     0
 49
-1.0
 74
     0
 49
1.0
 74
     0
 49
-1.0
 74
     0
  0
ENDTAB
  0
TABLE
  2
LAYER
  5
2
330
0
100
AcDbSymbolTable
 70
     3
  0
LAYER
  5
10
330
2
100
AcDbSymbolTableRecord
100
AcDbLayerTableRecord
  2
0
 70
     0
 62
     7
  6
Continuous
370
    -3
390
F
  0
LAYER
  5
46
330
2
100
AcDbSymbolTableRecord
100
AcDbLayerTableRecord
  2
1
 70
     0
 62
     7
  6
Continuous
370
    -3
390
F
  0
LAYER
  5
47
330
2
100
AcDbSymbolTableRecord
100
AcDbLayerTableRecord
  2
_U_30EC_U_30A4_U_30E4_U_30FC_1
 70
     0
 62
     7
  6
Continuous
370
    -3
390
F
  0
ENDTAB
  0
TABLE
  2
STYLE
  5
3
330
0
100
AcDbSymbolTable
 70
     3
  0
STYLE
  5
11
330
3
100
AcDbSymbolTableRecord
100
AcDbTextStyleTableRecord
  2
Standard
 70
     0
 40
0.0
 41
1.0
 50
0.0
 71
     0
 42
0.2
  3
txt
  4

  0
STYLE
  5
B6
330
3
100
AcDbSymbolTableRecord
100
AcDbTextStyleTableRecord
  2
CONVERTER_11
 70
     0
 40
0.0
 41
0.89
 50
0.0
 71
     0
 42
0.2
  3
MS Mincho.ttf
  4

1001
ACAD
1000
MS Mincho
1071
    32785
  0
STYLE
  5
E4
330
3
100
AcDbSymbolTableRecord
100
AcDbTextStyleTableRecord
  2
CONVERTER_12
 70
     0
 40
0.0
 41
0.9
 50
0.0
 71
     0
 42
0.2
  3
txt.shx
  4

  0
ENDTAB
  0
TABLE
  2
VIEW
  5
6
330
0
100
AcDbSymbolTable
 70
     0
  0
ENDTAB
  0
TABLE
  2
UCS
  5
7
330
0
100
AcDbSymbolTable
 70
     0
  0
ENDTAB
  0
TABLE
  2
APPID
  5
9
330
0
100
AcDbSymbolTable
 70
     1
  0
APPID
  5
12
330
9
100
AcDbSymbolTableRecord
100
AcDbRegAppTableRecord
  2
ACAD
 70
     0
  0
ENDTAB
  0
TABLE
  2
DIMSTYLE
  5
A
330
0
100
AcDbSymbolTable
 70
     3
100
AcDbDimStyleTable
  0
DIMSTYLE
105
27
330
A
100
AcDbSymbolTableRecord
100
AcDbDimStyleTableRecord
  2
Standard
 70
     0
178
     0
340
11
  0
DIMSTYLE
105
FA
102
{ACAD_REACTORS
330
FB
102
}
330
A
100
AcDbSymbolTableRecord
100
AcDbDimStyleTableRecord
  2
ME10_DIM_10
 70
     0
  3
{\Fgdt;n}<>
 41
3.5
 42
0.0
 44
1.0
 73
     0
 74
     0
 77
     1
 78
     8
140
3.5
147
1.0
172
     1
173
     1
174
     1
175
     1
176
     2
177
     2
271
     2
178
     7
271
     2
340
E4
  0
DIMSTYLE
105
105
102
{ACAD_REACTORS
330
106
102
}
330
A
100
AcDbSymbolTableRecord
100
AcDbDimStyleTableRecord
  2
ME10_DIM_11
 70
     0
 41
3.5
 42
0.0
 44
1.0
 73
     0
 74
     0
 77
     1
 78
     8
140
3.5
147
1.0
172
     1
173
     1
174
     1
175
     1
176
     2
177
     2
271
     2
178
     7
271
     2
340
E4
  0
ENDTAB
  0
TABLE
  2
BLOCK_RECORD
  5
1
330
0
100
AcDbSymbolTable
 70
     7
  0
BLOCK_RECORD
  5
1F
330
1
100
AcDbSymbolTableRecord
100
AcDbBlockTableRecord
  2
*Model_Space
340
22
  0
BLOCK_RECORD
  5
1B
330
1
100
AcDbSymbolTableRecord
100
AcDbBlockTableRecord
  2
*Paper_Space
340
1E
  0
BLOCK_RECORD
  5
23
330
1
100
AcDbSymbolTableRecord
100
AcDbBlockTableRecord
  2
*Paper_Space0
340
26
  0
BLOCK_RECORD
  5
48
330
1
100
AcDbSymbolTableRecord
100
AcDbBlockTableRecord
  2
開示A4
340
0
102
{BLKREFS
331
4C
102
}
  0
BLOCK_RECORD
  5
4B
330
1
100
AcDbSymbolTableRecord
100
AcDbBlockTableRecord
  2
開示A4枠
340
0
102
{BLKREFS
331
52
102
}
  0
BLOCK_RECORD
  5
4F
330
1
100
AcDbSymbolTableRecord
100
AcDbBlockTableRecord
  2
paipu
340
0
102
{BLKREFS
331
53
102
}
  0
BLOCK_RECORD
  5
F1
330
1
100
AcDbSymbolTableRecord
100
AcDbBlockTableRecord
  2
*D4
340
0
  0
BLOCK_RECORD
  5
FC
330
1
100
AcDbSymbolTableRecord
100
AcDbBlockTableRecord
  2
*D5
340
0
  0
BLOCK_RECORD
  5
107
330
1
100
AcDbSymbolTableRecord
100
AcDbBlockTableRecord
  2
*D6
340
0
102
{BLKREFS
331
10E
102
}
  0
ENDTAB
  0
ENDSEC
  0
SECTION
  2
BLOCKS
  0
BLOCK
  5
20
330
1F
100
AcDbEntity
  8
0
100
AcDbBlockBegin
  2
*Model_Space
 70
     0
 10
0.0
 20
0.0
 30
0.0
  3
*Model_Space
  1

  0
ENDBLK
  5
21
330
1F
100
AcDbEntity
  8
0
100
AcDbBlockEnd
  0
BLOCK
  5
1C
330
1B
100
AcDbEntity
 67
     1
  8
0
100
AcDbBlockBegin
  2
*Paper_Space
 70
     0
 10
0.0
 20
0.0
 30
0.0
  3
*Paper_Space
  1

  0
ENDBLK
  5
1D
330
1B
100
AcDbEntity
 67
     1
  8
0
100
AcDbBlockEnd
  0
BLOCK
  5
24
330
23
100
AcDbEntity
  8
0
100
AcDbBlockBegin
  2
*Paper_Space0
 70
     0
 10
0.0
 20
0.0
 30
0.0
  3
*Paper_Space0
  1

  0
ENDBLK
  5
25
330
23
100
AcDbEntity
  8
0
100
AcDbBlockEnd
  0
BLOCK
  5
49
330
48
100
AcDbEntity
  8
0
100
AcDbBlockBegin
  2
開示A4
 70
     0
 10
0.0
 20
0.0
 30
0.0
  3
開示A4
  1

  0
POINT
  5
54
330
48
100
AcDbEntity
  8
1
 62
     4
100
AcDbPoint
 10
34.00000000000001
 20
34.0
 30
0.0
  0
POINT
  5
55
330
48
100
AcDbEntity
  8
1
 62
     4
100
AcDbPoint
 10
57.0
 20
12.25
 30
0.0
  0
POINT
  5
56
330
48
100
AcDbEntity
  8
1
 62
     4
100
AcDbPoint
 10
57.0
 20
20.75000000000001
 30
0.0
  0
POINT
  5
57
330
48
100
AcDbEntity
  8
1
 62
     4
100
AcDbPoint
 10
57.0
 20
24.75000000000001
 30
0.0
  0
POINT
  5
58
330
48
100
AcDbEntity
  8
1
 62
     4
100
AcDbPoint
 10
57.0
 20
16.25
 30
0.0
  0
POINT
  5
59
330
48
100
AcDbEntity
  8
1
 62
     4
100
AcDbPoint
 10
157.4999999999999
 20
19.00000000000001
 30
0.0
  0
POINT
  5
5A
330
48
100
AcDbEntity
  8
1
 62
     4
100
AcDbPoint
 10
47.50000000000001
 20
282.0000000000003
 30
0.0
  0
POINT
  5
5B
330
48
100
AcDbEntity
  8
1
 62
     4
100
AcDbPoint
 10
57.0
 20
22.75000000000001
 30
0.0
  0
POINT
  5
5C
330
48
100
AcDbEntity
  8
1
 62
     4
100
AcDbPoint
 10
57.0
 20
14.25
 30
0.0
  0
POINT
  5
5D
330
48
100
AcDbEntity
  8
1
 62
     4
100
AcDbPoint
 10
157.4999999999999
 20
12.5
 30
0.0
  0
POINT
  5
5E
330
48
100
AcDbEntity
  8
1
 62
     4
100
AcDbPoint
 10
163.2499999999999
 20
12.5
 30
0.0
  0
POINT
  5
5F
330
48
100
AcDbEntity
  8
1
 62
     4
100
AcDbPoint
 10
151.7499999999999
 20
12.5
 30
0.0
  0
POINT
  5
60
330
48
100
AcDbEntity
  8
1
 62
     4
100
AcDbPoint
 10
134.75
 20
12.5
 30
0.0
  0
POINT
  5
61
330
48
100
AcDbEntity
  8
1
 62
     4
100
AcDbPoint
 10
146.2499999999999
 20
12.5
 30
0.0
  0
POINT
  5
62
330
48
100
AcDbEntity
  8
1
 62
     4
100
AcDbPoint
 10
140.5
 20
12.5
 30
0.0
  0
POINT
  5
63
330
48
100
AcDbEntity
  8
1
 62
     4
100
AcDbPoint
 10
140.5
 20
19.00000000000001
 30
0.0
  0
POINT
  5
64
330
48
100
AcDbEntity
  8
1
 62
     4
100
AcDbPoint
 10
117.75
 20
12.5
 30
0.0
  0
POINT
  5
65
330
48
100
AcDbEntity
  8
1
 62
     4
100
AcDbPoint
 10
129.25
 20
12.5
 30
0.0
  0
POINT
  5
66
330
48
100
AcDbEntity
  8
1
 62
     4
100
AcDbPoint
 10
123.5
 20
12.5
 30
0.0
  0
POINT
  5
67
330
48
100
AcDbEntity
  8
1
 62
     4
100
AcDbPoint
 10
123.5
 20
19.00000000000001
 30
0.0
  0
POINT
  5
68
330
48
100
AcDbEntity
  8
1
 62
     4
100
AcDbPoint
 10
100.75
 20
12.5
 30
0.0
  0
POINT
  5
69
330
48
100
AcDbEntity
  8
1
 62
     4
100
AcDbPoint
 10
112.25
 20
12.5
 30
0.0
  0
POINT
  5
6A
330
48
100
AcDbEntity
  8
1
 62
     4
100
AcDbPoint
 10
106.5
 20
12.5
 30
0.0
  0
POINT
  5
6B
330
48
100
AcDbEntity
  8
1
 62
     4
100
AcDbPoint
 10
106.5
 20
19.00000000000001
 30
0.0
  0
POINT
  5
6C
330
48
100
AcDbEntity
  8
1
 62
     4
100
AcDbPoint
 10
85.24999999999999
 20
17.0
 30
0.0
  0
POINT
  5
6D
330
48
100
AcDbEntity
  8
1
 62
     4
100
AcDbPoint
 10
93.74999999999999
 20
17.0
 30
0.0
  0
POINT
  5
6E
330
48
100
AcDbEntity
  8
1
 62
     4
100
AcDbPoint
 10
182.9999999999999
 20
15.00000000000001
 30
0.0
  0
LINE
  5
6F
330
48
100
AcDbEntity
  8
1
  6
Continuous
 62
     2
100
AcDbLine
 10
80.99999999999999
 20
27.00000000000001
 30
0.0
 11
80.99999999999999
 21
10.0
 31
0.0
  0
LINE
  5
70
330
48
100
AcDbEntity
  8
1
  6
DOT_CENTER
 62
     2
100
AcDbLine
 10
186.9999999999999
 20
26.50000000000001
 30
0.0
 11
186.9999999999999
 21
20.50000000000001
 31
0.0
  0
LINE
  5
71
330
48
100
AcDbEntity
  8
1
  6
DOT_CENTER
 62
     2
100
AcDbLine
 10
183.9999999999999
 20
23.50000000000001
 30
0.0
 11
196.9999999999999
 21
23.50000000000001
 31
0.0
  0
LINE
  5
72
330
48
100
AcDbEntity
  8
1
  6
Continuous
 62
     7
100
AcDbLine
 10
195.9999999999999
 20
21.50000000000001
 30
0.0
 11
190.9999999999999
 21
22.30000000000001
 31
0.0
  0
LINE
  5
73
330
48
100
AcDbEntity
  8
1
  6
Continuous
 62
     7
100
AcDbLine
 10
195.9999999999999
 20
25.50000000000001
 30
0.0
 11
195.9999999999999
 21
21.50000000000001
 31
0.0
  0
LINE
  5
74
330
48
100
AcDbEntity
  8
1
  6
Continuous
 62
     7
100
AcDbLine
 10
190.9999999999999
 20
24.70000000000002
 30
0.0
 11
195.9999999999999
 21
25.50000000000001
 31
0.0
  0
LINE
  5
75
330
48
100
AcDbEntity
  8
1
  6
Continuous
 62
     7
100
AcDbLine
 10
190.9999999999999
 20
24.70000000000002
 30
0.0
 11
190.9999999999999
 21
22.30000000000001
 31
0.0
  0
LINE
  5
76
330
48
100
AcDbEntity
  8
1
  6
Continuous
 62
     2
100
AcDbLine
 10
33.0
 20
27.0
 30
0.0
 11
33.0
 21
10.0
 31
0.0
  0
LINE
  5
77
330
48
100
AcDbEntity
  8
1
  6
Continuous
 62
     2
100
AcDbLine
 10
25.0
 20
18.50000000000001
 30
0.0
 11
80.99999999999999
 21
18.50000000000001
 31
0.0
  0
LINE
  5
78
330
48
100
AcDbEntity
  8
1
  6
Continuous
 62
     7
100
AcDbLine
 10
199.9999999999999
 20
287.0000000000003
 30
0.0
 11
105.0
 21
287.0000000000003
 31
0.0
  0
LINE
  5
79
330
48
100
AcDbEntity
  8
1
  6
Continuous
 62
     7
100
AcDbLine
 10
199.9999999999999
 20
10.0
 30
0.0
 11
199.9999999999999
 21
148.5
 31
0.0
  0
LINE
  5
7A
330
48
100
AcDbEntity
  8
1
  6
Continuous
 62
     7
100
AcDbLine
 10
25.0
 20
10.0
 30
0.0
 11
105.0
 21
10.0
 31
0.0
  0
LINE
  5
7B
330
48
100
AcDbEntity
  8
1
  6
PHANTOM
 62
     4
100
AcDbLine
 10
0.0
 20
297.0
 30
0.0
 11
0.0
 21
0.0
 31
0.0
  0
LINE
  5
7C
330
48
100
AcDbEntity
  8
1
  6
PHANTOM
 62
     4
100
AcDbLine
 10
209.9999999999999
 20
297.0
 30
0.0
 11
0.0
 21
297.0
 31
0.0
  0
LINE
  5
7D
330
48
100
AcDbEntity
  8
1
  6
PHANTOM
 62
     4
100
AcDbLine
 10
209.9999999999999
 20
0.0
 30
0.0
 11
209.9999999999999
 21
297.0
 31
0.0
  0
LINE
  5
7E
330
48
100
AcDbEntity
  8
1
  6
PHANTOM
 62
     4
100
AcDbLine
 10
0.0
 20
0.0
 30
0.0
 11
209.9999999999999
 21
0.0
 31
0.0
  0
LINE
  5
7F
330
48
100
AcDbEntity
  8
1
  6
Continuous
 62
     7
100
AcDbLine
 10
25.0
 20
41.0
 30
0.0
 11
199.9999999999999
 21
41.0
 31
0.0
  0
LINE
  5
80
330
48
100
AcDbEntity
  8
1
  6
Continuous
 62
     7
100
AcDbLine
 10
199.9999999999999
 20
27.00000000000001
 30
0.0
 11
25.0
 21
27.00000000000001
 31
0.0
  0
LINE
  5
81
330
48
100
AcDbEntity
  8
1
  6
Continuous
 62
     2
100
AcDbLine
 10
33.0
 20
41.0
 30
0.0
 11
33.0
 21
27.0
 31
0.0
  0
LINE
  5
82
330
48
100
AcDbEntity
  8
1
  6
Continuous
 62
     2
100
AcDbLine
 10
55.0
 20
287.0000000000003
 30
0.0
 11
55.0
 21
277.0000000000003
 31
0.0
  0
LINE
  5
83
330
48
100
AcDbEntity
  8
1
  6
Continuous
 62
     2
100
AcDbLine
 10
40.00000000000001
 20
287.0000000000003
 30
0.0
 11
40.00000000000001
 21
277.0000000000003
 31
0.0
  0
LINE
  5
84
330
48
100
AcDbEntity
  8
1
  6
Continuous
 62
     7
100
AcDbLine
 10
25.0
 20
10.0
 30
0.0
 11
25.0
 21
148.5
 31
0.0
  0
LINE
  5
85
330
48
100
AcDbEntity
  8
1
  6
Continuous
 62
     2
100
AcDbLine
 10
55.0
 20
277.0000000000003
 30
0.0
 11
25.0
 21
277.0000000000003
 31
0.0
  0
LINE
  5
86
330
48
100
AcDbEntity
  8
1
  6
Continuous
 62
     2
100
AcDbLine
 10
165.9999999999999
 20
27.00000000000001
 30
0.0
 11
165.9999999999999
 21
10.0
 31
0.0
  0
LINE
  5
87
330
48
100
AcDbEntity
  8
1
  6
Continuous
 62
     2
100
AcDbLine
 10
132.0
 20
27.00000000000001
 30
0.0
 11
132.0
 21
9.99999999999999
 31
0.0
  0
LINE
  5
88
330
48
100
AcDbEntity
  8
1
  6
Continuous
 62
     2
100
AcDbLine
 10
148.9999999999999
 20
27.00000000000001
 30
0.0
 11
148.9999999999999
 21
10.0
 31
0.0
  0
LINE
  5
89
330
48
100
AcDbEntity
  8
1
  6
Continuous
 62
     2
100
AcDbLine
 10
115.0
 20
27.00000000000001
 30
0.0
 11
115.0
 21
9.99999999999999
 31
0.0
  0
LINE
  5
8A
330
48
100
AcDbEntity
  8
1
  6
Continuous
 62
     2
100
AcDbLine
 10
97.99999999999999
 20
27.00000000000001
 30
0.0
 11
97.99999999999999
 21
9.99999999999999
 31
0.0
  0
LINE
  5
8B
330
48
100
AcDbEntity
  8
1
  6
Continuous
 62
     2
100
AcDbLine
 10
165.9999999999999
 20
20.00000000000001
 30
0.0
 11
199.9999999999999
 21
20.00000000000001
 31
0.0
  0
LINE
  5
8C
330
48
100
AcDbEntity
  8
1
  6
Continuous
 62
     2
100
AcDbLine
 10
105.0
 20
287.0000000000003
 30
0.0
 11
105.0
 21
292.0000000000003
 31
0.0
  0
LINE
  5
8D
330
48
100
AcDbEntity
  8
1
  6
Continuous
 62
     7
100
AcDbLine
 10
105.0
 20
287.0000000000003
 30
0.0
 11
25.0
 21
287.0000000000003
 31
0.0
  0
LINE
  5
8E
330
48
100
AcDbEntity
  8
1
  6
Continuous
 62
     2
100
AcDbLine
 10
25.0
 20
148.5
 30
0.0
 11
20.0
 21
148.5
 31
0.0
  0
LINE
  5
8F
330
48
100
AcDbEntity
  8
1
  6
Continuous
 62
     7
100
AcDbLine
 10
25.0
 20
148.5
 30
0.0
 11
25.0
 21
287.0000000000003
 31
0.0
  0
LINE
  5
90
330
48
100
AcDbEntity
  8
1
  6
Continuous
 62
     2
100
AcDbLine
 10
199.9999999999999
 20
148.5
 30
0.0
 11
204.9999999999999
 21
148.5
 31
0.0
  0
LINE
  5
91
330
48
100
AcDbEntity
  8
1
  6
Continuous
 62
     7
100
AcDbLine
 10
199.9999999999999
 20
148.5
 30
0.0
 11
199.9999999999999
 21
287.0000000000003
 31
0.0
  0
LINE
  5
92
330
48
100
AcDbEntity
  8
1
  6
Continuous
 62
     2
100
AcDbLine
 10
105.0
 20
10.0
 30
0.0
 11
105.0
 21
5.0
 31
0.0
  0
LINE
  5
93
330
48
100
AcDbEntity
  8
1
  6
Continuous
 62
     7
100
AcDbLine
 10
105.0
 20
10.0
 30
0.0
 11
199.9999999999999
 21
10.0
 31
0.0
  0
CIRCLE
  5
98
330
48
100
AcDbEntity
  8
1
  6
DOT_CENTER
 62
     7
100
AcDbCircle
 10
89.49999999999999
 20
18.0
 30
0.0
 40
0.1000000000000085
  0
CIRCLE
  5
99
330
48
100
AcDbEntity
  8
1
  6
DOT_CENTER
 62
     7
100
AcDbCircle
 10
89.49999999999999
 20
16.0
 30
0.0
 40
0.1000000000000085
  0
CIRCLE
  5
9A
330
48
100
AcDbEntity
  8
1
  6
Continuous
 62
     7
100
AcDbCircle
 10
186.9999999999999
 20
23.50000000000001
 30
0.0
 40
2.0
  0
CIRCLE
  5
9B
330
48
100
AcDbEntity
  8
1
  6
Continuous
 62
     7
100
AcDbCircle
 10
186.9999999999999
 20
23.50000000000001
 30
0.0
 40
1.200000000000301
  0
CIRCLE
  5
9C
330
48
100
AcDbEntity
  8
1
  6
Continuous
 62
     7
100
AcDbCircle
 10
154.4999999999999
 20
12.5
 30
0.0
 40
0.3000000000001251
  0
CIRCLE
  5
9D
330
48
100
AcDbEntity
  8
1
  6
Continuous
 62
     7
100
AcDbCircle
 10
160.4999999999999
 20
12.5
 30
0.0
 40
0.3000000000001251
  0
CIRCLE
  5
9E
330
48
100
AcDbEntity
  8
1
  6
Continuous
 62
     7
100
AcDbCircle
 10
143.5
 20
12.5
 30
0.0
 40
0.3000000000000114
  0
CIRCLE
  5
9F
330
48
100
AcDbEntity
  8
1
  6
Continuous
 62
     7
100
AcDbCircle
 10
137.5
 20
12.5
 30
0.0
 40
0.3000000000000114
  0
CIRCLE
  5
A0
330
48
100
AcDbEntity
  8
1
  6
Continuous
 62
     7
100
AcDbCircle
 10
126.5
 20
12.5
 30
0.0
 40
0.2999999999999972
  0
CIRCLE
  5
A1
330
48
100
AcDbEntity
  8
1
  6
Continuous
 62
     7
100
AcDbCircle
 10
120.5
 20
12.5
 30
0.0
 40
0.2999999999999972
  0
CIRCLE
  5
A2
330
48
100
AcDbEntity
  8
1
  6
Continuous
 62
     7
100
AcDbCircle
 10
109.5
 20
12.5
 30
0.0
 40
0.2999999999999972
  0
CIRCLE
  5
A3
330
48
100
AcDbEntity
  8
1
  6
Continuous
 62
     7
100
AcDbCircle
 10
103.5
 20
12.5
 30
0.0
 40
0.2999999999999972
  0
SPLINE
  5
A4
102
{ACAD_REACTORS
330
C2
102
}
330
48
100
AcDbEntity
  8
_U_30EC_U_30A4_U_30E4_U_30FC_1
  6
Continuous
 62
     2
100
AcDbSpline
210
0.0
220
0.0
230
1.0
 70
    11
 71
     3
 72
    99
 73
    95
 74
    93
 42
0.000000001
 43
0.0000000001
 44
0.00000001
 40
0.0
 40
0.0
 40
0.0
 40
0.0
 40
0.0796417172272494
 40
0.1621768542356028
 40
0.2486489160957204
 40
0.3404969668524681
 40
0.4381912511165253
 40
0.5434463660244988
 40
0.6518115192846742
 40
0.7530190937886858
 40
0.849219691972561
 40
0.9419290312998845
 40
1.034249663570098
 40
1.129078600620262
 40
1.2266970275733
 40
1.327220425421758
 40
1.470572134938077
 40
1.595489863371282
 40
1.719934125348416
 40
1.850576620127485
 40
1.989059629987367
 40
2.134139054226883
 40
2.280698007207222
 40
2.424529739039472
 40
2.565929576985838
 40
2.708239260773588
 40
2.861717887443687
 40
3.045168540347401
 40
3.183798301138635
 40
3.314813961455496
 40
3.442083470447324
 40
3.569912708373001
 40
3.702177512509305
 40
3.84230755965955
 40
3.992872223245926
 40
4.156750662218259
 40
4.310981861107424
 40
4.445859909322524
 40
4.572393936131543
 40
4.701656719781918
 40
4.768279086008385
 40
4.835960697898354
 40
4.912788918729287
 40
5.006285208481446
 40
5.02690947875155
 40
5.047533749021115
 40
5.101808031471188
 40
5.162325165538501
 40
5.226919745995807
 40
5.294231806596704
 40
5.364544852554848
 40
5.438319055467892
 40
5.517877651324173
 40
5.607647714861542
 40
5.70044964254436
 40
5.788251142364036
 40
5.872714706039744
 40
5.955167292575259
 40
6.037192395190317
 40
6.120669181469029
 40
6.206848616686292
 40
6.296680855416714
 40
6.442558392872547
 40
6.568190371608273
 40
6.692904567360324
 40
6.824220446557123
 40
6.963121850329257
 40
7.107843738851072
 40
7.253431663907209
 40
7.395187468036608
 40
7.533140753237664
 40
7.670550457175151
 40
7.816236511769168
 40
7.987691657359132
 40
8.14227742196918
 40
8.293662615414899
 40
8.442962460879178
 40
8.591598316185268
 40
8.743678992361644
 40
8.903725323699053
 40
9.076307008890456
 40
9.265578604680538
 40
9.459203795360656
 40
9.617619810273581
 40
9.753609671361838
 40
9.874873300004033
 40
9.954520184977746
 40
10.02416413719243
 40
10.09769764405442
 40
10.18909955924971
 40
10.20974586420127
 40
10.23039218263367
 40
10.30057101881252
 40
10.37632012987533
 40
10.37632012987533
 40
10.37632012987533
 40
10.37632012987533
 10
170.1465954835851
 20
14.13795663215994
 30
0.0
 10
170.1632217851219
 20
14.11720608845313
 30
0.0
 10
170.1970784206577
 20
14.07495111711901
 30
0.0
 10
170.2599822541036
 20
14.02029811392074
 30
0.0
 10
170.3332500940393
 20
13.97299025121047
 30
0.0
 10
170.4175969238636
 20
13.93527231437935
 30
0.0
 10
170.513224061546
 20
13.91040619731952
 30
0.0
 10
170.6171853775346
 20
13.90309559345937
 30
0.0
 10
170.7224020220405
 20
13.91142322794054
 30
0.0
 10
170.8206626371334
 20
13.94149179651528
 30
0.0
 10
170.9058986427548
 20
13.98848822971875
 30
0.0
 10
170.9779220206103
 20
14.04952991250854
 30
0.0
 10
171.0350917709097
 20
14.12412969578585
 30
0.0
 10
171.076786874744
 20
14.21002464660172
 30
0.0
 10
171.1026952846293
 20
14.30485850432212
 30
0.0
 10
171.1118037332652
 20
14.41854979038366
 30
0.0
 10
171.0986864796487
 20
14.54332587770779
 30
0.0
 10
171.0325330334414
 20
14.66014719171891
 30
0.0
 10
170.9369370919569
 20
14.74512539577377
 30
0.0
 10
170.8249681022369
 20
14.81416684459161
 30
0.0
 10
170.6993659583269
 20
14.87204142045886
 30
0.0
 10
170.5656691620857
 20
14.92373723284345
 30
0.0
 10
170.4313122818832
 20
14.97899092397178
 30
0.0
 10
170.3051983986877
 20
15.04939770641651
 30
0.0
 10
170.1926579987536
 20
15.13785540731253
 30
0.0
 10
170.0969963064458
 20
15.24981067868469
 30
0.0
 10
170.0334157151826
 20
15.39949910101385
 30
0.0
 10
170.0200706505016
 20
15.55932794385142
 30
0.0
 10
170.0320510987449
 20
15.71048405306846
 30
0.0
 10
170.0712298928842
 20
15.83809244591538
 30
0.0
 10
170.1354987750911
 20
15.95080874030847
 30
0.0
 10
170.2238204999741
 20
16.04648609268681
 30
0.0
 10
170.3338091207628
 20
16.12354214985759
 30
0.0
 10
170.4632284401265
 20
16.18151396936274
 30
0.0
 10
170.6111838967794
 20
16.21739177588822
 30
0.0
 10
170.7682069455486
 20
16.22746719050564
 30
0.0
 10
170.917494046643
 20
16.21863637762589
 30
0.0
 10
171.059625361417
 20
16.19074899340353
 30
0.0
 10
171.1595922609625
 20
16.13413314701139
 30
0.0
 10
171.3125074736185
 20
16.08674602105508
 30
0.0
 10
171.2455131717169
 20
16.00197553001182
 30
0.0
 10
171.2296479120269
 20
15.93438901873483
 30
0.0
 10
171.1978750531295
 20
15.86926092793192
 30
0.0
 10
171.2150202209572
 20
15.76723453256953
 30
0.0
 10
171.1666427208233
 20
15.77493211681903
 30
0.0
 10
171.1315789440767
 20
15.76806771724808
 30
0.0
 10
171.1296697985719
 20
15.83263831158196
 30
0.0
 10
171.0985692931989
 20
15.87825639621393
 30
0.0
 10
171.0664551628456
 20
15.93561036628456
 30
0.0
 10
171.0208038475168
 20
15.98540462692559
 30
0.0
 10
170.9658508218387
 20
16.02994813718995
 30
0.0
 10
170.9010841173007
 20
16.06763988836548
 30
0.0
 10
170.8232377310597
 20
16.09283375791353
 30
0.0
 10
170.7355160553353
 20
16.0993123099811
 30
0.0
 10
170.6452903277807
 20
16.09235709285608
 30
0.0
 10
170.5594594694065
 20
16.06909190460917
 30
0.0
 10
170.4828343638597
 20
16.03131644107548
 30
0.0
 10
170.4165265636201
 20
15.98051641089575
 30
0.0
 10
170.3622560536964
 20
15.91731143407209
 30
0.0
 10
170.322492534546
 20
15.84276455710365
 30
0.0
 10
170.2976775510588
 20
15.75917313997765
 30
0.0
 10
170.289212426287
 20
15.65192948382284
 30
0.0
 10
170.3019697987104
 20
15.52965457267556
 30
0.0
 10
170.3681548409274
 20
15.41149724291212
 30
0.0
 10
170.4640977399833
 20
15.32606325709525
 30
0.0
 10
170.5757914963183
 20
15.25583362306726
 30
0.0
 10
170.7010863668702
 20
15.196591623053
 30
0.0
 10
170.8349823941447
 20
15.14616708086132
 30
0.0
 10
170.9689930333149
 20
15.09322516984383
 30
0.0
 10
171.0950885316915
 20
15.02750170625175
 30
0.0
 10
171.2076216638417
 20
14.94480352537322
 30
0.0
 10
171.3031370284232
 20
14.83996006310073
 30
0.0
 10
171.3672706486963
 20
14.6993711725157
 30
0.0
 10
171.3811103725279
 20
14.54065409451591
 30
0.0
 10
171.3673954712229
 20
14.38153155217878
 30
0.0
 10
171.3244739153985
 20
14.23483828819206
 30
0.0
 10
171.2545906329066
 20
14.1011979658714
 30
0.0
 10
171.1574592213829
 20
13.98532387699296
 30
0.0
 10
171.0347806023658
 20
13.89089981770083
 30
0.0
 10
170.8874408413168
 20
13.82179270651982
 30
0.0
 10
170.7177132497125
 20
13.77953210858852
 30
0.0
 10
170.5317404979597
 20
13.76781736230406
 30
0.0
 10
170.3528955926182
 20
13.77809486683439
 30
0.0
 10
170.1881733753743
 20
13.81966573769147
 30
0.0
 10
170.0834410841056
 20
13.88797642883945
 30
0.0
 10
169.9350960790365
 20
13.93675219032105
 30
0.0
 10
169.9980378194729
 20
14.02976591290842
 30
0.0
 10
170.0072274430061
 20
14.10296536248278
 30
0.0
 10
170.0303711301231
 20
14.16936294501347
 30
0.0
 10
170.0034588335317
 20
14.26974809527579
 30
0.0
 10
170.0521338956339
 20
14.2623403351738
 30
0.0
 10
170.0916530580697
 20
14.26894063620894
 30
0.0
 10
170.0996204944702
 20
14.19078703218932
 30
0.0
 10
170.1305436967923
 20
14.15600927375856
 30
0.0
 10
170.1465954835851
 20
14.13795663215994
 30
0.0
 11
170.1465954835851
 21
14.13795663215994
 31
0.0
 11
170.1982038075864
 21
14.07729869814736
 31
0.0
 11
170.2601105501335
 21
14.0227129516332
 31
0.0
 11
170.3327764009802
 21
13.97583980928383
 31
0.0
 11
170.4166468655843
 21
13.93839906276537
 31
0.0
 11
170.511221073241
 21
13.91390636311877
 31
0.0
 11
170.6161603327165
 21
13.90575829888472
 31
0.0
 11
170.7240739497551
 21
13.91564048638223
 31
0.0
 11
170.8208419941616
 21
13.94528704887482
 31
0.0
 11
170.9050776083319
 21
13.99175118948818
 31
0.0
 11
170.9756144207687
 21
14.05191413218149
 31
0.0
 11
171.031944210998
 21
14.1250581946632
 31
0.0
 11
171.0736690016004
 21
14.21021434047522
 31
0.0
 11
171.0994680808033
 21
14.30436190989612
 31
0.0
 11
171.1080824729446
 21
14.4045155209822
 31
0.0
 11
171.0878517703357
 21
14.54643250879398
 31
0.0
 11
171.0272522666731
 21
14.65566684036388
 31
0.0
 11
170.9364971286286
 21
14.74081306430095
 31
0.0
 11
170.826010188474
 21
14.81052746532517
 31
0.0
 11
170.7008523531254
 21
14.86979854169921
 31
0.0
 11
170.5662951950999
 21
14.9240425347412
 31
0.0
 11
170.4316884277007
 21
14.98201274306004
 31
0.0
 11
170.3065802017259
 21
15.05297399304233
 31
0.0
 11
170.1960276098281
 21
15.14113315968695
 31
0.0
 11
170.1053381235265
 21
15.25080295132618
 31
0.0
 11
170.0447055469484
 21
15.39179720476315
 31
0.0
 11
170.0245079172554
 21
15.57413260402315
 31
0.0
 11
170.0374030471348
 21
15.71216131926642
 31
0.0
 11
170.0761016659392
 21
15.8373312845129
 31
0.0
 11
170.1393141731507
 21
15.94779262129084
 31
0.0
 11
170.2257499954546
 21
16.04196885390621
 31
0.0
 11
170.3336492808962
 21
16.1184654077065
 31
0.0
 11
170.4613526283329
 21
16.17615670109487
 31
0.0
 11
170.6075393259923
 21
16.21220066809973
 31
0.0
 11
170.770976856545
 21
16.22421385386062
 31
0.0
 11
170.9248918431289
 21
16.21434269066864
 31
0.0
 11
171.0564887242607
 21
16.18477329831497
 31
0.0
 11
171.172563634494
 21
16.13439993895252
 31
0.0
 11
171.2800792741122
 21
16.06264163167877
 31
0.0
 11
171.2516994050445
 21
16.00236624106886
 31
0.0
 11
171.2284855254283
 21
15.93879017337646
 31
0.0
 11
171.20783810408
 21
15.86478841992269
 31
0.0
 11
171.1871840681488
 21
15.77360197897328
 31
0.0
 11
171.1665597978416
 21
15.77360197897328
 31
0.0
 11
171.1459355275344
 21
15.77360197897328
 31
0.0
 11
171.1256706495791
 21
15.82395108486346
 31
0.0
 11
171.0994658759421
 21
15.87850045116929
 31
0.0
 11
171.0650468924451
 21
15.93316116296115
 31
0.0
 11
171.0203554612937
 21
15.98349593725412
 31
0.0
 11
170.9657333359511
 21
16.02777175321529
 31
0.0
 11
170.9016722004326
 21
16.06436142334501
 31
0.0
 11
170.8259682961141
 21
16.08882545979727
 31
0.0
 11
170.7365722046449
 21
16.09701100667022
 31
0.0
 11
170.6440937174208
 21
16.08926973931101
 31
0.0
 11
170.5594072091646
 21
16.06609003445566
 31
0.0
 11
170.483702448884
 21
16.02863495634008
 31
0.0
 11
170.4183754766516
 21
15.97832774281102
 31
0.0
 11
170.3650487887665
 21
15.91600293379879
 31
0.0
 11
170.3254809233902
 21
15.84249947895607
 31
0.0
 11
170.3009523754711
 21
15.75988443557391
 31
0.0
 11
170.2927954104108
 21
15.67042329844352
 31
0.0
 11
170.3130095765618
 21
15.52595308146573
 31
0.0
 11
170.3736256166821
 21
15.41591177072935
 31
0.0
 11
170.4643479320758
 21
15.33033670130631
 31
0.0
 11
170.5748676948814
 21
15.25941954854625
 31
0.0
 11
170.7000089937719
 21
15.19914305550579
 31
0.0
 11
170.8345826882553
 21
15.14590447913021
 31
0.0
 11
170.9691729191968
 21
15.09039489581074
 31
0.0
 11
171.0942976816297
 21
15.0237728124941
 31
0.0
 11
171.204800907977
 21
14.94118863716749
 31
0.0
 11
171.2955397598288
 21
14.83800003476272
 31
0.0
 11
171.3561557999489
 21
14.70552315979584
 31
0.0
 11
171.3763699660998
 21
14.53526378483839
 31
0.0
 11
171.3621839747998
 21
14.38133030397411
 31
0.0
 11
171.3196087009194
 21
14.23605531269097
 31
0.0
 11
171.2499752884266
 21
14.10398854189067
 31
0.0
 11
171.1544992078713
 21
13.99007218775246
 31
0.0
 11
171.0341060772625
 21
13.89715272597017
 31
0.0
 11
170.8896160201847
 21
13.8283235766818
 31
0.0
 11
170.7223519532714
 21
13.78581275203966
 31
0.0
 11
170.5336103348226
 21
13.77165864614041
 31
0.0
 11
170.3405031726388
 21
13.78581275203966
 31
0.0
 11
170.187897590091
 21
13.8283235766818
 31
0.0
 11
170.0661897942203
 21
13.88899033013889
 31
0.0
 11
169.9660261826363
 21
13.95734322942737
 31
0.0
 11
169.9922320587039
 21
14.03255545163076
 31
0.0
 11
170.0090121537619
 21
14.10014767383612
 31
0.0
 11
170.0206196447852
 21
14.17275926235962
 31
0.0
 11
170.031360625414
 21
14.2635278821286
 31
0.0
 11
170.0520069443316
 21
14.2635278821286
 31
0.0
 11
170.0726532632492
 21
14.2635278821286
 31
0.0
 11
170.1048916391629
 21
14.20119204881084
 31
0.0
 11
170.1465954835851
 21
14.13795663215994
 31
0.0
  0
SPLINE
  5
A5
102
{ACAD_REACTORS
330
C3
102
}
330
48
100
AcDbEntity
  8
_U_30EC_U_30A4_U_30E4_U_30FC_1
  6
Continuous
 62
     2
100
AcDbSpline
210
0.0
220
0.0
230
1.0
 70
    11
 71
     3
 72
    57
 73
    53
 74
    51
 42
0.000000001
 43
0.0000000001
 44
0.00000001
 40
0.0
 40
0.0
 40
0.0
 40
0.0
 40
0.047163208280894
 40
0.0914861054632146
 40
0.1357762519701814
 40
0.1826527001610677
 40
0.2295203288572586
 40
0.2737751972219619
 40
0.3181310461543352
 40
0.3652607198397653
 40
0.4571007286313648
 40
0.5671851029164421
 40
0.6894623283867674
 40
0.8181758272545276
 40
0.951008722927358
 40
1.085852229673955
 40
1.218126164475223
 40
1.343545131142314
 40
1.454537202956731
 40
1.56718760753074
 40
1.680710966642387
 40
1.794226869736723
 40
1.900009184247522
 40
2.004085860447716
 40
2.108162674451689
 40
2.214000150155234
 40
2.49603857735207
 40
2.762350745479209
 40
2.997275353279347
 40
3.18511008213768
 40
3.246407890063821
 40
3.312607550212638
 40
3.378877742711512
 40
3.440140399651393
 40
4.10050169600644
 40
4.754913085563506
 40
5.41133169342389
 40
6.077890432568648
 40
6.110575292670927
 40
6.143260152775707
 40
6.367989363395111
 40
6.610525374951529
 40
6.863389136467278
 40
7.119380025547541
 40
7.376036605091077
 40
7.631164770966245
 40
7.876722425456419
 40
8.104953735855974
 40
8.312916685924288
 40
8.497730294941316
 40
8.651018984313833
 40
8.764738853624555
 40
8.764738853624555
 40
8.764738853624555
 40
8.764738853624555
 10
174.7922649500513
 20
13.81626739612928
 30
0.0
 10
174.7766616726931
 20
13.81826231079078
 30
0.0
 10
174.7463947960302
 20
13.82213201360298
 30
0.0
 10
174.7010994202253
 20
13.82341984967269
 30
0.0
 10
174.6559553129349
 20
13.82308683554051
 30
0.0
 10
174.60990171234
 20
13.82314658674225
 30
0.0
 10
174.5640496172097
 20
13.82325813650002
 30
0.0
 10
174.5183711648165
 20
13.82277833456591
 30
0.0
 10
174.4750811541609
 20
13.82461109618723
 30
0.0
 10
174.4039947951514
 20
13.80049556814662
 30
0.0
 10
174.4057477261441
 20
13.92184693977251
 30
0.0
 10
174.358619637057
 20
14.00726239751232
 30
0.0
 10
174.3191478251761
 20
14.12486929345135
 30
0.0
 10
174.2706635532645
 20
14.2423275254044
 30
0.0
 10
174.2201017402521
 20
14.36405935761505
 30
0.0
 10
174.1718634610478
 20
14.49075967862469
 30
0.0
 10
174.1135232947595
 20
14.59933687784953
 30
0.0
 10
174.0980892667261
 20
14.75620657134409
 30
0.0
 10
173.9566586330635
 20
14.72373446548323
 30
0.0
 10
173.8508397414904
 20
14.7351288868218
 30
0.0
 10
173.7358569725221
 20
14.73392591514615
 30
0.0
 10
173.6253142252141
 20
14.73506945347408
 30
0.0
 10
173.5176583522783
 20
14.73418350037526
 30
0.0
 10
173.4121322529243
 20
14.73416602390518
 30
0.0
 10
173.3109192682012
 20
14.72714032472415
 30
0.0
 10
173.1266804827754
 20
14.75135859859867
 30
0.0
 10
173.1157393685411
 20
14.44741691121885
 30
0.0
 10
173.008769163475
 20
14.22353177253397
 30
0.0
 10
172.9098148604346
 20
14.03895314292497
 30
0.0
 10
172.9225090524007
 20
13.79530204804211
 30
0.0
 10
172.8050091716396
 20
13.82508046753197
 30
0.0
 10
172.742205586831
 20
13.82258089509605
 30
0.0
 10
172.6785872093399
 20
13.82344075102804
 30
0.0
 10
172.3946014194075
 20
13.78098039941952
 30
0.0
 10
173.0251638499381
 20
14.50081952444781
 30
0.0
 10
173.1087645289072
 20
15.01276539435731
 30
0.0
 10
173.4929252789338
 20
15.53353743550041
 30
0.0
 10
173.4777208288565
 20
16.23519626253216
 30
0.0
 10
173.7239265722696
 20
16.22345633081256
 30
0.0
 10
173.825634615756
 20
16.23225004452772
 30
0.0
 10
173.8249752035817
 20
15.98059650730346
 30
0.0
 10
173.9428317155828
 20
15.79818020733959
 30
0.0
 10
174.0315515260485
 20
15.55563740662867
 30
0.0
 10
174.1322292485257
 20
15.32340030530121
 30
0.0
 10
174.2311142712244
 20
15.08674644566919
 30
0.0
 10
174.3299676990667
 20
14.85461739170086
 30
0.0
 10
174.4256166390927
 20
14.6312222278879
 30
0.0
 10
174.5159904573272
 20
14.4227254904932
 30
0.0
 10
174.5989944568188
 20
14.23308448529316
 30
0.0
 10
174.6726088582801
 20
14.06663106068104
 30
0.0
 10
174.7342815895545
 20
13.92917699626095
 30
0.0
 10
174.7749458885604
 20
13.84999239430034
 30
0.0
 10
174.7922649500513
 20
13.81626739612928
 30
0.0
 11
174.7922649500513
 21
13.81626739612928
 31
0.0
 11
174.7453878317448
 21
13.82145433189185
 31
0.0
 11
174.7010975896125
 21
13.82315538223863
 31
0.0
 11
174.656807443173
 21
13.82315538223863
 31
0.0
 11
174.6099309947159
 21
13.82315538223863
 31
0.0
 11
174.5630633657033
 21
13.82315538223863
 31
0.0
 11
174.5188084970409
 21
13.82315538223863
 31
0.0
 11
174.4744852776853
 21
13.82145433189185
 31
0.0
 11
174.4276419021444
 21
13.81626739612928
 31
0.0
 11
174.3992532136325
 21
13.90360966173244
 31
0.0
 11
174.3622721815898
 21
14.00729656274818
 31
0.0
 11
174.3188386236701
 21
14.12159987001127
 31
0.0
 11
174.2711055866936
 21
14.24113531268969
 31
0.0
 11
174.2208160133236
 21
14.36408057307566
 31
0.0
 11
174.1696467003933
 21
14.48883822929446
 31
0.0
 11
174.1197531801326
 21
14.61134141502772
 31
0.0
 11
174.0733119111841
 21
14.72784517367917
 31
0.0
 11
173.9623611907589
 21
14.73087465284506
 31
0.0
 11
173.8497309225089
 21
14.7330045486779
 31
0.0
 11
173.7362152069449
 21
14.7343219531914
 31
0.0
 11
173.62270004768
 21
14.73473315978852
 31
0.0
 11
173.5169185312816
 21
14.7343219531914
 31
0.0
 11
173.4128501919226
 21
14.7330045486779
 31
0.0
 11
173.3087951724045
 21
14.73087465284506
 31
0.0
 11
173.2030010615596
 21
14.72784517367917
 31
0.0
 11
173.0980914750139
 21
14.4660443751335
 31
0.0
 11
173.0034868690331
 21
14.2171023265846
 31
0.0
 11
172.9252231210298
 21
13.99559756969557
 31
0.0
 11
172.8693431224554
 21
13.81626739612928
 31
0.0
 11
172.8082651639442
 21
13.82145433189185
 31
0.0
 11
172.7420873618129
 21
13.82315538223863
 31
0.0
 11
172.6758390041282
 21
13.82145433189185
 31
0.0
 11
172.6147963233937
 21
13.81626739612928
 31
0.0
 11
172.889968495193
 21
14.41656508695142
 31
0.0
 11
173.158294573417
 21
15.01343642360776
 31
0.0
 11
173.4240277350404
 21
15.61366245644381
 31
0.0
 11
173.6914740737032
 21
16.22421385386062
 31
0.0
 11
173.7241589339805
 21
16.22421385386062
 31
0.0
 11
173.7568437942578
 21
16.22421385386062
 31
0.0
 11
173.8428300681057
 21
16.01658539037084
 31
0.0
 11
173.9357285813609
 21
15.79254614563517
 31
0.0
 11
174.0328714521463
 21
15.55908663180468
 31
0.0
 11
174.131793645803
 21
15.32298128464144
 31
0.0
 11
174.2315341249927
 21
15.08649780379784
 31
0.0
 11
174.3313071129352
 21
14.85168781253709
 31
0.0
 11
174.4280608257449
 21
14.6259949219685
 31
0.0
 11
174.5188084970409
 21
14.4165805209792
 31
0.0
 11
174.6022150834546
 21
14.22607611130461
 31
0.0
 11
174.6770293263378
 21
14.05708232662467
 31
0.0
 11
174.7410729186603
 21
13.91781337700667
 31
0.0
 11
174.7922649500513
 21
13.81626739612928
 31
0.0
  0
SPLINE
  5
A6
102
{ACAD_REACTORS
330
C3
102
}
330
48
100
AcDbEntity
  8
_U_30EC_U_30A4_U_30E4_U_30FC_1
  6
Continuous
 62
     2
100
AcDbSpline
210
0.0
220
0.0
230
1.0
 70
    11
 71
     3
 72
    25
 73
    21
 74
    19
 42
0.000000001
 43
0.0000000001
 44
0.00000001
 40
0.0
 40
0.0
 40
0.0
 40
0.0
 40
0.0911479969064254
 40
0.1858117896202963
 40
0.2804128399733069
 40
0.3715889190712804
 40
0.4679080494217571
 40
0.5642683809228377
 40
0.6605683222643854
 40
0.7569653015809403
 40
0.8561348172521887
 40
1.092615965104196
 40
1.374867658141778
 40
1.61134881201147
 40
1.71051832842513
 40
1.809403163726437
 40
2.045205463293962
 40
2.326646917622011
 40
2.562449217190484
 40
2.661334043833792
 40
2.661334043833792
 40
2.661334043833792
 40
2.661334043833792
 10
173.26837005672
 20
14.88614538197292
 30
0.0
 10
173.2987525917923
 20
14.88598079714554
 30
0.0
 10
173.3606895889112
 20
14.88564528689921
 30
0.0
 10
173.454135696033
 20
14.88269055451998
 30
0.0
 10
173.5475095236356
 20
14.87977752877151
 30
0.0
 10
173.6417760753475
 20
14.87894201643416
 30
0.0
 10
173.7354964790966
 20
14.87996644658048
 30
0.0
 10
173.8352040303204
 20
14.87916977470971
 30
0.0
 10
173.9188949546312
 20
14.8892141023522
 30
0.0
 10
174.0637996315045
 20
14.86234617674164
 30
0.0
 10
173.93961324448
 20
15.03665530280048
 30
0.0
 10
173.8965867286282
 20
15.19651711006092
 30
0.0
 10
173.780892214221
 20
15.45518458550213
 30
0.0
 10
173.7017565431258
 20
15.5923105286186
 30
0.0
 10
173.6431576621816
 20
15.80937033134077
 30
0.0
 10
173.586480393944
 20
15.59266134213426
 30
0.0
 10
173.5052809900477
 20
15.45327012438239
 30
0.0
 10
173.4063701281489
 20
15.20406969370192
 30
0.0
 10
173.3253625094259
 20
15.01925830226075
 30
0.0
 10
173.2813683325839
 20
14.91650446856117
 30
0.0
 10
173.26837005672
 20
14.88614538197292
 30
0.0
 11
173.26837005672
 21
14.88614538197292
 31
0.0
 11
173.359513773782
 21
14.88526123266759
 31
0.0
 11
173.454142829758
 21
14.88269697919598
 31
0.0
 11
173.5487082179705
 21
14.88009965280777
 31
0.0
 11
173.6398803250195
 21
14.8792485764191
 31
0.0
 11
173.7361985777706
 21
14.87965978301622
 31
0.0
 11
173.8325499034376
 21
14.88097718752971
 31
0.0
 11
173.9288262638286
 21
14.88310818579312
 31
0.0
 11
174.0251753846343
 21
14.88614538197292
 31
0.0
 11
173.9854633323141
 21
14.9770164219502
 31
0.0
 11
173.8907653613968
 21
15.19370890189602
 31
0.0
 11
173.7777387509471
 21
15.45234186183135
 31
0.0
 11
173.6830407800298
 21
15.66903434177717
 31
0.0
 11
173.6433287277096
 21
15.75990538175445
 31
0.0
 11
173.6043330259267
 21
15.66903434177717
 31
0.0
 11
173.5113432755213
 21
15.45234186183135
 31
0.0
 11
173.4003555089083
 21
15.19370890189602
 31
0.0
 11
173.3073657585029
 21
14.9770164219502
 31
0.0
 11
173.26837005672
 21
14.88614538197292
 31
0.0
  0
SPLINE
  5
A7
102
{ACAD_REACTORS
330
C4
102
}
330
48
100
AcDbEntity
  8
_U_30EC_U_30A4_U_30E4_U_30FC_1
  6
Continuous
 62
     2
100
AcDbSpline
210
0.0
220
0.0
230
1.0
 70
    11
 71
     3
 72
    95
 73
    91
 74
    89
 42
0.000000001
 43
0.0000000001
 44
0.00000001
 40
0.0
 40
0.0
 40
0.0
 40
0.0
 40
0.6550406656911223
 40
1.308087289031888
 40
1.42080373983576
 40
1.566130759770771
 40
1.757067341888427
 40
2.006513545026429
 40
2.087328263121517
 40
2.185328872295591
 40
2.294612454748326
 40
2.408936380534775
 40
2.526802767798531
 40
2.646360524615571
 40
2.762535723971555
 40
2.870057342870131
 40
2.96688344843161
 40
3.050803243518256
 40
3.115818222436575
 40
3.156030057150198
 40
3.213914225080099
 40
3.276689026450414
 40
3.342960320981277
 40
3.404230667150526
 40
3.453822809493325
 40
3.532499827188399
 40
3.634775188507121
 40
3.754909333008118
 40
3.889736761660611
 40
4.035769602175183
 40
4.187256681197568
 40
4.338733685675915
 40
4.488478734676073
 40
4.634708317831547
 40
4.771493189921233
 40
4.892686571561171
 40
5.199775528944414
 40
5.460353566929597
 40
5.667603142345472
 40
5.81472290540445
 40
5.828990806219776
 40
5.855488336304388
 40
5.869756237118692
 40
6.189796507762735
 40
6.531890469872891
 40
6.883053637016916
 40
7.23051202491129
 40
7.566966656764448
 40
7.885203559707223
 40
8.172887439719037
 40
8.418011594062637
 40
8.443926721190559
 40
8.510760470613047
 40
8.602145393795556
 40
8.701714041646998
 40
8.793098965075227
 40
8.8599327150578
 40
8.88584784260345
 40
9.242301256612672
 40
9.589275455016619
 40
9.921808543164019
 40
10.23479624298452
 40
10.29968150889152
 40
10.35323493887732
 40
10.40154625355119
 40
10.464829224778
 40
10.55973900668381
 40
10.69239545985595
 40
10.84920353475648
 40
11.01626328594754
 40
11.18672024367419
 40
11.35372582577186
 40
11.50257442292402
 40
11.61866495023267
 40
11.7132986915285
 40
11.82511050573882
 40
11.94464880845691
 40
12.06929242642484
 40
12.19707290435152
 40
12.32562632860504
 40
12.45034565331255
 40
12.56646595170303
 40
12.67099007414611
 40
12.76077625936758
 40
12.82703233506671
 40
12.87429132785969
 40
12.89831990323308
 40
12.92234847859996
 40
13.53984767410294
 40
14.18294284359346
 40
14.18294284359346
 40
14.18294284359346
 40
14.18294284359346
 10
177.306793564802
 20
14.70898038201723
 30
0.0
 10
177.175201975855
 20
14.82265058603231
 30
0.0
 10
176.9124193802729
 20
15.04964496316159
 30
0.0
 10
176.3997393441019
 20
15.89214462956286
 30
0.0
 10
176.4106654595363
 20
15.53423377577019
 30
0.0
 10
176.4041226527989
 20
15.39267392272132
 30
0.0
 10
176.4028026631773
 20
15.1942130529928
 30
0.0
 10
176.4018117602538
 20
15.02150296045982
 30
0.0
 10
176.4024101751973
 20
14.87865373257579
 30
0.0
 10
176.4038994301883
 20
14.78265005413358
 30
0.0
 10
176.4055683588472
 20
14.67545503263141
 30
0.0
 10
176.4071934954616
 20
14.56164211517582
 30
0.0
 10
176.4092429501687
 20
14.44441572604589
 30
0.0
 10
176.4123165501926
 20
14.32656411232969
 30
0.0
 10
176.4156339697043
 20
14.2122808732062
 30
0.0
 10
176.4193605340279
 20
14.10521401867275
 30
0.0
 10
176.4217338161424
 20
14.01007408766921
 30
0.0
 10
176.4278718888356
 20
13.92558557205694
 30
0.0
 10
176.4239784495947
 20
13.86923087298142
 30
0.0
 10
176.4455230443077
 20
13.79825022472357
 30
0.0
 10
176.3680940058618
 20
13.82902677604481
 30
0.0
 10
176.3116353240192
 20
13.82011242517615
 30
0.0
 10
176.2540495896807
 20
13.82896218398276
 30
0.0
 10
176.1690163478473
 20
13.79738225225946
 30
0.0
 10
176.2009714146382
 20
13.88095155992191
 30
0.0
 10
176.199070528254
 20
13.94882608968308
 30
0.0
 10
176.2107960047299
 20
14.05233256764419
 30
0.0
 10
176.2164241053
 20
14.17002125616694
 30
0.0
 10
176.223790217894
 20
14.30388609164424
 30
0.0
 10
176.232075970161
 20
14.44764152872631
 30
0.0
 10
176.2398851897428
 20
14.59714022843445
 30
0.0
 10
176.2457571222657
 20
14.74792549402078
 30
0.0
 10
176.2503667817969
 20
14.89699943878437
 30
0.0
 10
176.2542632117544
 20
15.04122913163022
 30
0.0
 10
176.2570715126563
 20
15.17583905213017
 30
0.0
 10
176.2576698755024
 20
15.36469614347355
 30
0.0
 10
176.2616023867149
 20
15.58975494313154
 30
0.0
 10
176.2442175378499
 20
15.86367091125708
 30
0.0
 10
176.2850417342583
 20
16.02787112098597
 30
0.0
 10
176.1995153256002
 20
16.22749661465096
 30
0.0
 10
176.2660558907689
 20
16.22385458403978
 30
0.0
 10
176.2838724273231
 20
16.22413447160854
 30
0.0
 10
176.4056801797502
 20
16.22632927398613
 30
0.0
 10
176.5080770335463
 20
15.94675118721519
 30
0.0
 10
176.7580021509356
 20
15.74563008535996
 30
0.0
 10
176.9870035331111
 20
15.47792614987925
 30
0.0
 10
177.2245151213107
 20
15.22646413862367
 30
0.0
 10
177.4486090740772
 20
14.98969974061366
 30
0.0
 10
177.6750716283008
 20
14.73218692583076
 30
0.0
 10
177.8325687886514
 20
14.6164933505692
 30
0.0
 10
178.0472129612674
 20
14.27997152538794
 30
0.0
 10
178.0422645974619
 20
14.40464754091603
 30
0.0
 10
178.0433931602546
 20
14.46327691935737
 30
0.0
 10
178.0428877841516
 20
14.55043662371977
 30
0.0
 10
178.0430475158113
 20
14.64416143182872
 30
0.0
 10
178.0430054891318
 20
14.73018971297035
 30
0.0
 10
178.0430202040373
 20
14.79153891945496
 30
0.0
 10
178.0429706255983
 20
14.94135231520992
 30
0.0
 10
178.0458811522811
 20
15.17989612510104
 30
0.0
 10
178.0259521041161
 20
15.54486509868702
 30
0.0
 10
178.0750433936248
 20
15.80799631993409
 30
0.0
 10
177.9177951509182
 20
16.21928904947752
 30
0.0
 10
178.0762112872421
 20
16.16398282551748
 30
0.0
 10
178.1311680478628
 20
16.16199686500174
 30
0.0
 10
178.182788776674
 20
16.16264778248252
 30
0.0
 10
178.2713198965366
 20
16.20369527738246
 30
0.0
 10
178.2204898303168
 20
16.05696326622986
 30
0.0
 10
178.2313389930282
 20
15.95019971954433
 30
0.0
 10
178.2166036994848
 20
15.79085705414112
 30
0.0
 10
178.2099976446206
 20
15.62853061652873
 30
0.0
 10
178.2014961399913
 20
15.45992521892396
 30
0.0
 10
178.1943227202199
 20
15.29814814703541
 30
0.0
 10
178.1889063215389
 20
15.15422331457933
 30
0.0
 10
178.1871713967649
 20
15.03437493466926
 30
0.0
 10
178.1875440672318
 20
14.92686101590515
 30
0.0
 10
178.1873656126263
 20
14.81820024645586
 30
0.0
 10
178.1877010863139
 20
14.6995357016553
 30
0.0
 10
178.1890040622185
 20
14.5755516351274
 30
0.0
 10
178.1908887351574
 20
14.44858294171104
 30
0.0
 10
178.1925004454849
 20
14.32153861551031
 30
0.0
 10
178.1941403137432
 20
14.19854884492177
 30
0.0
 10
178.1962570745751
 20
14.08300931383759
 30
0.0
 10
178.1963848422364
 20
13.98090903955837
 30
0.0
 10
178.2006514396554
 20
13.89009848838156
 30
0.0
 10
178.1908440085289
 20
13.83213621208786
 30
0.0
 10
178.2118474771689
 20
13.76517130132029
 30
0.0
 10
178.1725639739896
 20
13.77291153966688
 30
0.0
 10
177.9595307117747
 20
13.75755254145192
 30
0.0
 10
177.7636297943187
 20
14.31403058094476
 30
0.0
 10
177.4611197631543
 20
14.5755603534851
 30
0.0
 10
177.306793564802
 20
14.70898038201723
 30
0.0
 11
177.306793564802
 21
14.70898038201723
 31
0.0
 11
176.859552933851
 21
15.18757635411977
 31
0.0
 11
176.4124049070643
 21
15.6635264928897
 31
0.0
 11
176.4089664262494
 21
15.55086249986232
 31
0.0
 11
176.4055610183499
 21
15.40557538184309
 31
0.0
 11
176.4029636920274
 21
15.21465645827967
 31
0.0
 11
176.4021126156603
 21
14.96521170139756
 31
0.0
 11
176.4025239230289
 21
14.88439802954279
 31
0.0
 11
176.4038420329817
 21
14.78640628477561
 31
0.0
 11
176.4055192267718
 21
14.67713557299739
 31
0.0
 11
176.4072367127517
 21
14.56282454872039
 31
0.0
 11
176.4094007838772
 21
14.44497802965265
 31
0.0
 11
176.4124049070643
 21
14.32545802100199
 31
0.0
 11
176.4158359733138
 21
14.20933349846155
 31
0.0
 11
176.4192928929998
 21
14.10186746550228
 31
0.0
 11
176.4227085253088
 21
14.00510162351264
 31
0.0
 11
176.4261896983792
 21
13.92125406276972
 31
0.0
 11
176.4296006184313
 21
13.85632862007759
 31
0.0
 11
176.4330776843148
 21
13.81626739612928
 31
0.0
 11
176.3754263821571
 21
13.82145433189185
 31
0.0
 11
176.312674631831
 21
13.82315538223863
 31
0.0
 11
176.2464251717157
 21
13.82145433189185
 31
0.0
 11
176.1853747739675
 21
13.81626739612928
 31
0.0
 11
176.1926772737812
 21
13.8653189412559
 31
0.0
 11
176.2008793569055
 21
13.94356725720856
 31
0.0
 11
176.2090098822348
 21
14.04551893253029
 31
0.0
 11
176.2163406441397
 21
14.16542920159752
 31
0.0
 11
176.2236358280421
 21
14.30005912343889
 31
0.0
 11
176.2318444255596
 21
14.44586107652745
 31
0.0
 11
176.2395504149466
 21
14.59715203135073
 31
0.0
 11
176.2455763002093
 21
14.74850913200734
 31
0.0
 11
176.2503046247416
 21
14.89817951391435
 31
0.0
 11
176.2541928972121
 21
15.04435739582222
 31
0.0
 11
176.2567527408965
 21
15.18111831592696
 31
0.0
 11
176.2576324804575
 21
15.3023085068689
 31
0.0
 11
176.257192610677
 21
15.60939715262545
 31
0.0
 11
176.2559126888347
 21
15.86997204839365
 31
0.0
 11
176.2528658717893
 21
16.07719922716125
 31
0.0
 11
176.2473049112764
 21
16.22421385386062
 31
0.0
 11
176.261572812147
 21
16.22421385386062
 31
0.0
 11
176.2880703423352
 21
16.22421385386062
 31
0.0
 11
176.3023382432058
 21
16.22421385386062
 31
0.0
 11
176.5194743650277
 21
15.98910179662773
 31
0.0
 11
176.7512744123079
 21
15.73751281231561
 31
0.0
 11
176.989481601884
 21
15.4794955554357
 31
0.0
 11
177.226007455752
 21
15.22497079855489
 31
0.0
 11
177.4555698717705
 21
14.97899759549138
 31
0.0
 11
177.6731797360102
 21
14.74678934034107
 31
0.0
 11
177.8713724913706
 21
14.53826680567101
 31
0.0
 11
178.0430143099086
 21
14.36326697932589
 31
0.0
 11
178.0430143099086
 21
14.38918210687043
 31
0.0
 11
178.0430143099086
 21
14.45601585685371
 31
0.0
 11
178.0430143099086
 21
14.54740078030025
 31
0.0
 11
178.0430143099086
 21
14.64696942823453
 31
0.0
 11
178.0430143099086
 21
14.73835435168106
 31
0.0
 11
178.0430143099086
 21
14.80518810166435
 31
0.0
 11
178.0430143099086
 21
14.83110322920889
 31
0.0
 11
178.0417233637609
 21
15.18755430550868
 31
0.0
 11
178.0378461155958
 21
15.53450684014415
 31
0.0
 11
178.0296197790002
 21
15.86693815950551
 31
0.0
 11
178.0154535467229
 21
16.17960510387179
 31
0.0
 11
178.0790351249618
 21
16.16666367158334
 31
0.0
 11
178.132417015961
 21
16.16238072887607
 31
0.0
 11
178.1805381084832
 21
16.16666367158334
 31
0.0
 11
178.2424836798197
 21
16.17960510387179
 31
0.0
 11
178.2351216487575
 21
16.084981284451
 31
0.0
 11
178.2269790968817
 21
15.95257496503963
 31
0.0
 11
178.2183705364005
 21
15.79600336785655
 31
0.0
 11
178.2097547223216
 21
15.62916593734271
 31
0.0
 11
178.2016187850288
 21
15.4589032550936
 31
0.0
 11
178.1942501393835
 21
15.292060312427
 31
0.0
 11
178.1891406931522
 21
15.1432994357281
 31
0.0
 11
178.1874503478904
 21
15.02722121527101
 31
0.0
 11
178.1874503478904
 21
14.93258747397519
 31
0.0
 11
178.1874503478904
 21
14.82077565976708
 31
0.0
 11
178.1878461204496
 21
14.70123801222749
 31
0.0
 11
178.1890819450709
 21
14.57660052093918
 31
0.0
 11
178.1908392193317
 21
14.44883212687391
 31
0.0
 11
178.1925303477607
 21
14.32028982655879
 31
0.0
 11
178.1942876220215
 21
14.19558288214555
 31
0.0
 11
178.1959787504505
 21
14.07947489606349
 31
0.0
 11
178.1972884379172
 21
13.97495896727017
 31
0.0
 11
178.1976985420735
 21
13.88517371555652
 31
0.0
 11
178.1976985420735
 21
13.81891763918415
 31
0.0
 11
178.1976985420735
 21
13.77165864614041
 31
0.0
 11
178.1736699662976
 21
13.77165864614041
 31
0.0
 11
178.1496413905217
 21
13.77165864614041
 31
0.0
 11
177.7410729200423
 21
14.2346673526219
 31
0.0
 11
177.306793564802
 21
14.70898038201723
 31
0.0
  0
SPLINE
  5
A8
102
{ACAD_REACTORS
330
C5
102
}
330
48
100
AcDbEntity
  8
_U_30EC_U_30A4_U_30E4_U_30FC_1
  6
Continuous
 62
     2
100
AcDbSpline
210
0.0
220
0.0
230
1.0
 70
    11
 71
     3
 72
   110
 73
   106
 74
   104
 42
0.000000001
 43
0.0000000001
 44
0.00000001
 40
0.0
 40
0.0
 40
0.0
 40
0.0
 40
0.2203406257277737
 40
0.4407808782838091
 40
0.5952494494615352
 40
0.7488431659393071
 40
0.9023581831309057
 40
1.056801968670404
 40
1.210736449100018
 40
1.363041386539783
 40
1.515315729683126
 40
1.669377239148077
 40
1.721611652756564
 40
1.773199502942947
 40
1.824933793209997
 40
1.877110426487988
 40
1.982682281206752
 40
2.078781667087561
 40
2.172809640822254
 40
2.271937807378936
 40
2.378349933379273
 40
2.494131557736404
 40
2.626681683943595
 40
2.783145050796079
 40
2.89070123294094
 40
2.99313031245485
 40
3.099869730691815
 40
3.220237816691311
 40
3.3526954827376
 40
3.48173280638985
 40
3.593499473690382
 40
3.674323013331896
 40
3.817951711952846
 40
3.946167120793843
 40
4.0614050534535
 40
4.166480796003169
 40
4.262478775059207
 40
4.350736673551078
 40
4.43307199125402
 40
4.511216293814566
 40
4.564262454117881
 40
4.618474415571509
 40
4.670128488754085
 40
4.72229687912628
 40
4.819540945314064
 40
4.931194984128006
 40
5.049996040257591
 40
5.168643755414995
 40
5.283970811762321
 40
5.392260784910146
 40
5.486512254876192
 40
5.55917823394962
 40
5.59142585285328
 40
5.626215969637674
 40
5.6671558386742
 40
5.717449290214005
 40
5.73840236094462
 40
5.784499116553589
 40
5.830595872164563
 40
5.851548942897421
 40
5.873019280661535
 40
5.924217778408077
 40
5.985325662817456
 40
6.036524160567473
 40
6.057994498334001
 40
6.236847789607258
 40
6.381409928945426
 40
6.493190424178461
 40
6.574067534230267
 40
6.691018086205333
 40
6.814881554220166
 40
6.944307823240175
 40
7.071266716065856
 40
7.193488604461701
 40
7.309042773127928
 40
7.41400720317061
 40
7.505140441886311
 40
7.531150360599475
 40
7.559221645322067
 40
7.587202218920733
 40
7.612569159498937
 40
7.662550809480819
 40
7.702878875763942
 40
7.857328205230785
 40
8.010799568088489
 40
8.16525639965741
 40
8.322232698713693
 40
8.47956485501638
 40
8.635216230290583
 40
8.7908825509255
 40
8.948305154947066
 40
9.168271839032743
 40
9.387358980987027
 40
9.608047961033266
 40
9.83291423479246
 40
9.858338694962795
 40
9.925366817229802
 40
10.02013071422739
 40
10.12876249858977
 40
10.23739428295228
 40
10.3321581799517
 40
10.39918630222373
 40
10.42461076239762
 40
10.64992019336922
 40
10.87188524531167
 40
10.87188524531167
 40
10.87188524531167
 40
10.87188524531167
 10
179.9057788376618
 20
15.7392326039819
 30
0.0
 10
179.9092864933541
 20
15.80616462073804
 30
0.0
 10
179.9163033987662
 20
15.94005891915858
 30
0.0
 10
179.8198027599072
 20
16.2254855497147
 30
0.0
 10
180.0510134726109
 20
16.16284386190284
 30
0.0
 10
180.1919290057156
 20
16.17001554055991
 30
0.0
 10
180.3490417757588
 20
16.16235883078244
 30
0.0
 10
180.5025913427288
 20
16.1625275228304
 30
0.0
 10
180.6545104935081
 20
16.16182040535432
 30
0.0
 10
180.8142214813232
 20
16.1721015835164
 30
0.0
 10
180.9408972601117
 20
16.15496511080751
 30
0.0
 10
181.137082112208
 20
16.22727260107145
 30
0.0
 10
181.1034395279078
 20
16.12640699080117
 30
0.0
 10
181.1052011317184
 20
16.0761925394767
 30
0.0
 10
181.1027342073458
 20
16.02712335586466
 30
0.0
 10
181.1347076966011
 20
15.94063490846997
 30
0.0
 10
181.0010399903256
 20
15.98997438608337
 30
0.0
 10
180.9172208688057
 20
15.98430634314168
 30
0.0
 10
180.8173861139323
 20
15.99465516706298
 30
0.0
 10
180.7186576720146
 20
16.00086450411086
 30
0.0
 10
180.6121532771111
 20
16.00697763816778
 30
0.0
 10
180.491051169806
 20
16.01588883484585
 30
0.0
 10
180.3703381502454
 20
16.00521605912382
 30
0.0
 10
180.1812553843436
 20
16.06468503080369
 30
0.0
 10
180.2129028505312
 20
15.90558320077538
 30
0.0
 10
180.1995563316832
 20
15.80839128339904
 30
0.0
 10
180.197495842645
 20
15.69634065110102
 30
0.0
 10
180.195818804467
 20
15.5769968562935
 30
0.0
 10
180.1973336794233
 20
15.4503259215511
 30
0.0
 10
180.1956582478668
 20
15.32301588016117
 30
0.0
 10
180.2058844271658
 20
15.22451566404464
 30
0.0
 10
180.1779006596582
 20
15.0838870262563
 30
0.0
 10
180.3508029999306
 20
15.13989551134095
 30
0.0
 10
180.4645020202771
 20
15.12719951478499
 30
0.0
 10
180.5840151672239
 20
15.13448377051255
 30
0.0
 10
180.6888491425071
 20
15.13878017056755
 30
0.0
 10
180.7843084898612
 20
15.14330568258976
 30
0.0
 10
180.8763823507031
 20
15.151492011462
 30
0.0
 10
180.9476551782438
 20
15.14643850638111
 30
0.0
 10
181.0544931705684
 20
15.18536425031672
 30
0.0
 10
181.0226603598036
 20
15.10517122005878
 30
0.0
 10
181.0266164503929
 20
15.05562936846033
 30
0.0
 10
181.0234502392013
 20
15.00557478039819
 30
0.0
 10
181.0550791490583
 20
14.92128847612024
 30
0.0
 10
180.9210133677691
 20
14.97425365495159
 30
0.0
 10
180.82923227932
 20
14.96540080890441
 30
0.0
 10
180.7079729189603
 20
14.97570049965154
 30
0.0
 10
180.5914113119772
 20
14.97748911767502
 30
0.0
 10
180.4783375745879
 20
14.97787017109695
 30
0.0
 10
180.3679246308471
 20
14.98415449472181
 30
0.0
 10
180.289812406784
 20
14.97189133255364
 30
0.0
 10
180.1913625833644
 20
15.00453887616125
 30
0.0
 10
180.2012355173561
 20
14.94769748054205
 30
0.0
 10
180.1973923244402
 20
14.91392130557983
 30
0.0
 10
180.1966789884268
 20
14.87119604709411
 30
0.0
 10
180.1963369642975
 20
14.83401607262153
 30
0.0
 10
180.1963834255346
 20
14.79487237370771
 30
0.0
 10
180.1963649429927
 20
14.75716849497686
 30
0.0
 10
180.1963703431806
 20
14.71944955232402
 30
0.0
 10
180.1963697214201
 20
14.6899432474515
 30
0.0
 10
180.1963698151545
 20
14.65873577699301
 30
0.0
 10
180.1963704287921
 20
14.61414424908085
 30
0.0
 10
180.1963671499336
 20
14.5596395650885
 30
0.0
 10
180.1963759623481
 20
14.51505540201448
 30
0.0
 10
180.1963359653416
 20
14.43117808585739
 30
0.0
 10
180.1976024270255
 20
14.31737520677678
 30
0.0
 10
180.195027411784
 20
14.16830395933709
 30
0.0
 10
180.206500938172
 20
14.06597203813905
 30
0.0
 10
180.1823506222263
 20
13.93338903885835
 30
0.0
 10
180.3332993946475
 20
13.9789573227202
 30
0.0
 10
180.4428436671556
 20
13.96427012162349
 30
0.0
 10
180.5733970473919
 20
13.96920435125062
 30
0.0
 10
180.6990312209513
 20
13.97257705323363
 30
0.0
 10
180.8188730625601
 20
13.97711497498772
 30
0.0
 10
180.9391362611426
 20
13.99048536182005
 30
0.0
 10
181.0222761663515
 20
13.98068712782594
 30
0.0
 10
181.1456080421075
 20
14.04126214623317
 30
0.0
 10
181.1244269203956
 20
13.98532460134021
 30
0.0
 10
181.1235950270115
 20
13.95939249372346
 30
0.0
 10
181.1218963707557
 20
13.93197256190939
 30
0.0
 10
181.1217974888829
 20
13.89738195206385
 30
0.0
 10
181.1203659301329
 20
13.86050408220767
 30
0.0
 10
181.153280419219
 20
13.76846841021807
 30
0.0
 10
180.9551306988106
 20
13.84132015974831
 30
0.0
 10
180.830054829489
 20
13.81825726508607
 30
0.0
 10
180.6673071295156
 20
13.82454021985786
 30
0.0
 10
180.5129366450001
 20
13.82260943909927
 30
0.0
 10
180.3566670436944
 20
13.82393762599269
 30
0.0
 10
180.1970544465282
 20
13.82059872487863
 30
0.0
 10
180.0540326342237
 20
13.8326579572824
 30
0.0
 10
179.8197144881628
 20
13.76952001976919
 30
0.0
 10
179.9173810751197
 20
14.05620527466318
 30
0.0
 10
179.9006868780059
 20
14.24988308142661
 30
0.0
 10
179.9146296709684
 20
14.47848242880295
 30
0.0
 10
179.9142987846632
 20
14.63384593955049
 30
0.0
 10
179.9143078119263
 20
14.73966336444125
 30
0.0
 10
179.9143055876316
 20
14.80205784124214
 30
0.0
 10
179.9143065551888
 20
14.89220425248327
 30
0.0
 10
179.9143065473261
 20
14.99621167157438
 30
0.0
 10
179.9143053861102
 20
15.10022131375296
 30
0.0
 10
179.9143090971502
 20
15.19036243688768
 30
0.0
 10
179.9143011051051
 20
15.25276803097215
 30
0.0
 10
179.9143334275018
 20
15.35868835961119
 30
0.0
 10
179.9131440788319
 20
15.5162671654474
 30
0.0
 10
179.9082216489256
 20
15.66528219822066
 30
0.0
 10
179.9057788376618
 20
15.7392326039819
 30
0.0
 11
179.9057788376618
 21
15.7392326039819
 31
0.0
 11
179.896691822374
 21
15.95938578101018
 31
0.0
 11
179.8868249573133
 21
16.17960510387179
 31
0.0
 11
180.04115751414
 21
16.17312391463728
 31
0.0
 11
180.1946500189046
 21
16.16754892331925
 31
0.0
 11
180.3481160653366
 21
16.16367167505631
 31
0.0
 11
180.5025544554939
 21
16.16238072887607
 31
0.0
 11
180.6564835227474
 21
16.16367167505631
 31
0.0
 11
180.80873910046
 21
16.16754892331925
 31
0.0
 11
180.9609113551074
 21
16.17312391463728
 31
0.0
 11
181.1148364762483
 21
16.17960510387179
 31
0.0
 11
181.1070811703123
 21
16.12794961777358
 31
0.0
 11
181.1044991623591
 21
16.07642642334204
 31
0.0
 11
181.1070811703123
 21
16.0247566056466
 31
0.0
 11
181.1148364762483
 21
15.97315954836783
 31
0.0
 11
181.0094874054411
 21
15.98001446156057
 31
0.0
 11
180.913637570006
 21
15.98693552058657
 31
0.0
 11
180.8198593171903
 21
15.99378381919598
 31
0.0
 11
180.7209679915881
 21
16.0006321178054
 31
0.0
 11
180.6147532199924
 21
16.00710999974824
 31
0.0
 11
180.4991060528039
 21
16.01268829835794
 31
0.0
 11
180.3666126447258
 21
16.01656554662088
 31
0.0
 11
180.2101546018423
 21
16.01785649280112
 31
0.0
 11
180.2062663293721
 21
15.91037061609186
 31
0.0
 11
180.2015380048399
 21
15.80805072896463
 31
0.0
 11
180.1976607566749
 21
15.70138175329687
 31
0.0
 11
180.1963698105272
 21
15.5810205901325
 31
0.0
 11
180.1967799146835
 21
15.44856355891565
 31
0.0
 11
180.1980896021501
 21
15.31953288186455
 31
0.0
 11
180.1994074577049
 21
15.20777398432308
 31
0.0
 11
180.199819115366
 21
15.12695149302384
 31
0.0
 11
180.3434452935874
 21
15.1278025694125
 31
0.0
 11
180.4716343930758
 21
15.13039989580078
 31
0.0
 11
180.5868078221795
 21
15.13425509545254
 31
0.0
 11
180.691775631222
 21
15.13901649302076
 31
0.0
 11
180.7876346289421
 21
15.14418027774175
 31
0.0
 11
180.8757413374192
 21
15.14934406246267
 31
0.0
 11
180.9578881438496
 21
15.15491243919739
 31
0.0
 11
181.035769233557
 21
15.16132086801524
 31
0.0
 11
181.0280180445185
 21
15.10884407115336
 31
0.0
 11
181.0254328449317
 21
15.05469378470856
 31
0.0
 11
181.0280180445185
 21
15.00310444444367
 31
0.0
 11
181.035769233557
 21
14.95151510417882
 31
0.0
 11
180.9389813454014
 21
14.96092324653756
 31
0.0
 11
180.8275950722014
 21
14.96865128473012
 31
0.0
 11
180.7089261429372
 21
14.97425273438146
 31
0.0
 11
180.5903167449214
 21
14.97726788195011
 31
0.0
 11
180.4750025117521
 21
14.97898767361639
 31
0.0
 11
180.36672619507
 21
14.98070746528258
 31
0.0
 11
180.2724839317708
 21
14.98202486979617
 31
0.0
 11
180.199819115366
 21
14.98243607639328
 31
0.0
 11
180.1994074577049
 21
14.9501910850819
 31
0.0
 11
180.1980896021501
 21
14.91542593752116
 31
0.0
 11
180.1967799146835
 21
14.87450702260085
 31
0.0
 11
180.1963698105272
 21
14.82421524309952
 31
0.0
 11
180.1963698105272
 21
14.80326217235822
 31
0.0
 11
180.1963698105272
 21
14.75716541672736
 31
0.0
 11
180.1963698105272
 21
14.71106866109651
 31
0.0
 11
180.1963698105272
 21
14.69011559035521
 31
0.0
 11
180.1963698105272
 21
14.6686452525828
 31
0.0
 11
180.1963698105272
 21
14.61744675481784
 31
0.0
 11
180.1963698105272
 21
14.55633887038868
 31
0.0
 11
180.1963698105272
 21
14.50514037262371
 31
0.0
 11
180.1963698105272
 21
14.4836700348513
 31
0.0
 11
180.1967799146835
 21
14.30481721371547
 31
0.0
 11
180.1980896021501
 21
14.16026100715442
 31
0.0
 11
180.2002868589709
 21
14.04850210961289
 31
0.0
 11
180.2032586986985
 21
13.96767961831365
 31
0.0
 11
180.3202092517447
 21
13.96767961831365
 31
0.0
 11
180.4440727208745
 21
13.96767961831365
 31
0.0
 11
180.5734925526421
 21
13.96897056449389
 31
0.0
 11
180.7003922282244
 21
13.97284781275683
 31
0.0
 11
180.8224658067973
 21
13.97886708358865
 31
0.0
 11
180.9377587499463
 21
13.98663260442002
 31
0.0
 11
181.0421754573519
 21
13.99734161483402
 31
0.0
 11
181.1320599255448
 21
14.01237656274692
 31
0.0
 11
181.126425403119
 21
13.98698427976715
 31
0.0
 11
181.1234433285422
 21
13.95907184053802
 31
0.0
 11
181.1221339881199
 21
13.93112191867001
 31
0.0
 11
181.1217235369194
 21
13.90575829888472
 31
0.0
 11
181.1243087365064
 21
13.85584355063325
 31
0.0
 11
181.1320599255448
 21
13.81626739612928
 31
0.0
 11
180.9776977178344
 21
13.82145433189185
 31
0.0
 11
180.8242357818764
 21
13.82315538223863
 31
0.0
 11
180.6697789496482
 21
13.82315538223863
 31
0.0
 11
180.5128026496768
 21
13.82315538223863
 31
0.0
 11
180.3554704921536
 21
13.82315538223863
 31
0.0
 11
180.199819115366
 21
13.82315538223863
 31
0.0
 11
180.0441620874241
 21
13.82145433189185
 31
0.0
 11
179.8868249573133
 21
13.81626739612928
 31
0.0
 11
179.896691822374
 21
14.0360126738521
 31
0.0
 11
179.9057788376618
 21
14.25491128490852
 31
0.0
 11
179.91217215184
 21
14.47550763902003
 31
0.0
 11
179.9143063455009
 21
14.70036378479715
 31
0.0
 11
179.9143063455009
 21
14.72578824496874
 31
0.0
 11
179.9143063455009
 21
14.79281636723931
 31
0.0
 11
179.9143063455009
 21
14.88758026424253
 31
0.0
 11
179.9143063455009
 21
14.99621204861207
 31
0.0
 11
179.9143063455009
 21
15.10484383298162
 31
0.0
 11
179.9143063455009
 21
15.19960772998484
 31
0.0
 11
179.9143063455009
 21
15.2666358522554
 31
0.0
 11
179.9143063455009
 21
15.292060312427
 31
0.0
 11
179.91217215184
 21
15.51735963528735
 31
0.0
 11
179.9057788376618
 21
15.7392326039819
 31
0.0
  0
SPLINE
  5
A9
102
{ACAD_REACTORS
330
C6
102
}
330
48
100
AcDbEntity
  8
_U_30EC_U_30A4_U_30E4_U_30FC_1
  6
Continuous
 62
     2
100
AcDbSpline
210
0.0
220
0.0
230
1.0
 70
    11
 71
     3
 72
    47
 73
    43
 74
    41
 42
0.000000001
 43
0.0000000001
 44
0.00000001
 40
0.0
 40
0.0
 40
0.0
 40
0.0
 40
0.2207912809957155
 40
0.4459404186303046
 40
0.4902387190459823
 40
0.5327473892721927
 40
0.5742260451225821
 40
0.6155432630561682
 40
0.6568164066317453
 40
0.6982511618781532
 40
0.7407663929318036
 40
0.785136674317722
 40
1.010288833836526
 40
1.23108050700238
 40
1.451765243652609
 40
1.676638205891893
 40
1.720461045359862
 40
1.830018144043728
 40
1.972442372353358
 40
2.114866600677728
 40
2.224423699395353
 40
2.268246538883594
 40
2.493628801207429
 40
2.715602830286824
 40
2.934211330706575
 40
3.14950236985557
 40
3.2313877848513
 40
3.318231873854363
 40
3.405143198198409
 40
3.486970301720873
 40
3.702258172494315
 40
3.920866283534536
 40
4.142839325932323
 40
4.36822190386579
 40
4.41204474336027
 40
4.521601842096286
 40
4.664026070452766
 40
4.806450298809474
 40
4.916007397547166
 40
4.95983023704349
 40
5.184703515847521
 40
5.4053872507679
 40
5.4053872507679
 40
5.4053872507679
 40
5.4053872507679
 10
182.6507427258644
 20
15.73406440953872
 30
0.0
 10
182.6568139420002
 20
15.79758482501211
 30
0.0
 10
182.6690762107244
 20
15.92587938689628
 30
0.0
 10
182.5604706879411
 20
16.20166220174077
 30
0.0
 10
182.6761985896603
 20
16.17188133432055
 30
0.0
 10
182.7171842509014
 20
16.16765556262819
 30
0.0
 10
182.7591205797518
 20
16.16310446389607
 30
0.0
 10
182.800419662571
 20
16.16201982929485
 30
0.0
 10
182.8417032115555
 20
16.16310338195226
 30
0.0
 10
182.8836148270647
 20
16.16766112711345
 30
0.0
 10
182.9245983549019
 20
16.17187430209729
 30
0.0
 10
183.040492284349
 20
16.20177611317533
 30
0.0
 10
182.9295652727456
 20
15.92339806609891
 30
0.0
 10
182.9574856365266
 20
15.74283140824953
 30
0.0
 10
182.9404267346968
 20
15.50961042346471
 30
0.0
 10
182.9414637282102
 20
15.34906622543146
 30
0.0
 10
182.9414099399403
 20
15.22284817558722
 30
0.0
 10
182.941427737248
 20
15.12428963336241
 30
0.0
 10
182.9414188581079
 20
14.99280702442963
 30
0.0
 10
182.9414263928033
 20
14.8613284496865
 30
0.0
 10
182.9414129405127
 20
14.7627622269409
 30
0.0
 10
182.9414531717491
 20
14.63639735624152
 30
0.0
 10
182.9406746403818
 20
14.4748206882287
 30
0.0
 10
182.9565958319265
 20
14.24361821892914
 30
0.0
 10
182.9333468885407
 20
14.05874351972001
 30
0.0
 10
183.0360183444367
 20
13.78935602770055
 30
0.0
 10
182.8820238362836
 20
13.82660112685817
 30
0.0
 10
182.8004129802832
 20
13.82137994680536
 30
0.0
 10
182.7188192292582
 20
13.8266062037835
 30
0.0
 10
182.5648513666842
 20
13.78937069885388
 30
0.0
 10
182.6674183421918
 20
14.05875129862879
 30
0.0
 10
182.6442045316086
 20
14.24361585325415
 30
0.0
 10
182.6600444655139
 20
14.47482218565638
 30
0.0
 10
182.6593296313427
 20
14.63639712308503
 30
0.0
 10
182.6593664569907
 20
14.7627623121052
 30
0.0
 10
182.659354900027
 20
14.86132756635981
 30
0.0
 10
182.6593575019214
 20
14.9928112741722
 30
0.0
 10
182.6593648531779
 20
15.124275480312
 30
0.0
 10
182.6593442541351
 20
15.22287786275325
 30
0.0
 10
182.6594082192028
 20
15.34896149354427
 30
0.0
 10
182.658173394759
 20
15.51210091383771
 30
0.0
 10
182.6532040396744
 20
15.6605418377755
 30
0.0
 10
182.6507427258644
 20
15.73406440953872
 30
0.0
 11
182.6507427258644
 21
15.73406440953872
 31
0.0
 11
182.6417328200379
 21
15.95467178795577
 31
0.0
 11
182.6318769706145
 21
16.17960510387179
 31
0.0
 11
182.6756985840801
 21
16.17312391463728
 31
0.0
 11
182.7178400934214
 21
16.16754892331925
 31
0.0
 11
182.759137140979
 21
16.16367167505631
 31
0.0
 11
182.8004341885365
 21
16.16238072887607
 31
0.0
 11
182.8416871388731
 21
16.16367167505631
 31
0.0
 11
182.8829400892097
 21
16.16754892331925
 31
0.0
 11
182.9250882131343
 21
16.17312391463728
 31
0.0
 11
182.9689825870146
 21
16.17960510387179
 31
0.0
 11
182.9590577693891
 21
15.95467178795577
 31
0.0
 11
182.9500384208309
 21
15.73406440953872
 31
0.0
 11
182.9435638463434
 21
15.51347467001054
 31
0.0
 11
182.9414218238285
 21
15.28861190965007
 31
0.0
 11
182.9414218238285
 21
15.24478907015486
 31
0.0
 11
182.9414218238285
 21
15.13523197141682
 31
0.0
 11
182.9414218238285
 21
14.99280774305737
 31
0.0
 11
182.9414218238285
 21
14.85038351469792
 31
0.0
 11
182.9414218238285
 21
14.74082641595989
 31
0.0
 11
182.9414218238285
 21
14.69700357646467
 31
0.0
 11
182.9435638463434
 21
14.47163149318766
 31
0.0
 11
182.9500384208309
 21
14.2497519099098
 31
0.0
 11
182.9590577693891
 21
14.0313295488533
 31
0.0
 11
182.9689825870146
 21
13.81626739612928
 31
0.0
 11
182.887261616877
 21
13.82145433189185
 31
0.0
 11
182.8004341885365
 21
13.82315538223863
 31
0.0
 11
182.7135395119338
 21
13.82145433189185
 31
0.0
 11
182.6318769706145
 21
13.81626739612928
 31
0.0
 11
182.6417328200379
 21
14.0313295488533
 31
0.0
 11
182.6507427258644
 21
14.2497519099098
 31
0.0
 11
182.6571833838798
 21
14.47163149318766
 31
0.0
 11
182.6593583588023
 21
14.69700357646467
 31
0.0
 11
182.6593583588023
 21
14.74082641595988
 31
0.0
 11
182.6593583588023
 21
14.85038351469792
 31
0.0
 11
182.6593583588023
 21
14.99280774305737
 31
0.0
 11
182.6593583588023
 21
15.13523197141682
 31
0.0
 11
182.6593583588023
 21
15.24478907015486
 31
0.0
 11
182.6593583588023
 21
15.28861190965007
 31
0.0
 11
182.6571833838798
 21
15.51347467001054
 31
0.0
 11
182.6507427258644
 21
15.73406440953872
 31
0.0
  0
SPLINE
  5
AA
102
{ACAD_REACTORS
330
C7
102
}
330
48
100
AcDbEntity
  8
_U_30EC_U_30A4_U_30E4_U_30FC_1
  6
Continuous
 62
     2
100
AcDbSpline
210
0.0
220
0.0
230
1.0
 70
    11
 71
     3
 72
   118
 73
   114
 74
   112
 42
0.000000001
 43
0.0000000001
 44
0.00000001
 40
0.0
 40
0.0
 40
0.0
 40
0.0
 40
0.1054708162973078
 40
0.2466098270051592
 40
0.396591287459078
 40
0.5285525069753536
 40
0.6156245055641603
 40
0.6431434105796929
 40
0.7036850037985817
 40
0.7642265984504412
 40
0.7917455052354898
 40
0.9287404319989777
 40
1.106572819087987
 40
1.287544879680941
 40
1.317578308030458
 40
1.399928030857096
 40
1.522968204799871
 40
1.675072986590492
 40
1.844616533180569
 40
2.019973001638633
 40
2.189516548879946
 40
2.341621331585285
 40
2.464661506320421
 40
2.547011229646984
 40
2.577044658167948
 40
2.603797890893047
 40
2.662655002908848
 40
2.721512114949745
 40
2.748265347702925
 40
2.774215307345002
 40
2.845959313407332
 40
2.954338556588531
 40
3.090194227585708
 40
3.244367517100671
 40
3.407699615844431
 40
3.571031714539582
 40
3.725205003920258
 40
3.861060674729758
 40
3.969439917716451
 40
4.041183923629123
 40
4.067133883213116
 40
4.311886746012266
 40
4.547897258335611
 40
4.76474708304408
 40
4.952749679951887
 40
5.045772974196019
 40
5.137862019645104
 40
5.330543169793155
 40
5.553448265244148
 40
5.795083855888307
 40
6.043293412177372
 40
6.285761695541323
 40
6.313902908752807
 40
6.384255941793397
 40
6.475714884766985
 40
6.567173827759047
 40
6.637526860839825
 40
6.665668074074189
 40
6.692018920328161
 40
6.749990782071226
 40
6.807962643790594
 40
6.834313490018065
 40
6.856393084245315
 40
6.913335195649967
 40
6.991194817302603
 40
7.076026942283807
 40
7.153886563725326
 40
7.210828674844851
 40
7.232908268931187
 40
7.258199334923708
 40
7.324875781592358
 40
7.419142481925014
 40
7.527204308841954
 40
7.635266135230532
 40
7.729532834168518
 40
7.796209279292841
 40
7.821500344594787
 40
7.844652988850914
 40
7.899863140541721
 40
7.965759128053944
 40
8.020969279771313
 40
8.04412192404678
 40
8.069356610160915
 40
8.109134395441606
 40
8.132238100191318
 40
8.193147867786683
 40
8.279261678876855
 40
8.37797751267407
 40
8.476693347146853
 40
8.562807160411907
 40
8.623716930826694
 40
8.646820636853645
 40
8.671988793774458
 40
8.734909185828313
 40
8.816705695189027
 40
8.89850220481557
 40
8.961422597378002
 40
8.986590754551115
 40
9.012941600733267
 40
9.07091346238035
 40
9.128885324081839
 40
9.15523617032516
 40
9.180404327929203
 40
9.243324721948248
 40
9.325121234211984
 40
9.406917746637639
 40
9.469838141978094
 40
9.49500628827084
 40
9.517811184378981
 40
9.57219209048698
 40
9.637098333281212
 40
9.691479239515411
 40
9.71428412564345
 40
9.71428412564345
 40
9.71428412564345
 40
9.71428412564345
 10
185.2874469028654
 20
15.2688916318772
 30
0.0
 10
185.3090990569039
 20
15.24111869242812
 30
0.0
 10
185.3597257109474
 20
15.17618054561234
 30
0.0
 10
185.4349383202592
 20
15.06891060312899
 30
0.0
 10
185.5248482274346
 20
14.95377438266624
 30
0.0
 10
185.5709169676674
 20
14.85357045748321
 30
0.0
 10
185.6655825294654
 20
14.78434006814942
 30
0.0
 10
185.6204439320413
 20
14.73771639678273
 30
0.0
 10
185.5947047785789
 20
14.69660308866038
 30
0.0
 10
185.5645196708011
 20
14.66065971727939
 30
0.0
 10
185.5193684730561
 20
14.58579782596094
 30
0.0
 10
185.4710504458561
 20
14.80782524253602
 30
0.0
 10
185.3968539713074
 20
14.84510677337711
 30
0.0
 10
185.2836047324606
 20
15.11610202130598
 30
0.0
 10
185.2885133578171
 20
15.00095328446229
 30
0.0
 10
185.2868486556307
 20
14.92836675781627
 30
0.0
 10
185.2876830076715
 20
14.80625588483986
 30
0.0
 10
185.2873609540265
 20
14.6591380081046
 30
0.0
 10
185.2875076912457
 20
14.49307063956557
 30
0.0
 10
185.2872950092723
 20
14.32187554608602
 30
0.0
 10
185.2879497252034
 20
14.15552828635498
 30
0.0
 10
185.285919246114
 20
14.00935173055693
 30
0.0
 10
185.2913460399931
 20
13.8847104747461
 30
0.0
 10
185.2804930868709
 20
13.81718656540626
 30
0.0
 10
185.2956739155556
 20
13.75549061417021
 30
0.0
 10
185.2457895108134
 20
13.76727503897003
 30
0.0
 10
185.2017150342521
 20
13.75943822779968
 30
0.0
 10
185.15823716302
 20
13.76760441372704
 30
0.0
 10
185.1092346786487
 20
13.75538056738468
 30
0.0
 10
185.1218731234824
 20
13.80960667249313
 30
0.0
 10
185.1130182968448
 20
13.86936918907558
 30
0.0
 10
185.1175058770312
 20
13.9792202904437
 30
0.0
 10
185.115796013599
 20
14.11029975405679
 30
0.0
 10
185.1163550915985
 20
14.26198011444328
 30
0.0
 10
185.1161928768692
 20
14.42211074929953
 30
0.0
 10
185.1162269924674
 20
14.58236865674566
 30
0.0
 10
185.1162514960125
 20
14.73370247520439
 30
0.0
 10
185.1161453543224
 20
14.86582156338601
 30
0.0
 10
185.116429914193
 20
14.97294802533194
 30
0.0
 10
185.1158675547566
 20
15.03808619579473
 30
0.0
 10
185.1180765083688
 20
15.16618957858674
 30
0.0
 10
185.0319435998602
 20
14.79097610391575
 30
0.0
 10
184.9555140818501
 20
14.63918193123392
 30
0.0
 10
184.8660040767833
 20
14.47766206446308
 30
0.0
 10
184.7640413217326
 20
14.2047184882017
 30
0.0
 10
184.7187976491038
 20
14.3671734659651
 30
0.0
 10
184.6102355941671
 20
14.4560543205812
 30
0.0
 10
184.7995791751752
 20
14.60549794961409
 30
0.0
 10
184.85653405457
 20
14.79749136974925
 30
0.0
 10
184.9717520993352
 20
15.02899622906757
 30
0.0
 10
184.9940151630133
 20
15.21797259759063
 30
0.0
 10
185.1771905152139
 20
15.49454089325931
 30
0.0
 10
185.0538033597552
 20
15.48698978832095
 30
0.0
 10
184.9925684166834
 20
15.48856772366119
 30
0.0
 10
184.9081999617064
 20
15.48882592573673
 30
0.0
 10
184.8204235085965
 20
15.48544845751206
 30
0.0
 10
184.7656768696123
 20
15.49394814982021
 30
0.0
 10
184.7104703026024
 20
15.48048561049788
 30
0.0
 10
184.7222823035537
 20
15.52931442126764
 30
0.0
 10
184.7142496151793
 20
15.57269004896709
 30
0.0
 10
184.7228186104679
 20
15.61509438309573
 30
0.0
 10
184.7102943409157
 20
15.66267796552117
 30
0.0
 10
184.7555101538735
 20
15.65267212995109
 30
0.0
 10
184.8014815562723
 20
15.65894105174061
 30
0.0
 10
184.877722204771
 20
15.65593561405872
 30
0.0
 10
184.9561296131993
 20
15.65770448278541
 30
0.0
 10
185.0323992648932
 20
15.6546479398166
 30
0.0
 10
185.0783009459473
 20
15.66103971376176
 30
0.0
 10
185.1231733965399
 20
15.65093822978896
 30
0.0
 10
185.1105552275633
 20
15.70157201581898
 30
0.0
 10
185.1191936582705
 20
15.7550126188207
 30
0.0
 10
185.1152361595441
 20
15.8486325513168
 30
0.0
 10
185.1162325068334
 20
15.95112606688924
 30
0.0
 10
185.1171927413072
 20
16.05353270248163
 30
0.0
 10
185.1133211458005
 20
16.14735929609321
 30
0.0
 10
185.1217789814363
 20
16.20036542840353
 30
0.0
 10
185.1093075932834
 20
16.25211435651189
 30
0.0
 10
185.1542106389849
 20
16.23850747226757
 30
0.0
 10
185.1955083836771
 20
16.24100480320585
 30
0.0
 10
185.2595344281051
 20
16.23648060574487
 30
0.0
 10
185.2986111148787
 20
16.22781003043309
 30
0.0
 10
185.3476543498743
 20
16.23515102070685
 30
0.0
 10
185.322508003059
 20
16.19602896051764
 30
0.0
 10
185.2815901333725
 20
16.20563842455804
 30
0.0
 10
185.2910109616604
 20
16.15540148169778
 30
0.0
 10
185.2855647318747
 20
16.1038594563949
 30
0.0
 10
185.2881699601805
 20
16.0195970758452
 30
0.0
 10
185.2870102202155
 20
15.92559135583408
 30
0.0
 10
185.2883591064232
 20
15.83196865395525
 30
0.0
 10
185.2849970101508
 20
15.74679517552223
 30
0.0
 10
185.292095991777
 20
15.69716856072044
 30
0.0
 10
185.2812569154547
 20
15.64993694969989
 30
0.0
 10
185.3304010225246
 20
15.66201674936851
 30
0.0
 10
185.3794877630147
 20
15.65447393363011
 30
0.0
 10
185.4573714280641
 20
15.65686070361432
 30
0.0
 10
185.5350365172897
 20
15.65899381905415
 30
0.0
 10
185.5845393931354
 20
15.65193391922454
 30
0.0
 10
185.6344594750639
 20
15.66360151936214
 30
0.0
 10
185.622319851688
 20
15.61540235371393
 30
0.0
 10
185.6305838229144
 20
15.57249219801236
 30
0.0
 10
185.6223198650783
 20
15.52958201851385
 30
0.0
 10
185.6344594549855
 20
15.48138288754865
 30
0.0
 10
185.5845395158746
 20
15.49305034471511
 30
0.0
 10
185.5350350651204
 20
15.48599202435047
 30
0.0
 10
185.4573784382973
 20
15.48811665228604
 30
0.0
 10
185.379464386576
 20
15.49053389365761
 30
0.0
 10
185.3304500352718
 20
15.48291848194487
 30
0.0
 10
185.2813246108944
 20
15.49507952557592
 30
0.0
 10
185.2915559988572
 20
15.45073013424159
 30
0.0
 10
185.2856677678054
 20
15.40925436202912
 30
0.0
 10
185.287878830557
 20
15.34915394315304
 30
0.0
 10
185.2874109346147
 20
15.3022578276289
 30
0.0
 10
185.2874386992914
 20
15.27650146418197
 30
0.0
 10
185.2874469028654
 20
15.2688916318772
 30
0.0
 11
185.2874469028654
 21
15.2688916318772
 31
0.0
 11
185.3516977534485
 21
15.18524999634257
 31
0.0
 11
185.43482588355
 21
15.07118889748221
 31
0.0
 11
185.5216831568896
 21
14.94891767195723
 31
0.0
 11
185.5971214371872
 21
14.84064565642876
 31
0.0
 11
185.6459925881626
 21
14.7685821875579
 31
0.0
 11
185.6296821285093
 21
14.74641782124399
 31
0.0
 11
185.5937991172719
 21
14.69765621535339
 31
0.0
 11
185.5579161060346
 21
14.64889460946279
 31
0.0
 11
185.5416056463812
 21
14.62673024314888
 31
0.0
 11
185.4763067109445
 21
14.74716139023813
 31
0.0
 11
185.3848434243235
 21
14.89966983670207
 31
0.0
 11
185.2874469028654
 21
15.05219788193142
 31
0.0
 11
185.2874469028654
 21
15.02216445328253
 31
0.0
 11
185.2874469028654
 21
14.93981472956783
 31
0.0
 11
185.2874469028654
 21
14.81677455413528
 31
0.0
 11
185.2874469028654
 21
14.66466977033283
 31
0.0
 11
185.2874469028654
 21
14.49512622150845
 31
0.0
 11
185.2874469028654
 21
14.31976975101009
 31
0.0
 11
185.2874469028654
 21
14.15022620218571
 31
0.0
 11
185.2874469028654
 21
13.99812141838326
 31
0.0
 11
185.2874469028654
 21
13.87508124295071
 31
0.0
 11
185.2874469028654
 21
13.79273151923601
 31
0.0
 11
185.2874469028654
 21
13.76269809058712
 31
0.0
 11
185.260693670041
 21
13.76269809058712
 31
0.0
 11
185.2018365578271
 21
13.76269809058712
 31
0.0
 11
185.1429794456133
 21
13.76269809058712
 31
0.0
 11
185.1162262127889
 21
13.76269809058712
 31
0.0
 11
185.1162262127889
 21
13.7886480503125
 31
0.0
 11
185.1162262127889
 21
13.86039205661208
 31
0.0
 11
185.1162262127889
 21
13.96877130017102
 31
0.0
 11
185.1162262127889
 21
14.10462697167447
 31
0.0
 11
185.1162262127889
 21
14.25880026180761
 31
0.0
 11
185.1162262127889
 21
14.42213236125558
 31
0.0
 11
185.1162262127889
 21
14.58546446070356
 31
0.0
 11
185.1162262127889
 21
14.7396377508367
 31
0.0
 11
185.1162262127889
 21
14.87549342234015
 31
0.0
 11
185.1162262127889
 21
14.98387266589909
 31
0.0
 11
185.1162262127889
 21
15.05561667219867
 31
0.0
 11
185.1162262127889
 21
15.08156663192405
 31
0.0
 11
185.0379865861721
 21
14.84965603302372
 31
0.0
 11
184.9497110789304
 21
14.63077616328678
 31
0.0
 11
184.8544106930045
 21
14.43598991333546
 31
0.0
 11
184.7550964303356
 21
14.27636017379201
 31
0.0
 11
184.7109198342406
 21
14.35822446196599
 31
0.0
 11
184.658805738348
 21
14.43414885430811
 31
0.0
 11
184.7627302590299
 21
14.59640087926757
 31
0.0
 11
184.8629319864735
 21
14.79551465421781
 31
0.0
 11
184.9550446607901
 21
15.01890447916196
 31
0.0
 11
185.0347020220912
 21
15.2539846541032
 31
0.0
 11
185.097537810488
 21
15.48816947904466
 31
0.0
 11
185.0693965972142
 21
15.48816947904466
 31
0.0
 11
184.9990435640297
 21
15.48816947904466
 31
0.0
 11
184.9075846208898
 21
15.48816947904466
 31
0.0
 11
184.8161256777499
 21
15.48816947904466
 31
0.0
 11
184.7457726445654
 21
15.48816947904466
 31
0.0
 11
184.7176314312916
 21
15.48816947904466
 31
0.0
 11
184.7176314312916
 21
15.51452032539223
 31
0.0
 11
184.7176314312916
 21
15.57249218735689
 31
0.0
 11
184.7176314312916
 21
15.63046404932155
 31
0.0
 11
184.7176314312916
 21
15.65681489566912
 31
0.0
 11
184.7397110256019
 21
15.65681489566912
 31
0.0
 11
184.7966531372444
 21
15.65681489566912
 31
0.0
 11
184.8745127592862
 21
15.65681489566912
 31
0.0
 11
184.9593448847943
 21
15.65681489566912
 31
0.0
 11
185.0372045068361
 21
15.65681489566912
 31
0.0
 11
185.0941466184785
 21
15.65681489566912
 31
0.0
 11
185.1162262127889
 21
15.65681489566912
 31
0.0
 11
185.1162262127889
 21
15.68210596174353
 31
0.0
 11
185.1162262127889
 21
15.74878240866697
 31
0.0
 11
185.1162262127889
 21
15.84304910948977
 31
0.0
 11
185.1162262127889
 21
15.95111093726224
 31
0.0
 11
185.1162262127889
 21
16.05917276503471
 31
0.0
 11
185.1162262127889
 21
16.15343946585751
 31
0.0
 11
185.1162262127889
 21
16.22011591278095
 31
0.0
 11
185.1162262127889
 21
16.24540697885536
 31
0.0
 11
185.1393181988665
 21
16.243732131078
 31
0.0
 11
185.1943837041284
 21
16.23973826330122
 31
0.0
 11
185.2601070491184
 21
16.23497138885796
 31
0.0
 11
185.3151725543804
 21
16.23097752108117
 31
0.0
 11
185.3382645404579
 21
16.22930267330381
 31
0.0
 11
185.3249012644362
 21
16.20789677921191
 31
0.0
 11
185.2874469028654
 21
16.19450114553469
 31
0.0
 11
185.2874469028654
 21
16.17139743948578
 31
0.0
 11
185.2874469028654
 21
16.11048766899319
 31
0.0
 11
185.2874469028654
 21
16.02437385553816
 31
0.0
 11
185.2874469028654
 21
15.9256580206019
 31
0.0
 11
185.2874469028654
 21
15.82694218566565
 31
0.0
 11
185.2874469028654
 21
15.74082837221061
 31
0.0
 11
185.2874469028654
 21
15.67991860171803
 31
0.0
 11
185.2874469028654
 21
15.65681489566912
 31
0.0
 11
185.312615060481
 21
15.65681489566912
 31
0.0
 11
185.3755354545199
 21
15.65681489566912
 31
0.0
 11
185.4573319667706
 21
15.65681489566912
 31
0.0
 11
185.5391284790213
 21
15.65681489566912
 31
0.0
 11
185.6020488730602
 21
15.65681489566912
 31
0.0
 11
185.6272170306758
 21
15.65681489566912
 31
0.0
 11
185.6272170306758
 21
15.63046404932155
 31
0.0
 11
185.6272170306758
 21
15.57249218735689
 31
0.0
 11
185.6272170306758
 21
15.51452032539223
 31
0.0
 11
185.6272170306758
 21
15.48816947904466
 31
0.0
 11
185.6020488730602
 21
15.48816947904466
 31
0.0
 11
185.5391284790213
 21
15.48816947904466
 31
0.0
 11
185.4573319667706
 21
15.48816947904466
 31
0.0
 11
185.37553545452
 21
15.48816947904466
 31
0.0
 11
185.312615060481
 21
15.48816947904466
 31
0.0
 11
185.2874469028654
 21
15.48816947904466
 31
0.0
 11
185.2874469028654
 21
15.46536458293924
 31
0.0
 11
185.2874469028654
 21
15.41098367684171
 31
0.0
 11
185.2874469028654
 21
15.34607743408014
 31
0.0
 11
185.2874469028654
 21
15.29169652798262
 31
0.0
 11
185.2874469028654
 21
15.2688916318772
 31
0.0
  0
SPLINE
  5
AB
102
{ACAD_REACTORS
330
C8
102
}
330
48
100
AcDbEntity
  8
_U_30EC_U_30A4_U_30E4_U_30FC_1
  6
Continuous
 62
     2
100
AcDbSpline
210
0.0
220
0.0
230
1.0
 70
    11
 71
     3
 72
    91
 73
    87
 74
    85
 42
0.000000001
 43
0.0000000001
 44
0.00000001
 40
0.0
 40
0.0
 40
0.0
 40
0.0
 40
0.0345987051695718
 40
0.1258134969461369
 40
0.2547723404888987
 40
0.4026032099154125
 40
0.5504340793416704
 40
0.679392922883608
 40
0.7706077146571035
 40
0.8052064287780925
 40
1.124852390615278
 40
1.427402236308875
 40
1.706356627453516
 40
1.955541417875201
 40
2.169485938566346
 40
2.344350786664816
 40
2.480568411561966
 40
2.590440557428988
 40
2.649189927151116
 40
2.749320643306325
 40
2.912632739880027
 40
3.147745656000241
 40
3.244827496385041
 40
3.338490056946633
 40
3.583815413207064
 40
3.761423943238417
 40
3.886956104362581
 40
3.985855451886809
 40
4.091766255337694
 40
4.250186473811859
 40
4.422734315084482
 40
4.628285684838575
 40
4.872093227758396
 40
5.152549652145507
 40
5.46496713583749
 40
5.803201477852409
 40
6.160362988813889
 40
6.193449448275944
 40
6.284170385501598
 40
6.419718138764468
 40
6.587285046385718
 40
6.774063446723632
 40
6.967245678113615
 40
7.154024078817601
 40
7.321590987025987
 40
7.457138740890345
 40
7.547859678556081
 40
7.580946138182641
 40
7.608533084714692
 40
7.669224367077659
 40
7.72991564942987
 40
7.757502595949918
 40
7.790278062553371
 40
7.880146277430869
 40
8.014419963180332
 40
8.180411842397833
 40
8.365434637679302
 40
8.556801071622603
 40
8.741823866830716
 40
8.907815745916226
 40
9.04208943150738
 40
9.131957646249505
 40
9.164733112797082
 40
9.415425063140018
 40
9.667986180958488
 40
9.694169807462627
 40
9.756607686047614
 40
9.831130315322506
 40
9.89356819389997
 40
9.919751820398787
 40
9.9509679646906
 40
9.996421631210763
 40
10.22087981037465
 40
10.44341866197555
 40
10.47847970788867
 40
10.57091337438768
 40
10.70159545461242
 40
10.85140174170373
 40
11.0012080288049
 40
11.13189010907395
 40
11.22432377583023
 40
11.25938480938969
 40
11.28697175596157
 40
11.34766303835931
 40
11.4083543204208
 40
11.43594125892115
 40
11.43594125892115
 40
11.43594125892115
 40
11.43594125892115
 10
190.0818114333289
 20
15.55242795125078
 30
0.0
 10
190.0702785844941
 20
15.55242790287916
 30
0.0
 10
190.0283409444998
 20
15.55242773704165
 30
0.0
 10
189.9434129719026
 20
15.5524312580091
 30
0.0
 10
189.8207688553128
 20
15.55240926435879
 30
0.0
 10
189.6791206916993
 20
15.55250801177055
 30
0.0
 10
189.537975369849
 20
15.55214686232421
 30
0.0
 10
189.4141351317905
 20
15.5532188360909
 30
0.0
 10
189.3317217825382
 20
15.55092249091269
 30
0.0
 10
189.1727791229692
 20
15.56048569373421
 30
0.0
 10
189.3503402353375
 20
15.19785394311371
 30
0.0
 10
189.3379739205452
 20
14.95243127723115
 30
0.0
 10
189.4064519473864
 20
14.66862501324835
 30
0.0
 10
189.469302432097
 20
14.43250999939036
 30
0.0
 10
189.5452253431728
 20
14.23326740396129
 30
0.0
 10
189.6303189577016
 20
14.07745347451374
 30
0.0
 10
189.7244607592935
 20
13.97657857781393
 30
0.0
 10
189.8282648207727
 20
13.92465852638964
 30
0.0
 10
189.9125872030774
 20
13.97606484379619
 30
0.0
 10
189.9351322179452
 20
14.09144544037516
 30
0.0
 10
189.974573097537
 20
14.21885149702379
 30
0.0
 10
189.9202919734944
 20
14.53622328086758
 30
0.0
 10
190.0451218072473
 20
14.38982180140903
 30
0.0
 10
190.2019291513603
 20
14.35795300331172
 30
0.0
 10
190.0947720007056
 20
14.12421357767628
 30
0.0
 10
190.0808711209866
 20
13.95972776583656
 30
0.0
 10
190.0234709467225
 20
13.83130869122479
 30
0.0
 10
189.9335020145008
 20
13.76018802352829
 30
0.0
 10
189.8095274657877
 20
13.74432324142253
 30
0.0
 10
189.6634273196859
 20
13.77993797554172
 30
0.0
 10
189.5243894320283
 20
13.90000570500278
 30
0.0
 10
189.4102003962144
 20
14.07435682550319
 30
0.0
 10
189.3146141301486
 20
14.29946603111241
 30
0.0
 10
189.2318652572626
 20
14.56388246006443
 30
0.0
 10
189.1807179256411
 20
14.88187933098543
 30
0.0
 10
189.0770189207339
 20
15.15543728488913
 30
0.0
 10
189.2042841208519
 20
15.56005818612866
 30
0.0
 10
189.0357890623019
 20
15.5511236784968
 30
0.0
 10
188.9511995787076
 20
15.55315961418363
 30
0.0
 10
188.8189876387628
 20
15.55213937388407
 30
0.0
 10
188.6560505094103
 20
15.5525323031843
 30
0.0
 10
188.4733759170532
 20
15.55235696313369
 30
0.0
 10
188.2847057373383
 20
15.55260105307469
 30
0.0
 10
188.1014469020189
 20
15.55185657906237
 30
0.0
 10
187.9404746832718
 20
15.55416360522426
 30
0.0
 10
187.8029808335276
 20
15.54799804883664
 30
0.0
 10
187.728959037231
 20
15.56032838458212
 30
0.0
 10
187.6613215186857
 20
15.54329323723557
 30
0.0
 10
187.6732373719269
 20
15.59524438447528
 30
0.0
 10
187.6655677285694
 20
15.64071424966529
 30
0.0
 10
187.6732592225115
 20
15.68614453703704
 30
0.0
 10
187.6613141797762
 20
15.73802395984568
 30
0.0
 10
187.7283588305866
 20
15.72119143490261
 30
0.0
 10
187.8017375665677
 20
15.73335409092669
 30
0.0
 10
187.9379128305271
 20
15.72727231074956
 30
0.0
 10
188.0973811801513
 20
15.72954834315056
 30
0.0
 10
188.2789173085836
 20
15.7288123399896
 30
0.0
 10
188.4658034862179
 20
15.72905954196131
 30
0.0
 10
188.6468012316836
 20
15.72886400799251
 30
0.0
 10
188.8080802578878
 20
15.72932234714837
 30
0.0
 10
188.9393882124887
 20
15.72812673751204
 30
0.0
 10
189.0225051322597
 20
15.73051347319741
 30
0.0
 10
189.1556236547813
 20
15.72230605725461
 30
0.0
 10
189.0645893502659
 20
15.97752868952654
 30
0.0
 10
188.9789633074418
 20
16.24164358328245
 30
0.0
 10
189.0990589003454
 20
16.22904442969166
 30
0.0
 10
189.1514264948541
 20
16.22694235763074
 30
0.0
 10
189.2214497569717
 20
16.22535399889658
 30
0.0
 10
189.2671922337816
 20
16.21602567538111
 30
0.0
 10
189.3220812646933
 20
16.22545966915428
 30
0.0
 10
189.2963574785682
 20
16.17733028655168
 30
0.0
 10
189.1825397571452
 20
16.18266829744175
 30
0.0
 10
189.3159346621137
 20
15.95449174576774
 30
0.0
 10
189.1943658735471
 20
15.7215685659592
 30
0.0
 10
189.3223188769413
 20
15.73087258884437
 30
0.0
 10
189.4049048406461
 20
15.72801001754678
 30
0.0
 10
189.5307214850824
 20
15.729234374123
 30
0.0
 10
189.6741469838058
 20
15.72932431888962
 30
0.0
 10
189.8157420951728
 20
15.72746163183851
 30
0.0
 10
189.9459127249968
 20
15.73333075937161
 30
0.0
 10
190.019345228619
 20
15.72070340823201
 30
0.0
 10
190.0891112922097
 20
15.7387756311041
 30
0.0
 10
190.0775772605396
 20
15.68612850546325
 30
0.0
 10
190.0833184346683
 20
15.64221317686548
 30
0.0
 10
190.081661577091
 20
15.59089982676548
 30
0.0
 10
190.081775756167
 20
15.56158792021635
 30
0.0
 10
190.0818114333289
 20
15.55242795125078
 30
0.0
 11
190.0818114333289
 21
15.55242795125078
 31
0.0
 11
190.0472127192051
 21
15.55242795125078
 31
0.0
 11
189.9559979274241
 21
15.55242795125078
 31
0.0
 11
189.8270390838717
 21
15.55242795125078
 31
0.0
 11
189.6792082144335
 21
15.55242795125078
 31
0.0
 11
189.5313773449954
 21
15.55242795125078
 31
0.0
 11
189.402418501443
 21
15.55242795125078
 31
0.0
 11
189.311203709662
 21
15.55242795125078
 31
0.0
 11
189.2766049955382
 21
15.55242795125078
 31
0.0
 11
189.3083140497693
 21
15.23435864930121
 31
0.0
 11
189.3527866656865
 21
14.93509522788081
 31
0.0
 11
189.4092389118319
 21
14.66191269512576
 31
0.0
 11
189.4768868567478
 21
14.42208605917227
 31
0.0
 11
189.5549465689761
 21
14.22289032815655
 31
0.0
 11
189.6426341170591
 21
14.07160051021478
 31
0.0
 11
189.7391655695388
 21
13.97549161348317
 31
0.0
 11
189.8437569949575
 21
13.94183864609792
 31
0.0
 11
189.8943077302785
 21
13.97177376978835
 31
0.0
 11
189.9310588991551
 21
14.06491619815047
 31
0.0
 11
189.9562640977527
 21
14.22627151712054
 31
0.0
 11
189.9721769222369
 21
14.46084531263482
 31
0.0
 11
190.0494082682583
 21
14.40202182306618
 31
0.0
 11
190.1327184184385
 21
14.3592188543269
 31
0.0
 11
190.1066365811216
 21
14.1152838866101
 31
0.0
 11
190.0673317805105
 21
13.94207902887562
 31
0.0
 11
190.0105702596765
 21
13.83011272445917
 31
0.0
 11
189.9321182616909
 21
13.76989341669645
 31
0.0
 11
189.8277420296255
 21
13.75192954892317
 31
0.0
 11
189.6738595065096
 21
13.78957440012361
 31
0.0
 11
189.5388902376747
 21
13.89707348877403
 31
0.0
 11
189.4221739916162
 21
14.06627361744808
 31
0.0
 11
189.32305053683
 21
14.28902158871943
 31
0.0
 11
189.2408596418113
 21
14.55716420516172
 31
0.0
 11
189.1749410750559
 21
14.8625482693486
 31
0.0
 11
189.1246346050593
 21
15.19702058385374
 31
0.0
 11
189.0892800003171
 21
15.55242795125078
 31
0.0
 11
189.0561935405844
 21
15.55242795125078
 31
0.0
 11
188.9654726026075
 21
15.55242795125078
 31
0.0
 11
188.8299248482185
 21
15.55242795125078
 31
0.0
 11
188.6623579392495
 21
15.55242795125078
 31
0.0
 11
188.4755795375324
 21
15.55242795125078
 31
0.0
 11
188.2823973048992
 21
15.55242795125078
 31
0.0
 11
188.0956189031822
 21
15.55242795125078
 31
0.0
 11
187.9280519942131
 21
15.55242795125078
 31
0.0
 11
187.7925042398241
 21
15.55242795125078
 31
0.0
 11
187.7017833018473
 21
15.55242795125078
 31
0.0
 11
187.6686968421145
 21
15.55242795125078
 31
0.0
 11
187.6686968421145
 21
15.58001489785847
 31
0.0
 11
187.6686968421145
 21
15.64070618039537
 31
0.0
 11
187.6686968421145
 21
15.70139746293228
 31
0.0
 11
187.6686968421145
 21
15.72898440953996
 31
0.0
 11
187.7014723087631
 21
15.72898440953996
 31
0.0
 11
187.7913405237673
 21
15.72898440953996
 31
0.0
 11
187.9256142097148
 21
15.72898440953996
 31
0.0
 11
188.0916060891932
 21
15.72898440953996
 31
0.0
 11
188.2766288847901
 21
15.72898440953996
 31
0.0
 11
188.4679953190932
 21
15.72898440953996
 31
0.0
 11
188.6530181146902
 21
15.72898440953996
 31
0.0
 11
188.8190099941685
 21
15.72898440953996
 31
0.0
 11
188.953283680116
 21
15.72898440953996
 31
0.0
 11
189.0431518951202
 21
15.72898440953996
 31
0.0
 11
189.0759273617688
 21
15.72898440953996
 31
0.0
 11
189.0659183950103
 21
15.97947647544958
 31
0.0
 11
189.0599112510662
 21
16.23196614552531
 31
0.0
 11
189.0860575870658
 21
16.23056921608122
 31
0.0
 11
189.1484065421418
 21
16.22723807663761
 31
0.0
 11
189.2228230369099
 21
16.22326220052749
 31
0.0
 11
189.2851719919859
 21
16.21993106108388
 31
0.0
 11
189.3113183279855
 21
16.21853413163979
 31
0.0
 11
189.298293111304
 21
16.19016528616079
 31
0.0
 11
189.2551649266405
 21
16.17581274276164
 31
0.0
 11
189.2574991961821
 21
15.95136670115108
 31
0.0
 11
189.2658452735903
 21
15.72898440953996
 31
0.0
 11
189.3009063195165
 21
15.72898440953996
 31
0.0
 11
189.3933399860495
 21
15.72898440953996
 31
0.0
 11
189.5240220663201
 21
15.72898440953996
 31
0.0
 11
189.6738283534596
 21
15.72898440953996
 31
0.0
 11
189.8236346405991
 21
15.72898440953996
 31
0.0
 11
189.9543167208697
 21
15.72898440953996
 31
0.0
 11
190.0467503874027
 21
15.72898440953996
 31
0.0
 11
190.0818114333289
 21
15.72898440953996
 31
0.0
 11
190.0818114333289
 21
15.70139746293228
 31
0.0
 11
190.0818114333289
 21
15.64070618039537
 31
0.0
 11
190.0818114333289
 21
15.58001489785847
 31
0.0
 11
190.0818114333289
 21
15.55242795125078
 31
0.0
  0
SPLINE
  5
AC
102
{ACAD_REACTORS
330
C9
102
}
330
48
100
AcDbEntity
  8
_U_30EC_U_30A4_U_30E4_U_30FC_1
  6
Continuous
 62
     2
100
AcDbSpline
210
0.0
220
0.0
230
1.0
 70
    11
 71
     3
 72
    75
 73
    71
 74
    69
 42
0.000000001
 43
0.0000000001
 44
0.00000001
 40
0.0
 40
0.0
 40
0.0
 40
0.0
 40
0.0342546099129691
 40
0.1245622414432346
 40
0.2522385480897536
 40
0.398599192294068
 40
0.5449598364980839
 40
0.6726361431438834
 40
0.7629437746736978
 40
0.797198393529799
 40
1.101723623449721
 40
1.40859124403667
 40
1.433332471690374
 40
1.487763172450169
 40
1.542193873081994
 40
1.566935100592542
 40
1.923523931821855
 40
2.271755704953711
 40
2.590579755100899
 40
2.858943305581158
 40
2.889120339309176
 40
2.918305855191119
 40
2.941366645531241
 40
2.996357760973135
 40
3.061992318140684
 40
3.116983433626884
 40
3.140044223997564
 40
3.411273122936454
 40
3.732441619741258
 40
3.761068217532956
 40
3.837787499630518
 40
3.948858699126155
 40
4.08054104910453
 40
4.219093782625913
 40
4.350776132722462
 40
4.461847332405796
 40
4.538566614678526
 40
4.567193212544773
 40
4.594907573999031
 40
4.666381453557598
 40
4.764111044011237
 40
4.870592538126068
 40
4.968322128642519
 40
5.039796008287233
 40
5.067510369784692
 40
5.094263603185906
 40
5.153120716668548
 40
5.211977830150998
 40
5.238731063552004
 40
5.272290535139243
 40
5.363380529445104
 40
5.497618415781782
 40
5.660621563454024
 40
5.838007341749725
 40
6.015393119911076
 40
6.178396267038702
 40
6.312634151842653
 40
6.403724143059643
 40
6.437283612672738
 40
6.464036846261356
 40
6.522893960004977
 40
6.581751071484245
 40
6.608504301591193
 40
6.63725394128134
 40
6.711397748903192
 40
6.812778057283804
 40
6.923237199249581
 40
7.024617507624225
 40
7.098761315207877
 40
7.127510946007828
 40
7.127510946007828
 40
7.127510946007828
 40
7.127510946007828
 10
188.4418622390564
 20
14.95849128473263
 30
0.0
 10
188.4418622819707
 20
14.94707313408719
 30
0.0
 10
188.4418624481129
 20
14.90555257842628
 30
0.0
 10
188.4418593081786
 20
14.8214692200377
 30
0.0
 10
188.4418788279801
 20
14.70004497322327
 30
0.0
 10
188.4417912187737
 20
14.55980494047446
 30
0.0
 10
188.442111623523
 20
14.42006556794575
 30
0.0
 10
188.441160590974
 20
14.29745038894928
 30
0.0
 10
188.4431978595967
 20
14.21587074438041
 30
0.0
 10
188.4349433178746
 20
14.06271267077694
 30
0.0
 10
188.7430797940901
 20
14.22560236054718
 30
0.0
 10
189.0350645173737
 20
14.39482938688001
 30
0.0
 10
189.0408354448707
 20
14.25973235781911
 30
0.0
 10
189.0455471719891
 20
14.21617221160444
 30
0.0
 10
189.0482535411917
 20
14.17211249350545
 30
0.0
 10
189.0672545672961
 20
14.02272590363135
 30
0.0
 10
188.6583942247302
 20
14.08681172241261
 30
0.0
 10
188.3793710348832
 20
13.97296341411019
 30
0.0
 10
188.1018081587165
 20
13.87364095811141
 30
0.0
 10
187.8099837184401
 20
13.91630687596356
 30
0.0
 10
187.7869144678657
 20
13.8132167974454
 30
0.0
 10
187.7537474383333
 20
13.7869109124447
 30
0.0
 10
187.7480653962739
 20
13.83455309036304
 30
0.0
 10
187.7284214559044
 20
13.8718033611507
 30
0.0
 10
187.7095089485623
 20
13.93007387847564
 30
0.0
 10
187.6942849867708
 20
13.97385201007805
 30
0.0
 10
187.6477246372934
 20
14.08759421046311
 30
0.0
 10
187.9890897312452
 20
14.05576301120047
 30
0.0
 10
188.2679649367388
 20
14.02161435106474
 30
0.0
 10
188.2617753034908
 20
14.16913976479652
 30
0.0
 10
188.2630935452774
 20
14.24013150908832
 30
0.0
 10
188.262483168995
 20
14.34719767958662
 30
0.0
 10
188.2625871570725
 20
14.47398529785997
 30
0.0
 10
188.2629987964057
 20
14.6084924349605
 30
0.0
 10
188.261390784197
 20
14.73395549951183
 30
0.0
 10
188.2659902567927
 20
14.84505246719117
 30
0.0
 10
188.256418650221
 20
14.90761886800686
 30
0.0
 10
188.2704001783692
 20
14.96595388295001
 30
0.0
 10
188.2147384386706
 20
14.95289710582236
 30
0.0
 10
188.1575655197822
 20
14.96136307749497
 30
0.0
 10
188.0616048925648
 20
14.95729976080635
 30
0.0
 10
187.9633767522821
 20
14.95970889852473
 30
0.0
 10
187.867258245756
 20
14.95551600613387
 30
0.0
 10
187.8104648525811
 20
14.96429346441162
 30
0.0
 10
187.7550356873384
 20
14.9509493685012
 30
0.0
 10
187.7670679427917
 20
15.00036910959256
 30
0.0
 10
187.7592003173937
 20
15.04393988030395
 30
0.0
 10
187.7666295563829
 20
15.08830469118525
 30
0.0
 10
187.7551930564143
 20
15.13902297763991
 30
0.0
 10
187.8232102370133
 20
15.12162460757743
 30
0.0
 10
187.8968496879747
 20
15.13417450237189
 30
0.0
 10
188.0325064058211
 20
15.12799677011097
 30
0.0
 10
188.1884909024525
 20
15.13029203093084
 30
0.0
 10
188.3615926358143
 20
15.1294096826253
 30
0.0
 10
188.5346942964181
 20
15.13029207142408
 30
0.0
 10
188.6906789811216
 20
15.1279966295555
 30
0.0
 10
188.8263351889797
 20
15.13417486262432
 30
0.0
 10
188.8999756705652
 20
15.12162394218334
 30
0.0
 10
188.9679914174724
 20
15.13902373012143
 30
0.0
 10
188.9565590885922
 20
15.08830130414555
 30
0.0
 10
188.9639539458297
 20
15.04397060811107
 30
0.0
 10
188.956203991227
 20
15.00028307550195
 30
0.0
 10
188.9681203741877
 20
14.95063590098476
 30
0.0
 10
188.9108170223616
 20
14.96461411338424
 30
0.0
 10
188.8520145789772
 20
14.95539755673252
 30
0.0
 10
188.7525293633199
 20
14.95952268164928
 30
0.0
 10
188.649428009835
 20
14.95822760025887
 30
0.0
 10
188.5537846354573
 20
14.95854077077639
 30
0.0
 10
188.4857467971617
 20
14.95848776697144
 30
0.0
 10
188.4514462213443
 20
14.95849051871655
 30
0.0
 10
188.4418622390564
 20
14.95849128473263
 30
0.0
 11
188.4418622390564
 21
14.95849128473263
 31
0.0
 11
188.4418622390564
 21
14.92423666587184
 31
0.0
 11
188.4418622390564
 21
14.83392903432974
 31
0.0
 11
188.4418622390564
 21
14.70625272766678
 31
0.0
 11
188.4418622390564
 21
14.55989208344339
 31
0.0
 11
188.4418622390564
 21
14.41353143921999
 31
0.0
 11
188.4418622390564
 21
14.28585513255703
 31
0.0
 11
188.4418622390564
 21
14.19554750101493
 31
0.0
 11
188.4418622390564
 21
14.16129288215414
 31
0.0
 11
188.7391932644568
 21
14.22709475713769
 31
0.0
 11
189.0384623627245
 21
14.29496038212072
 31
0.0
 11
189.0405487124976
 21
14.27030727882828
 31
0.0
 11
189.0451386819987
 21
14.2160704515849
 31
0.0
 11
189.0497286514996
 21
14.16183362434152
 31
0.0
 11
189.0518150012728
 21
14.13718052104908
 31
0.0
 11
188.705639688924
 21
14.05163370140898
 31
0.0
 11
188.3669653138837
 21
13.97060877629901
 31
0.0
 11
188.0563731516688
 21
13.89862764024928
 31
0.0
 11
187.7944444777955
 21
13.8402121877899
 31
0.0
 11
187.7817515029292
 21
13.81283442738012
 31
0.0
 11
187.7569794787513
 21
13.79740260446735
 31
0.0
 11
187.7491867589501
 21
13.81910683390636
 31
0.0
 11
187.7306041194242
 21
13.87086307333786
 31
0.0
 11
187.70842483999
 21
13.93263664943352
 31
0.0
 11
187.689842200464
 21
13.98439288886502
 31
0.0
 11
187.6820494806628
 21
14.00609711830403
 31
0.0
 11
187.9482776335931
 21
14.05794001759666
 31
0.0
 11
188.262633493629
 21
14.1237396877191
 31
0.0
 11
188.262633493629
 21
14.15236628569624
 31
0.0
 11
188.262633493629
 21
14.22908556827499
 31
0.0
 11
188.262633493629
 21
14.34015676842631
 31
0.0
 11
188.262633493629
 21
14.47183911912117
 31
0.0
 11
188.262633493629
 21
14.61039185333055
 31
0.0
 11
188.262633493629
 21
14.74207420402542
 31
0.0
 11
188.262633493629
 21
14.85314540417674
 31
0.0
 11
188.262633493629
 21
14.92986468675549
 31
0.0
 11
188.262633493629
 21
14.95849128473263
 31
0.0
 11
188.2349191321109
 21
14.95849128473263
 31
0.0
 11
188.1634452524064
 21
14.95849128473263
 31
0.0
 11
188.0657156617901
 21
14.95849128473263
 31
0.0
 11
187.9592341675364
 21
14.95849128473263
 31
0.0
 11
187.8615045769201
 21
14.95849128473263
 31
0.0
 11
187.7900306972156
 21
14.95849128473263
 31
0.0
 11
187.7623163356975
 21
14.95849128473263
 31
0.0
 11
187.7623163356975
 21
14.98524451823288
 31
0.0
 11
187.7623163356975
 21
15.04410163193344
 31
0.0
 11
187.7623163356975
 21
15.10295874563399
 31
0.0
 11
187.7623163356975
 21
15.12971197913424
 31
0.0
 11
187.7958758072874
 21
15.12971197913424
 31
0.0
 11
187.8869658016031
 21
15.12971197913424
 31
0.0
 11
188.0212036879629
 21
15.12971197913424
 31
0.0
 11
188.1842068356856
 21
15.12971197913424
 31
0.0
 11
188.3615926140897
 21
15.12971197913424
 31
0.0
 11
188.5389783924938
 21
15.12971197913424
 31
0.0
 11
188.7019815402164
 21
15.12971197913424
 31
0.0
 11
188.8362194265763
 21
15.12971197913424
 31
0.0
 11
188.9273094208918
 21
15.12971197913424
 31
0.0
 11
188.9608688924818
 21
15.12971197913424
 31
0.0
 11
188.9608688924818
 21
15.10295874563399
 31
0.0
 11
188.9608688924818
 21
15.04410163193343
 31
0.0
 11
188.9608688924818
 21
14.98524451823288
 31
0.0
 11
188.9608688924818
 21
14.95849128473263
 31
0.0
 11
188.9321192527877
 21
14.95849128473263
 31
0.0
 11
188.8579754451555
 21
14.95849128473263
 31
0.0
 11
188.7565951367604
 21
14.95849128473263
 31
0.0
 11
188.6461359947778
 21
14.95849128473263
 31
0.0
 11
188.5447556863827
 21
14.95849128473263
 31
0.0
 11
188.4706118787505
 21
14.95849128473263
 31
0.0
 11
188.4418622390564
 21
14.95849128473263
 31
0.0
  0
SPLINE
  5
AD
102
{ACAD_REACTORS
330
CA
102
}
330
48
100
AcDbEntity
  8
_U_30EC_U_30A4_U_30E4_U_30FC_1
  6
Continuous
 62
     2
100
AcDbSpline
210
0.0
220
0.0
230
1.0
 70
    11
 71
     3
 72
    15
 73
    11
 74
     9
 42
0.000000001
 43
0.0000000001
 44
0.00000001
 40
0.0
 40
0.0
 40
0.0
 40
0.0
 40
0.2785535985096574
 40
0.5215624748198874
 40
0.6076917376040509
 40
0.6938210001741243
 40
0.9405019146454452
 40
1.221691403489057
 40
1.300471877080931
 40
1.379252341684652
 40
1.379252341684652
 40
1.379252341684652
 40
1.379252341684652
 10
189.5681493630999
 20
16.22930267330381
 30
0.0
 10
189.6296017794178
 20
16.17691646592715
 30
0.0
 10
189.7446649974113
 20
16.07882876798222
 30
0.0
 10
190.0397348497243
 20
15.92889785897221
 30
0.0
 10
189.9025147631857
 20
15.84343227515014
 30
0.0
 10
189.8041227843778
 20
15.71085785201555
 30
0.0
 10
189.7130033590651
 20
16.01616985781423
 30
0.0
 10
189.3636839480658
 20
16.07967869465372
 30
0.0
 10
189.511925837657
 20
16.17896509880878
 30
0.0
 10
189.5494081874237
 20
16.21252348402383
 30
0.0
 10
189.5681493630999
 20
16.22930267330381
 30
0.0
 11
189.5681493630999
 21
16.22930267330381
 31
0.0
 11
189.7919222440596
 21
16.06341774278972
 31
0.0
 11
189.9695046306383
 21
15.89753281227564
 31
0.0
 11
189.9066308127979
 21
15.83866743034592
 31
0.0
 11
189.8437569949575
 21
15.7798020484162
 31
0.0
 11
189.6688535117726
 21
15.95375677059491
 31
0.0
 11
189.4478256856141
 21
16.12757920110703
 31
0.0
 11
189.507987524357
 21
16.17844093720542
 31
0.0
 11
189.5681493630999
 21
16.22930267330381
 31
0.0
  0
SPLINE
  5
AE
102
{ACAD_REACTORS
330
CB
102
}
330
48
100
AcDbEntity
  8
_U_30EC_U_30A4_U_30E4_U_30FC_1
  6
Continuous
 62
     2
100
AcDbSpline
210
0.0
220
0.0
230
1.0
 70
    11
 71
     3
 72
    35
 73
    31
 74
    29
 42
0.000000001
 43
0.0000000001
 44
0.00000001
 40
0.0
 40
0.0
 40
0.0
 40
0.0
 40
0.0335231036621181
 40
0.0713218571711795
 40
0.4278866681486214
 40
0.8116865841963021
 40
1.198190237999959
 40
1.561379546812586
 40
1.65998317462198
 40
1.759315573807101
 40
2.132719617230987
 40
2.525233363588737
 40
2.910815397779602
 40
3.265244364303193
 40
3.592606723581967
 40
3.964386154603912
 40
4.359942131737731
 40
4.758154118639193
 40
4.843846538699773
 40
4.936650065543129
 40
5.256616602537208
 40
5.581707404415941
 40
5.899719158308036
 40
6.198363494280604
 40
6.466301046615617
 40
6.493895311536967
 40
6.559697020196788
 40
6.638234543442391
 40
6.704036252154257
 40
6.731630508423063
 40
6.731630508423063
 40
6.731630508423063
 40
6.731630508423063
 10
191.973601056867
 20
16.23463843719134
 30
0.0
 10
191.967600609779
 20
16.22480690542323
 30
0.0
 10
191.9548344099157
 20
16.20388988579802
 30
0.0
 10
191.7949362006559
 20
16.17127126532671
 30
0.0
 10
192.2322025842335
 20
15.88206680336707
 30
0.0
 10
192.4345394828262
 20
15.68041138358436
 30
0.0
 10
192.6819564267972
 20
15.43749387603278
 30
0.0
 10
193.1831513624607
 20
15.36047662757776
 30
0.0
 10
193.0125562198969
 20
15.21876939174658
 30
0.0
 10
192.9383299463202
 20
15.01710366209106
 30
0.0
 10
192.6131432248187
 20
15.36956287174727
 30
0.0
 10
192.3277741670664
 20
15.53175212559561
 30
0.0
 10
192.0337604077657
 20
15.73687130053049
 30
0.0
 10
191.8084452691134
 20
16.21827488595455
 30
0.0
 10
191.5993085055521
 20
15.75343046609225
 30
0.0
 10
191.3207873674833
 20
15.5435095225291
 30
0.0
 10
191.0371383177209
 20
15.37424456359991
 30
0.0
 10
190.7078639527831
 20
15.00142360907933
 30
0.0
 10
190.6277012318224
 20
15.19708014459005
 30
0.0
 10
190.4759724909744
 20
15.32491104190592
 30
0.0
 10
190.9083395826794
 20
15.40454031765938
 30
0.0
 10
191.0962565329766
 20
15.60026634915473
 30
0.0
 10
191.3468477420503
 20
15.81632996916754
 30
0.0
 10
191.571435047016
 20
15.9819099230006
 30
0.0
 10
191.6259775409711
 20
16.26133964636828
 30
0.0
 10
191.7494661029011
 20
16.24737950408078
 30
0.0
 10
191.806027334452
 20
16.24521268867647
 30
0.0
 10
191.8761870984945
 20
16.2404685988136
 30
0.0
 10
191.9333414022106
 20
16.23709429350541
 30
0.0
 10
191.964419032084
 20
16.23519854711119
 30
0.0
 10
191.973601056867
 20
16.23463843719134
 30
0.0
 11
191.973601056867
 21
16.23463843719134
 31
0.0
 11
191.9525319069884
 21
16.20856374969785
 31
0.0
 11
191.9174464559426
 21
16.19450114553469
 31
0.0
 11
192.1512374769095
 21
15.92527961131382
 31
0.0
 11
192.4414585957566
 21
15.6741340796926
 31
0.0
 11
192.7612797483684
 21
15.45710987618784
 31
0.0
 11
193.0838708706289
 21
15.29025232631638
 31
0.0
 11
193.0213299868076
 21
15.21402035584928
 31
0.0
 11
192.9688035818975
 21
15.12971197913424
 31
0.0
 11
192.6436279095814
 21
15.3132640483158
 31
0.0
 11
192.3237227768436
 21
15.54070139743428
 31
0.0
 11
192.0354200158608
 21
15.79673855123309
 31
0.0
 11
191.8050514588095
 21
16.06609003445566
 31
0.0
 11
191.5995531719515
 21
15.81126348721036
 31
0.0
 11
191.3288301341535
 21
15.55645182277756
 31
0.0
 11
191.0119538423246
 21
15.31969466354857
 31
0.0
 11
190.6679957933741
 21
15.11903163191467
 31
0.0
 11
190.6218855341338
 21
15.19126067703554
 31
0.0
 11
190.5636970460348
 21
15.26355586798967
 31
0.0
 11
190.8433040489015
 21
15.41911456961745
 31
0.0
 11
191.1093004621154
 21
15.60601009790405
 31
0.0
 11
191.3499997459746
 21
15.81384496285209
 31
0.0
 11
191.5537153607773
 21
16.03222167446416
 31
0.0
 11
191.7087607668217
 21
16.25074274274287
 31
0.0
 11
191.7363041569864
 21
16.24906789496551
 31
0.0
 11
191.8019845489177
 21
16.24507402718873
 31
0.0
 11
191.880377274771
 21
16.24030715274548
 31
0.0
 11
191.9460576667023
 21
16.2363132849687
 31
0.0
 11
191.973601056867
 21
16.23463843719134
 31
0.0
  0
SPLINE
  5
AF
102
{ACAD_REACTORS
330
CC
102
}
330
48
100
AcDbEntity
  8
_U_30EC_U_30A4_U_30E4_U_30FC_1
  6
Continuous
 62
     2
100
AcDbSpline
210
0.0
220
0.0
230
1.0
 70
    11
 71
     3
 72
    91
 73
    87
 74
    85
 42
0.000000001
 43
0.0000000001
 44
0.00000001
 40
0.0
 40
0.0
 40
0.0
 40
0.0
 40
0.0267532254356701
 40
0.0856103386464102
 40
0.1444674521996621
 40
0.1712206856618514
 40
0.2039416005642536
 40
0.2955601971652484
 40
0.4362601844616918
 40
0.616225284450725
 40
0.8256392189704698
 40
1.054685709844411
 40
1.293548478893474
 40
1.532411247938218
 40
1.761457738799483
 40
1.970871673298451
 40
2.150836773256647
 40
2.29153676049548
 40
2.383155356836586
 40
2.415876284101206
 40
2.442629517487851
 40
2.501486630948981
 40
2.560343744424128
 40
2.587096977826401
 40
2.6170681944408
 40
2.699247336755941
 40
2.822032643466254
 40
2.973822353257755
 40
3.143014704823197
 40
3.318007936879748
 40
3.487200288186581
 40
3.638989997548062
 40
3.761775303794532
 40
3.843954445752867
 40
3.873925662229563
 40
3.89081277350027
 40
3.907699884771422
 40
3.937960767857049
 40
3.980983618142136
 40
4.199085915228282
 40
4.439444339237047
 40
4.677588241260719
 40
5.050698317837605
 40
5.448212454762991
 40
5.855291218044516
 40
6.138575438885172
 40
6.417434507584021
 40
6.444551104393705
 40
6.504207617363006
 40
6.563864130314331
 40
6.590980727103925
 40
6.848609460381328
 40
7.109611990668306
 40
7.352910904445971
 40
7.557830220705309
 40
7.587518925913226
 40
7.652834077375668
 40
7.718149228845675
 40
7.747837934061954
 40
7.854880190300861
 40
7.976511257403399
 40
8.369487896592144
 40
8.757514959223437
 40
9.1260724193309
 40
9.460639380391934
 40
9.746695593035646
 40
9.777569943118467
 40
9.807050320931593
 40
9.830377336128716
 40
9.8860032954358
 40
9.9523955694297
 40
10.00802152870605
 40
10.03134854388197
 40
10.21356951009562
 40
10.42203479292853
 40
10.66154556731043
 40
10.9169378956428
 40
11.15832906556537
 40
11.18982674596592
 40
11.27286608520376
 40
11.39026653033318
 40
11.52484752840849
 40
11.659428526484
 40
11.77682897161438
 40
11.85986831085632
 40
11.89136598230377
 40
11.89136598230377
 40
11.89136598230377
 40
11.89136598230377
 10
190.7027885008197
 20
14.70699600701772
 30
0.0
 10
190.7028237765289
 20
14.71587847311985
 30
0.0
 10
190.7029366710797
 20
14.74430237047346
 30
0.0
 10
190.7012984568489
 20
14.79409639169803
 30
0.0
 10
190.7069750292912
 20
14.83657564478154
 30
0.0
 10
190.6956928731707
 20
14.88730154856847
 30
0.0
 10
190.7632296979033
 20
14.87012900740109
 30
0.0
 10
190.8388029210701
 20
14.88290227165996
 30
0.0
 10
190.9828357056001
 20
14.87629729457382
 30
0.0
 10
191.1569419185428
 20
14.87888462206466
 30
0.0
 10
191.3639599611004
 20
14.87800591955553
 30
0.0
 10
191.5894688172378
 20
14.87828207920026
 30
0.0
 10
191.8251162293406
 20
14.87818339658663
 30
0.0
 10
192.0607640531349
 20
14.87828184412767
 30
0.0
 10
192.2862717580626
 20
14.87800678190789
 30
0.0
 10
192.4932934632805
 20
14.87888186270735
 30
0.0
 10
192.6673888915288
 20
14.87630522678446
 30
0.0
 10
192.8114492071986
 20
14.88288290449214
 30
0.0
 10
192.8869691915292
 20
14.87016243405604
 30
0.0
 10
192.954577603703
 20
14.88726400191686
 30
0.0
 10
192.9430840140676
 20
14.83674785802941
 30
0.0
 10
192.9505104581733
 20
14.79253252226501
 30
0.0
 10
192.9428838927986
 20
14.7486796650361
 30
0.0
 10
192.9546489459425
 20
14.69878374479328
 30
0.0
 10
192.8930788491983
 20
14.71393227712512
 30
0.0
 10
192.8256791738672
 20
14.70310665350673
 30
0.0
 10
192.7013004056221
 20
14.70852031626236
 30
0.0
 10
192.5554428236571
 20
14.70649205390785
 30
0.0
 10
192.3893576440086
 20
14.70715777578387
 30
0.0
 10
192.2188412621725
 20
14.70689643521242
 30
0.0
 10
192.051979085539
 20
14.70721553391094
 30
0.0
 10
191.9087346827106
 20
14.70635302590762
 30
0.0
 10
191.7773313869835
 20
14.70863300482987
 30
0.0
 10
191.7239859134658
 20
14.70407704374202
 30
0.0
 10
191.6485188456913
 20
14.70999914992877
 30
0.0
 10
191.6769075779233
 20
14.70094169343353
 30
0.0
 10
191.7033652409543
 20
14.69725912268928
 30
0.0
 10
191.6633522907701
 20
14.66654271968273
 30
0.0
 10
191.5713663691868
 20
14.67667591174638
 30
0.0
 10
191.5439396207069
 20
14.43032502247787
 30
0.0
 10
191.4478793967235
 20
14.27499558764372
 30
0.0
 10
191.1917277964473
 20
13.9452541793157
 30
0.0
 10
191.7627537732762
 20
14.08430022210451
 30
0.0
 10
192.0173656320516
 20
14.08291779973364
 30
0.0
 10
192.6279647048617
 20
13.99790569242084
 30
0.0
 10
192.3340698578083
 20
14.29685417558207
 30
0.0
 10
192.0133304286518
 20
14.44330856901779
 30
0.0
 10
192.1313543360433
 20
14.50025540818286
 30
0.0
 10
192.1724716466261
 20
14.52420099873348
 30
0.0
 10
192.2156812394411
 20
14.5459975881123
 30
0.0
 10
192.317457409445
 20
14.60928721253904
 30
0.0
 10
192.4328867625248
 20
14.3514715140878
 30
0.0
 10
192.6329591642278
 20
14.21616041113683
 30
0.0
 10
192.7269077387229
 20
14.03792795138884
 30
0.0
 10
192.9558829746392
 20
13.87997821027047
 30
0.0
 10
192.8596031846708
 20
13.829159725763
 30
0.0
 10
192.8167959763779
 20
13.79881292523052
 30
0.0
 10
192.7718243528778
 20
13.77466130281463
 30
0.0
 10
192.7121720925212
 20
13.72552146747568
 30
0.0
 10
192.6789731061325
 20
13.85997475673614
 30
0.0
 10
192.5582013350795
 20
14.01594265286576
 30
0.0
 10
192.1970976005979
 20
13.88569928059557
 30
0.0
 10
191.8385061955541
 20
13.90224694409483
 30
0.0
 10
191.4570920450081
 20
13.89331229351862
 30
0.0
 10
191.1703455282891
 20
13.82882671672417
 30
0.0
 10
190.8592055599717
 20
13.94230668192809
 30
0.0
 10
190.8268737818788
 20
13.83122259927769
 30
0.0
 10
190.7896178253317
 20
13.81196313850011
 30
0.0
 10
190.7865737632754
 20
13.85874784087298
 30
0.0
 10
190.7679892860607
 20
13.89806853919133
 30
0.0
 10
190.7512436616778
 20
13.95765983478233
 30
0.0
 10
190.7383730915753
 20
14.00201969871283
 30
0.0
 10
190.7042327806431
 20
14.09106331120201
 30
0.0
 10
190.9482714457754
 20
14.02181042943767
 30
0.0
 10
191.1441394486672
 20
14.00030369057741
 30
0.0
 10
191.2395426381277
 20
14.28226484478462
 30
0.0
 10
191.2945135769596
 20
14.44363045421122
 30
0.0
 10
191.5159619357156
 20
14.71391177589739
 30
0.0
 10
191.3849239381215
 20
14.70548446853734
 30
0.0
 10
191.3110026555854
 20
14.7077900849697
 30
0.0
 10
191.1977459876242
 20
14.70671378321657
 30
0.0
 10
191.0694251807485
 20
14.7070763907651
 30
0.0
 10
190.9404252030416
 20
14.70697724466086
 30
0.0
 10
190.8287840946291
 20
14.70699932712572
 30
0.0
 10
190.7514663970027
 20
14.7069957918967
 30
0.0
 10
190.7132876532011
 20
14.70699595845081
 30
0.0
 10
190.7027885008197
 20
14.70699600701772
 30
0.0
 11
190.7027885008197
 21
14.70699600701772
 31
0.0
 11
190.7027885008197
 21
14.73374924051797
 31
0.0
 11
190.7027885008197
 21
14.79260635421853
 31
0.0
 11
190.7027885008197
 21
14.85146346791909
 31
0.0
 11
190.7027885008197
 21
14.87821670141935
 31
0.0
 11
190.735509428099
 21
14.87821670141935
 31
0.0
 11
190.827128024481
 21
14.87821670141935
 31
0.0
 11
190.967828011782
 21
14.87821670141935
 31
0.0
 11
191.1477931118181
 21
14.87821670141935
 31
0.0
 11
191.3572070464055
 21
14.87821670141935
 31
0.0
 11
191.5862535373605
 21
14.87821670141935
 31
0.0
 11
191.8251163064993
 21
14.87821670141935
 31
0.0
 11
192.0639790756381
 21
14.87821670141935
 31
0.0
 11
192.2930255665931
 21
14.87821670141935
 31
0.0
 11
192.5024395011806
 21
14.87821670141935
 31
0.0
 11
192.6824046012167
 21
14.87821670141935
 31
0.0
 11
192.8231045885176
 21
14.87821670141935
 31
0.0
 11
192.9147231848996
 21
14.87821670141935
 31
0.0
 11
192.9474441121789
 21
14.87821670141935
 31
0.0
 11
192.9474441121789
 21
14.85146346791909
 31
0.0
 11
192.9474441121789
 21
14.79260635421853
 31
0.0
 11
192.9474441121789
 21
14.73374924051797
 31
0.0
 11
192.9474441121789
 21
14.70699600701772
 31
0.0
 11
192.9174728954758
 21
14.70699600701772
 31
0.0
 11
192.8352937529027
 21
14.70699600701772
 31
0.0
 11
192.712508445764
 21
14.70699600701772
 31
0.0
 11
192.5607187353642
 21
14.70699600701772
 31
0.0
 11
192.3915263830078
 21
14.70699600701772
 31
0.0
 11
192.2165331499992
 21
14.70699600701772
 31
0.0
 11
192.0473407976427
 21
14.70699600701772
 31
0.0
 11
191.8955510872429
 21
14.70699600701772
 31
0.0
 11
191.7727657801043
 21
14.70699600701772
 31
0.0
 11
191.6905866375311
 21
14.70699600701772
 31
0.0
 11
191.660615420828
 21
14.70699600701772
 31
0.0
 11
191.6766359412526
 21
14.70165583340794
 31
0.0
 11
191.6926564616772
 21
14.69631565979815
 31
0.0
 11
191.6706155681421
 21
14.67558114591443
 31
0.0
 11
191.6284861855363
 21
14.6668587153611
 31
0.0
 11
191.5365235541377
 21
14.46909247312657
 31
0.0
 11
191.4279078521764
 21
14.25467511978509
 31
0.0
 11
191.3127500824807
 21
14.0462255905162
 31
0.0
 11
191.685736667502
 21
14.05582441253029
 31
0.0
 11
192.083070003615
 21
14.06781232404995
 31
0.0
 11
192.4899342191145
 21
14.08102711828532
 31
0.0
 11
192.2983119496979
 21
14.28966761302481
 31
0.0
 11
192.0966752013698
 21
14.48229420151831
 31
0.0
 11
192.1204947794749
 21
14.49525327269564
 31
0.0
 11
192.1728978513061
 21
14.52376322928576
 31
0.0
 11
192.2253009231374
 21
14.55227318587587
 31
0.0
 11
192.2491205012425
 21
14.5652322570532
 31
0.0
 11
192.4387101558627
 21
14.39079508370268
 31
0.0
 11
192.6200310940436
 21
14.20305846374091
 31
0.0
 11
192.7777729231148
 21
14.01782380992436
 31
0.0
 11
192.8966252504058
 21
13.85089253500949
 31
0.0
 11
192.8715408217923
 21
13.83501202286069
 31
0.0
 11
192.8163550788425
 21
13.80007489613332
 31
0.0
 11
192.7611693358927
 21
13.76513776940596
 31
0.0
 11
192.7360849072792
 21
13.74925725725716
 31
0.0
 11
192.6775518151612
 21
13.8388782468181
 31
0.0
 11
192.6050015078457
 21
13.93650288221032
 31
0.0
 11
192.2125412924095
 21
13.91636286943759
 31
0.0
 11
191.8249474069561
 21
13.89803302999773
 31
0.0
 11
191.4567378976213
 21
13.88202178722395
 31
0.0
 11
191.1224308105413
 21
13.86883756444947
 31
0.0
 11
190.8365441918519
 21
13.8589887850075
 31
0.0
 11
190.821186232174
 21
13.83220523466695
 31
0.0
 11
190.7937434290546
 21
13.82143559057245
 31
0.0
 11
190.786792719232
 21
13.84370299445577
 31
0.0
 11
190.7702179496548
 21
13.89680218833139
 31
0.0
 11
190.7504351601596
 21
13.96017864553777
 31
0.0
 11
190.7338603905825
 21
14.01327783941338
 31
0.0
 11
190.7269096807599
 21
14.0355452432967
 31
0.0
 11
190.9091199859153
 21
14.03751638912952
 31
0.0
 11
191.1174975848589
 21
14.04356211829472
 31
0.0
 11
191.2303203127216
 21
14.25483550301554
 31
0.0
 11
191.3407936722035
 21
14.48509813155879
 31
0.0
 11
191.4358254265626
 21
14.70699600701772
 31
0.0
 11
191.4043277461596
 21
14.70699600701772
 31
0.0
 11
191.3212884069152
 21
14.70699600701772
 31
0.0
 11
191.2038879617767
 21
14.70699600701772
 31
0.0
 11
191.0693069636911
 21
14.70699600701772
 31
0.0
 11
190.9347259656056
 21
14.70699600701772
 31
0.0
 11
190.817325520467
 21
14.70699600701772
 31
0.0
 11
190.7342861812227
 21
14.70699600701772
 31
0.0
 11
190.7027885008197
 21
14.70699600701772
 31
0.0
  0
SPLINE
  5
B0
102
{ACAD_REACTORS
330
CD
102
}
330
48
100
AcDbEntity
  8
_U_30EC_U_30A4_U_30E4_U_30FC_1
  6
Continuous
 62
     2
100
AcDbSpline
210
0.0
220
0.0
230
1.0
 70
    11
 71
     3
 72
   131
 73
   127
 74
   125
 42
0.000000001
 43
0.0000000001
 44
0.00000001
 40
0.0
 40
0.0
 40
0.0
 40
0.0
 40
0.0195577029826344
 40
0.042649053746224
 40
0.2863607575857143
 40
0.5344948436189628
 40
0.7842238845573328
 40
0.8737315789467544
 40
0.9803832810312838
 40
1.092842274517009
 40
1.199761146656746
 40
1.28978876818645
 40
1.35157358078614
 40
1.370727117561386
 40
1.416400936017779
 40
1.470914848355906
 40
1.516588666791712
 40
1.535742203552793
 40
1.634216592293098
 40
1.760283341174913
 40
1.897966686681979
 40
2.031216387368807
 40
2.049689751137801
 40
2.101115601646737
 40
2.179502577739857
 40
2.278859318313971
 40
2.39319446225863
 40
2.516516648383746
 40
2.642834515405875
 40
2.766156701983376
 40
2.880491846754493
 40
2.979848588358535
 40
3.058235565443714
 40
3.109661416668869
 40
3.128134780704044
 40
3.146783742386361
 40
3.191254343315222
 40
3.244332157315881
 40
3.288802758225784
 40
3.307451719895027
 40
3.327717853844641
 40
3.383747753579999
 40
3.46838866592439
 40
3.574487837698699
 40
3.694892515728803
 40
3.822449946851941
 40
3.95000737792033
 40
4.070412055800423
 40
4.176511227367978
 40
4.261152139501425
 40
4.317182039076618
 40
4.337448172964537
 40
4.620011002696146
 40
4.885096638397326
 40
4.945373043518201
 40
5.014107710488553
 40
5.070481727651936
 40
5.319246955636483
 40
5.584812164505998
 40
5.85900091205685
 40
6.133746937542031
 40
6.401732212968835
 40
6.420736683995426
 40
6.472845717451077
 40
6.550702743894004
 40
6.646951193874213
 40
6.754234497930537
 40
6.865196086587315
 40
6.972479390357774
 40
7.068727839771936
 40
7.146584865450945
 40
7.198693898189174
 40
7.217698368905315
 40
7.234950401630793
 40
7.27608986426984
 40
7.325191803515954
 40
7.366331266090342
 40
7.383583298769694
 40
7.402779163492071
 40
7.453386443254503
 40
7.524934666445504
 40
7.606953361405844
 40
7.688972056428995
 40
7.760520279784246
 40
7.811127559734488
 40
7.830323424546109
 40
7.847844055299739
 40
7.89479934566678
 40
7.962779392744468
 40
8.043374293560515
 40
8.128174145149421
 40
8.208769044817226
 40
8.276749090376926
 40
8.323704379669485
 40
8.341225010056219
 40
8.358497614800367
 40
8.401679126686572
 40
8.45781509218563
 40
8.513951057728034
 40
8.55713256970799
 40
8.574405174505033
 40
8.602340668616394
 40
8.643455660539937
 40
8.663225271966605
 40
8.715345156564252
 40
8.789031889628587
 40
8.873502045520317
 40
8.95797219432394
 40
9.03165892556783
 40
9.083778811234522
 40
9.103548423002984
 40
9.11955008312352
 40
9.160817522379823
 40
9.217244429110188
 40
9.278724491644674
 40
9.335151398295459
 40
9.376418837357754
 40
9.392420497300542
 40
9.40119630273476
 40
9.417494229384236
 40
9.426270027749508
 40
9.44087507547754
 40
9.47570249699872
 40
9.517270709865882
 40
9.552098131994049
 40
9.566703169884256
 40
9.566703169884256
 40
9.566703169884256
 40
9.566703169884256
 10
194.6170254148479
 20
15.67015871511028
 30
0.0
 10
194.6134345093371
 20
15.6645369070216
 30
0.0
 10
194.6056039123624
 20
15.65227754419111
 30
0.0
 10
194.5129968974549
 20
15.61601916040979
 30
0.0
 10
194.4887622233246
 20
15.40148444212712
 30
0.0
 10
194.3858709845938
 20
15.22197284509709
 30
0.0
 10
194.1220492364306
 20
15.03615573798146
 30
0.0
 10
194.284547156918
 20
14.95959336566082
 30
0.0
 10
194.3607225760838
 20
14.89856693195441
 30
0.0
 10
194.4492171072758
 20
14.8351580454476
 30
0.0
 10
194.538993023311
 20
14.77525634219559
 30
0.0
 10
194.5883817636045
 20
14.72102154849208
 30
0.0
 10
194.6745708157382
 20
14.69286240541832
 30
0.0
 10
194.6411260674228
 20
14.65713309652813
 30
0.0
 10
194.621467116631
 20
14.62550387991906
 30
0.0
 10
194.5919888217882
 20
14.58475872796067
 30
0.0
 10
194.568898944603
 20
14.55504663489644
 30
0.0
 10
194.5380205968356
 20
14.50211422668495
 30
0.0
 10
194.4729193365739
 20
14.62740334938903
 30
0.0
 10
194.3796000122415
 20
14.68213900233934
 30
0.0
 10
194.2950636285138
 20
14.73916423939343
 30
0.0
 10
194.1722498125743
 20
14.89675287427524
 30
0.0
 10
194.17644508473
 20
14.82035806766837
 30
0.0
 10
194.1751478652678
 20
14.77361280161297
 30
0.0
 10
194.1758126448076
 20
14.69584785812602
 30
0.0
 10
194.1755549986956
 20
14.59902068324423
 30
0.0
 10
194.1756431239922
 20
14.4865027907881
 30
0.0
 10
194.1756077302281
 20
14.36524085945699
 30
0.0
 10
194.1756511758279
 20
14.24086897858962
 30
0.0
 10
194.1755199942406
 20
14.11967683631336
 30
0.0
 10
194.1759477562046
 20
14.00691148919744
 30
0.0
 10
194.174667820231
 20
13.91082913768744
 30
0.0
 10
194.1779759851044
 20
13.831138264687
 30
0.0
 10
194.1715197740085
 20
13.78815175788784
 30
0.0
 10
194.1806208705556
 20
13.74955432372043
 30
0.0
 10
194.1447910339935
 20
13.7581088772407
 30
0.0
 10
194.1115223815252
 20
13.75342519985446
 30
0.0
 10
194.060456257604
 20
13.75351298759784
 30
0.0
 10
194.0269723972813
 20
13.75794430283821
 30
0.0
 10
193.9907585408754
 20
13.74960793842509
 30
0.0
 10
194.0009782568665
 20
13.79145277179284
 30
0.0
 10
193.9936487887773
 20
13.83778560820173
 30
0.0
 10
193.9973633136103
 20
13.92374831106015
 30
0.0
 10
193.9959480554896
 20
14.02605142704849
 30
0.0
 10
193.9964105554638
 20
14.14453223931512
 30
0.0
 10
193.996277368623
 20
14.26957683153356
 30
0.0
 10
193.9963015910045
 20
14.3947582810705
 30
0.0
 10
193.9963354925551
 20
14.51286645379058
 30
0.0
 10
193.9962060293132
 20
14.61628748709516
 30
0.0
 10
193.9965507549081
 20
14.69932036153667
 30
0.0
 10
193.995869827869
 20
14.75143368521243
 30
0.0
 10
193.9994586600624
 20
14.87912907821361
 30
0.0
 10
193.7826171386436
 20
14.58048716819624
 30
0.0
 10
193.6021354921952
 20
14.35263981511523
 30
0.0
 10
193.5490322295612
 20
14.49373443289814
 30
0.0
 10
193.5200429133148
 20
14.54325767560941
 30
0.0
 10
193.419664806282
 20
14.64641779790106
 30
0.0
 10
193.740512772326
 20
14.72695035023778
 30
0.0
 10
193.8689897005429
 20
14.91066283036431
 30
0.0
 10
194.0906454325359
 20
15.11931995771762
 30
0.0
 10
194.1770224894068
 20
15.29339211228342
 30
0.0
 10
194.4549394229075
 20
15.56967051342511
 30
0.0
 10
194.3346247839283
 20
15.56534559551113
 30
0.0
 10
194.2863197351349
 20
15.56614856202552
 30
0.0
 10
194.2102377454905
 20
15.56574582146583
 30
0.0
 10
194.116701000975
 20
15.56590275611608
 30
0.0
 10
194.0117594788557
 20
15.56582502576223
 30
0.0
 10
193.9033887738717
 20
15.56595464378553
 30
0.0
 10
193.7981454235897
 20
15.56554393490691
 30
0.0
 10
193.7056237819412
 20
15.5668207367159
 30
0.0
 10
193.6268130800707
 20
15.56340766534849
 30
0.0
 10
193.5839674565379
 20
15.57023350036319
 30
0.0
 10
193.5449499586515
 20
15.56065064201123
 30
0.0
 10
193.5526365271864
 20
15.59420779565542
 30
0.0
 10
193.5485464404312
 20
15.62523550322232
 30
0.0
 10
193.5485531368814
 20
15.672365292709
 30
0.0
 10
193.5526239724912
 20
15.70340941646779
 30
0.0
 10
193.5449495574582
 20
15.73701861635901
 30
0.0
 10
193.5834819405494
 20
15.72748410420872
 30
0.0
 10
193.624122801448
 20
15.73397435498071
 30
0.0
 10
193.6951471850463
 20
15.73100150650254
 30
0.0
 10
193.7729318149633
 20
15.73174761399158
 30
0.0
 10
193.8507292246474
 20
15.73247814044525
 30
0.0
 10
193.9217232089907
 20
15.7295423551416
 30
0.0
 10
193.962427979182
 20
15.73595468772952
 30
0.0
 10
194.000985348991
 20
15.72650524176004
 30
0.0
 10
193.9927342754927
 20
15.76264692158784
 30
0.0
 10
193.9982346669358
 20
15.80129837613227
 30
0.0
 10
193.9955754206163
 20
15.86913528561839
 30
0.0
 10
193.9965815471533
 20
15.9459164153874
 30
0.0
 10
193.9960178018319
 20
16.02849393582757
 30
0.0
 10
193.9970714526592
 20
16.10517329229878
 30
0.0
 10
193.994267586313
 20
16.173319907767
 30
0.0
 10
194.0000702721304
 20
16.21132399809346
 30
0.0
 10
193.9915654551158
 20
16.24758448077646
 30
0.0
 10
194.0255610233125
 20
16.23755723771853
 30
0.0
 10
194.05945756831
 20
16.24073266813706
 30
0.0
 10
194.1126669060346
 20
16.2350896564061
 30
0.0
 10
194.1660768574483
 20
16.23434774436425
 30
0.0
 10
194.199591464949
 20
16.2281922348298
 30
0.0
 10
194.2388086183039
 20
16.23346029773593
 30
0.0
 10
194.2120263698492
 20
16.1925338079349
 30
0.0
 10
194.1708111001723
 20
16.20371204538111
 30
0.0
 10
194.1782641540874
 20
16.15867056192124
 30
0.0
 10
194.1742227952184
 20
16.11412278028144
 30
0.0
 10
194.176171404964
 20
16.04223572621703
 30
0.0
 10
194.1752364849758
 20
15.96168630588771
 30
0.0
 10
194.176510719003
 20
15.88173995404994
 30
0.0
 10
194.1732043793863
 20
15.80841837083183
 30
0.0
 10
194.1802106179961
 20
15.76688643002568
 30
0.0
 10
194.1701440380126
 20
15.72752418568113
 30
0.0
 10
194.2029814803921
 20
15.73468063430981
 30
0.0
 10
194.236457729648
 20
15.73027243137945
 30
0.0
 10
194.2915053476019
 20
15.73217943347897
 30
0.0
 10
194.3489502595314
 20
15.73185366407288
 30
0.0
 10
194.4023026248309
 20
15.73106308733081
 30
0.0
 10
194.4398540896638
 20
15.73313959118074
 30
0.0
 10
194.4623172523237
 20
15.73022338167109
 30
0.0
 10
194.4751678073731
 20
15.73572552644056
 30
0.0
 10
194.4858255685888
 20
15.7380111819779
 30
0.0
 10
194.4986635650143
 20
15.74494972588052
 30
0.0
 10
194.5145991033071
 20
15.72853046313672
 30
0.0
 10
194.5410623920891
 20
15.71709122319449
 30
0.0
 10
194.5726805253757
 20
15.6964468783519
 30
0.0
 10
194.5987255892151
 20
15.68116869628295
 30
0.0
 10
194.6128517723973
 20
15.67266976323184
 30
0.0
 10
194.6170254148479
 20
15.67015871511028
 30
0.0
 11
194.6170254148479
 21
15.67015871511028
 31
0.0
 11
194.6049990002243
 21
15.65473571164188
 31
0.0
 11
194.5848961795564
 21
15.64337406233916
 31
0.0
 11
194.4778986355813
 21
15.42440620231159
 31
0.0
 11
194.3477039934324
 21
15.21317201512161
 31
0.0
 11
194.1996540366071
 21
15.0120605902748
 31
0.0
 11
194.2734958253735
 21
14.96147384935379
 31
0.0
 11
194.36056643118
 21
14.89988411653739
 31
0.0
 11
194.4518003750404
 21
14.83413160594425
 31
0.0
 11
194.5381321779687
 21
14.77105653169304
 31
0.0
 11
194.6104963609786
 21
14.71749910790241
 31
0.0
 11
194.6598274450842
 21
14.68029954869104
 31
0.0
 11
194.6486940702212
 21
14.66471410869494
 31
0.0
 11
194.6221452532402
 21
14.62754882870424
 31
0.0
 11
194.5904579555532
 21
14.58319026871533
 31
0.0
 11
194.5639091385722
 21
14.54602498872462
 31
0.0
 11
194.5527757637092
 21
14.53043954872852
 31
0.0
 11
194.4807013362947
 21
14.59754008690617
 31
0.0
 11
194.385285698538
 21
14.67993354174669
 31
0.0
 11
194.279326415217
 21
14.76785017366916
 31
0.0
 11
194.175621051109
 21
14.85152024309268
 31
0.0
 11
194.175621051109
 21
14.83304687900864
 31
0.0
 11
194.175621051109
 21
14.78162102763956
 31
0.0
 11
194.175621051109
 21
14.70323405030999
 31
0.0
 11
194.175621051109
 21
14.60387730834449
 31
0.0
 11
194.175621051109
 21
14.48954216306761
 31
0.0
 11
194.175621051109
 21
14.36621997580389
 31
0.0
 11
194.175621051109
 21
14.2399021078779
 31
0.0
 11
194.175621051109
 21
14.11657992061419
 31
0.0
 11
194.175621051109
 21
14.0022447753373
 31
0.0
 11
194.175621051109
 21
13.9028880333718
 31
0.0
 11
194.175621051109
 21
13.82450105604223
 31
0.0
 11
194.175621051109
 21
13.77307520467316
 31
0.0
 11
194.175621051109
 21
13.75460184058912
 31
0.0
 11
194.1569720893626
 21
13.75460184058912
 31
0.0
 11
194.1125014882749
 21
13.75460184058912
 31
0.0
 11
194.0594236740736
 21
13.75460184058912
 31
0.0
 11
194.0149530729859
 21
13.75460184058912
 31
0.0
 11
193.9963041112395
 21
13.75460184058912
 31
0.0
 11
193.9963041112395
 21
13.77486797460219
 31
0.0
 11
193.9963041112395
 21
13.83089787452066
 31
0.0
 11
193.9963041112395
 21
13.91553878716347
 31
0.0
 11
193.9963041112395
 21
14.02163795934953
 31
0.0
 11
193.9963041112395
 21
14.14204263789775
 31
0.0
 11
193.9963041112395
 21
14.26960006962705
 31
0.0
 11
193.9963041112395
 21
14.39715750135636
 31
0.0
 11
193.9963041112395
 21
14.51756217990458
 31
0.0
 11
193.9963041112395
 21
14.62366135209064
 31
0.0
 11
193.9963041112395
 21
14.70830226473344
 31
0.0
 11
193.9963041112395
 21
14.76433216465193
 31
0.0
 11
193.9963041112395
 21
14.78459829866499
 31
0.0
 11
193.7883272849481
 21
14.59331998274057
 31
0.0
 11
193.5763486358426
 21
14.43414885430811
 31
0.0
 11
193.5495629014482
 21
14.48814671952096
 31
0.0
 11
193.5138765415023
 21
14.54689140572026
 31
0.0
 11
193.4799697494123
 21
14.59192871537975
 31
0.0
 11
193.6830287742318
 21
14.73563387201052
 31
0.0
 11
193.881853195826
 21
14.91168423529987
 31
0.0
 11
194.0677041444178
 21
15.11327514524949
 31
0.0
 11
194.2318427502303
 21
15.33360194186108
 31
0.0
 11
194.3655301434864
 21
15.56585996513634
 31
0.0
 11
194.3465256724482
 21
15.56585996513634
 31
0.0
 11
194.2944166389562
 21
15.56585996513634
 31
0.0
 11
194.2165596124447
 21
15.56585996513634
 31
0.0
 11
194.1203111623478
 21
15.56585996513634
 31
0.0
 11
194.0130278580997
 21
15.56585996513634
 31
0.0
 11
193.9020662691345
 21
15.56585996513634
 31
0.0
 11
193.7947829648864
 21
15.56585996513634
 31
0.0
 11
193.6985345147895
 21
15.56585996513634
 31
0.0
 11
193.620677488278
 21
15.56585996513634
 31
0.0
 11
193.568568454786
 21
15.56585996513634
 31
0.0
 11
193.5495639837478
 21
15.56585996513634
 31
0.0
 11
193.5495639837478
 21
15.58311199790981
 31
0.0
 11
193.5495639837478
 21
15.62425146067731
 31
0.0
 11
193.5495639837478
 21
15.67335340010949
 31
0.0
 11
193.5495639837478
 21
15.71449286287698
 31
0.0
 11
193.5495639837478
 21
15.73174489565045
 31
0.0
 11
193.5687598486009
 21
15.73174489565045
 31
0.0
 11
193.6193671286684
 21
15.73174489565045
 31
0.0
 11
193.690915352212
 21
15.73174489565045
 31
0.0
 11
193.7729340474937
 21
15.73174489565045
 31
0.0
 11
193.8549527427753
 21
15.73174489565045
 31
0.0
 11
193.9265009663189
 21
15.73174489565045
 31
0.0
 11
193.9771082463864
 21
15.73174489565045
 31
0.0
 11
193.9963041112395
 21
15.73174489565045
 31
0.0
 11
193.9963041112395
 21
15.74926552655218
 31
0.0
 11
193.9963041112395
 21
15.79622081736882
 31
0.0
 11
193.9963041112395
 21
15.86420086526753
 31
0.0
 11
193.9963041112395
 21
15.94479576741549
 31
0.0
 11
193.9963041112395
 21
16.02959562097986
 31
0.0
 11
193.9963041112395
 21
16.11019052312782
 31
0.0
 11
193.9963041112395
 21
16.17817057102653
 31
0.0
 11
193.9963041112395
 21
16.22512586184317
 31
0.0
 11
193.9963041112395
 21
16.2426464927449
 31
0.0
 11
194.0135484112111
 21
16.24165806167519
 31
0.0
 11
194.0566591611401
 21
16.23918698400091
 31
0.0
 11
194.1127031360477
 21
16.23597458302435
 31
0.0
 11
194.1687471109553
 21
16.2327621820478
 31
0.0
 11
194.2118578608843
 21
16.23029110437352
 31
0.0
 11
194.2291021608559
 21
16.22930267330381
 31
0.0
 11
194.2143774674851
 21
16.2055629337264
 31
0.0
 11
194.175621051109
 21
16.19183767331312
 31
0.0
 11
194.175621051109
 21
16.17206806177293
 31
0.0
 11
194.175621051109
 21
16.11994817680333
 31
0.0
 11
194.175621051109
 21
16.04626144288079
 31
0.0
 11
194.175621051109
 21
15.96179128448179
 31
0.0
 11
194.175621051109
 21
15.87732112608278
 31
0.0
 11
194.175621051109
 21
15.80363439216024
 31
0.0
 11
194.175621051109
 21
15.75151450719064
 31
0.0
 11
194.175621051109
 21
15.73174489565045
 31
0.0
 11
194.1916227112935
 21
15.73174489565045
 31
0.0
 11
194.232890150717
 21
15.73174489565045
 31
0.0
 11
194.2893170576837
 21
15.73174489565045
 31
0.0
 11
194.3507971204981
 21
15.73174489565045
 31
0.0
 11
194.4072240274648
 21
15.73174489565045
 31
0.0
 11
194.4484914668882
 21
15.73174489565045
 31
0.0
 11
194.4644931270728
 21
15.73174489565045
 31
0.0
 11
194.4728206422924
 21
15.73451387455921
 31
0.0
 11
194.4882860277004
 21
15.73965626396118
 31
0.0
 11
194.49661354292
 21
15.74242524286994
 31
0.0
 11
194.5091363776005
 21
15.73490952398294
 31
0.0
 11
194.5389985218386
 21
15.71698742509854
 31
0.0
 11
194.5746404359293
 21
15.69559653288168
 31
0.0
 11
194.6045025801674
 21
15.67767443399729
 31
0.0
 11
194.6170254148479
 21
15.67015871511028
 31
0.0
  0
SPLINE
  5
B1
102
{ACAD_REACTORS
330
CE
102
}
330
48
100
AcDbEntity
  8
_U_30EC_U_30A4_U_30E4_U_30FC_1
  6
Continuous
 62
     2
100
AcDbSpline
210
0.0
220
0.0
230
1.0
 70
    11
 71
     3
 72
   124
 73
   120
 74
   118
 42
0.000000001
 43
0.0000000001
 44
0.00000001
 40
0.0
 40
0.0
 40
0.0
 40
0.0
 40
0.027818722962451
 40
0.1011590162384269
 40
0.2048470170590239
 40
0.3237088716559245
 40
0.4425707262522
 40
0.5462587270699547
 40
0.6195990203311798
 40
0.647417752257866
 40
0.6750060736115224
 40
0.7357003855242759
 40
0.7963946998054492
 40
0.8239830245571784
 40
0.8540933811102878
 40
0.9373396629409558
 40
1.063094687343208
 40
1.220731268638046
 40
1.399622220914721
 40
1.589140358637706
 40
1.778658496423815
 40
1.957549448940454
 40
2.115186030873075
 40
2.240941056914379
 40
2.324187341760449
 40
2.354297700109298
 40
2.381886024671805
 40
2.442580338710393
 40
2.503274652750417
 40
2.530862977314524
 40
2.560983949278477
 40
2.640393784452823
 40
2.752662861759018
 40
2.881361560118006
 40
3.010060258455025
 40
3.122329335705172
 40
3.201739170817786
 40
3.231860142753146
 40
3.264298024030201
 40
3.352343701778072
 40
3.482095226868593
 40
3.639650650172851
 40
3.811108022565306
 40
3.982565394927811
 40
4.140120818152391
 40
4.269872343141098
 40
4.357918020802159
 40
4.390355902043788
 40
4.423256253992357
 40
4.508104530072878
 40
4.624121560636646
 40
4.750528176031403
 40
4.86654520660185
 40
4.951393482691807
 40
4.984293834645208
 40
5.011450833242125
 40
5.071196230151915
 40
5.130941627056994
 40
5.158098625648662
 40
5.190998977601352
 40
5.275847253689178
 40
5.391864284256612
 40
5.518270899648157
 40
5.634287930209196
 40
5.71913620628787
 40
5.752036558235758
 40
5.782130946282783
 40
5.862783906228958
 40
5.979550131774825
 40
6.117984316640231
 40
6.263641154587776
 40
6.402075339413982
 40
6.518841564907777
 40
6.599494524815358
 40
6.629588912848596
 40
6.654403028226172
 40
6.713575149487939
 40
6.784199939329256
 40
6.843372060493358
 40
6.868186175802604
 40
6.896246243201684
 40
6.939586233758081
 40
6.967846564564709
 40
7.043584251089647
 40
7.153234334451505
 40
7.283231855734255
 40
7.420011856035289
 40
7.550009376579641
 40
7.65965945883504
 40
7.735397144417033
 40
7.763657474851205
 40
7.796409728010862
 40
7.880876065096136
 40
7.996370852465522
 40
8.122208446418417
 40
8.237703224799011
 40
8.322169562010705
 40
8.354921815205719
 40
8.382078813307501
 40
8.44182420920681
 40
8.501569605239965
 40
8.528726603485545
 40
8.561478856695594
 40
8.645945193877644
 40
8.761439980865156
 40
8.887277580764298
 40
9.002772362000819
 40
9.08723869666104
 40
9.119990949235493
 40
9.152428830613191
 40
9.240474508638407
 40
9.370226034149354
 40
9.527781457984236
 40
9.699238830981225
 40
9.870696203978413
 40
10.02825162781383
 40
10.15800315332545
 40
10.246048831351
 40
10.27848670378502
 40
10.27848670378502
 40
10.27848670378502
 40
10.27848670378502
 10
195.3821827564383
 20
14.01410517385757
 30
0.0
 10
195.3914554737523
 20
14.01410498511274
 30
0.0
 10
195.4251744536861
 20
14.01410430876714
 30
0.0
 10
195.4934706812465
 20
14.01411807243305
 30
0.0
 10
195.592014171158
 20
14.01403224219544
 30
0.0
 10
195.7062066464812
 20
14.01441755612251
 30
0.0
 10
195.818589441707
 20
14.01300835897545
 30
0.0
 10
195.9214376600118
 20
14.01719117422243
 30
0.0
 10
195.9806839874849
 20
14.00823089251983
 30
0.0
 10
196.0371265937032
 20
14.02164434526061
 30
0.0
 10
196.0246255586955
 20
13.97087198613361
 30
0.0
 10
196.0329549635704
 20
13.92589320939067
 30
0.0
 10
196.0248170841119
 20
13.88056752990488
 30
0.0
 10
196.0370529214457
 20
13.82931932408466
 30
0.0
 10
195.9747773490333
 20
13.84447955365276
 30
0.0
 10
195.9060513026868
 20
13.83359750710743
 30
0.0
 10
195.7782756749592
 20
13.83911304747972
 30
0.0
 10
195.6262984511643
 20
13.83700851253698
 30
0.0
 10
195.4502695972523
 20
13.83771002588473
 30
0.0
 10
195.2644431934287
 20
13.83745237531291
 30
0.0
 10
195.0786167437176
 20
13.83771005144603
 30
0.0
 10
194.9025880142169
 20
13.83700841847731
 30
0.0
 10
194.7506104154195
 20
13.83911332229988
 30
0.0
 10
194.6228357664555
 20
13.8335968076764
 30
0.0
 10
194.5541077836581
 20
13.84448077125942
 30
0.0
 10
194.4918349042884
 20
13.82931786684209
 30
0.0
 10
194.5040616290018
 20
13.88057510805171
 30
0.0
 10
194.4960004462598
 20
13.92582473272425
 30
0.0
 10
194.5040675809893
 20
13.97106357955323
 30
0.0
 10
194.4918238487084
 20
14.02234176909958
 30
0.0
 10
194.5525017120698
 20
14.00749577363134
 30
0.0
 10
194.6162810745737
 20
14.01756448170736
 30
0.0
 10
194.7277314353503
 20
14.01294644211999
 30
0.0
 10
194.8497533443823
 20
14.01413328905469
 30
0.0
 10
194.9719538137824
 20
14.01515863900634
 30
0.0
 10
195.0829794287392
 20
14.01092475623402
 30
0.0
 10
195.1476517413959
 20
14.02018584521739
 30
0.0
 10
195.2091162810501
 20
14.00604423049682
 30
0.0
 10
195.1930065601337
 20
14.07235527884517
 30
0.0
 10
195.2042980327358
 20
14.14447790121975
 30
0.0
 10
195.198740082256
 20
14.27513760888285
 30
0.0
 10
195.200803506169
 20
14.42607323708241
 30
0.0
 10
195.2000167127295
 20
14.59335873107885
 30
0.0
 10
195.2007845215628
 20
14.76061110332302
 30
0.0
 10
195.1988038785628
 20
14.91163289269912
 30
0.0
 10
195.2041306156621
 20
15.04206069552994
 30
0.0
 10
195.1933101388425
 20
15.11465442605898
 30
0.0
 10
195.2090326429875
 20
15.18150469436797
 30
0.0
 10
195.143270813249
 20
15.16580512490823
 30
0.0
 10
195.0756367830764
 20
15.17609243083994
 30
0.0
 10
194.9615885293809
 20
15.17113786847121
 30
0.0
 10
194.8451242674902
 20
15.17414128030474
 30
0.0
 10
194.7306554121477
 20
15.16880303143387
 30
0.0
 10
194.6640324657812
 20
15.18001268074824
 30
0.0
 10
194.5990769715185
 20
15.1634913266501
 30
0.0
 10
194.6107989758708
 20
15.21473720477058
 30
0.0
 10
194.6032830189121
 20
15.25950333784091
 30
0.0
 10
194.6107989878835
 20
15.30426944897961
 30
0.0
 10
194.5990769505346
 20
15.35551536129741
 30
0.0
 10
194.66403263392
 20
15.33899381766816
 30
0.0
 10
194.7306533339822
 20
15.35020571373943
 30
0.0
 10
194.8451352858063
 20
15.34485436710665
 30
0.0
 10
194.9615454436962
 20
15.34791188771117
 30
0.0
 10
195.0757660174641
 20
15.34278499010708
 30
0.0
 10
195.1430150439227
 20
15.35345733355598
 30
0.0
 10
195.2083325941438
 20
15.33742082669077
 30
0.0
 10
195.1941391448553
 20
15.39949685750054
 30
0.0
 10
195.2036059462994
 20
15.46586761628762
 30
0.0
 10
195.1990269004085
 20
15.58239972741966
 30
0.0
 10
195.2007696555948
 20
15.71426685022376
 30
0.0
 10
195.1997551495391
 20
15.85615960150273
 30
0.0
 10
195.2017191344373
 20
15.9876905070258
 30
0.0
 10
195.1964668553851
 20
16.10524577283002
 30
0.0
 10
195.2073408763474
 20
16.16947789001584
 30
0.0
 10
195.1919536641853
 20
16.23108802545047
 30
0.0
 10
195.24075915378
 20
16.21702407382111
 30
0.0
 10
195.2853995564726
 20
16.21954742075314
 30
0.0
 10
195.3538643946742
 20
16.2151279740171
 30
0.0
 10
195.3959106169102
 20
16.20613025544035
 30
0.0
 10
195.4487544758775
 20
16.2141171486651
 30
0.0
 10
195.4207035002014
 20
16.17113917611674
 30
0.0
 10
195.3749142248594
 20
16.18259552043837
 30
0.0
 10
195.3869539073264
 20
16.12173520005137
 30
0.0
 10
195.3796086070641
 20
16.05769299468773
 30
0.0
 10
195.3831195826162
 20
15.94909368863911
 30
0.0
 10
195.3819806760173
 20
15.82494319144753
 30
0.0
 10
195.3819174780263
 20
15.69189719829878
 30
0.0
 10
195.3832872966867
 20
15.56797381249555
 30
0.0
 10
195.3791638801314
 20
15.45868337849339
 30
0.0
 10
195.3877763103564
 20
15.3960858009417
 30
0.0
 10
195.3746757454401
 20
15.33740133296365
 30
0.0
 10
195.4393884328198
 20
15.35362113810902
 30
0.0
 10
195.5060405953155
 20
15.34270260383311
 30
0.0
 10
195.6198779541103
 20
15.34793740173756
 30
0.0
 10
195.7357259122097
 20
15.34485547516913
 30
0.0
 10
195.849692426328
 20
15.35018259812512
 30
0.0
 10
195.9160341018099
 20
15.33904208166543
 30
0.0
 10
195.980718852548
 20
15.35546979593178
 30
0.0
 10
195.9689820772722
 20
15.3042592521005
 30
0.0
 10
195.976516806304
 20
15.25950334121
 30
0.0
 10
195.9689820992258
 20
15.21474739010026
 30
0.0
 10
195.9807188140736
 20
15.16353690871039
 30
0.0
 10
195.9160344075252
 20
15.17996427794219
 30
0.0
 10
195.8496886430824
 20
15.16882784447268
 30
0.0
 10
195.7357459487012
 20
15.17413115893119
 30
0.0
 10
195.6197995623054
 20
15.17114764593543
 30
0.0
 10
195.5062756882122
 20
15.17606892268392
 30
0.0
 10
195.4389231318804
 20
15.16585087513518
 30
0.0
 10
195.3734285122495
 20
15.18145996138814
 30
0.0
 10
195.3891713619218
 20
15.1146385182741
 30
0.0
 10
195.3783275998213
 20
15.04207057815878
 30
0.0
 10
195.3836581629793
 20
14.91162247614415
 30
0.0
 10
195.3817136151855
 20
14.76064558185225
 30
0.0
 10
195.3823133683215
 20
14.59322243934158
 30
0.0
 10
195.3821506559604
 20
14.42656176118371
 30
0.0
 10
195.3821895488136
 20
14.27360142921636
 30
0.0
 10
195.3821816413099
 20
14.14849178985705
 30
0.0
 10
195.3821828382744
 20
14.06507890991419
 30
0.0
 10
195.3821827716208
 20
14.02491778281976
 30
0.0
 10
195.3821827564383
 20
14.01410517385757
 30
0.0
 11
195.3821827564383
 21
14.01410517385757
 31
0.0
 11
195.4100014883675
 21
14.01410517385757
 31
0.0
 11
195.4833417816353
 21
14.01410517385757
 31
0.0
 11
195.5870297824622
 21
14.01410517385757
 31
0.0
 11
195.7058916370687
 21
14.01410517385757
 31
0.0
 11
195.8247534916751
 21
14.01410517385757
 31
0.0
 11
195.928441492502
 21
14.01410517385757
 31
0.0
 11
196.0017817857698
 21
14.01410517385757
 31
0.0
 11
196.029600517699
 21
14.01410517385757
 31
0.0
 11
196.029600517699
 21
13.9865168492117
 31
0.0
 11
196.029600517699
 21
13.92582253499077
 31
0.0
 11
196.029600517699
 21
13.86512822076984
 31
0.0
 11
196.029600517699
 21
13.83753989612397
 31
0.0
 11
195.9994901593494
 21
13.83753989612397
 31
0.0
 11
195.9162438745004
 21
13.83753989612397
 31
0.0
 11
195.7904888484521
 21
13.83753989612397
 31
0.0
 11
195.6328522665042
 21
13.83753989612397
 31
0.0
 11
195.4539613139565
 21
13.83753989612397
 31
0.0
 11
195.2644431761089
 21
13.83753989612397
 31
0.0
 11
195.0749250382613
 21
13.83753989612397
 31
0.0
 11
194.8960340857137
 21
13.83753989612397
 31
0.0
 11
194.7383975037657
 21
13.83753989612397
 31
0.0
 11
194.6126424777173
 21
13.83753989612397
 31
0.0
 11
194.5293961928684
 21
13.83753989612397
 31
0.0
 11
194.4992858345188
 21
13.83753989612397
 31
0.0
 11
194.4992858345188
 21
13.86512822076984
 31
0.0
 11
194.4992858345188
 21
13.92582253499077
 31
0.0
 11
194.4992858345188
 21
13.9865168492117
 31
0.0
 11
194.4992858345188
 21
14.01410517385757
 31
0.0
 11
194.5294068064948
 21
14.01410517385757
 31
0.0
 11
194.6088166417041
 21
14.01410517385757
 31
0.0
 11
194.7210857190691
 21
14.01410517385757
 31
0.0
 11
194.8497844175118
 21
14.01410517385757
 31
0.0
 11
194.9784831159545
 21
14.01410517385757
 31
0.0
 11
195.0907521933195
 21
14.01410517385757
 31
0.0
 11
195.1701620285289
 21
14.01410517385757
 31
0.0
 11
195.2002830005048
 21
14.01410517385757
 31
0.0
 11
195.2002830005048
 21
14.04654305523835
 31
0.0
 11
195.2002830005048
 21
14.1345887332719
 31
0.0
 11
195.2002830005048
 21
14.26434025879502
 31
0.0
 11
195.2002830005048
 21
14.42189568264453
 31
0.0
 11
195.2002830005048
 21
14.59335305565723
 31
0.0
 11
195.2002830005048
 21
14.76481042866993
 31
0.0
 11
195.2002830005048
 21
14.92236585251944
 31
0.0
 11
195.2002830005048
 21
15.05211737804256
 31
0.0
 11
195.2002830005048
 21
15.14016305607611
 31
0.0
 11
195.2002830005048
 21
15.17260093745689
 31
0.0
 11
195.1673826485529
 21
15.17260093745689
 31
0.0
 11
195.0825343724662
 21
15.17260093745689
 31
0.0
 11
194.9665173418988
 21
15.17260093745689
 31
0.0
 11
194.8401107265044
 21
15.17260093745689
 31
0.0
 11
194.724093695937
 21
15.17260093745689
 31
0.0
 11
194.6392454198503
 21
15.17260093745689
 31
0.0
 11
194.6063450678984
 21
15.17260093745689
 31
0.0
 11
194.6063450678984
 21
15.19975793614802
 31
0.0
 11
194.6063450678984
 21
15.2595033332685
 31
0.0
 11
194.6063450678984
 21
15.31924873038897
 31
0.0
 11
194.6063450678984
 21
15.3464057290801
 31
0.0
 11
194.6392454198504
 21
15.3464057290801
 31
0.0
 11
194.724093695937
 21
15.3464057290801
 31
0.0
 11
194.8401107265044
 21
15.3464057290801
 31
0.0
 11
194.9665173418988
 21
15.3464057290801
 31
0.0
 11
195.0825343724662
 21
15.3464057290801
 31
0.0
 11
195.1673826485529
 21
15.3464057290801
 31
0.0
 11
195.2002830005048
 21
15.3464057290801
 31
0.0
 11
195.2002830005048
 21
15.3765001173137
 31
0.0
 11
195.2002830005048
 21
15.45715307777974
 31
0.0
 11
195.2002830005048
 21
15.57391930412609
 31
0.0
 11
195.2002830005048
 21
15.71235349000063
 31
0.0
 11
195.2002830005048
 21
15.85801032905124
 31
0.0
 11
195.2002830005048
 21
15.99644451492578
 31
0.0
 11
195.2002830005048
 21
16.11321074127214
 31
0.0
 11
195.2002830005048
 21
16.19386370173817
 31
0.0
 11
195.2002830005048
 21
16.22395808997177
 31
0.0
 11
195.2250405288618
 21
16.22228324219442
 31
0.0
 11
195.2840777118669
 21
16.21828937441765
 31
0.0
 11
195.3545414464214
 21
16.21352249997441
 31
0.0
 11
195.4135786294265
 21
16.20952863219765
 31
0.0
 11
195.4383361577835
 21
16.20785378442029
 31
0.0
 11
195.423306722403
 21
16.1841581420651
 31
0.0
 11
195.3821827564383
 21
16.17047697887404
 31
0.0
 11
195.3821827564383
 21
16.14221664794832
 31
0.0
 11
195.3821827564383
 21
16.0664789610674
 31
0.0
 11
195.3821827564383
 21
15.95682887707561
 31
0.0
 11
195.3821827564383
 21
15.82683135481731
 31
0.0
 11
195.3821827564383
 21
15.69005135313683
 31
0.0
 11
195.3821827564383
 21
15.56005383087853
 31
0.0
 11
195.3821827564383
 21
15.45040374688674
 31
0.0
 11
195.3821827564383
 21
15.37466606000582
 31
0.0
 11
195.3821827564383
 21
15.3464057290801
 31
0.0
 11
195.4149350096115
 21
15.3464057290801
 31
0.0
 11
195.4994013467422
 21
15.3464057290801
 31
0.0
 11
195.6148961342476
 21
15.3464057290801
 31
0.0
 11
195.7407337385445
 21
15.3464057290801
 31
0.0
 11
195.8562285260498
 21
15.3464057290801
 31
0.0
 11
195.9406948631806
 21
15.3464057290801
 31
0.0
 11
195.9734471163538
 21
15.3464057290801
 31
0.0
 11
195.9734471163538
 21
15.31924873038897
 31
0.0
 11
195.9734471163538
 21
15.2595033332685
 31
0.0
 11
195.9734471163538
 21
15.19975793614802
 31
0.0
 11
195.9734471163538
 21
15.17260093745689
 31
0.0
 11
195.9406948631806
 21
15.17260093745689
 31
0.0
 11
195.8562285260498
 21
15.17260093745689
 31
0.0
 11
195.7407337385445
 21
15.17260093745689
 31
0.0
 11
195.6148961342476
 21
15.17260093745689
 31
0.0
 11
195.4994013467422
 21
15.17260093745689
 31
0.0
 11
195.4149350096114
 21
15.17260093745689
 31
0.0
 11
195.3821827564383
 21
15.17260093745689
 31
0.0
 11
195.3821827564383
 21
15.14016305607611
 31
0.0
 11
195.3821827564383
 21
15.05211737804256
 31
0.0
 11
195.3821827564383
 21
14.92236585251944
 31
0.0
 11
195.3821827564383
 21
14.76481042866993
 31
0.0
 11
195.3821827564383
 21
14.59335305565723
 31
0.0
 11
195.3821827564383
 21
14.42189568264453
 31
0.0
 11
195.3821827564383
 21
14.26434025879503
 31
0.0
 11
195.3821827564383
 21
14.1345887332719
 31
0.0
 11
195.3821827564383
 21
14.04654305523835
 31
0.0
 11
195.3821827564383
 21
14.01410517385757
 31
0.0
  0
SPLINE
  5
B2
102
{ACAD_REACTORS
330
CF
102
}
330
48
100
AcDbEntity
  8
_U_30EC_U_30A4_U_30E4_U_30FC_1
  6
Continuous
 62
     2
100
AcDbSpline
210
0.0
220
0.0
230
1.0
 70
     8
 71
     3
 72
    62
 73
    58
 74
    56
 42
0.000000001
 43
0.0000000001
 44
0.00000001
 40
0.0
 40
0.0
 40
0.0
 40
0.0
 40
0.0598250028309053
 40
0.2024846486898184
 40
0.3727558389222168
 40
0.5154154847937491
 40
0.5752404975787329
 40
0.9332326775489342
 40
1.290451762839701
 40
1.602077253146122
 40
1.699931634112392
 40
1.799359756425297
 40
2.270120149657336
 40
2.804661928461804
 40
2.882342287383517
 40
3.076543185719367
 40
3.329004354835834
 40
3.581465524568662
 40
3.775666424543949
 40
3.853346784558569
 40
3.899120679595315
 40
3.984129341792199
 40
4.029903236817548
 40
4.105797496059704
 40
4.295533144152664
 40
4.542189486611905
 40
4.788845828875852
 40
4.978581476410238
 40
5.05447573524448
 40
5.621734664339529
 40
6.13086724203758
 40
6.225249780948843
 40
6.31891303972757
 40
6.663579954559284
 40
7.047498900225135
 40
7.435230791576048
 40
7.49894390666846
 40
7.650875181210454
 40
7.832212509001964
 40
7.98414378369735
 40
8.047856898903477
 40
8.091554632732983
 40
8.172707566964641
 40
8.216405300768363
 40
8.289021782161248
 40
8.462184160757621
 40
8.668861838005787
 40
8.842024215264379
 40
8.914640695475603
 40
8.98988158086181
 40
9.15541152882772
 40
9.320941477744508
 40
9.396182352487761
 40
9.454709011144251
 40
9.583467660171271
 40
9.712226309013493
 40
9.770752957989975
 40
9.770752957989975
 40
9.770752957989975
 40
9.770752957989975
 10
187.1521871691834
 20
14.93980288195949
 30
0.0
 10
187.1322348171624
 20
14.93980875568671
 30
0.0
 10
187.0647037716466
 20
14.93982863806156
 30
0.0
 10
186.9410612161788
 20
14.93949362520325
 30
0.0
 10
186.7863180150056
 20
14.94107673750511
 30
0.0
 10
186.6697349482479
 20
14.93686078860494
 30
0.0
 10
186.4550942634239
 20
14.95215205331627
 30
0.0
 10
186.8518948407228
 20
14.59198721286191
 30
0.0
 10
186.8945656069267
 20
14.37510503397167
 30
0.0
 10
187.3189162146612
 20
14.19325062511444
 30
0.0
 10
187.1439821496074
 20
14.08985196568075
 30
0.0
 10
187.0194523925084
 20
13.87831523212719
 30
0.0
 10
186.7666277235943
 20
14.34806081001565
 30
0.0
 10
186.4797602893627
 20
14.99511516984523
 30
0.0
 10
186.490633592666
 20
14.68782672154695
 30
0.0
 10
186.488289277796
 20
14.5228861697178
 30
0.0
 10
186.4861096126411
 20
14.28879670711694
 30
0.0
 10
186.4980774396346
 20
14.04498072421783
 30
0.0
 10
186.4687984740631
 20
13.89855796860985
 30
0.0
 10
186.511452262547
 20
13.75113490174538
 30
0.0
 10
186.423981400564
 20
13.7668579730622
 30
0.0
 10
186.3768527606745
 20
13.76694303543454
 30
0.0
 10
186.2898973207714
 20
13.75109425482909
 30
0.0
 10
186.3313474021724
 20
13.89527771422762
 30
0.0
 10
186.3029875004286
 20
14.03855052698456
 30
0.0
 10
186.31459737753
 20
14.27674947365264
 30
0.0
 10
186.3124175648273
 20
14.50517235240346
 30
0.0
 10
186.3103111127994
 20
14.66705729375994
 30
0.0
 10
186.3208035438325
 20
14.98153709333754
 30
0.0
 10
186.0128963252894
 20
14.29229470872433
 30
0.0
 10
185.7055258267455
 20
13.81476750243054
 30
0.0
 10
185.5851367066274
 20
14.03741112637427
 30
0.0
 10
185.407460791072
 20
14.15011034955563
 30
0.0
 10
185.8853326362895
 20
14.32548143465457
 30
0.0
 10
185.9353959057208
 20
14.5609192925203
 30
0.0
 10
186.3583799621717
 20
14.95322989344606
 30
0.0
 10
186.127675427354
 20
14.93655307029065
 30
0.0
 10
186.004968585934
 20
14.9426951894877
 30
0.0
 10
185.8325483095661
 20
14.93312822699573
 30
0.0
 10
185.721322469445
 20
14.95448818489666
 30
0.0
 10
185.6025779627447
 20
14.92136265357418
 30
0.0
 10
185.6183169706686
 20
15.00203900606883
 30
0.0
 10
185.6178550933762
 20
15.04645414290853
 30
0.0
 10
185.6027881889931
 20
15.12967081778532
 30
0.0
 10
185.7372380935443
 20
15.09062651983882
 30
0.0
 10
185.8619755545746
 20
15.11739729328421
 30
0.0
 10
186.0628755237281
 20
15.10063949044051
 30
0.0
 10
186.1921540949354
 20
15.12204225913003
 30
0.0
 10
186.3328419928296
 20
15.08868778853419
 30
0.0
 10
186.2980927452617
 20
15.22651875785067
 30
0.0
 10
186.3222185666713
 20
15.34963257349481
 30
0.0
 10
186.2967086182393
 20
15.47024055670334
 30
0.0
 10
186.3333251146686
 20
15.60539865141493
 30
0.0
 10
186.2211417027771
 20
15.58094545781891
 30
0.0
 10
186.1280356457137
 20
15.59307749842022
 30
0.0
 10
186.0191547579821
 20
15.58957630069994
 30
0.0
 10
185.9569697640965
 20
15.58981755951602
 30
0.0
 10
185.9375369557247
 20
15.58989295124144
 30
0.0
 11
187.1521871691834
 21
14.93980288195949
 31
0.0
 11
187.0923621563983
 21
14.93980288195949
 31
0.0
 11
186.949702510526
 21
14.93980288195949
 31
0.0
 11
186.7794313202913
 21
14.93980288195949
 31
0.0
 11
186.6367716744191
 21
14.93980288195949
 31
0.0
 11
186.5769466616339
 21
14.93980288195949
 31
0.0
 11
186.7679960754842
 21
14.6370512796689
 31
0.0
 11
186.9941272785629
 21
14.36051890576684
 31
0.0
 11
187.2244526173371
 21
14.15061253493457
 31
0.0
 11
187.1521596330703
 21
14.08466403668717
 31
0.0
 11
187.0879364402643
 21
14.0087605905256
 31
0.0
 11
186.7732818215558
 21
14.35891458349363
 31
0.0
 11
186.4886640249976
 21
14.81138295143602
 31
0.0
 11
186.4886640249976
 21
14.73370259137314
 31
0.0
 11
186.4886640249976
 21
14.53950169121594
 31
0.0
 11
186.4886640249976
 21
14.28704052101157
 31
0.0
 11
186.4886640249976
 21
14.03457935080721
 31
0.0
 11
186.4886640249976
 21
13.84037845065
 31
0.0
 11
186.4886640249976
 21
13.76269809058712
 31
0.0
 11
186.4428901295605
 21
13.76269809058712
 31
0.0
 11
186.3578814666059
 21
13.76269809058712
 31
0.0
 11
186.3121075711688
 21
13.76269809058712
 31
0.0
 11
186.3121075711688
 21
13.8385923498274
 31
0.0
 11
186.3121075711688
 21
14.02832799792811
 31
0.0
 11
186.3121075711688
 21
14.27498434045904
 31
0.0
 11
186.3121075711688
 21
14.52164068298996
 31
0.0
 11
186.3121075711688
 21
14.71137633109067
 31
0.0
 11
186.3121075711688
 21
14.78727059033095
 31
0.0
 11
185.9987626399267
 21
14.31440946197693
 31
0.0
 11
185.6352328662148
 21
13.95795177109382
 31
0.0
 11
185.5773927461627
 21
14.03253450545022
 31
0.0
 11
185.509485230534
 21
14.09704322939241
 31
0.0
 11
185.7750721898319
 21
14.31672219795889
 31
0.0
 11
186.0233764972061
 21
14.60953395971697
 31
0.0
 11
186.226498280526
 21
14.93980288195949
 31
0.0
 11
186.1627851652721
 21
14.93980288195949
 31
0.0
 11
186.0108538904359
 21
14.93980288195949
 31
0.0
 11
185.8295165624055
 21
14.93980288195949
 31
0.0
 11
185.6775852875693
 21
14.93980288195949
 31
0.0
 11
185.6138721723154
 21
14.93980288195949
 31
0.0
 11
185.6138721723154
 21
14.98350061600207
 31
0.0
 11
185.6138721723154
 21
15.06465355065258
 31
0.0
 11
185.6138721723154
 21
15.10835128469516
 31
0.0
 11
185.6864886537961
 21
15.10835128469516
 31
0.0
 11
185.8596510327118
 21
15.10835128469516
 31
0.0
 11
186.0663287107724
 21
15.10835128469516
 31
0.0
 11
186.239491089688
 21
15.10835128469516
 31
0.0
 11
186.3121075711688
 21
15.10835128469516
 31
0.0
 11
186.3121075711688
 21
15.18359217009302
 31
0.0
 11
186.3121075711688
 21
15.3491221179683
 31
0.0
 11
186.3121075711688
 21
15.51465206584358
 31
0.0
 11
186.3121075711688
 21
15.58989295124144
 31
0.0
 11
186.2535809125057
 21
15.58989295124144
 31
0.0
 11
186.1248222634468
 21
15.58989295124144
 31
0.0
 11
185.9960636143879
 21
15.58989295124144
 31
0.0
 11
185.9375369557247
 21
15.58989295124144
 31
0.0
  0
SPLINE
  5
B3
102
{ACAD_REACTORS
330
CF
102
}
330
48
100
AcDbEntity
  8
_U_30EC_U_30A4_U_30E4_U_30FC_1
  6
Continuous
 62
     2
100
AcDbSpline
210
0.0
220
0.0
230
1.0
 70
     8
 71
     3
 72
    70
 73
    66
 74
    64
 42
0.000000001
 43
0.0000000001
 44
0.00000001
 40
0.0
 40
0.0
 40
0.0
 40
0.0
 40
0.0241731073021472
 40
0.0846058988987582
 40
0.1631685280353852
 40
0.2417311571790608
 40
0.302163948829332
 40
0.3263370654896678
 40
0.3533118254250018
 40
0.4228783438923248
 40
0.5179999095314539
 40
0.6216398239467239
 40
0.7167613891500842
 40
0.7863279069651
 40
0.8133026791762973
 40
0.837294399877281
 40
0.8945054261373439
 40
0.9627895541962925
 40
1.020000580349074
 40
1.043992300975172
 40
1.071934345522917
 40
1.113121768772903
 40
1.145225199332228
 40
1.225483775412763
 40
1.329819923771471
 40
1.434156071994361
 40
1.514414647795782
 40
1.54651807820839
 40
1.578974764260164
 40
1.662678849314159
 40
1.777131373668379
 40
1.90183337747477
 40
2.01628590050056
 40
2.099989982527927
 40
2.132446666570286
 40
2.158782354486008
 40
2.216720867907799
 40
2.274659381334222
 40
2.300995069256156
 40
2.333451754066128
 40
2.417155836543809
 40
2.531608358985248
 40
2.656310362283743
 40
2.770762886388876
 40
2.854466971340041
 40
2.886923657363847
 40
2.913597976833281
 40
2.982389642875089
 40
3.076451716946953
 40
3.178937260458569
 40
3.272999334739974
 40
3.341791001059199
 40
3.368465320663511
 40
3.396976080738761
 40
3.472140811845997
 40
3.578408190308687
 40
3.700226892456151
 40
3.822045594634397
 40
3.928312973256532
 40
4.003477705314929
 40
4.031988456866995
 40
4.058324144797793
 40
4.116262658236955
 40
4.174201171400752
 40
4.200536849608686
 40
4.200536849608686
 40
4.200536849608686
 40
4.200536849608686
 10
185.9857704961609
 20
15.75844135397705
 30
0.0
 10
185.9938259544679
 20
15.75844359811686
 30
0.0
 10
186.0220200663241
 20
15.75845146032797
 30
0.0
 10
186.0765534803673
 20
15.75830754828372
 30
0.0
 10
186.1482891808604
 20
15.75909120499898
 30
0.0
 10
186.2236240137062
 20
15.7562757046381
 30
0.0
 10
186.2713052366439
 20
15.76298403400958
 30
0.0
 10
186.3195071245617
 20
15.75197563692431
 30
0.0
 10
186.3062571799875
 20
15.80546402997033
 30
0.0
 10
186.3151093964539
 20
15.86049583543092
 30
0.0
 10
186.3108698036287
 20
15.95419908726109
 30
0.0
 10
186.313348348128
 20
16.04959482218532
 30
0.0
 10
186.3090938706062
 20
16.14356821983387
 30
0.0
 10
186.3179818665847
 20
16.19795062438012
 30
0.0
 10
186.3046977409946
 20
16.25233997691461
 30
0.0
 10
186.351411927711
 20
16.23842216335358
 30
0.0
 10
186.3943254545738
 20
16.24103877374043
 30
0.0
 10
186.4605443456686
 20
16.23648422450755
 30
0.0
 10
186.5013342271798
 20
16.22778162134162
 30
0.0
 10
186.5525145690819
 20
16.23531799890194
 30
0.0
 10
186.52537204872
 20
16.19349970223287
 30
0.0
 10
186.4803096055707
 20
16.20284992072595
 30
0.0
 10
186.4942065045051
 20
16.13841207371837
 30
0.0
 10
186.4858414431653
 20
16.07378219627399
 30
0.0
 10
186.4903632178398
 20
15.97529141193887
 30
0.0
 10
186.4854741311167
 20
15.8759593284257
 30
0.0
 10
186.4950258992082
 20
15.81293115552969
 30
0.0
 10
186.47997614552
 20
15.74964011499788
 30
0.0
 10
186.5449159457208
 20
15.76515072944269
 30
0.0
 10
186.6116246399497
 20
15.75499387697812
 30
0.0
 10
186.7241435470827
 20
15.75988800099367
 30
0.0
 10
186.8390235448954
 20
15.75691204732784
 30
0.0
 10
186.9519871999747
 20
15.76221664184991
 30
0.0
 10
187.0176267597677
 20
15.75107306472089
 30
0.0
 10
187.0816276691053
 20
15.76744532319857
 30
0.0
 10
187.0703142889189
 20
15.71761689905274
 30
0.0
 10
187.077533987151
 20
15.67416715212123
 30
0.0
 10
187.0703142611268
 20
15.63071745587445
 30
0.0
 10
187.0816277175994
 20
15.58088895196876
 30
0.0
 10
187.0176263598971
 20
15.59726166091362
 30
0.0
 10
186.951992124046
 20
15.58611271661588
 30
0.0
 10
186.838997431733
 20
15.59144857206854
 30
0.0
 10
186.7242456548644
 20
15.58834345663822
 30
0.0
 10
186.611318368686
 20
15.59364894682588
 30
0.0
 10
186.5455220903585
 20
15.58257300019593
 30
0.0
 10
186.4816097975358
 20
15.59887597847618
 30
0.0
 10
186.4936015165126
 20
15.54423524395742
 30
0.0
 10
186.4862104613005
 20
15.48854295047841
 30
0.0
 10
186.4892684841983
 20
15.3964968914057
 30
0.0
 10
186.4893422785682
 20
15.301791098731
 30
0.0
 10
186.4860313578361
 20
15.20952782902265
 30
0.0
 10
186.4939505989904
 20
15.15435768736138
 30
0.0
 10
186.4815076611617
 20
15.10058169100134
 30
0.0
 10
186.5389116551632
 20
15.1145376886278
 30
0.0
 10
186.5994708140383
 20
15.10511457884225
 30
0.0
 10
186.7048680855081
 20
15.10942885928704
 30
0.0
 10
186.8204294070623
 20
15.10835504612031
 30
0.0
 10
186.9359688877797
 20
15.10725965900993
 30
0.0
 10
187.0414181130843
 20
15.11162525770632
 30
0.0
 10
187.1018680471805
 20
15.10209426030669
 30
0.0
 10
187.1592837739111
 20
15.11617289606379
 30
0.0
 10
187.1477773876711
 20
15.06707153265681
 30
0.0
 10
187.1537566781749
 20
15.02564658018648
 30
0.0
 10
187.1520311050804
 20
14.97651677966694
 30
0.0
 10
187.1521500122972
 20
14.94854428447607
 30
0.0
 10
187.1521871691834
 20
14.93980288195949
 30
0.0
 11
185.9857704961609
 21
15.75844135397705
 31
0.0
 11
186.0099436128282
 21
15.75844135397705
 31
0.0
 11
186.0703764044963
 21
15.75844135397705
 31
0.0
 11
186.1489390336649
 21
15.75844135397705
 31
0.0
 11
186.2275016628334
 21
15.75844135397705
 31
0.0
 11
186.2879344545015
 21
15.75844135397705
 31
0.0
 11
186.3121075711688
 21
15.75844135397705
 31
0.0
 11
186.3121075711688
 21
15.78541612620063
 31
0.0
 11
186.3121075711688
 21
15.85498264404039
 31
0.0
 11
186.3121075711688
 21
15.95010420924985
 31
0.0
 11
186.3121075711688
 21
16.05374412358256
 31
0.0
 11
186.3121075711688
 21
16.14886568879202
 31
0.0
 11
186.3121075711688
 21
16.21843220663178
 31
0.0
 11
186.3121075711688
 21
16.24540697885536
 31
0.0
 11
186.3360407604893
 21
16.243732131078
 31
0.0
 11
186.3931122119458
 21
16.23973826330121
 31
0.0
 11
186.4612297507811
 21
16.23497138885795
 31
0.0
 11
186.5183012022376
 21
16.23097752108117
 31
0.0
 11
186.5422343915581
 21
16.22930267330381
 31
0.0
 11
186.5274972731229
 21
16.2055629337264
 31
0.0
 11
186.4886640249976
 21
16.19183767331312
 31
0.0
 11
186.4886640249976
 21
16.15973424225119
 31
0.0
 11
186.4886640249976
 21
16.07947566459636
 31
0.0
 11
186.4886640249976
 21
15.97513951364509
 31
0.0
 11
186.4886640249976
 21
15.87080336269381
 31
0.0
 11
186.4886640249976
 21
15.79054478503898
 31
0.0
 11
186.4886640249976
 21
15.75844135397705
 31
0.0
 11
186.5211207110824
 21
15.75844135397705
 31
0.0
 11
186.6048247962486
 21
15.75844135397705
 31
0.0
 11
186.7192773208634
 21
15.75844135397705
 31
0.0
 11
186.8439793252946
 21
15.75844135397705
 31
0.0
 11
186.9584318499095
 21
15.75844135397705
 31
0.0
 11
187.0421359350756
 21
15.75844135397705
 31
0.0
 11
187.0745926211604
 21
15.75844135397705
 31
0.0
 11
187.0745926211604
 21
15.73210566604961
 31
0.0
 11
187.0745926211604
 21
15.67416715260924
 31
0.0
 11
187.0745926211604
 21
15.61622863916888
 31
0.0
 11
187.0745926211604
 21
15.58989295124144
 31
0.0
 11
187.0421359350756
 21
15.58989295124144
 31
0.0
 11
186.9584318499095
 21
15.58989295124144
 31
0.0
 11
186.8439793252946
 21
15.58989295124144
 31
0.0
 11
186.7192773208634
 21
15.58989295124144
 31
0.0
 11
186.6048247962485
 21
15.58989295124144
 31
0.0
 11
186.5211207110824
 21
15.58989295124144
 31
0.0
 11
186.4886640249976
 21
15.58989295124144
 31
0.0
 11
186.4886640249976
 21
15.56321863152022
 31
0.0
 11
186.4886640249976
 21
15.49442696487075
 31
0.0
 11
186.4886640249976
 21
15.40036489006433
 31
0.0
 11
186.4886640249976
 21
15.29787934587227
 31
0.0
 11
186.4886640249976
 21
15.20381727106585
 31
0.0
 11
186.4886640249976
 21
15.13502560441638
 31
0.0
 11
186.4886640249976
 21
15.10835128469516
 31
0.0
 11
186.5171747850993
 21
15.10835128469516
 31
0.0
 11
186.5923395162767
 21
15.10835128469516
 31
0.0
 11
186.6986068948376
 21
15.10835128469516
 31
0.0
 11
186.8204255970905
 21
15.10835128469516
 31
0.0
 11
186.9422442993434
 21
15.10835128469516
 31
0.0
 11
187.0485116779044
 21
15.10835128469516
 31
0.0
 11
187.1236764090817
 21
15.10835128469516
 31
0.0
 11
187.1521871691834
 21
15.10835128469516
 31
0.0
 11
187.1521871691834
 21
15.08201559676771
 31
0.0
 11
187.1521871691834
 21
15.02407708332733
 31
0.0
 11
187.1521871691834
 21
14.96613856988694
 31
0.0
 11
187.1521871691834
 21
14.93980288195949
 31
0.0
  0
SPLINE
  5
B4
102
{ACAD_REACTORS
330
CF
102
}
330
48
100
AcDbEntity
  8
_U_30EC_U_30A4_U_30E4_U_30FC_1
  6
Continuous
 62
     2
100
AcDbSpline
210
0.0
220
0.0
230
1.0
 70
     8
 71
     3
 72
    24
 73
    20
 74
    18
 42
0.000000001
 43
0.0000000001
 44
0.00000001
 40
0.0
 40
0.0
 40
0.0
 40
0.0
 40
0.2211075008754063
 40
0.4273218586245171
 40
0.5080174679240425
 40
0.5914835907871079
 40
0.8143265690193515
 40
1.054651302686661
 40
1.295452694023251
 40
1.518109231328904
 40
1.54086432190552
 40
1.595126460622781
 40
1.659890947896094
 40
1.714153085187453
 40
1.736908174961753
 40
1.76495110073544
 40
1.801562291221029
 40
1.953914424543701
 40
2.126104167379786
 40
2.126104167379786
 40
2.126104167379786
 40
2.126104167379786
 10
185.937536955689
 20
15.58989295113015
 30
0.0
 10
185.9112579081812
 20
15.53097628234372
 30
0.0
 10
185.8604698894425
 20
15.41711139679258
 30
0.0
 10
185.8131784839113
 20
15.14441958233119
 30
0.0
 10
185.7043482802618
 20
15.2444548257545
 30
0.0
 10
185.5514800279638
 20
15.27118593367336
 30
0.0
 10
185.7686155181199
 20
15.48518135017631
 30
0.0
 10
185.7838483674381
 20
15.70332117782487
 30
0.0
 10
185.8906889492001
 20
15.88451579066426
 30
0.0
 10
185.8305380947077
 20
16.16913226311401
 30
0.0
 10
185.9334317395402
 20
16.14114089222451
 30
0.0
 10
185.977993346815
 20
16.13243251602299
 30
0.0
 10
186.0380842395397
 20
16.12139654183355
 30
0.0
 10
186.0756619587438
 20
16.10767523055559
 30
0.0
 10
186.1252466928606
 20
16.10756076160223
 30
0.0
 10
186.0930158919325
 20
16.07306592398623
 30
0.0
 10
186.0171802221881
 20
16.08404104537965
 30
0.0
 10
186.0429447159694
 20
15.89858969582449
 30
0.0
 10
186.005589676385
 20
15.80702313549588
 30
0.0
 10
185.9857704961609
 20
15.75844135397705
 30
0.0
 11
185.937536955689
 21
15.58989295113015
 31
0.0
 11
185.8616471328552
 21
15.38221708318559
 31
0.0
 11
185.7717402238434
 21
15.19663392356192
 31
0.0
 11
185.7011493923109
 21
15.23573272563551
 31
0.0
 11
185.6245525192651
 21
15.2688916318772
 31
0.0
 11
185.7214026947455
 21
15.46958801203538
 31
0.0
 11
185.7994641467471
 21
15.69688163177024
 31
0.0
 11
185.858971692972
 21
15.93021436608691
 31
0.0
 11
185.9001601511226
 21
16.14902808999054
 31
0.0
 11
185.9224183822214
 21
16.14429889221395
 31
0.0
 11
185.975495702534
 21
16.13302157443899
 31
0.0
 11
186.0388460525844
 21
16.11956154999792
 31
0.0
 11
186.091923372897
 21
16.10828423222296
 31
0.0
 11
186.1141816039958
 21
16.10355503444637
 31
0.0
 11
186.096409715746
 21
16.0818625084101
 31
0.0
 11
186.0606122998071
 21
16.07418628445367
 31
0.0
 11
186.028195330148
 21
15.92532288171314
 31
0.0
 11
185.9857704961609
 21
15.75844135397705
 31
0.0
  0
LWPOLYLINE
  5
B5
102
{ACAD_REACTORS
330
D0
102
}
330
48
100
AcDbEntity
  8
_U_30EC_U_30A4_U_30E4_U_30FC_1
  6
Continuous
 62
     2
100
AcDbPolyline
 90
        5
 70
     1
 43
0.0
 10
191.1602971697031
 20
15.39722336795624
 10
192.4578138032672
 20
15.39722336795624
 10
192.4578138032672
 20
15.22875434022056
 10
191.1602971697031
 20
15.22875434022056
 10
191.1602971697031
 20
15.39722336795624
  0
MTEXT
  5
B7
330
48
100
AcDbEntity
  8
1
 62
   250
100
AcDbMText
 10
25.0
 20
5.0
 30
0.0
 40
3.5
 41
0.0
 71
     4
 72
     1
  1
備考欄の文字列 原点位置=4
  7
CONVERTER_11
 73
     1
 44
0.54545454545455
  0
MTEXT
  5
B8
330
48
100
AcDbEntity
  8
1
 62
     2
100
AcDbMText
 10
89.49999999999999
 20
24.00000000000001
 30
0.0
 40
3.5
 41
0.0
 71
     5
 72
     1
  1
尺度
  7
CONVERTER_11
 73
     1
 44
0.54545454545455
  0
MTEXT
  5
B9
330
48
100
AcDbEntity
  8
1
 62
     2
100
AcDbMText
 10
135.5
 20
25.00000000000001
 30
0.0
 40
3.0
 41
0.0
 71
     5
 72
     1
  1
製図
  7
CONVERTER_11
 73
     1
 44
0.59090909090909
  0
MTEXT
  5
BA
330
48
100
AcDbEntity
  8
1
 62
     2
100
AcDbMText
 10
152.4999999999999
 20
25.00000000000001
 30
0.0
 40
3.0
 41
0.0
 71
     5
 72
     1
  1
設計
  7
CONVERTER_11
 73
     1
 44
0.59090909090909
  0
MTEXT
  5
BB
330
48
100
AcDbEntity
  8
1
 62
     2
100
AcDbMText
 10
118.5
 20
25.00000000000001
 30
0.0
 40
3.0
 41
0.0
 71
     5
 72
     1
  1
検図
  7
CONVERTER_11
 73
     1
 44
0.59090909090909
  0
MTEXT
  5
BC
330
48
100
AcDbEntity
  8
1
 62
     2
100
AcDbMText
 10
174.9999999999999
 20
23.50000000000001
 30
0.0
 40
3.5
 41
0.0
 71
     5
 72
     1
  1
第三角法
  7
CONVERTER_11
 73
     1
 44
0.54545454545455
  0
MTEXT
  5
BD
330
48
100
AcDbEntity
  8
1
 62
     2
100
AcDbMText
 10
101.5
 20
25.00000000000001
 30
0.0
 40
3.0
 41
0.0
 71
     5
 72
     1
  1
承認
  7
CONVERTER_11
 73
     1
 44
0.59090909090909
  0
MTEXT
  5
BE
330
48
100
AcDbEntity
  8
1
 62
     2
100
AcDbMText
 10
29.0
 20
14.25
 30
0.0
 40
3.5
 41
0.0
 71
     5
 72
     1
  1
品番
  7
CONVERTER_11
 73
     1
 44
0.72727272727273
  0
MTEXT
  5
BF
330
48
100
AcDbEntity
  8
1
 62
     2
100
AcDbMText
 10
29.0
 20
22.75
 30
0.0
 40
3.5
 41
0.0
 71
     5
 72
     1
  1
品名
  7
CONVERTER_11
 73
     1
 44
0.72727272727273
  0
MTEXT
  5
C0
330
48
100
AcDbEntity
  8
1
 62
     2
100
AcDbMText
 10
29.0
 20
34.0
 30
0.0
 40
3.5
 41
0.0
 71
     5
 72
     1
  1
備考
  7
CONVERTER_11
 73
     1
 44
0.45454545454545
  0
MTEXT
  5
C1
330
48
100
AcDbEntity
  8
1
 62
     2
100
AcDbMText
 10
32.5
 20
282.0000000000003
 30
0.0
 40
5.0
 41
0.0
 71
     5
 72
     1
  1
図番
  7
CONVERTER_11
 73
     1
 44
0.45454545454545
  0
HATCH
  5
C2
330
48
100
AcDbEntity
  8
1
  6
Continuous
 62
     2
100
AcDbHatch
 10
0.0
 20
0.0
 30
0.0
210
0.0
220
0.0
230
1.0
  2
CUSTOM0
 70
     0
 71
     1
 91
        1
 92
        1
 93
        1
 72
     4
 94
        3
 73
     0
 74
     0
 95
       99
 96
       95
 40
0.0
 40
0.0
 40
0.0
 40
0.0
 40
0.0796417172272494
 40
0.1621768542356028
 40
0.2486489160957204
 40
0.3404969668524681
 40
0.4381912511165253
 40
0.5434463660244988
 40
0.6518115192846742
 40
0.7530190937886858
 40
0.849219691972561
 40
0.9419290312998845
 40
1.034249663570098
 40
1.129078600620262
 40
1.2266970275733
 40
1.327220425421758
 40
1.470572134938077
 40
1.595489863371282
 40
1.719934125348416
 40
1.850576620127485
 40
1.989059629987367
 40
2.134139054226883
 40
2.280698007207222
 40
2.424529739039472
 40
2.565929576985838
 40
2.708239260773588
 40
2.861717887443687
 40
3.045168540347401
 40
3.183798301138635
 40
3.314813961455496
 40
3.442083470447324
 40
3.569912708373001
 40
3.702177512509305
 40
3.84230755965955
 40
3.992872223245926
 40
4.156750662218259
 40
4.310981861107424
 40
4.445859909322524
 40
4.572393936131543
 40
4.701656719781918
 40
4.768279086008385
 40
4.835960697898354
 40
4.912788918729287
 40
5.006285208481446
 40
5.02690947875155
 40
5.047533749021115
 40
5.101808031471188
 40
5.162325165538501
 40
5.226919745995807
 40
5.294231806596704
 40
5.364544852554848
 40
5.438319055467892
 40
5.517877651324173
 40
5.607647714861542
 40
5.70044964254436
 40
5.788251142364036
 40
5.872714706039744
 40
5.955167292575259
 40
6.037192395190317
 40
6.120669181469029
 40
6.206848616686292
 40
6.296680855416714
 40
6.442558392872547
 40
6.568190371608273
 40
6.692904567360324
 40
6.824220446557123
 40
6.963121850329257
 40
7.107843738851072
 40
7.253431663907209
 40
7.395187468036608
 40
7.533140753237664
 40
7.670550457175151
 40
7.816236511769168
 40
7.987691657359132
 40
8.14227742196918
 40
8.293662615414899
 40
8.442962460879178
 40
8.591598316185268
 40
8.743678992361644
 40
8.903725323699053
 40
9.076307008890456
 40
9.265578604680538
 40
9.459203795360656
 40
9.617619810273581
 40
9.753609671361838
 40
9.874873300004033
 40
9.954520184977746
 40
10.02416413719243
 40
10.09769764405442
 40
10.18909955924971
 40
10.20974586420127
 40
10.23039218263367
 40
10.30057101881252
 40
10.37632012987533
 40
10.37632012987533
 40
10.37632012987533
 40
10.37632012987533
 10
170.1465954835851
 20
14.13795663215994
 10
170.1632217851219
 20
14.11720608845313
 10
170.1970784206577
 20
14.07495111711901
 10
170.2599822541036
 20
14.02029811392074
 10
170.3332500940393
 20
13.97299025121047
 10
170.4175969238636
 20
13.93527231437935
 10
170.513224061546
 20
13.91040619731952
 10
170.6171853775346
 20
13.90309559345937
 10
170.7224020220405
 20
13.91142322794054
 10
170.8206626371334
 20
13.94149179651528
 10
170.9058986427548
 20
13.98848822971875
 10
170.9779220206103
 20
14.04952991250854
 10
171.0350917709097
 20
14.12412969578585
 10
171.076786874744
 20
14.21002464660172
 10
171.1026952846293
 20
14.30485850432212
 10
171.1118037332652
 20
14.41854979038366
 10
171.0986864796487
 20
14.54332587770779
 10
171.0325330334414
 20
14.66014719171891
 10
170.9369370919569
 20
14.74512539577377
 10
170.8249681022369
 20
14.81416684459161
 10
170.6993659583269
 20
14.87204142045886
 10
170.5656691620857
 20
14.92373723284345
 10
170.4313122818832
 20
14.97899092397178
 10
170.3051983986877
 20
15.04939770641651
 10
170.1926579987536
 20
15.13785540731253
 10
170.0969963064458
 20
15.24981067868469
 10
170.0334157151826
 20
15.39949910101385
 10
170.0200706505016
 20
15.55932794385142
 10
170.0320510987449
 20
15.71048405306846
 10
170.0712298928842
 20
15.83809244591538
 10
170.1354987750911
 20
15.95080874030847
 10
170.2238204999741
 20
16.04648609268681
 10
170.3338091207628
 20
16.12354214985759
 10
170.4632284401265
 20
16.18151396936274
 10
170.6111838967794
 20
16.21739177588822
 10
170.7682069455486
 20
16.22746719050564
 10
170.917494046643
 20
16.21863637762589
 10
171.059625361417
 20
16.19074899340353
 10
171.1595922609625
 20
16.13413314701139
 10
171.3125074736185
 20
16.08674602105508
 10
171.2455131717169
 20
16.00197553001182
 10
171.2296479120269
 20
15.93438901873483
 10
171.1978750531295
 20
15.86926092793192
 10
171.2150202209572
 20
15.76723453256953
 10
171.1666427208233
 20
15.77493211681903
 10
171.1315789440767
 20
15.76806771724808
 10
171.1296697985719
 20
15.83263831158196
 10
171.0985692931989
 20
15.87825639621393
 10
171.0664551628456
 20
15.93561036628456
 10
171.0208038475168
 20
15.98540462692559
 10
170.9658508218387
 20
16.02994813718995
 10
170.9010841173007
 20
16.06763988836548
 10
170.8232377310597
 20
16.09283375791353
 10
170.7355160553353
 20
16.0993123099811
 10
170.6452903277807
 20
16.09235709285608
 10
170.5594594694065
 20
16.06909190460917
 10
170.4828343638597
 20
16.03131644107548
 10
170.4165265636201
 20
15.98051641089575
 10
170.3622560536964
 20
15.91731143407209
 10
170.322492534546
 20
15.84276455710365
 10
170.2976775510588
 20
15.75917313997765
 10
170.289212426287
 20
15.65192948382284
 10
170.3019697987104
 20
15.52965457267556
 10
170.3681548409274
 20
15.41149724291212
 10
170.4640977399833
 20
15.32606325709525
 10
170.5757914963183
 20
15.25583362306726
 10
170.7010863668702
 20
15.196591623053
 10
170.8349823941447
 20
15.14616708086132
 10
170.9689930333149
 20
15.09322516984383
 10
171.0950885316915
 20
15.02750170625175
 10
171.2076216638417
 20
14.94480352537322
 10
171.3031370284232
 20
14.83996006310073
 10
171.3672706486963
 20
14.6993711725157
 10
171.3811103725279
 20
14.54065409451591
 10
171.3673954712229
 20
14.38153155217878
 10
171.3244739153985
 20
14.23483828819206
 10
171.2545906329066
 20
14.1011979658714
 10
171.1574592213829
 20
13.98532387699296
 10
171.0347806023658
 20
13.89089981770083
 10
170.8874408413168
 20
13.82179270651982
 10
170.7177132497125
 20
13.77953210858852
 10
170.5317404979597
 20
13.76781736230406
 10
170.3528955926182
 20
13.77809486683439
 10
170.1881733753743
 20
13.81966573769147
 10
170.0834410841056
 20
13.88797642883945
 10
169.9350960790365
 20
13.93675219032105
 10
169.9980378194729
 20
14.02976591290842
 10
170.0072274430061
 20
14.10296536248278
 10
170.0303711301231
 20
14.16936294501347
 10
170.0034588335317
 20
14.26974809527579
 10
170.0521338956339
 20
14.2623403351738
 10
170.0916530580697
 20
14.26894063620894
 10
170.0996204944702
 20
14.19078703218932
 10
170.1305436967923
 20
14.15600927375856
 10
170.1465954835851
 20
14.13795663215994
 97
        1
330
A4
 75
     1
 76
     2
 52
45.0
 41
0.1
 77
     0
 78
     1
 53
45.0
 43
0.0
 44
0.0
 45
-0.282842712474619
 46
0.0
 79
     0
 98
        1
 10
0.0
 20
0.0
  0
HATCH
  5
C3
330
48
100
AcDbEntity
  8
1
  6
Continuous
 62
     2
100
AcDbHatch
 10
0.0
 20
0.0
 30
0.0
210
0.0
220
0.0
230
1.0
  2
CUSTOM1
 70
     0
 71
     1
 91
        2
 92
        1
 93
        1
 72
     4
 94
        3
 73
     0
 74
     0
 95
       57
 96
       53
 40
0.0
 40
0.0
 40
0.0
 40
0.0
 40
0.047163208280894
 40
0.0914861054632146
 40
0.1357762519701814
 40
0.1826527001610677
 40
0.2295203288572586
 40
0.2737751972219619
 40
0.3181310461543352
 40
0.3652607198397653
 40
0.4571007286313648
 40
0.5671851029164421
 40
0.6894623283867674
 40
0.8181758272545276
 40
0.951008722927358
 40
1.085852229673955
 40
1.218126164475223
 40
1.343545131142314
 40
1.454537202956731
 40
1.56718760753074
 40
1.680710966642387
 40
1.794226869736723
 40
1.900009184247522
 40
2.004085860447716
 40
2.108162674451689
 40
2.214000150155234
 40
2.49603857735207
 40
2.762350745479209
 40
2.997275353279347
 40
3.18511008213768
 40
3.246407890063821
 40
3.312607550212638
 40
3.378877742711512
 40
3.440140399651393
 40
4.10050169600644
 40
4.754913085563506
 40
5.41133169342389
 40
6.077890432568648
 40
6.110575292670927
 40
6.143260152775707
 40
6.367989363395111
 40
6.610525374951529
 40
6.863389136467278
 40
7.119380025547541
 40
7.376036605091077
 40
7.631164770966245
 40
7.876722425456419
 40
8.104953735855974
 40
8.312916685924288
 40
8.497730294941316
 40
8.651018984313833
 40
8.764738853624555
 40
8.764738853624555
 40
8.764738853624555
 40
8.764738853624555
 10
174.7922649500513
 20
13.81626739612928
 10
174.7766616726931
 20
13.81826231079078
 10
174.7463947960302
 20
13.82213201360298
 10
174.7010994202253
 20
13.82341984967269
 10
174.6559553129349
 20
13.82308683554051
 10
174.60990171234
 20
13.82314658674225
 10
174.5640496172097
 20
13.82325813650002
 10
174.5183711648165
 20
13.82277833456591
 10
174.4750811541609
 20
13.82461109618723
 10
174.4039947951514
 20
13.80049556814662
 10
174.4057477261441
 20
13.92184693977251
 10
174.358619637057
 20
14.00726239751232
 10
174.3191478251761
 20
14.12486929345135
 10
174.2706635532645
 20
14.2423275254044
 10
174.2201017402521
 20
14.36405935761505
 10
174.1718634610478
 20
14.49075967862469
 10
174.1135232947595
 20
14.59933687784953
 10
174.0980892667261
 20
14.75620657134409
 10
173.9566586330635
 20
14.72373446548323
 10
173.8508397414904
 20
14.7351288868218
 10
173.7358569725221
 20
14.73392591514615
 10
173.6253142252141
 20
14.73506945347408
 10
173.5176583522783
 20
14.73418350037526
 10
173.4121322529243
 20
14.73416602390518
 10
173.3109192682012
 20
14.72714032472415
 10
173.1266804827754
 20
14.75135859859867
 10
173.1157393685411
 20
14.44741691121885
 10
173.008769163475
 20
14.22353177253397
 10
172.9098148604346
 20
14.03895314292497
 10
172.9225090524007
 20
13.79530204804211
 10
172.8050091716396
 20
13.82508046753197
 10
172.742205586831
 20
13.82258089509605
 10
172.6785872093399
 20
13.82344075102804
 10
172.3946014194075
 20
13.78098039941952
 10
173.0251638499381
 20
14.50081952444781
 10
173.1087645289072
 20
15.01276539435731
 10
173.4929252789338
 20
15.53353743550041
 10
173.4777208288565
 20
16.23519626253216
 10
173.7239265722696
 20
16.22345633081256
 10
173.825634615756
 20
16.23225004452772
 10
173.8249752035817
 20
15.98059650730346
 10
173.9428317155828
 20
15.79818020733959
 10
174.0315515260485
 20
15.55563740662867
 10
174.1322292485257
 20
15.32340030530121
 10
174.2311142712244
 20
15.08674644566919
 10
174.3299676990667
 20
14.85461739170086
 10
174.4256166390927
 20
14.6312222278879
 10
174.5159904573272
 20
14.4227254904932
 10
174.5989944568188
 20
14.23308448529316
 10
174.6726088582801
 20
14.06663106068104
 10
174.7342815895545
 20
13.92917699626095
 10
174.7749458885604
 20
13.84999239430034
 10
174.7922649500513
 20
13.81626739612928
 97
        1
330
A5
 92
       16
 93
        1
 72
     4
 94
        3
 73
     0
 74
     0
 95
       25
 96
       21
 40
0.0
 40
0.0
 40
0.0
 40
0.0
 40
0.0911479969064254
 40
0.1858117896202963
 40
0.2804128399733069
 40
0.3715889190712804
 40
0.4679080494217571
 40
0.5642683809228377
 40
0.6605683222643854
 40
0.7569653015809403
 40
0.8561348172521887
 40
1.092615965104196
 40
1.374867658141778
 40
1.61134881201147
 40
1.71051832842513
 40
1.809403163726437
 40
2.045205463293962
 40
2.326646917622011
 40
2.562449217190484
 40
2.661334043833792
 40
2.661334043833792
 40
2.661334043833792
 40
2.661334043833792
 10
173.26837005672
 20
14.88614538197292
 10
173.2987525917923
 20
14.88598079714554
 10
173.3606895889112
 20
14.88564528689921
 10
173.454135696033
 20
14.88269055451998
 10
173.5475095236356
 20
14.87977752877151
 10
173.6417760753475
 20
14.87894201643416
 10
173.7354964790966
 20
14.87996644658048
 10
173.8352040303204
 20
14.87916977470971
 10
173.9188949546312
 20
14.8892141023522
 10
174.0637996315045
 20
14.86234617674164
 10
173.93961324448
 20
15.03665530280048
 10
173.8965867286282
 20
15.19651711006092
 10
173.780892214221
 20
15.45518458550213
 10
173.7017565431258
 20
15.5923105286186
 10
173.6431576621816
 20
15.80937033134077
 10
173.586480393944
 20
15.59266134213426
 10
173.5052809900477
 20
15.45327012438239
 10
173.4063701281489
 20
15.20406969370192
 10
173.3253625094259
 20
15.01925830226075
 10
173.2813683325839
 20
14.91650446856117
 10
173.26837005672
 20
14.88614538197292
 97
        1
330
A6
 75
     1
 76
     2
 52
45.0
 41
0.1
 77
     0
 78
     1
 53
45.0
 43
0.0
 44
0.0
 45
-0.282842712474619
 46
0.0
 79
     0
 98
        1
 10
0.0
 20
0.0
  0
HATCH
  5
C4
330
48
100
AcDbEntity
  8
1
  6
Continuous
 62
     2
100
AcDbHatch
 10
0.0
 20
0.0
 30
0.0
210
0.0
220
0.0
230
1.0
  2
CUSTOM2
 70
     0
 71
     1
 91
        1
 92
        1
 93
        1
 72
     4
 94
        3
 73
     0
 74
     0
 95
       95
 96
       91
 40
0.0
 40
0.0
 40
0.0
 40
0.0
 40
0.6550406656911223
 40
1.308087289031888
 40
1.42080373983576
 40
1.566130759770771
 40
1.757067341888427
 40
2.006513545026429
 40
2.087328263121517
 40
2.185328872295591
 40
2.294612454748326
 40
2.408936380534775
 40
2.526802767798531
 40
2.646360524615571
 40
2.762535723971555
 40
2.870057342870131
 40
2.96688344843161
 40
3.050803243518256
 40
3.115818222436575
 40
3.156030057150198
 40
3.213914225080099
 40
3.276689026450414
 40
3.342960320981277
 40
3.404230667150526
 40
3.453822809493325
 40
3.532499827188399
 40
3.634775188507121
 40
3.754909333008118
 40
3.889736761660611
 40
4.035769602175183
 40
4.187256681197568
 40
4.338733685675915
 40
4.488478734676073
 40
4.634708317831547
 40
4.771493189921233
 40
4.892686571561171
 40
5.199775528944414
 40
5.460353566929597
 40
5.667603142345472
 40
5.81472290540445
 40
5.828990806219776
 40
5.855488336304388
 40
5.869756237118692
 40
6.189796507762735
 40
6.531890469872891
 40
6.883053637016916
 40
7.23051202491129
 40
7.566966656764448
 40
7.885203559707223
 40
8.172887439719037
 40
8.418011594062637
 40
8.443926721190559
 40
8.510760470613047
 40
8.602145393795556
 40
8.701714041646998
 40
8.793098965075227
 40
8.8599327150578
 40
8.88584784260345
 40
9.242301256612672
 40
9.589275455016619
 40
9.921808543164019
 40
10.23479624298452
 40
10.29968150889152
 40
10.35323493887732
 40
10.40154625355119
 40
10.464829224778
 40
10.55973900668381
 40
10.69239545985595
 40
10.84920353475648
 40
11.01626328594754
 40
11.18672024367419
 40
11.35372582577186
 40
11.50257442292402
 40
11.61866495023267
 40
11.7132986915285
 40
11.82511050573882
 40
11.94464880845691
 40
12.06929242642484
 40
12.19707290435152
 40
12.32562632860504
 40
12.45034565331255
 40
12.56646595170303
 40
12.67099007414611
 40
12.76077625936758
 40
12.82703233506671
 40
12.87429132785969
 40
12.89831990323308
 40
12.92234847859996
 40
13.53984767410294
 40
14.18294284359346
 40
14.18294284359346
 40
14.18294284359346
 40
14.18294284359346
 10
177.306793564802
 20
14.70898038201723
 10
177.175201975855
 20
14.82265058603231
 10
176.9124193802729
 20
15.04964496316159
 10
176.3997393441019
 20
15.89214462956286
 10
176.4106654595363
 20
15.53423377577019
 10
176.4041226527989
 20
15.39267392272132
 10
176.4028026631773
 20
15.1942130529928
 10
176.4018117602538
 20
15.02150296045982
 10
176.4024101751973
 20
14.87865373257579
 10
176.4038994301883
 20
14.78265005413358
 10
176.4055683588472
 20
14.67545503263141
 10
176.4071934954616
 20
14.56164211517582
 10
176.4092429501687
 20
14.44441572604589
 10
176.4123165501926
 20
14.32656411232969
 10
176.4156339697043
 20
14.2122808732062
 10
176.4193605340279
 20
14.10521401867275
 10
176.4217338161424
 20
14.01007408766921
 10
176.4278718888356
 20
13.92558557205694
 10
176.4239784495947
 20
13.86923087298142
 10
176.4455230443077
 20
13.79825022472357
 10
176.3680940058618
 20
13.82902677604481
 10
176.3116353240192
 20
13.82011242517615
 10
176.2540495896807
 20
13.82896218398276
 10
176.1690163478473
 20
13.79738225225946
 10
176.2009714146382
 20
13.88095155992191
 10
176.199070528254
 20
13.94882608968308
 10
176.2107960047299
 20
14.05233256764419
 10
176.2164241053
 20
14.17002125616694
 10
176.223790217894
 20
14.30388609164424
 10
176.232075970161
 20
14.44764152872631
 10
176.2398851897428
 20
14.59714022843445
 10
176.2457571222657
 20
14.74792549402078
 10
176.2503667817969
 20
14.89699943878437
 10
176.2542632117544
 20
15.04122913163022
 10
176.2570715126563
 20
15.17583905213017
 10
176.2576698755024
 20
15.36469614347355
 10
176.2616023867149
 20
15.58975494313154
 10
176.2442175378499
 20
15.86367091125708
 10
176.2850417342583
 20
16.02787112098597
 10
176.1995153256002
 20
16.22749661465096
 10
176.2660558907689
 20
16.22385458403978
 10
176.2838724273231
 20
16.22413447160854
 10
176.4056801797502
 20
16.22632927398613
 10
176.5080770335463
 20
15.94675118721519
 10
176.7580021509356
 20
15.74563008535996
 10
176.9870035331111
 20
15.47792614987925
 10
177.2245151213107
 20
15.22646413862367
 10
177.4486090740772
 20
14.98969974061366
 10
177.6750716283008
 20
14.73218692583076
 10
177.8325687886514
 20
14.6164933505692
 10
178.0472129612674
 20
14.27997152538794
 10
178.0422645974619
 20
14.40464754091603
 10
178.0433931602546
 20
14.46327691935737
 10
178.0428877841516
 20
14.55043662371977
 10
178.0430475158113
 20
14.64416143182872
 10
178.0430054891318
 20
14.73018971297035
 10
178.0430202040373
 20
14.79153891945496
 10
178.0429706255983
 20
14.94135231520992
 10
178.0458811522811
 20
15.17989612510104
 10
178.0259521041161
 20
15.54486509868702
 10
178.0750433936248
 20
15.80799631993409
 10
177.9177951509182
 20
16.21928904947752
 10
178.0762112872421
 20
16.16398282551748
 10
178.1311680478628
 20
16.16199686500174
 10
178.182788776674
 20
16.16264778248252
 10
178.2713198965366
 20
16.20369527738246
 10
178.2204898303168
 20
16.05696326622986
 10
178.2313389930282
 20
15.95019971954433
 10
178.2166036994848
 20
15.79085705414112
 10
178.2099976446206
 20
15.62853061652873
 10
178.2014961399913
 20
15.45992521892396
 10
178.1943227202199
 20
15.29814814703541
 10
178.1889063215389
 20
15.15422331457933
 10
178.1871713967649
 20
15.03437493466926
 10
178.1875440672318
 20
14.92686101590515
 10
178.1873656126263
 20
14.81820024645586
 10
178.1877010863139
 20
14.6995357016553
 10
178.1890040622185
 20
14.5755516351274
 10
178.1908887351574
 20
14.44858294171104
 10
178.1925004454849
 20
14.32153861551031
 10
178.1941403137432
 20
14.19854884492177
 10
178.1962570745751
 20
14.08300931383759
 10
178.1963848422364
 20
13.98090903955837
 10
178.2006514396554
 20
13.89009848838156
 10
178.1908440085289
 20
13.83213621208786
 10
178.2118474771689
 20
13.76517130132029
 10
178.1725639739896
 20
13.77291153966688
 10
177.9595307117747
 20
13.75755254145192
 10
177.7636297943187
 20
14.31403058094476
 10
177.4611197631543
 20
14.5755603534851
 10
177.306793564802
 20
14.70898038201723
 97
        1
330
A7
 75
     1
 76
     2
 52
45.0
 41
0.1
 77
     0
 78
     1
 53
45.0
 43
0.0
 44
0.0
 45
-0.282842712474619
 46
0.0
 79
     0
 98
        1
 10
0.0
 20
0.0
  0
HATCH
  5
C5
330
48
100
AcDbEntity
  8
1
  6
Continuous
 62
     2
100
AcDbHatch
 10
0.0
 20
0.0
 30
0.0
210
0.0
220
0.0
230
1.0
  2
CUSTOM3
 70
     0
 71
     1
 91
        1
 92
        1
 93
        1
 72
     4
 94
        3
 73
     0
 74
     0
 95
      110
 96
      106
 40
0.0
 40
0.0
 40
0.0
 40
0.0
 40
0.2203406257277737
 40
0.4407808782838091
 40
0.5952494494615352
 40
0.7488431659393071
 40
0.9023581831309057
 40
1.056801968670404
 40
1.210736449100018
 40
1.363041386539783
 40
1.515315729683126
 40
1.669377239148077
 40
1.721611652756564
 40
1.773199502942947
 40
1.824933793209997
 40
1.877110426487988
 40
1.982682281206752
 40
2.078781667087561
 40
2.172809640822254
 40
2.271937807378936
 40
2.378349933379273
 40
2.494131557736404
 40
2.626681683943595
 40
2.783145050796079
 40
2.89070123294094
 40
2.99313031245485
 40
3.099869730691815
 40
3.220237816691311
 40
3.3526954827376
 40
3.48173280638985
 40
3.593499473690382
 40
3.674323013331896
 40
3.817951711952846
 40
3.946167120793843
 40
4.0614050534535
 40
4.166480796003169
 40
4.262478775059207
 40
4.350736673551078
 40
4.43307199125402
 40
4.511216293814566
 40
4.564262454117881
 40
4.618474415571509
 40
4.670128488754085
 40
4.72229687912628
 40
4.819540945314064
 40
4.931194984128006
 40
5.049996040257591
 40
5.168643755414995
 40
5.283970811762321
 40
5.392260784910146
 40
5.486512254876192
 40
5.55917823394962
 40
5.59142585285328
 40
5.626215969637674
 40
5.6671558386742
 40
5.717449290214005
 40
5.73840236094462
 40
5.784499116553589
 40
5.830595872164563
 40
5.851548942897421
 40
5.873019280661535
 40
5.924217778408077
 40
5.985325662817456
 40
6.036524160567473
 40
6.057994498334001
 40
6.236847789607258
 40
6.381409928945426
 40
6.493190424178461
 40
6.574067534230267
 40
6.691018086205333
 40
6.814881554220166
 40
6.944307823240175
 40
7.071266716065856
 40
7.193488604461701
 40
7.309042773127928
 40
7.41400720317061
 40
7.505140441886311
 40
7.531150360599475
 40
7.559221645322067
 40
7.587202218920733
 40
7.612569159498937
 40
7.662550809480819
 40
7.702878875763942
 40
7.857328205230785
 40
8.010799568088489
 40
8.16525639965741
 40
8.322232698713693
 40
8.47956485501638
 40
8.635216230290583
 40
8.7908825509255
 40
8.948305154947066
 40
9.168271839032743
 40
9.387358980987027
 40
9.608047961033266
 40
9.83291423479246
 40
9.858338694962795
 40
9.925366817229802
 40
10.02013071422739
 40
10.12876249858977
 40
10.23739428295228
 40
10.3321581799517
 40
10.39918630222373
 40
10.42461076239762
 40
10.64992019336922
 40
10.87188524531167
 40
10.87188524531167
 40
10.87188524531167
 40
10.87188524531167
 10
179.9057788376618
 20
15.7392326039819
 10
179.9092864933541
 20
15.80616462073804
 10
179.9163033987662
 20
15.94005891915858
 10
179.8198027599072
 20
16.2254855497147
 10
180.0510134726109
 20
16.16284386190284
 10
180.1919290057156
 20
16.17001554055991
 10
180.3490417757588
 20
16.16235883078244
 10
180.5025913427288
 20
16.1625275228304
 10
180.6545104935081
 20
16.16182040535432
 10
180.8142214813232
 20
16.1721015835164
 10
180.9408972601117
 20
16.15496511080751
 10
181.137082112208
 20
16.22727260107145
 10
181.1034395279078
 20
16.12640699080117
 10
181.1052011317184
 20
16.0761925394767
 10
181.1027342073458
 20
16.02712335586466
 10
181.1347076966011
 20
15.94063490846997
 10
181.0010399903256
 20
15.98997438608337
 10
180.9172208688057
 20
15.98430634314168
 10
180.8173861139323
 20
15.99465516706298
 10
180.7186576720146
 20
16.00086450411086
 10
180.6121532771111
 20
16.00697763816778
 10
180.491051169806
 20
16.01588883484585
 10
180.3703381502454
 20
16.00521605912382
 10
180.1812553843436
 20
16.06468503080369
 10
180.2129028505312
 20
15.90558320077538
 10
180.1995563316832
 20
15.80839128339904
 10
180.197495842645
 20
15.69634065110102
 10
180.195818804467
 20
15.5769968562935
 10
180.1973336794233
 20
15.4503259215511
 10
180.1956582478668
 20
15.32301588016117
 10
180.2058844271658
 20
15.22451566404464
 10
180.1779006596582
 20
15.0838870262563
 10
180.3508029999306
 20
15.13989551134095
 10
180.4645020202771
 20
15.12719951478499
 10
180.5840151672239
 20
15.13448377051255
 10
180.6888491425071
 20
15.13878017056755
 10
180.7843084898612
 20
15.14330568258976
 10
180.8763823507031
 20
15.151492011462
 10
180.9476551782438
 20
15.14643850638111
 10
181.0544931705684
 20
15.18536425031672
 10
181.0226603598036
 20
15.10517122005878
 10
181.0266164503929
 20
15.05562936846033
 10
181.0234502392013
 20
15.00557478039819
 10
181.0550791490583
 20
14.92128847612024
 10
180.9210133677691
 20
14.97425365495159
 10
180.82923227932
 20
14.96540080890441
 10
180.7079729189603
 20
14.97570049965154
 10
180.5914113119772
 20
14.97748911767502
 10
180.4783375745879
 20
14.97787017109695
 10
180.3679246308471
 20
14.98415449472181
 10
180.289812406784
 20
14.97189133255364
 10
180.1913625833644
 20
15.00453887616125
 10
180.2012355173561
 20
14.94769748054205
 10
180.1973923244402
 20
14.91392130557983
 10
180.1966789884268
 20
14.87119604709411
 10
180.1963369642975
 20
14.83401607262153
 10
180.1963834255346
 20
14.79487237370771
 10
180.1963649429927
 20
14.75716849497686
 10
180.1963703431806
 20
14.71944955232402
 10
180.1963697214201
 20
14.6899432474515
 10
180.1963698151545
 20
14.65873577699301
 10
180.1963704287921
 20
14.61414424908085
 10
180.1963671499336
 20
14.5596395650885
 10
180.1963759623481
 20
14.51505540201448
 10
180.1963359653416
 20
14.43117808585739
 10
180.1976024270255
 20
14.31737520677678
 10
180.195027411784
 20
14.16830395933709
 10
180.206500938172
 20
14.06597203813905
 10
180.1823506222263
 20
13.93338903885835
 10
180.3332993946475
 20
13.9789573227202
 10
180.4428436671556
 20
13.96427012162349
 10
180.5733970473919
 20
13.96920435125062
 10
180.6990312209513
 20
13.97257705323363
 10
180.8188730625601
 20
13.97711497498772
 10
180.9391362611426
 20
13.99048536182005
 10
181.0222761663515
 20
13.98068712782594
 10
181.1456080421075
 20
14.04126214623317
 10
181.1244269203956
 20
13.98532460134021
 10
181.1235950270115
 20
13.95939249372346
 10
181.1218963707557
 20
13.93197256190939
 10
181.1217974888829
 20
13.89738195206385
 10
181.1203659301329
 20
13.86050408220767
 10
181.153280419219
 20
13.76846841021807
 10
180.9551306988106
 20
13.84132015974831
 10
180.830054829489
 20
13.81825726508607
 10
180.6673071295156
 20
13.82454021985786
 10
180.5129366450001
 20
13.82260943909927
 10
180.3566670436944
 20
13.82393762599269
 10
180.1970544465282
 20
13.82059872487863
 10
180.0540326342237
 20
13.8326579572824
 10
179.8197144881628
 20
13.76952001976919
 10
179.9173810751197
 20
14.05620527466318
 10
179.9006868780059
 20
14.24988308142661
 10
179.9146296709684
 20
14.47848242880295
 10
179.9142987846632
 20
14.63384593955049
 10
179.9143078119263
 20
14.73966336444125
 10
179.9143055876316
 20
14.80205784124214
 10
179.9143065551888
 20
14.89220425248327
 10
179.9143065473261
 20
14.99621167157438
 10
179.9143053861102
 20
15.10022131375296
 10
179.9143090971502
 20
15.19036243688768
 10
179.9143011051051
 20
15.25276803097215
 10
179.9143334275018
 20
15.35868835961119
 10
179.9131440788319
 20
15.5162671654474
 10
179.9082216489256
 20
15.66528219822066
 10
179.9057788376618
 20
15.7392326039819
 97
        1
330
A8
 75
     1
 76
     2
 52
45.0
 41
0.1
 77
     0
 78
     1
 53
45.0
 43
0.0
 44
0.0
 45
-0.282842712474619
 46
0.0
 79
     0
 98
        1
 10
0.0
 20
0.0
  0
HATCH
  5
C6
330
48
100
AcDbEntity
  8
1
  6
Continuous
 62
     2
100
AcDbHatch
 10
0.0
 20
0.0
 30
0.0
210
0.0
220
0.0
230
1.0
  2
CUSTOM4
 70
     0
 71
     1
 91
        1
 92
        1
 93
        1
 72
     4
 94
        3
 73
     0
 74
     0
 95
       47
 96
       43
 40
0.0
 40
0.0
 40
0.0
 40
0.0
 40
0.2207912809957155
 40
0.4459404186303046
 40
0.4902387190459823
 40
0.5327473892721927
 40
0.5742260451225821
 40
0.6155432630561682
 40
0.6568164066317453
 40
0.6982511618781532
 40
0.7407663929318036
 40
0.785136674317722
 40
1.010288833836526
 40
1.23108050700238
 40
1.451765243652609
 40
1.676638205891893
 40
1.720461045359862
 40
1.830018144043728
 40
1.972442372353358
 40
2.114866600677728
 40
2.224423699395353
 40
2.268246538883594
 40
2.493628801207429
 40
2.715602830286824
 40
2.934211330706575
 40
3.14950236985557
 40
3.2313877848513
 40
3.318231873854363
 40
3.405143198198409
 40
3.486970301720873
 40
3.702258172494315
 40
3.920866283534536
 40
4.142839325932323
 40
4.36822190386579
 40
4.41204474336027
 40
4.521601842096286
 40
4.664026070452766
 40
4.806450298809474
 40
4.916007397547166
 40
4.95983023704349
 40
5.184703515847521
 40
5.4053872507679
 40
5.4053872507679
 40
5.4053872507679
 40
5.4053872507679
 10
182.6507427258644
 20
15.73406440953872
 10
182.6568139420002
 20
15.79758482501211
 10
182.6690762107244
 20
15.92587938689628
 10
182.5604706879411
 20
16.20166220174077
 10
182.6761985896603
 20
16.17188133432055
 10
182.7171842509014
 20
16.16765556262819
 10
182.7591205797518
 20
16.16310446389607
 10
182.800419662571
 20
16.16201982929485
 10
182.8417032115555
 20
16.16310338195226
 10
182.8836148270647
 20
16.16766112711345
 10
182.9245983549019
 20
16.17187430209729
 10
183.040492284349
 20
16.20177611317533
 10
182.9295652727456
 20
15.92339806609891
 10
182.9574856365266
 20
15.74283140824953
 10
182.9404267346968
 20
15.50961042346471
 10
182.9414637282102
 20
15.34906622543146
 10
182.9414099399403
 20
15.22284817558722
 10
182.941427737248
 20
15.12428963336241
 10
182.9414188581079
 20
14.99280702442963
 10
182.9414263928033
 20
14.8613284496865
 10
182.9414129405127
 20
14.7627622269409
 10
182.9414531717491
 20
14.63639735624152
 10
182.9406746403818
 20
14.4748206882287
 10
182.9565958319265
 20
14.24361821892914
 10
182.9333468885407
 20
14.05874351972001
 10
183.0360183444367
 20
13.78935602770055
 10
182.8820238362836
 20
13.82660112685817
 10
182.8004129802832
 20
13.82137994680536
 10
182.7188192292582
 20
13.8266062037835
 10
182.5648513666842
 20
13.78937069885388
 10
182.6674183421918
 20
14.05875129862879
 10
182.6442045316086
 20
14.24361585325415
 10
182.6600444655139
 20
14.47482218565638
 10
182.6593296313427
 20
14.63639712308503
 10
182.6593664569907
 20
14.7627623121052
 10
182.659354900027
 20
14.86132756635981
 10
182.6593575019214
 20
14.9928112741722
 10
182.6593648531779
 20
15.124275480312
 10
182.6593442541351
 20
15.22287786275325
 10
182.6594082192028
 20
15.34896149354427
 10
182.658173394759
 20
15.51210091383771
 10
182.6532040396744
 20
15.6605418377755
 10
182.6507427258644
 20
15.73406440953872
 97
        1
330
A9
 75
     1
 76
     2
 52
45.0
 41
0.1
 77
     0
 78
     1
 53
45.0
 43
0.0
 44
0.0
 45
-0.282842712474619
 46
0.0
 79
     0
 98
        1
 10
0.0
 20
0.0
  0
HATCH
  5
C7
330
48
100
AcDbEntity
  8
1
  6
Continuous
 62
     2
100
AcDbHatch
 10
0.0
 20
0.0
 30
0.0
210
0.0
220
0.0
230
1.0
  2
CUSTOM5
 70
     0
 71
     1
 91
        1
 92
        1
 93
        1
 72
     4
 94
        3
 73
     0
 74
     0
 95
      118
 96
      114
 40
0.0
 40
0.0
 40
0.0
 40
0.0
 40
0.1054708162973078
 40
0.2466098270051592
 40
0.396591287459078
 40
0.5285525069753536
 40
0.6156245055641603
 40
0.6431434105796929
 40
0.7036850037985817
 40
0.7642265984504412
 40
0.7917455052354898
 40
0.9287404319989777
 40
1.106572819087987
 40
1.287544879680941
 40
1.317578308030458
 40
1.399928030857096
 40
1.522968204799871
 40
1.675072986590492
 40
1.844616533180569
 40
2.019973001638633
 40
2.189516548879946
 40
2.341621331585285
 40
2.464661506320421
 40
2.547011229646984
 40
2.577044658167948
 40
2.603797890893047
 40
2.662655002908848
 40
2.721512114949745
 40
2.748265347702925
 40
2.774215307345002
 40
2.845959313407332
 40
2.954338556588531
 40
3.090194227585708
 40
3.244367517100671
 40
3.407699615844431
 40
3.571031714539582
 40
3.725205003920258
 40
3.861060674729758
 40
3.969439917716451
 40
4.041183923629123
 40
4.067133883213116
 40
4.311886746012266
 40
4.547897258335611
 40
4.76474708304408
 40
4.952749679951887
 40
5.045772974196019
 40
5.137862019645104
 40
5.330543169793155
 40
5.553448265244148
 40
5.795083855888307
 40
6.043293412177372
 40
6.285761695541323
 40
6.313902908752807
 40
6.384255941793397
 40
6.475714884766985
 40
6.567173827759047
 40
6.637526860839825
 40
6.665668074074189
 40
6.692018920328161
 40
6.749990782071226
 40
6.807962643790594
 40
6.834313490018065
 40
6.856393084245315
 40
6.913335195649967
 40
6.991194817302603
 40
7.076026942283807
 40
7.153886563725326
 40
7.210828674844851
 40
7.232908268931187
 40
7.258199334923708
 40
7.324875781592358
 40
7.419142481925014
 40
7.527204308841954
 40
7.635266135230532
 40
7.729532834168518
 40
7.796209279292841
 40
7.821500344594787
 40
7.844652988850914
 40
7.899863140541721
 40
7.965759128053944
 40
8.020969279771313
 40
8.04412192404678
 40
8.069356610160915
 40
8.109134395441606
 40
8.132238100191318
 40
8.193147867786683
 40
8.279261678876855
 40
8.37797751267407
 40
8.476693347146853
 40
8.562807160411907
 40
8.623716930826694
 40
8.646820636853645
 40
8.671988793774458
 40
8.734909185828313
 40
8.816705695189027
 40
8.89850220481557
 40
8.961422597378002
 40
8.986590754551115
 40
9.012941600733267
 40
9.07091346238035
 40
9.128885324081839
 40
9.15523617032516
 40
9.180404327929203
 40
9.243324721948248
 40
9.325121234211984
 40
9.406917746637639
 40
9.469838141978094
 40
9.49500628827084
 40
9.517811184378981
 40
9.57219209048698
 40
9.637098333281212
 40
9.691479239515411
 40
9.71428412564345
 40
9.71428412564345
 40
9.71428412564345
 40
9.71428412564345
 10
185.2874469028654
 20
15.2688916318772
 10
185.3090990569039
 20
15.24111869242812
 10
185.3597257109474
 20
15.17618054561234
 10
185.4349383202592
 20
15.06891060312899
 10
185.5248482274346
 20
14.95377438266624
 10
185.5709169676674
 20
14.85357045748321
 10
185.6655825294654
 20
14.78434006814942
 10
185.6204439320413
 20
14.73771639678273
 10
185.5947047785789
 20
14.69660308866038
 10
185.5645196708011
 20
14.66065971727939
 10
185.5193684730561
 20
14.58579782596094
 10
185.4710504458561
 20
14.80782524253602
 10
185.3968539713074
 20
14.84510677337711
 10
185.2836047324606
 20
15.11610202130598
 10
185.2885133578171
 20
15.00095328446229
 10
185.2868486556307
 20
14.92836675781627
 10
185.2876830076715
 20
14.80625588483986
 10
185.2873609540265
 20
14.6591380081046
 10
185.2875076912457
 20
14.49307063956557
 10
185.2872950092723
 20
14.32187554608602
 10
185.2879497252034
 20
14.15552828635498
 10
185.285919246114
 20
14.00935173055693
 10
185.2913460399931
 20
13.8847104747461
 10
185.2804930868709
 20
13.81718656540626
 10
185.2956739155556
 20
13.75549061417021
 10
185.2457895108134
 20
13.76727503897003
 10
185.2017150342521
 20
13.75943822779968
 10
185.15823716302
 20
13.76760441372704
 10
185.1092346786487
 20
13.75538056738468
 10
185.1218731234824
 20
13.80960667249313
 10
185.1130182968448
 20
13.86936918907558
 10
185.1175058770312
 20
13.9792202904437
 10
185.115796013599
 20
14.11029975405679
 10
185.1163550915985
 20
14.26198011444328
 10
185.1161928768692
 20
14.42211074929953
 10
185.1162269924674
 20
14.58236865674566
 10
185.1162514960125
 20
14.73370247520439
 10
185.1161453543224
 20
14.86582156338601
 10
185.116429914193
 20
14.97294802533194
 10
185.1158675547566
 20
15.03808619579473
 10
185.1180765083688
 20
15.16618957858674
 10
185.0319435998602
 20
14.79097610391575
 10
184.9555140818501
 20
14.63918193123392
 10
184.8660040767833
 20
14.47766206446308
 10
184.7640413217326
 20
14.2047184882017
 10
184.7187976491038
 20
14.3671734659651
 10
184.6102355941671
 20
14.4560543205812
 10
184.7995791751752
 20
14.60549794961409
 10
184.85653405457
 20
14.79749136974925
 10
184.9717520993352
 20
15.02899622906757
 10
184.9940151630133
 20
15.21797259759063
 10
185.1771905152139
 20
15.49454089325931
 10
185.0538033597552
 20
15.48698978832095
 10
184.9925684166834
 20
15.48856772366119
 10
184.9081999617064
 20
15.48882592573673
 10
184.8204235085965
 20
15.48544845751206
 10
184.7656768696123
 20
15.49394814982021
 10
184.7104703026024
 20
15.48048561049788
 10
184.7222823035537
 20
15.52931442126764
 10
184.7142496151793
 20
15.57269004896709
 10
184.7228186104679
 20
15.61509438309573
 10
184.7102943409157
 20
15.66267796552117
 10
184.7555101538735
 20
15.65267212995109
 10
184.8014815562723
 20
15.65894105174061
 10
184.877722204771
 20
15.65593561405872
 10
184.9561296131993
 20
15.65770448278541
 10
185.0323992648932
 20
15.6546479398166
 10
185.0783009459473
 20
15.66103971376176
 10
185.1231733965399
 20
15.65093822978896
 10
185.1105552275633
 20
15.70157201581898
 10
185.1191936582705
 20
15.7550126188207
 10
185.1152361595441
 20
15.8486325513168
 10
185.1162325068334
 20
15.95112606688924
 10
185.1171927413072
 20
16.05353270248163
 10
185.1133211458005
 20
16.14735929609321
 10
185.1217789814363
 20
16.20036542840353
 10
185.1093075932834
 20
16.25211435651189
 10
185.1542106389849
 20
16.23850747226757
 10
185.1955083836771
 20
16.24100480320585
 10
185.2595344281051
 20
16.23648060574487
 10
185.2986111148787
 20
16.22781003043309
 10
185.3476543498743
 20
16.23515102070685
 10
185.322508003059
 20
16.19602896051764
 10
185.2815901333725
 20
16.20563842455804
 10
185.2910109616604
 20
16.15540148169778
 10
185.2855647318747
 20
16.1038594563949
 10
185.2881699601805
 20
16.0195970758452
 10
185.2870102202155
 20
15.92559135583408
 10
185.2883591064232
 20
15.83196865395525
 10
185.2849970101508
 20
15.74679517552223
 10
185.292095991777
 20
15.69716856072044
 10
185.2812569154547
 20
15.64993694969989
 10
185.3304010225246
 20
15.66201674936851
 10
185.3794877630147
 20
15.65447393363011
 10
185.4573714280641
 20
15.65686070361432
 10
185.5350365172897
 20
15.65899381905415
 10
185.5845393931354
 20
15.65193391922454
 10
185.6344594750639
 20
15.66360151936214
 10
185.622319851688
 20
15.61540235371393
 10
185.6305838229144
 20
15.57249219801236
 10
185.6223198650783
 20
15.52958201851385
 10
185.6344594549855
 20
15.48138288754865
 10
185.5845395158746
 20
15.49305034471511
 10
185.5350350651204
 20
15.48599202435047
 10
185.4573784382973
 20
15.48811665228604
 10
185.379464386576
 20
15.49053389365761
 10
185.3304500352718
 20
15.48291848194487
 10
185.2813246108944
 20
15.49507952557592
 10
185.2915559988572
 20
15.45073013424159
 10
185.2856677678054
 20
15.40925436202912
 10
185.287878830557
 20
15.34915394315304
 10
185.2874109346147
 20
15.3022578276289
 10
185.2874386992914
 20
15.27650146418197
 10
185.2874469028654
 20
15.2688916318772
 97
        1
330
AA
 75
     1
 76
     2
 52
45.0
 41
0.1
 77
     0
 78
     1
 53
45.0
 43
0.0
 44
0.0
 45
-0.282842712474619
 46
0.0
 79
     0
 98
        1
 10
0.0
 20
0.0
  0
HATCH
  5
C8
330
48
100
AcDbEntity
  8
1
  6
Continuous
 62
     2
100
AcDbHatch
 10
0.0
 20
0.0
 30
0.0
210
0.0
220
0.0
230
1.0
  2
CUSTOM6
 70
     0
 71
     1
 91
        1
 92
        1
 93
        1
 72
     4
 94
        3
 73
     0
 74
     0
 95
       91
 96
       87
 40
0.0
 40
0.0
 40
0.0
 40
0.0
 40
0.0345987051695718
 40
0.1258134969461369
 40
0.2547723404888987
 40
0.4026032099154125
 40
0.5504340793416704
 40
0.679392922883608
 40
0.7706077146571035
 40
0.8052064287780925
 40
1.124852390615278
 40
1.427402236308875
 40
1.706356627453516
 40
1.955541417875201
 40
2.169485938566346
 40
2.344350786664816
 40
2.480568411561966
 40
2.590440557428988
 40
2.649189927151116
 40
2.749320643306325
 40
2.912632739880027
 40
3.147745656000241
 40
3.244827496385041
 40
3.338490056946633
 40
3.583815413207064
 40
3.761423943238417
 40
3.886956104362581
 40
3.985855451886809
 40
4.091766255337694
 40
4.250186473811859
 40
4.422734315084482
 40
4.628285684838575
 40
4.872093227758396
 40
5.152549652145507
 40
5.46496713583749
 40
5.803201477852409
 40
6.160362988813889
 40
6.193449448275944
 40
6.284170385501598
 40
6.419718138764468
 40
6.587285046385718
 40
6.774063446723632
 40
6.967245678113615
 40
7.154024078817601
 40
7.321590987025987
 40
7.457138740890345
 40
7.547859678556081
 40
7.580946138182641
 40
7.608533084714692
 40
7.669224367077659
 40
7.72991564942987
 40
7.757502595949918
 40
7.790278062553371
 40
7.880146277430869
 40
8.014419963180332
 40
8.180411842397833
 40
8.365434637679302
 40
8.556801071622603
 40
8.741823866830716
 40
8.907815745916226
 40
9.04208943150738
 40
9.131957646249505
 40
9.164733112797082
 40
9.415425063140018
 40
9.667986180958488
 40
9.694169807462627
 40
9.756607686047614
 40
9.831130315322506
 40
9.89356819389997
 40
9.919751820398787
 40
9.9509679646906
 40
9.996421631210763
 40
10.22087981037465
 40
10.44341866197555
 40
10.47847970788867
 40
10.57091337438768
 40
10.70159545461242
 40
10.85140174170373
 40
11.0012080288049
 40
11.13189010907395
 40
11.22432377583023
 40
11.25938480938969
 40
11.28697175596157
 40
11.34766303835931
 40
11.4083543204208
 40
11.43594125892115
 40
11.43594125892115
 40
11.43594125892115
 40
11.43594125892115
 10
190.0818114333289
 20
15.55242795125078
 10
190.0702785844941
 20
15.55242790287916
 10
190.0283409444998
 20
15.55242773704165
 10
189.9434129719026
 20
15.5524312580091
 10
189.8207688553128
 20
15.55240926435879
 10
189.6791206916993
 20
15.55250801177055
 10
189.537975369849
 20
15.55214686232421
 10
189.4141351317905
 20
15.5532188360909
 10
189.3317217825382
 20
15.55092249091269
 10
189.1727791229692
 20
15.56048569373421
 10
189.3503402353375
 20
15.19785394311371
 10
189.3379739205452
 20
14.95243127723115
 10
189.4064519473864
 20
14.66862501324835
 10
189.469302432097
 20
14.43250999939036
 10
189.5452253431728
 20
14.23326740396129
 10
189.6303189577016
 20
14.07745347451374
 10
189.7244607592935
 20
13.97657857781393
 10
189.8282648207727
 20
13.92465852638964
 10
189.9125872030774
 20
13.97606484379619
 10
189.9351322179452
 20
14.09144544037516
 10
189.974573097537
 20
14.21885149702379
 10
189.9202919734944
 20
14.53622328086758
 10
190.0451218072473
 20
14.38982180140903
 10
190.2019291513603
 20
14.35795300331172
 10
190.0947720007056
 20
14.12421357767628
 10
190.0808711209866
 20
13.95972776583656
 10
190.0234709467225
 20
13.83130869122479
 10
189.9335020145008
 20
13.76018802352829
 10
189.8095274657877
 20
13.74432324142253
 10
189.6634273196859
 20
13.77993797554172
 10
189.5243894320283
 20
13.90000570500278
 10
189.4102003962144
 20
14.07435682550319
 10
189.3146141301486
 20
14.29946603111241
 10
189.2318652572626
 20
14.56388246006443
 10
189.1807179256411
 20
14.88187933098543
 10
189.0770189207339
 20
15.15543728488913
 10
189.2042841208519
 20
15.56005818612866
 10
189.0357890623019
 20
15.5511236784968
 10
188.9511995787076
 20
15.55315961418363
 10
188.8189876387628
 20
15.55213937388407
 10
188.6560505094103
 20
15.5525323031843
 10
188.4733759170532
 20
15.55235696313369
 10
188.2847057373383
 20
15.55260105307469
 10
188.1014469020189
 20
15.55185657906237
 10
187.9404746832718
 20
15.55416360522426
 10
187.8029808335276
 20
15.54799804883664
 10
187.728959037231
 20
15.56032838458212
 10
187.6613215186857
 20
15.54329323723557
 10
187.6732373719269
 20
15.59524438447528
 10
187.6655677285694
 20
15.64071424966529
 10
187.6732592225115
 20
15.68614453703704
 10
187.6613141797762
 20
15.73802395984568
 10
187.7283588305866
 20
15.72119143490261
 10
187.8017375665677
 20
15.73335409092669
 10
187.9379128305271
 20
15.72727231074956
 10
188.0973811801513
 20
15.72954834315056
 10
188.2789173085836
 20
15.7288123399896
 10
188.4658034862179
 20
15.72905954196131
 10
188.6468012316836
 20
15.72886400799251
 10
188.8080802578878
 20
15.72932234714837
 10
188.9393882124887
 20
15.72812673751204
 10
189.0225051322597
 20
15.73051347319741
 10
189.1556236547813
 20
15.72230605725461
 10
189.0645893502659
 20
15.97752868952654
 10
188.9789633074418
 20
16.24164358328245
 10
189.0990589003454
 20
16.22904442969166
 10
189.1514264948541
 20
16.22694235763074
 10
189.2214497569717
 20
16.22535399889658
 10
189.2671922337816
 20
16.21602567538111
 10
189.3220812646933
 20
16.22545966915428
 10
189.2963574785682
 20
16.17733028655168
 10
189.1825397571452
 20
16.18266829744175
 10
189.3159346621137
 20
15.95449174576774
 10
189.1943658735471
 20
15.7215685659592
 10
189.3223188769413
 20
15.73087258884437
 10
189.4049048406461
 20
15.72801001754678
 10
189.5307214850824
 20
15.729234374123
 10
189.6741469838058
 20
15.72932431888962
 10
189.8157420951728
 20
15.72746163183851
 10
189.9459127249968
 20
15.73333075937161
 10
190.019345228619
 20
15.72070340823201
 10
190.0891112922097
 20
15.7387756311041
 10
190.0775772605396
 20
15.68612850546325
 10
190.0833184346683
 20
15.64221317686548
 10
190.081661577091
 20
15.59089982676548
 10
190.081775756167
 20
15.56158792021635
 10
190.0818114333289
 20
15.55242795125078
 97
        1
330
AB
 75
     1
 76
     2
 52
45.0
 41
0.1
 77
     0
 78
     1
 53
45.0
 43
0.0
 44
0.0
 45
-0.282842712474619
 46
0.0
 79
     0
 98
        1
 10
0.0
 20
0.0
  0
HATCH
  5
C9
330
48
100
AcDbEntity
  8
1
  6
Continuous
 62
     2
100
AcDbHatch
 10
0.0
 20
0.0
 30
0.0
210
0.0
220
0.0
230
1.0
  2
CUSTOM7
 70
     0
 71
     1
 91
        1
 92
        1
 93
        1
 72
     4
 94
        3
 73
     0
 74
     0
 95
       75
 96
       71
 40
0.0
 40
0.0
 40
0.0
 40
0.0
 40
0.0342546099129691
 40
0.1245622414432346
 40
0.2522385480897536
 40
0.398599192294068
 40
0.5449598364980839
 40
0.6726361431438834
 40
0.7629437746736978
 40
0.797198393529799
 40
1.101723623449721
 40
1.40859124403667
 40
1.433332471690374
 40
1.487763172450169
 40
1.542193873081994
 40
1.566935100592542
 40
1.923523931821855
 40
2.271755704953711
 40
2.590579755100899
 40
2.858943305581158
 40
2.889120339309176
 40
2.918305855191119
 40
2.941366645531241
 40
2.996357760973135
 40
3.061992318140684
 40
3.116983433626884
 40
3.140044223997564
 40
3.411273122936454
 40
3.732441619741258
 40
3.761068217532956
 40
3.837787499630518
 40
3.948858699126155
 40
4.08054104910453
 40
4.219093782625913
 40
4.350776132722462
 40
4.461847332405796
 40
4.538566614678526
 40
4.567193212544773
 40
4.594907573999031
 40
4.666381453557598
 40
4.764111044011237
 40
4.870592538126068
 40
4.968322128642519
 40
5.039796008287233
 40
5.067510369784692
 40
5.094263603185906
 40
5.153120716668548
 40
5.211977830150998
 40
5.238731063552004
 40
5.272290535139243
 40
5.363380529445104
 40
5.497618415781782
 40
5.660621563454024
 40
5.838007341749725
 40
6.015393119911076
 40
6.178396267038702
 40
6.312634151842653
 40
6.403724143059643
 40
6.437283612672738
 40
6.464036846261356
 40
6.522893960004977
 40
6.581751071484245
 40
6.608504301591193
 40
6.63725394128134
 40
6.711397748903192
 40
6.812778057283804
 40
6.923237199249581
 40
7.024617507624225
 40
7.098761315207877
 40
7.127510946007828
 40
7.127510946007828
 40
7.127510946007828
 40
7.127510946007828
 10
188.4418622390564
 20
14.95849128473263
 10
188.4418622819707
 20
14.94707313408719
 10
188.4418624481129
 20
14.90555257842628
 10
188.4418593081786
 20
14.8214692200377
 10
188.4418788279801
 20
14.70004497322327
 10
188.4417912187737
 20
14.55980494047446
 10
188.442111623523
 20
14.42006556794575
 10
188.441160590974
 20
14.29745038894928
 10
188.4431978595967
 20
14.21587074438041
 10
188.4349433178746
 20
14.06271267077694
 10
188.7430797940901
 20
14.22560236054718
 10
189.0350645173737
 20
14.39482938688001
 10
189.0408354448707
 20
14.25973235781911
 10
189.0455471719891
 20
14.21617221160444
 10
189.0482535411917
 20
14.17211249350545
 10
189.0672545672961
 20
14.02272590363135
 10
188.6583942247302
 20
14.08681172241261
 10
188.3793710348832
 20
13.97296341411019
 10
188.1018081587165
 20
13.87364095811141
 10
187.8099837184401
 20
13.91630687596356
 10
187.7869144678657
 20
13.8132167974454
 10
187.7537474383333
 20
13.7869109124447
 10
187.7480653962739
 20
13.83455309036304
 10
187.7284214559044
 20
13.8718033611507
 10
187.7095089485623
 20
13.93007387847564
 10
187.6942849867708
 20
13.97385201007805
 10
187.6477246372934
 20
14.08759421046311
 10
187.9890897312452
 20
14.05576301120047
 10
188.2679649367388
 20
14.02161435106474
 10
188.2617753034908
 20
14.16913976479652
 10
188.2630935452774
 20
14.24013150908832
 10
188.262483168995
 20
14.34719767958662
 10
188.2625871570725
 20
14.47398529785997
 10
188.2629987964057
 20
14.6084924349605
 10
188.261390784197
 20
14.73395549951183
 10
188.2659902567927
 20
14.84505246719117
 10
188.256418650221
 20
14.90761886800686
 10
188.2704001783692
 20
14.96595388295001
 10
188.2147384386706
 20
14.95289710582236
 10
188.1575655197822
 20
14.96136307749497
 10
188.0616048925648
 20
14.95729976080635
 10
187.9633767522821
 20
14.95970889852473
 10
187.867258245756
 20
14.95551600613387
 10
187.8104648525811
 20
14.96429346441162
 10
187.7550356873384
 20
14.9509493685012
 10
187.7670679427917
 20
15.00036910959256
 10
187.7592003173937
 20
15.04393988030395
 10
187.7666295563829
 20
15.08830469118525
 10
187.7551930564143
 20
15.13902297763991
 10
187.8232102370133
 20
15.12162460757743
 10
187.8968496879747
 20
15.13417450237189
 10
188.0325064058211
 20
15.12799677011097
 10
188.1884909024525
 20
15.13029203093084
 10
188.3615926358143
 20
15.1294096826253
 10
188.5346942964181
 20
15.13029207142408
 10
188.6906789811216
 20
15.1279966295555
 10
188.8263351889797
 20
15.13417486262432
 10
188.8999756705652
 20
15.12162394218334
 10
188.9679914174724
 20
15.13902373012143
 10
188.9565590885922
 20
15.08830130414555
 10
188.9639539458297
 20
15.04397060811107
 10
188.956203991227
 20
15.00028307550195
 10
188.9681203741877
 20
14.95063590098476
 10
188.9108170223616
 20
14.96461411338424
 10
188.8520145789772
 20
14.95539755673252
 10
188.7525293633199
 20
14.95952268164928
 10
188.649428009835
 20
14.95822760025887
 10
188.5537846354573
 20
14.95854077077639
 10
188.4857467971617
 20
14.95848776697144
 10
188.4514462213443
 20
14.95849051871655
 10
188.4418622390564
 20
14.95849128473263
 97
        1
330
AC
 75
     1
 76
     2
 52
45.0
 41
0.1
 77
     0
 78
     1
 53
45.0
 43
0.0
 44
0.0
 45
-0.282842712474619
 46
0.0
 79
     0
 98
        1
 10
0.0
 20
0.0
  0
HATCH
  5
CA
330
48
100
AcDbEntity
  8
1
  6
Continuous
 62
     2
100
AcDbHatch
 10
0.0
 20
0.0
 30
0.0
210
0.0
220
0.0
230
1.0
  2
CUSTOM8
 70
     0
 71
     1
 91
        1
 92
        1
 93
        1
 72
     4
 94
        3
 73
     0
 74
     0
 95
       15
 96
       11
 40
0.0
 40
0.0
 40
0.0
 40
0.0
 40
0.2785535985096574
 40
0.5215624748198874
 40
0.6076917376040509
 40
0.6938210001741243
 40
0.9405019146454452
 40
1.221691403489057
 40
1.300471877080931
 40
1.379252341684652
 40
1.379252341684652
 40
1.379252341684652
 40
1.379252341684652
 10
189.5681493630999
 20
16.22930267330381
 10
189.6296017794178
 20
16.17691646592715
 10
189.7446649974113
 20
16.07882876798222
 10
190.0397348497243
 20
15.92889785897221
 10
189.9025147631857
 20
15.84343227515014
 10
189.8041227843778
 20
15.71085785201555
 10
189.7130033590651
 20
16.01616985781423
 10
189.3636839480658
 20
16.07967869465372
 10
189.511925837657
 20
16.17896509880878
 10
189.5494081874237
 20
16.21252348402383
 10
189.5681493630999
 20
16.22930267330381
 97
        1
330
AD
 75
     1
 76
     2
 52
45.0
 41
0.1
 77
     0
 78
     1
 53
45.0
 43
0.0
 44
0.0
 45
-0.282842712474619
 46
0.0
 79
     0
 98
        1
 10
0.0
 20
0.0
  0
HATCH
  5
CB
330
48
100
AcDbEntity
  8
1
  6
Continuous
 62
     2
100
AcDbHatch
 10
0.0
 20
0.0
 30
0.0
210
0.0
220
0.0
230
1.0
  2
CUSTOM9
 70
     0
 71
     1
 91
        1
 92
        1
 93
        1
 72
     4
 94
        3
 73
     0
 74
     0
 95
       35
 96
       31
 40
0.0
 40
0.0
 40
0.0
 40
0.0
 40
0.0335231036621181
 40
0.0713218571711795
 40
0.4278866681486214
 40
0.8116865841963021
 40
1.198190237999959
 40
1.561379546812586
 40
1.65998317462198
 40
1.759315573807101
 40
2.132719617230987
 40
2.525233363588737
 40
2.910815397779602
 40
3.265244364303193
 40
3.592606723581967
 40
3.964386154603912
 40
4.359942131737731
 40
4.758154118639193
 40
4.843846538699773
 40
4.936650065543129
 40
5.256616602537208
 40
5.581707404415941
 40
5.899719158308036
 40
6.198363494280604
 40
6.466301046615617
 40
6.493895311536967
 40
6.559697020196788
 40
6.638234543442391
 40
6.704036252154257
 40
6.731630508423063
 40
6.731630508423063
 40
6.731630508423063
 40
6.731630508423063
 10
191.973601056867
 20
16.23463843719134
 10
191.967600609779
 20
16.22480690542323
 10
191.9548344099157
 20
16.20388988579802
 10
191.7949362006559
 20
16.17127126532671
 10
192.2322025842335
 20
15.88206680336707
 10
192.4345394828262
 20
15.68041138358436
 10
192.6819564267972
 20
15.43749387603278
 10
193.1831513624607
 20
15.36047662757776
 10
193.0125562198969
 20
15.21876939174658
 10
192.9383299463202
 20
15.01710366209106
 10
192.6131432248187
 20
15.36956287174727
 10
192.3277741670664
 20
15.53175212559561
 10
192.0337604077657
 20
15.73687130053049
 10
191.8084452691134
 20
16.21827488595455
 10
191.5993085055521
 20
15.75343046609225
 10
191.3207873674833
 20
15.5435095225291
 10
191.0371383177209
 20
15.37424456359991
 10
190.7078639527831
 20
15.00142360907933
 10
190.6277012318224
 20
15.19708014459005
 10
190.4759724909744
 20
15.32491104190592
 10
190.9083395826794
 20
15.40454031765938
 10
191.0962565329766
 20
15.60026634915473
 10
191.3468477420503
 20
15.81632996916754
 10
191.571435047016
 20
15.9819099230006
 10
191.6259775409711
 20
16.26133964636828
 10
191.7494661029011
 20
16.24737950408078
 10
191.806027334452
 20
16.24521268867647
 10
191.8761870984945
 20
16.2404685988136
 10
191.9333414022106
 20
16.23709429350541
 10
191.964419032084
 20
16.23519854711119
 10
191.973601056867
 20
16.23463843719134
 97
        1
330
AE
 75
     1
 76
     2
 52
45.0
 41
0.1
 77
     0
 78
     1
 53
45.0
 43
0.0
 44
0.0
 45
-0.282842712474619
 46
0.0
 79
     0
 98
        1
 10
0.0
 20
0.0
  0
HATCH
  5
CC
330
48
100
AcDbEntity
  8
1
  6
Continuous
 62
     2
100
AcDbHatch
 10
0.0
 20
0.0
 30
0.0
210
0.0
220
0.0
230
1.0
  2
CUSTOM10
 70
     0
 71
     1
 91
        1
 92
        1
 93
        1
 72
     4
 94
        3
 73
     0
 74
     0
 95
       91
 96
       87
 40
0.0
 40
0.0
 40
0.0
 40
0.0
 40
0.0267532254356701
 40
0.0856103386464102
 40
0.1444674521996621
 40
0.1712206856618514
 40
0.2039416005642536
 40
0.2955601971652484
 40
0.4362601844616918
 40
0.616225284450725
 40
0.8256392189704698
 40
1.054685709844411
 40
1.293548478893474
 40
1.532411247938218
 40
1.761457738799483
 40
1.970871673298451
 40
2.150836773256647
 40
2.29153676049548
 40
2.383155356836586
 40
2.415876284101206
 40
2.442629517487851
 40
2.501486630948981
 40
2.560343744424128
 40
2.587096977826401
 40
2.6170681944408
 40
2.699247336755941
 40
2.822032643466254
 40
2.973822353257755
 40
3.143014704823197
 40
3.318007936879748
 40
3.487200288186581
 40
3.638989997548062
 40
3.761775303794532
 40
3.843954445752867
 40
3.873925662229563
 40
3.89081277350027
 40
3.907699884771422
 40
3.937960767857049
 40
3.980983618142136
 40
4.199085915228282
 40
4.439444339237047
 40
4.677588241260719
 40
5.050698317837605
 40
5.448212454762991
 40
5.855291218044516
 40
6.138575438885172
 40
6.417434507584021
 40
6.444551104393705
 40
6.504207617363006
 40
6.563864130314331
 40
6.590980727103925
 40
6.848609460381328
 40
7.109611990668306
 40
7.352910904445971
 40
7.557830220705309
 40
7.587518925913226
 40
7.652834077375668
 40
7.718149228845675
 40
7.747837934061954
 40
7.854880190300861
 40
7.976511257403399
 40
8.369487896592144
 40
8.757514959223437
 40
9.1260724193309
 40
9.460639380391934
 40
9.746695593035646
 40
9.777569943118467
 40
9.807050320931593
 40
9.830377336128716
 40
9.8860032954358
 40
9.9523955694297
 40
10.00802152870605
 40
10.03134854388197
 40
10.21356951009562
 40
10.42203479292853
 40
10.66154556731043
 40
10.9169378956428
 40
11.15832906556537
 40
11.18982674596592
 40
11.27286608520376
 40
11.39026653033318
 40
11.52484752840849
 40
11.659428526484
 40
11.77682897161438
 40
11.85986831085632
 40
11.89136598230377
 40
11.89136598230377
 40
11.89136598230377
 40
11.89136598230377
 10
190.7027885008197
 20
14.70699600701772
 10
190.7028237765289
 20
14.71587847311985
 10
190.7029366710797
 20
14.74430237047346
 10
190.7012984568489
 20
14.79409639169803
 10
190.7069750292912
 20
14.83657564478154
 10
190.6956928731707
 20
14.88730154856847
 10
190.7632296979033
 20
14.87012900740109
 10
190.8388029210701
 20
14.88290227165996
 10
190.9828357056001
 20
14.87629729457382
 10
191.1569419185428
 20
14.87888462206466
 10
191.3639599611004
 20
14.87800591955553
 10
191.5894688172378
 20
14.87828207920026
 10
191.8251162293406
 20
14.87818339658663
 10
192.0607640531349
 20
14.87828184412767
 10
192.2862717580626
 20
14.87800678190789
 10
192.4932934632805
 20
14.87888186270735
 10
192.6673888915288
 20
14.87630522678446
 10
192.8114492071986
 20
14.88288290449214
 10
192.8869691915292
 20
14.87016243405604
 10
192.954577603703
 20
14.88726400191686
 10
192.9430840140676
 20
14.83674785802941
 10
192.9505104581733
 20
14.79253252226501
 10
192.9428838927986
 20
14.7486796650361
 10
192.9546489459425
 20
14.69878374479328
 10
192.8930788491983
 20
14.71393227712512
 10
192.8256791738672
 20
14.70310665350673
 10
192.7013004056221
 20
14.70852031626236
 10
192.5554428236571
 20
14.70649205390785
 10
192.3893576440086
 20
14.70715777578387
 10
192.2188412621725
 20
14.70689643521242
 10
192.051979085539
 20
14.70721553391094
 10
191.9087346827106
 20
14.70635302590762
 10
191.7773313869835
 20
14.70863300482987
 10
191.7239859134658
 20
14.70407704374202
 10
191.6485188456913
 20
14.70999914992877
 10
191.6769075779233
 20
14.70094169343353
 10
191.7033652409543
 20
14.69725912268928
 10
191.6633522907701
 20
14.66654271968273
 10
191.5713663691868
 20
14.67667591174638
 10
191.5439396207069
 20
14.43032502247787
 10
191.4478793967235
 20
14.27499558764372
 10
191.1917277964473
 20
13.9452541793157
 10
191.7627537732762
 20
14.08430022210451
 10
192.0173656320516
 20
14.08291779973364
 10
192.6279647048617
 20
13.99790569242084
 10
192.3340698578083
 20
14.29685417558207
 10
192.0133304286518
 20
14.44330856901779
 10
192.1313543360433
 20
14.50025540818286
 10
192.1724716466261
 20
14.52420099873348
 10
192.2156812394411
 20
14.5459975881123
 10
192.317457409445
 20
14.60928721253904
 10
192.4328867625248
 20
14.3514715140878
 10
192.6329591642278
 20
14.21616041113683
 10
192.7269077387229
 20
14.03792795138884
 10
192.9558829746392
 20
13.87997821027047
 10
192.8596031846708
 20
13.829159725763
 10
192.8167959763779
 20
13.79881292523052
 10
192.7718243528778
 20
13.77466130281463
 10
192.7121720925212
 20
13.72552146747568
 10
192.6789731061325
 20
13.85997475673614
 10
192.5582013350795
 20
14.01594265286576
 10
192.1970976005979
 20
13.88569928059557
 10
191.8385061955541
 20
13.90224694409483
 10
191.4570920450081
 20
13.89331229351862
 10
191.1703455282891
 20
13.82882671672417
 10
190.8592055599717
 20
13.94230668192809
 10
190.8268737818788
 20
13.83122259927769
 10
190.7896178253317
 20
13.81196313850011
 10
190.7865737632754
 20
13.85874784087298
 10
190.7679892860607
 20
13.89806853919133
 10
190.7512436616778
 20
13.95765983478233
 10
190.7383730915753
 20
14.00201969871283
 10
190.7042327806431
 20
14.09106331120201
 10
190.9482714457754
 20
14.02181042943767
 10
191.1441394486672
 20
14.00030369057741
 10
191.2395426381277
 20
14.28226484478462
 10
191.2945135769596
 20
14.44363045421122
 10
191.5159619357156
 20
14.71391177589739
 10
191.3849239381215
 20
14.70548446853734
 10
191.3110026555854
 20
14.7077900849697
 10
191.1977459876242
 20
14.70671378321657
 10
191.0694251807485
 20
14.7070763907651
 10
190.9404252030416
 20
14.70697724466086
 10
190.8287840946291
 20
14.70699932712572
 10
190.7514663970027
 20
14.7069957918967
 10
190.7132876532011
 20
14.70699595845081
 10
190.7027885008197
 20
14.70699600701772
 97
        1
330
AF
 75
     1
 76
     2
 52
45.0
 41
0.1
 77
     0
 78
     1
 53
45.0
 43
0.0
 44
0.0
 45
-0.282842712474619
 46
0.0
 79
     0
 98
        1
 10
0.0
 20
0.0
  0
HATCH
  5
CD
330
48
100
AcDbEntity
  8
1
  6
Continuous
 62
     2
100
AcDbHatch
 10
0.0
 20
0.0
 30
0.0
210
0.0
220
0.0
230
1.0
  2
CUSTOM11
 70
     0
 71
     1
 91
        1
 92
        1
 93
        1
 72
     4
 94
        3
 73
     0
 74
     0
 95
      131
 96
      127
 40
0.0
 40
0.0
 40
0.0
 40
0.0
 40
0.0195577029826344
 40
0.042649053746224
 40
0.2863607575857143
 40
0.5344948436189628
 40
0.7842238845573328
 40
0.8737315789467544
 40
0.9803832810312838
 40
1.092842274517009
 40
1.199761146656746
 40
1.28978876818645
 40
1.35157358078614
 40
1.370727117561386
 40
1.416400936017779
 40
1.470914848355906
 40
1.516588666791712
 40
1.535742203552793
 40
1.634216592293098
 40
1.760283341174913
 40
1.897966686681979
 40
2.031216387368807
 40
2.049689751137801
 40
2.101115601646737
 40
2.179502577739857
 40
2.278859318313971
 40
2.39319446225863
 40
2.516516648383746
 40
2.642834515405875
 40
2.766156701983376
 40
2.880491846754493
 40
2.979848588358535
 40
3.058235565443714
 40
3.109661416668869
 40
3.128134780704044
 40
3.146783742386361
 40
3.191254343315222
 40
3.244332157315881
 40
3.288802758225784
 40
3.307451719895027
 40
3.327717853844641
 40
3.383747753579999
 40
3.46838866592439
 40
3.574487837698699
 40
3.694892515728803
 40
3.822449946851941
 40
3.95000737792033
 40
4.070412055800423
 40
4.176511227367978
 40
4.261152139501425
 40
4.317182039076618
 40
4.337448172964537
 40
4.620011002696146
 40
4.885096638397326
 40
4.945373043518201
 40
5.014107710488553
 40
5.070481727651936
 40
5.319246955636483
 40
5.584812164505998
 40
5.85900091205685
 40
6.133746937542031
 40
6.401732212968835
 40
6.420736683995426
 40
6.472845717451077
 40
6.550702743894004
 40
6.646951193874213
 40
6.754234497930537
 40
6.865196086587315
 40
6.972479390357774
 40
7.068727839771936
 40
7.146584865450945
 40
7.198693898189174
 40
7.217698368905315
 40
7.234950401630793
 40
7.27608986426984
 40
7.325191803515954
 40
7.366331266090342
 40
7.383583298769694
 40
7.402779163492071
 40
7.453386443254503
 40
7.524934666445504
 40
7.606953361405844
 40
7.688972056428995
 40
7.760520279784246
 40
7.811127559734488
 40
7.830323424546109
 40
7.847844055299739
 40
7.89479934566678
 40
7.962779392744468
 40
8.043374293560515
 40
8.128174145149421
 40
8.208769044817226
 40
8.276749090376926
 40
8.323704379669485
 40
8.341225010056219
 40
8.358497614800367
 40
8.401679126686572
 40
8.45781509218563
 40
8.513951057728034
 40
8.55713256970799
 40
8.574405174505033
 40
8.602340668616394
 40
8.643455660539937
 40
8.663225271966605
 40
8.715345156564252
 40
8.789031889628587
 40
8.873502045520317
 40
8.95797219432394
 40
9.03165892556783
 40
9.083778811234522
 40
9.103548423002984
 40
9.11955008312352
 40
9.160817522379823
 40
9.217244429110188
 40
9.278724491644674
 40
9.335151398295459
 40
9.376418837357754
 40
9.392420497300542
 40
9.40119630273476
 40
9.417494229384236
 40
9.426270027749508
 40
9.44087507547754
 40
9.47570249699872
 40
9.517270709865882
 40
9.552098131994049
 40
9.566703169884256
 40
9.566703169884256
 40
9.566703169884256
 40
9.566703169884256
 10
194.6170254148479
 20
15.67015871511028
 10
194.6134345093371
 20
15.6645369070216
 10
194.6056039123624
 20
15.65227754419111
 10
194.5129968974549
 20
15.61601916040979
 10
194.4887622233246
 20
15.40148444212712
 10
194.3858709845938
 20
15.22197284509709
 10
194.1220492364306
 20
15.03615573798146
 10
194.284547156918
 20
14.95959336566082
 10
194.3607225760838
 20
14.89856693195441
 10
194.4492171072758
 20
14.8351580454476
 10
194.538993023311
 20
14.77525634219559
 10
194.5883817636045
 20
14.72102154849208
 10
194.6745708157382
 20
14.69286240541832
 10
194.6411260674228
 20
14.65713309652813
 10
194.621467116631
 20
14.62550387991906
 10
194.5919888217882
 20
14.58475872796067
 10
194.568898944603
 20
14.55504663489644
 10
194.5380205968356
 20
14.50211422668495
 10
194.4729193365739
 20
14.62740334938903
 10
194.3796000122415
 20
14.68213900233934
 10
194.2950636285138
 20
14.73916423939343
 10
194.1722498125743
 20
14.89675287427524
 10
194.17644508473
 20
14.82035806766837
 10
194.1751478652678
 20
14.77361280161297
 10
194.1758126448076
 20
14.69584785812602
 10
194.1755549986956
 20
14.59902068324423
 10
194.1756431239922
 20
14.4865027907881
 10
194.1756077302281
 20
14.36524085945699
 10
194.1756511758279
 20
14.24086897858962
 10
194.1755199942406
 20
14.11967683631336
 10
194.1759477562046
 20
14.00691148919744
 10
194.174667820231
 20
13.91082913768744
 10
194.1779759851044
 20
13.831138264687
 10
194.1715197740085
 20
13.78815175788784
 10
194.1806208705556
 20
13.74955432372043
 10
194.1447910339935
 20
13.7581088772407
 10
194.1115223815252
 20
13.75342519985446
 10
194.060456257604
 20
13.75351298759784
 10
194.0269723972813
 20
13.75794430283821
 10
193.9907585408754
 20
13.74960793842509
 10
194.0009782568665
 20
13.79145277179284
 10
193.9936487887773
 20
13.83778560820173
 10
193.9973633136103
 20
13.92374831106015
 10
193.9959480554896
 20
14.02605142704849
 10
193.9964105554638
 20
14.14453223931512
 10
193.996277368623
 20
14.26957683153356
 10
193.9963015910045
 20
14.3947582810705
 10
193.9963354925551
 20
14.51286645379058
 10
193.9962060293132
 20
14.61628748709516
 10
193.9965507549081
 20
14.69932036153667
 10
193.995869827869
 20
14.75143368521243
 10
193.9994586600624
 20
14.87912907821361
 10
193.7826171386436
 20
14.58048716819624
 10
193.6021354921952
 20
14.35263981511523
 10
193.5490322295612
 20
14.49373443289814
 10
193.5200429133148
 20
14.54325767560941
 10
193.419664806282
 20
14.64641779790106
 10
193.740512772326
 20
14.72695035023778
 10
193.8689897005429
 20
14.91066283036431
 10
194.0906454325359
 20
15.11931995771762
 10
194.1770224894068
 20
15.29339211228342
 10
194.4549394229075
 20
15.56967051342511
 10
194.3346247839283
 20
15.56534559551113
 10
194.2863197351349
 20
15.56614856202552
 10
194.2102377454905
 20
15.56574582146583
 10
194.116701000975
 20
15.56590275611608
 10
194.0117594788557
 20
15.56582502576223
 10
193.9033887738717
 20
15.56595464378553
 10
193.7981454235897
 20
15.56554393490691
 10
193.7056237819412
 20
15.5668207367159
 10
193.6268130800707
 20
15.56340766534849
 10
193.5839674565379
 20
15.57023350036319
 10
193.5449499586515
 20
15.56065064201123
 10
193.5526365271864
 20
15.59420779565542
 10
193.5485464404312
 20
15.62523550322232
 10
193.5485531368814
 20
15.672365292709
 10
193.5526239724912
 20
15.70340941646779
 10
193.5449495574582
 20
15.73701861635901
 10
193.5834819405494
 20
15.72748410420872
 10
193.624122801448
 20
15.73397435498071
 10
193.6951471850463
 20
15.73100150650254
 10
193.7729318149633
 20
15.73174761399158
 10
193.8507292246474
 20
15.73247814044525
 10
193.9217232089907
 20
15.7295423551416
 10
193.962427979182
 20
15.73595468772952
 10
194.000985348991
 20
15.72650524176004
 10
193.9927342754927
 20
15.76264692158784
 10
193.9982346669358
 20
15.80129837613227
 10
193.9955754206163
 20
15.86913528561839
 10
193.9965815471533
 20
15.9459164153874
 10
193.9960178018319
 20
16.02849393582757
 10
193.9970714526592
 20
16.10517329229878
 10
193.994267586313
 20
16.173319907767
 10
194.0000702721304
 20
16.21132399809346
 10
193.9915654551158
 20
16.24758448077646
 10
194.0255610233125
 20
16.23755723771853
 10
194.05945756831
 20
16.24073266813706
 10
194.1126669060346
 20
16.2350896564061
 10
194.1660768574483
 20
16.23434774436425
 10
194.199591464949
 20
16.2281922348298
 10
194.2388086183039
 20
16.23346029773593
 10
194.2120263698492
 20
16.1925338079349
 10
194.1708111001723
 20
16.20371204538111
 10
194.1782641540874
 20
16.15867056192124
 10
194.1742227952184
 20
16.11412278028144
 10
194.176171404964
 20
16.04223572621703
 10
194.1752364849758
 20
15.96168630588771
 10
194.176510719003
 20
15.88173995404994
 10
194.1732043793863
 20
15.80841837083183
 10
194.1802106179961
 20
15.76688643002568
 10
194.1701440380126
 20
15.72752418568113
 10
194.2029814803921
 20
15.73468063430981
 10
194.236457729648
 20
15.73027243137945
 10
194.2915053476019
 20
15.73217943347897
 10
194.3489502595314
 20
15.73185366407288
 10
194.4023026248309
 20
15.73106308733081
 10
194.4398540896638
 20
15.73313959118074
 10
194.4623172523237
 20
15.73022338167109
 10
194.4751678073731
 20
15.73572552644056
 10
194.4858255685888
 20
15.7380111819779
 10
194.4986635650143
 20
15.74494972588052
 10
194.5145991033071
 20
15.72853046313672
 10
194.5410623920891
 20
15.71709122319449
 10
194.5726805253757
 20
15.6964468783519
 10
194.5987255892151
 20
15.68116869628295
 10
194.6128517723973
 20
15.67266976323184
 10
194.6170254148479
 20
15.67015871511028
 97
        1
330
B0
 75
     1
 76
     2
 52
45.0
 41
0.1
 77
     0
 78
     1
 53
45.0
 43
0.0
 44
0.0
 45
-0.282842712474619
 46
0.0
 79
     0
 98
        1
 10
0.0
 20
0.0
  0
HATCH
  5
CE
330
48
100
AcDbEntity
  8
1
  6
Continuous
 62
     2
100
AcDbHatch
 10
0.0
 20
0.0
 30
0.0
210
0.0
220
0.0
230
1.0
  2
CUSTOM12
 70
     0
 71
     1
 91
        1
 92
        1
 93
        1
 72
     4
 94
        3
 73
     0
 74
     0
 95
      124
 96
      120
 40
0.0
 40
0.0
 40
0.0
 40
0.0
 40
0.027818722962451
 40
0.1011590162384269
 40
0.2048470170590239
 40
0.3237088716559245
 40
0.4425707262522
 40
0.5462587270699547
 40
0.6195990203311798
 40
0.647417752257866
 40
0.6750060736115224
 40
0.7357003855242759
 40
0.7963946998054492
 40
0.8239830245571784
 40
0.8540933811102878
 40
0.9373396629409558
 40
1.063094687343208
 40
1.220731268638046
 40
1.399622220914721
 40
1.589140358637706
 40
1.778658496423815
 40
1.957549448940454
 40
2.115186030873075
 40
2.240941056914379
 40
2.324187341760449
 40
2.354297700109298
 40
2.381886024671805
 40
2.442580338710393
 40
2.503274652750417
 40
2.530862977314524
 40
2.560983949278477
 40
2.640393784452823
 40
2.752662861759018
 40
2.881361560118006
 40
3.010060258455025
 40
3.122329335705172
 40
3.201739170817786
 40
3.231860142753146
 40
3.264298024030201
 40
3.352343701778072
 40
3.482095226868593
 40
3.639650650172851
 40
3.811108022565306
 40
3.982565394927811
 40
4.140120818152391
 40
4.269872343141098
 40
4.357918020802159
 40
4.390355902043788
 40
4.423256253992357
 40
4.508104530072878
 40
4.624121560636646
 40
4.750528176031403
 40
4.86654520660185
 40
4.951393482691807
 40
4.984293834645208
 40
5.011450833242125
 40
5.071196230151915
 40
5.130941627056994
 40
5.158098625648662
 40
5.190998977601352
 40
5.275847253689178
 40
5.391864284256612
 40
5.518270899648157
 40
5.634287930209196
 40
5.71913620628787
 40
5.752036558235758
 40
5.782130946282783
 40
5.862783906228958
 40
5.979550131774825
 40
6.117984316640231
 40
6.263641154587776
 40
6.402075339413982
 40
6.518841564907777
 40
6.599494524815358
 40
6.629588912848596
 40
6.654403028226172
 40
6.713575149487939
 40
6.784199939329256
 40
6.843372060493358
 40
6.868186175802604
 40
6.896246243201684
 40
6.939586233758081
 40
6.967846564564709
 40
7.043584251089647
 40
7.153234334451505
 40
7.283231855734255
 40
7.420011856035289
 40
7.550009376579641
 40
7.65965945883504
 40
7.735397144417033
 40
7.763657474851205
 40
7.796409728010862
 40
7.880876065096136
 40
7.996370852465522
 40
8.122208446418417
 40
8.237703224799011
 40
8.322169562010705
 40
8.354921815205719
 40
8.382078813307501
 40
8.44182420920681
 40
8.501569605239965
 40
8.528726603485545
 40
8.561478856695594
 40
8.645945193877644
 40
8.761439980865156
 40
8.887277580764298
 40
9.002772362000819
 40
9.08723869666104
 40
9.119990949235493
 40
9.152428830613191
 40
9.240474508638407
 40
9.370226034149354
 40
9.527781457984236
 40
9.699238830981225
 40
9.870696203978413
 40
10.02825162781383
 40
10.15800315332545
 40
10.246048831351
 40
10.27848670378502
 40
10.27848670378502
 40
10.27848670378502
 40
10.27848670378502
 10
195.3821827564383
 20
14.01410517385757
 10
195.3914554737523
 20
14.01410498511274
 10
195.4251744536861
 20
14.01410430876714
 10
195.4934706812465
 20
14.01411807243305
 10
195.592014171158
 20
14.01403224219544
 10
195.7062066464812
 20
14.01441755612251
 10
195.818589441707
 20
14.01300835897545
 10
195.9214376600118
 20
14.01719117422243
 10
195.9806839874849
 20
14.00823089251983
 10
196.0371265937032
 20
14.02164434526061
 10
196.0246255586955
 20
13.97087198613361
 10
196.0329549635704
 20
13.92589320939067
 10
196.0248170841119
 20
13.88056752990488
 10
196.0370529214457
 20
13.82931932408466
 10
195.9747773490333
 20
13.84447955365276
 10
195.9060513026868
 20
13.83359750710743
 10
195.7782756749592
 20
13.83911304747972
 10
195.6262984511643
 20
13.83700851253698
 10
195.4502695972523
 20
13.83771002588473
 10
195.2644431934287
 20
13.83745237531291
 10
195.0786167437176
 20
13.83771005144603
 10
194.9025880142169
 20
13.83700841847731
 10
194.7506104154195
 20
13.83911332229988
 10
194.6228357664555
 20
13.8335968076764
 10
194.5541077836581
 20
13.84448077125942
 10
194.4918349042884
 20
13.82931786684209
 10
194.5040616290018
 20
13.88057510805171
 10
194.4960004462598
 20
13.92582473272425
 10
194.5040675809893
 20
13.97106357955323
 10
194.4918238487084
 20
14.02234176909958
 10
194.5525017120698
 20
14.00749577363134
 10
194.6162810745737
 20
14.01756448170736
 10
194.7277314353503
 20
14.01294644211999
 10
194.8497533443823
 20
14.01413328905469
 10
194.9719538137824
 20
14.01515863900634
 10
195.0829794287392
 20
14.01092475623402
 10
195.1476517413959
 20
14.02018584521739
 10
195.2091162810501
 20
14.00604423049682
 10
195.1930065601337
 20
14.07235527884517
 10
195.2042980327358
 20
14.14447790121975
 10
195.198740082256
 20
14.27513760888285
 10
195.200803506169
 20
14.42607323708241
 10
195.2000167127295
 20
14.59335873107885
 10
195.2007845215628
 20
14.76061110332302
 10
195.1988038785628
 20
14.91163289269912
 10
195.2041306156621
 20
15.04206069552994
 10
195.1933101388425
 20
15.11465442605898
 10
195.2090326429875
 20
15.18150469436797
 10
195.143270813249
 20
15.16580512490823
 10
195.0756367830764
 20
15.17609243083994
 10
194.9615885293809
 20
15.17113786847121
 10
194.8451242674902
 20
15.17414128030474
 10
194.7306554121477
 20
15.16880303143387
 10
194.6640324657812
 20
15.18001268074824
 10
194.5990769715185
 20
15.1634913266501
 10
194.6107989758708
 20
15.21473720477058
 10
194.6032830189121
 20
15.25950333784091
 10
194.6107989878835
 20
15.30426944897961
 10
194.5990769505346
 20
15.35551536129741
 10
194.66403263392
 20
15.33899381766816
 10
194.7306533339822
 20
15.35020571373943
 10
194.8451352858063
 20
15.34485436710665
 10
194.9615454436962
 20
15.34791188771117
 10
195.0757660174641
 20
15.34278499010708
 10
195.1430150439227
 20
15.35345733355598
 10
195.2083325941438
 20
15.33742082669077
 10
195.1941391448553
 20
15.39949685750054
 10
195.2036059462994
 20
15.46586761628762
 10
195.1990269004085
 20
15.58239972741966
 10
195.2007696555948
 20
15.71426685022376
 10
195.1997551495391
 20
15.85615960150273
 10
195.2017191344373
 20
15.9876905070258
 10
195.1964668553851
 20
16.10524577283002
 10
195.2073408763474
 20
16.16947789001584
 10
195.1919536641853
 20
16.23108802545047
 10
195.24075915378
 20
16.21702407382111
 10
195.2853995564726
 20
16.21954742075314
 10
195.3538643946742
 20
16.2151279740171
 10
195.3959106169102
 20
16.20613025544035
 10
195.4487544758775
 20
16.2141171486651
 10
195.4207035002014
 20
16.17113917611674
 10
195.3749142248594
 20
16.18259552043837
 10
195.3869539073264
 20
16.12173520005137
 10
195.3796086070641
 20
16.05769299468773
 10
195.3831195826162
 20
15.94909368863911
 10
195.3819806760173
 20
15.82494319144753
 10
195.3819174780263
 20
15.69189719829878
 10
195.3832872966867
 20
15.56797381249555
 10
195.3791638801314
 20
15.45868337849339
 10
195.3877763103564
 20
15.3960858009417
 10
195.3746757454401
 20
15.33740133296365
 10
195.4393884328198
 20
15.35362113810902
 10
195.5060405953155
 20
15.34270260383311
 10
195.6198779541103
 20
15.34793740173756
 10
195.7357259122097
 20
15.34485547516913
 10
195.849692426328
 20
15.35018259812512
 10
195.9160341018099
 20
15.33904208166543
 10
195.980718852548
 20
15.35546979593178
 10
195.9689820772722
 20
15.3042592521005
 10
195.976516806304
 20
15.25950334121
 10
195.9689820992258
 20
15.21474739010026
 10
195.9807188140736
 20
15.16353690871039
 10
195.9160344075252
 20
15.17996427794219
 10
195.8496886430824
 20
15.16882784447268
 10
195.7357459487012
 20
15.17413115893119
 10
195.6197995623054
 20
15.17114764593543
 10
195.5062756882122
 20
15.17606892268392
 10
195.4389231318804
 20
15.16585087513518
 10
195.3734285122495
 20
15.18145996138814
 10
195.3891713619218
 20
15.1146385182741
 10
195.3783275998213
 20
15.04207057815878
 10
195.3836581629793
 20
14.91162247614415
 10
195.3817136151855
 20
14.76064558185225
 10
195.3823133683215
 20
14.59322243934158
 10
195.3821506559604
 20
14.42656176118371
 10
195.3821895488136
 20
14.27360142921636
 10
195.3821816413099
 20
14.14849178985705
 10
195.3821828382744
 20
14.06507890991419
 10
195.3821827716208
 20
14.02491778281976
 10
195.3821827564383
 20
14.01410517385757
 97
        1
330
B1
 75
     1
 76
     2
 52
45.0
 41
0.1
 77
     0
 78
     1
 53
45.0
 43
0.0
 44
0.0
 45
-0.282842712474619
 46
0.0
 79
     0
 98
        1
 10
0.0
 20
0.0
  0
HATCH
  5
CF
330
48
100
AcDbEntity
  8
1
  6
Continuous
 62
     2
100
AcDbHatch
 10
0.0
 20
0.0
 30
0.0
210
0.0
220
0.0
230
1.0
  2
CUSTOM13
 70
     0
 71
     1
 91
        1
 92
        1
 93
        3
 72
     4
 94
        3
 73
     0
 74
     0
 95
       24
 96
       20
 40
0.0
 40
0.0
 40
0.0
 40
0.0
 40
0.2211075008754063
 40
0.4273218586245171
 40
0.5080174679240425
 40
0.5914835907871079
 40
0.8143265690193515
 40
1.054651302686661
 40
1.295452694023251
 40
1.518109231328904
 40
1.54086432190552
 40
1.595126460622781
 40
1.659890947896094
 40
1.714153085187453
 40
1.736908174961753
 40
1.76495110073544
 40
1.801562291221029
 40
1.953914424543701
 40
2.126104167379786
 40
2.126104167379786
 40
2.126104167379786
 40
2.126104167379786
 10
185.937536955689
 20
15.58989295113015
 10
185.9112579081812
 20
15.53097628234372
 10
185.8604698894425
 20
15.41711139679258
 10
185.8131784839113
 20
15.14441958233119
 10
185.7043482802618
 20
15.2444548257545
 10
185.5514800279638
 20
15.27118593367336
 10
185.7686155181199
 20
15.48518135017631
 10
185.7838483674381
 20
15.70332117782487
 10
185.8906889492001
 20
15.88451579066426
 10
185.8305380947077
 20
16.16913226311401
 10
185.9334317395402
 20
16.14114089222451
 10
185.977993346815
 20
16.13243251602299
 10
186.0380842395397
 20
16.12139654183355
 10
186.0756619587438
 20
16.10767523055559
 10
186.1252466928606
 20
16.10756076160223
 10
186.0930158919325
 20
16.07306592398623
 10
186.0171802221881
 20
16.08404104537965
 10
186.0429447159694
 20
15.89858969582449
 10
186.005589676385
 20
15.80702313549588
 10
185.9857704961609
 20
15.75844135397705
 72
     4
 94
        3
 73
     0
 74
     0
 95
       70
 96
       66
 40
0.0
 40
0.0
 40
0.0
 40
0.0
 40
0.0241731073021472
 40
0.0846058988987582
 40
0.1631685280353852
 40
0.2417311571790608
 40
0.302163948829332
 40
0.3263370654896678
 40
0.3533118254250018
 40
0.4228783438923248
 40
0.5179999095314539
 40
0.6216398239467239
 40
0.7167613891500842
 40
0.7863279069651
 40
0.8133026791762973
 40
0.837294399877281
 40
0.8945054261373439
 40
0.9627895541962925
 40
1.020000580349074
 40
1.043992300975172
 40
1.071934345522917
 40
1.113121768772903
 40
1.145225199332228
 40
1.225483775412763
 40
1.329819923771471
 40
1.434156071994361
 40
1.514414647795782
 40
1.54651807820839
 40
1.578974764260164
 40
1.662678849314159
 40
1.777131373668379
 40
1.90183337747477
 40
2.01628590050056
 40
2.099989982527927
 40
2.132446666570286
 40
2.158782354486008
 40
2.216720867907799
 40
2.274659381334222
 40
2.300995069256156
 40
2.333451754066128
 40
2.417155836543809
 40
2.531608358985248
 40
2.656310362283743
 40
2.770762886388876
 40
2.854466971340041
 40
2.886923657363847
 40
2.913597976833281
 40
2.982389642875089
 40
3.076451716946953
 40
3.178937260458569
 40
3.272999334739974
 40
3.341791001059199
 40
3.368465320663511
 40
3.396976080738761
 40
3.472140811845997
 40
3.578408190308687
 40
3.700226892456151
 40
3.822045594634397
 40
3.928312973256532
 40
4.003477705314929
 40
4.031988456866995
 40
4.058324144797793
 40
4.116262658236955
 40
4.174201171400752
 40
4.200536849608686
 40
4.200536849608686
 40
4.200536849608686
 40
4.200536849608686
 10
185.9857704961609
 20
15.75844135397705
 10
185.9938259544679
 20
15.75844359811686
 10
186.0220200663241
 20
15.75845146032797
 10
186.0765534803673
 20
15.75830754828372
 10
186.1482891808604
 20
15.75909120499898
 10
186.2236240137062
 20
15.7562757046381
 10
186.2713052366439
 20
15.76298403400958
 10
186.3195071245617
 20
15.75197563692431
 10
186.3062571799875
 20
15.80546402997033
 10
186.3151093964539
 20
15.86049583543092
 10
186.3108698036287
 20
15.95419908726109
 10
186.313348348128
 20
16.04959482218532
 10
186.3090938706062
 20
16.14356821983387
 10
186.3179818665847
 20
16.19795062438012
 10
186.3046977409946
 20
16.25233997691461
 10
186.351411927711
 20
16.23842216335358
 10
186.3943254545738
 20
16.24103877374043
 10
186.4605443456686
 20
16.23648422450755
 10
186.5013342271798
 20
16.22778162134162
 10
186.5525145690819
 20
16.23531799890194
 10
186.52537204872
 20
16.19349970223287
 10
186.4803096055707
 20
16.20284992072595
 10
186.4942065045051
 20
16.13841207371837
 10
186.4858414431653
 20
16.07378219627399
 10
186.4903632178398
 20
15.97529141193887
 10
186.4854741311167
 20
15.8759593284257
 10
186.4950258992082
 20
15.81293115552969
 10
186.47997614552
 20
15.74964011499788
 10
186.5449159457208
 20
15.76515072944269
 10
186.6116246399497
 20
15.75499387697812
 10
186.7241435470827
 20
15.75988800099367
 10
186.8390235448954
 20
15.75691204732784
 10
186.9519871999747
 20
15.76221664184991
 10
187.0176267597677
 20
15.75107306472089
 10
187.0816276691053
 20
15.76744532319857
 10
187.0703142889189
 20
15.71761689905274
 10
187.077533987151
 20
15.67416715212123
 10
187.0703142611268
 20
15.63071745587445
 10
187.0816277175994
 20
15.58088895196876
 10
187.0176263598971
 20
15.59726166091362
 10
186.951992124046
 20
15.58611271661588
 10
186.838997431733
 20
15.59144857206854
 10
186.7242456548644
 20
15.58834345663822
 10
186.611318368686
 20
15.59364894682588
 10
186.5455220903585
 20
15.58257300019593
 10
186.4816097975358
 20
15.59887597847618
 10
186.4936015165126
 20
15.54423524395742
 10
186.4862104613005
 20
15.48854295047841
 10
186.4892684841983
 20
15.3964968914057
 10
186.4893422785682
 20
15.301791098731
 10
186.4860313578361
 20
15.20952782902265
 10
186.4939505989904
 20
15.15435768736138
 10
186.4815076611617
 20
15.10058169100134
 10
186.5389116551632
 20
15.1145376886278
 10
186.5994708140383
 20
15.10511457884225
 10
186.7048680855081
 20
15.10942885928704
 10
186.8204294070623
 20
15.10835504612031
 10
186.9359688877797
 20
15.10725965900993
 10
187.0414181130843
 20
15.11162525770632
 10
187.1018680471805
 20
15.10209426030669
 10
187.1592837739111
 20
15.11617289606379
 10
187.1477773876711
 20
15.06707153265681
 10
187.1537566781749
 20
15.02564658018648
 10
187.1520311050804
 20
14.97651677966694
 10
187.1521500122972
 20
14.94854428447607
 10
187.1521871691834
 20
14.93980288195949
 72
     4
 94
        3
 73
     0
 74
     0
 95
       62
 96
       58
 40
0.0
 40
0.0
 40
0.0
 40
0.0
 40
0.0598250028309053
 40
0.2024846486898184
 40
0.3727558389222168
 40
0.5154154847937491
 40
0.5752404975787329
 40
0.9332326775489342
 40
1.290451762839701
 40
1.602077253146122
 40
1.699931634112392
 40
1.799359756425297
 40
2.270120149657336
 40
2.804661928461804
 40
2.882342287383517
 40
3.076543185719367
 40
3.329004354835834
 40
3.581465524568662
 40
3.775666424543949
 40
3.853346784558569
 40
3.899120679595315
 40
3.984129341792199
 40
4.029903236817548
 40
4.105797496059704
 40
4.295533144152664
 40
4.542189486611905
 40
4.788845828875852
 40
4.978581476410238
 40
5.05447573524448
 40
5.621734664339529
 40
6.13086724203758
 40
6.225249780948843
 40
6.31891303972757
 40
6.663579954559284
 40
7.047498900225135
 40
7.435230791576048
 40
7.49894390666846
 40
7.650875181210454
 40
7.832212509001964
 40
7.98414378369735
 40
8.047856898903477
 40
8.091554632732983
 40
8.172707566964641
 40
8.216405300768363
 40
8.289021782161248
 40
8.462184160757621
 40
8.668861838005787
 40
8.842024215264379
 40
8.914640695475603
 40
8.98988158086181
 40
9.15541152882772
 40
9.320941477744508
 40
9.396182352487761
 40
9.454709011144251
 40
9.583467660171271
 40
9.712226309013493
 40
9.770752957989975
 40
9.770752957989975
 40
9.770752957989975
 40
9.770752957989975
 10
187.1521871691834
 20
14.93980288195949
 10
187.1322348171624
 20
14.93980875568671
 10
187.0647037716466
 20
14.93982863806156
 10
186.9410612161788
 20
14.93949362520325
 10
186.7863180150056
 20
14.94107673750511
 10
186.6697349482479
 20
14.93686078860494
 10
186.4550942634239
 20
14.95215205331627
 10
186.8518948407228
 20
14.59198721286191
 10
186.8945656069267
 20
14.37510503397167
 10
187.3189162146612
 20
14.19325062511444
 10
187.1439821496074
 20
14.08985196568075
 10
187.0194523925084
 20
13.87831523212719
 10
186.7666277235943
 20
14.34806081001565
 10
186.4797602893627
 20
14.99511516984523
 10
186.490633592666
 20
14.68782672154695
 10
186.488289277796
 20
14.5228861697178
 10
186.4861096126411
 20
14.28879670711694
 10
186.4980774396346
 20
14.04498072421783
 10
186.4687984740631
 20
13.89855796860985
 10
186.511452262547
 20
13.75113490174538
 10
186.423981400564
 20
13.7668579730622
 10
186.3768527606745
 20
13.76694303543454
 10
186.2898973207714
 20
13.75109425482909
 10
186.3313474021724
 20
13.89527771422762
 10
186.3029875004286
 20
14.03855052698456
 10
186.31459737753
 20
14.27674947365264
 10
186.3124175648273
 20
14.50517235240346
 10
186.3103111127994
 20
14.66705729375994
 10
186.3208035438325
 20
14.98153709333754
 10
186.0128963252894
 20
14.29229470872433
 10
185.7055258267455
 20
13.81476750243054
 10
185.5851367066274
 20
14.03741112637427
 10
185.407460791072
 20
14.15011034955563
 10
185.8853326362895
 20
14.32548143465457
 10
185.9353959057208
 20
14.5609192925203
 10
186.3583799621717
 20
14.95322989344606
 10
186.127675427354
 20
14.93655307029065
 10
186.004968585934
 20
14.9426951894877
 10
185.8325483095661
 20
14.93312822699573
 10
185.721322469445
 20
14.95448818489666
 10
185.6025779627447
 20
14.92136265357418
 10
185.6183169706686
 20
15.00203900606883
 10
185.6178550933762
 20
15.04645414290853
 10
185.6027881889931
 20
15.12967081778532
 10
185.7372380935443
 20
15.09062651983882
 10
185.8619755545746
 20
15.11739729328421
 10
186.0628755237281
 20
15.10063949044051
 10
186.1921540949354
 20
15.12204225913003
 10
186.3328419928296
 20
15.08868778853419
 10
186.2980927452617
 20
15.22651875785067
 10
186.3222185666713
 20
15.34963257349481
 10
186.2967086182393
 20
15.47024055670334
 10
186.3333251146686
 20
15.60539865141493
 10
186.2211417027771
 20
15.58094545781891
 10
186.1280356457137
 20
15.59307749842022
 10
186.0191547579821
 20
15.58957630069994
 10
185.9569697640965
 20
15.58981755951602
 10
185.9375369557247
 20
15.58989295124144
 97
        3
330
B3
330
B4
330
B2
 75
     1
 76
     2
 52
45.0
 41
0.1
 77
     0
 78
     1
 53
45.0
 43
0.0
 44
0.0
 45
-0.282842712474619
 46
0.0
 79
     0
 98
        1
 10
0.0
 20
0.0
  0
HATCH
  5
D0
330
48
100
AcDbEntity
  8
1
  6
Continuous
 62
     2
100
AcDbHatch
 10
0.0
 20
0.0
 30
0.0
210
0.0
220
0.0
230
1.0
  2
CUSTOM14
 70
     0
 71
     1
 91
        1
 92
        1
 93
        4
 72
     1
 10
192.4578138032672
 20
15.22875434022056
 11
191.1602971697031
 21
15.22875434022056
 72
     1
 10
191.1602971697031
 20
15.22875434022056
 11
191.1602971697031
 21
15.39722336795624
 72
     1
 10
191.1602971697031
 20
15.39722336795624
 11
192.4578138032672
 21
15.39722336795624
 72
     1
 10
192.4578138032672
 20
15.39722336795624
 11
192.4578138032672
 21
15.22875434022056
 97
        1
330
B5
 75
     1
 76
     2
 52
45.0
 41
0.1
 77
     0
 78
     1
 53
45.0
 43
0.0
 44
0.0
 45
-0.282842712474619
 46
0.0
 79
     0
 98
        1
 10
0.0
 20
0.0
  0
ENDBLK
  5
4A
330
48
100
AcDbEntity
  8
0
100
AcDbBlockEnd
  0
BLOCK
  5
4D
330
4B
100
AcDbEntity
  8
0
100
AcDbBlockBegin
  2
開示A4枠
 70
     0
 10
0.0
 20
0.0
 30
0.0
  3
開示A4枠
  1

  0
INSERT
  5
4C
330
4B
100
AcDbEntity
  8
1
100
AcDbBlockReference
  2
開示A4
 10
0.0
 20
0.0
 30
0.0
  0
ENDBLK
  5
4E
330
4B
100
AcDbEntity
  8
0
100
AcDbBlockEnd
  0
BLOCK
  5
50
330
4F
100
AcDbEntity
  8
0
100
AcDbBlockBegin
  2
paipu
 70
     0
 10
135.0004
 20
55.75687163528549
 30
0.0
  3
paipu
  1

  0
LINE
  5
D1
330
4F
100
AcDbEntity
  8
1
  6
Continuous
 62
     7
100
AcDbLine
 10
90.00000000000003
 20
179.0467932478275
 30
0.0
 11
90.00000000000003
 21
122.408351671731
 31
0.0
  0
LINE
  5
D2
330
4F
100
AcDbEntity
  8
1
  6
Continuous
 62
     7
100
AcDbLine
 10
135.0
 20
55.75687163528549
 30
0.0
 11
135.0
 21
122.0186361868032
 31
0.0
  0
LINE
  5
D3
330
4F
100
AcDbEntity
  8
1
  6
Continuous
 62
     7
100
AcDbLine
 10
90.40000000000002
 20
55.75687163528552
 30
0.0
 11
134.6
 21
55.75687163528549
 31
0.0
  0
LINE
  5
D4
330
4F
100
AcDbEntity
  8
1
  6
Continuous
 62
     7
100
AcDbLine
 10
90.00000000000003
 20
55.75687163528552
 30
0.0
 11
90.40000000000002
 21
55.75687163528552
 31
0.0
  0
LINE
  5
D5
330
4F
100
AcDbEntity
  8
1
  6
Continuous
 62
     7
100
AcDbLine
 10
135.0
 20
124.0186361868032
 30
0.0
 11
135.0
 21
179.0467932478275
 31
0.0
  0
LINE
  5
D6
330
4F
100
AcDbEntity
  8
1
  6
Continuous
 62
     7
100
AcDbLine
 10
135.0
 20
179.0467932478275
 30
0.0
 11
90.00000000000003
 21
179.0467932478275
 31
0.0
  0
LINE
  5
D7
330
4F
100
AcDbEntity
  8
1
  6
Continuous
 62
     7
100
AcDbLine
 10
90.00000000000003
 20
120.408351671731
 30
0.0
 11
90.00000000000003
 21
55.75687163528552
 31
0.0
  0
LINE
  5
D8
330
4F
100
AcDbEntity
  8
1
  6
Continuous
 62
     7
100
AcDbLine
 10
134.6
 20
55.75687163528549
 30
0.0
 11
135.0
 21
55.75687163528549
 31
0.0
  0
CIRCLE
  5
D9
330
4F
100
AcDbEntity
  8
1
  6
Continuous
 62
     7
100
AcDbCircle
 10
112.5
 20
233.3115165332117
 30
0.0
 40
22.5
  0
CIRCLE
  5
DA
330
4F
100
AcDbEntity
  8
1
  6
Continuous
 62
     7
100
AcDbCircle
 10
112.5
 20
233.3115165332117
 30
0.0
 40
22.09999999999999
  0
SPLINE
  5
DB
330
4F
100
AcDbEntity
  8
1
  6
Continuous
 62
     2
100
AcDbSpline
210
0.0
220
0.0
230
1.0
 70
     8
 71
     3
 72
    11
 73
     7
 74
     5
 42
0.000000001
 43
0.0000000001
 44
0.00000001
 40
0.0
 40
0.0
 40
0.0
 40
0.0
 40
0.1687892823227487
 40
0.3069763211869292
 40
0.3756554547709822
 40
0.4514448963045145
 40
0.4514448963045145
 40
0.4514448963045145
 40
0.4514448963045145
 10
135.0
 20
122.0186361868032
 30
0.0
 10
134.9561224017419
 20
122.0530039322109
 30
0.0
 10
134.8763224009552
 20
122.115508386687
 30
0.0
 10
134.7439434969272
 20
122.1550302494602
 30
0.0
 10
134.6579457275202
 20
122.1092274302492
 30
0.0
 10
134.6199387692095
 20
122.0800314719995
 30
0.0
 10
134.6000000000001
 20
122.064715018775
 30
0.0
 11
135.0
 21
122.0186361868032
 31
0.0
 11
134.8597880815922
 21
122.1126066100592
 31
0.0
 11
134.7238935398188
 21
122.1376731693969
 31
0.0
 11
134.6614531501614
 21
122.1090720975193
 31
0.0
 11
134.6000000000001
 21
122.064715018775
 31
0.0
  0
SPLINE
  5
DC
330
4F
100
AcDbEntity
  8
1
  6
Continuous
 62
     2
100
AcDbSpline
210
0.0
220
0.0
230
1.0
 70
     8
 71
     3
 72
    31
 73
    27
 74
    25
 42
0.000000001
 43
0.0000000001
 44
0.00000001
 40
0.0
 40
0.0
 40
0.0
 40
0.0
 40
1.732306062734721
 40
3.295794396886863
 40
5.06543631505588
 40
6.989230864111024
 40
8.77210235467003
 40
10.90978066195185
 40
13.26442090253923
 40
15.40538144924089
 40
17.81390659548775
 40
20.50054021415268
 40
22.870290761957
 40
25.45895214986096
 40
28.41784984005007
 40
30.97747622827072
 40
32.9858148664789
 40
35.3409251915369
 40
37.66951001700769
 40
39.66175311627851
 40
41.45377010393863
 40
43.49677761328719
 40
45.42854634107585
 40
47.01262226055919
 40
48.02654374824695
 40
49.17536100185829
 40
49.17536100185829
 40
49.17536100185829
 40
49.17536100185829
 10
134.6000000000001
 20
122.064715018775
 30
0.0
 10
134.1171449202175
 20
121.7520010103455
 30
0.0
 10
133.198490250216
 20
121.1570477745134
 30
0.0
 10
131.5243906513161
 20
120.5997622400007
 30
0.0
 10
129.7913937993861
 20
121.2202771543427
 30
0.0
 10
128.2395790059691
 20
122.1046382472727
 30
0.0
 10
126.3200625455194
 20
122.8114706126926
 30
0.0
 10
124.253582509837
 20
121.9619560513238
 30
0.0
 10
122.4955232985401
 20
120.7273924579887
 30
0.0
 10
120.260197097482
 20
119.7155073927927
 30
0.0
 10
117.8671500946709
 20
120.7478144777887
 30
0.0
 10
115.9251727645033
 20
122.1512116256431
 30
0.0
 10
113.3933626211448
 20
123.2705069425343
 30
0.0
 10
110.8825793396856
 20
121.8228058033973
 30
0.0
 10
108.9791142168654
 20
120.0870337015933
 30
0.0
 10
106.5896634780133
 20
118.6987749482038
 30
0.0
 10
104.2974906381155
 20
119.6346099139592
 30
0.0
 10
102.5427564132089
 20
120.9715163569438
 30
0.0
 10
100.763737436306
 20
122.295472912753
 30
0.0
 10
98.64992787116671
 20
122.904345245288
 30
0.0
 10
96.86784351119235
 20
121.8882983067935
 30
0.0
 10
95.40556198300649
 20
120.6741639303742
 30
0.0
 10
93.97418134131414
 20
119.5033707545301
 30
0.0
 10
92.37222005972171
 20
119.0800074922462
 30
0.0
 10
91.24567810292368
 20
119.7283194356647
 30
0.0
 10
90.69337556194789
 20
120.1847009242995
 30
0.0
 10
90.40000000000002
 20
120.427124529201
 30
0.0
 11
134.6000000000001
 21
122.064715018775
 31
0.0
 11
133.1043069959775
 21
121.190766086262
 31
0.0
 11
131.5931355664342
 21
120.7896966718825
 31
0.0
 11
129.8814614745928
 21
121.2389230237451
 31
0.0
 11
128.1546436759991
 21
122.086912265648
 31
0.0
 11
126.4358902947511
 21
122.5607451118339
 31
0.0
 11
124.390410157917
 21
121.9397140692787
 31
0.0
 11
122.3664593391624
 21
120.7364045726065
 31
0.0
 11
120.3398314872286
 21
120.0461208537309
 31
0.0
 11
118.0394589659587
 21
120.7597591673828
 31
0.0
 11
115.7413515404091
 21
122.1514137435044
 31
0.0
 11
113.4817653287657
 21
122.86554805221
 31
0.0
 11
111.0994514088627
 21
121.852755789234
 31
0.0
 11
108.7542169393208
 21
120.0486075634049
 31
0.0
 11
106.3950969650208
 21
119.0555112975085
 31
0.0
 11
104.4759735642621
 21
119.6474483372505
 31
0.0
 11
102.5307446492806
 21
120.9750887669268
 31
0.0
 11
100.5745731472714
 21
122.2382990992488
 31
0.0
 11
98.62262198542973
 21
122.6369458469279
 31
0.0
 11
96.98835251648804
 21
121.9017668299636
 31
0.0
 11
95.37323211106255
 21
120.6506610162344
 31
0.0
 11
93.78259120584596
 21
119.5544895318176
 31
0.0
 11
92.221760237531
 21
119.2841135027905
 31
0.0
 11
91.30776718262122
 21
119.7230365790011
 31
0.0
 11
90.40000000000002
 21
120.427124529201
 31
0.0
  0
SPLINE
  5
DD
330
4F
100
AcDbEntity
  8
1
  6
Continuous
 62
     2
100
AcDbSpline
210
0.0
220
0.0
230
1.0
 70
     8
 71
     3
 72
    11
 73
     7
 74
     5
 42
0.000000001
 43
0.0000000001
 44
0.00000001
 40
0.0
 40
0.0
 40
0.0
 40
0.0
 40
0.1178271818871822
 40
0.216449751699162
 40
0.3312587006904686
 40
0.4726102304497583
 40
0.4726102304497583
 40
0.4726102304497583
 40
0.4726102304497583
 10
90.40000000000002
 20
120.427124529201
 30
0.0
 10
90.37102594690049
 20
120.4530058977821
 30
0.0
 10
90.31780030401714
 20
120.5005502294789
 30
0.0
 10
90.21188015954114
 20
120.5546989398324
 30
0.0
 10
90.09493451913447
 20
120.4984013600135
 30
0.0
 10
90.03375781889909
 20
120.4403724971788
 30
0.0
 10
90.00000000000003
 20
120.408351671731
 30
0.0
 11
90.40000000000002
 21
120.427124529201
 31
0.0
 11
90.30834119994734
 21
120.501164452546
 31
0.0
 11
90.216605731812
 21
120.5373724012519
 31
0.0
 11
90.10835608241055
 21
120.4991217964909
 31
0.0
 11
90.00000000000003
 21
120.408351671731
 31
0.0
  0
SPLINE
  5
DE
330
4F
100
AcDbEntity
  8
1
  6
Continuous
 62
     2
100
AcDbSpline
210
0.0
220
0.0
230
1.0
 70
     8
 71
     3
 72
    31
 73
    27
 74
    25
 42
0.000000001
 43
0.0000000001
 44
0.00000001
 40
0.0
 40
0.0
 40
0.0
 40
0.0
 40
1.732306062734721
 40
3.295794396886863
 40
5.065436315055877
 40
6.989230864111097
 40
8.772102354670121
 40
10.90978066195187
 40
13.26442090253924
 40
15.4053814492409
 40
17.81390659548776
 40
20.50054021415268
 40
22.870290761957
 40
25.45895214986096
 40
28.41784984005007
 40
30.97747622827072
 40
32.9858148664789
 40
35.3409251915369
 40
37.66951001700769
 40
39.66175311627851
 40
41.45377010393863
 40
43.49677761328719
 40
45.42854634107585
 40
47.01262226055919
 40
48.02654374824695
 40
49.17536100185829
 40
49.17536100185829
 40
49.17536100185829
 40
49.17536100185829
 10
134.6000000000001
 20
124.064715018775
 30
0.0
 10
134.1171449202175
 20
123.7520010103455
 30
0.0
 10
133.198490250216
 20
123.1570477745134
 30
0.0
 10
131.5243906513161
 20
122.5997622400006
 30
0.0
 10
129.791393799386
 20
123.2202771543427
 30
0.0
 10
128.239579005969
 20
124.1046382472727
 30
0.0
 10
126.3200625455193
 20
124.8114706126926
 30
0.0
 10
124.253582509837
 20
123.9619560513239
 30
0.0
 10
122.4955232985401
 20
122.7273924579888
 30
0.0
 10
120.260197097482
 20
121.7155073927927
 30
0.0
 10
117.867150094671
 20
122.7478144777887
 30
0.0
 10
115.9251727645032
 20
124.1512116256431
 30
0.0
 10
113.3933626211448
 20
125.2705069425344
 30
0.0
 10
110.8825793396856
 20
123.8228058033973
 30
0.0
 10
108.9791142168654
 20
122.0870337015933
 30
0.0
 10
106.5896634780133
 20
120.6987749482038
 30
0.0
 10
104.2974906381155
 20
121.6346099139592
 30
0.0
 10
102.5427564132089
 20
122.9715163569438
 30
0.0
 10
100.763737436306
 20
124.295472912753
 30
0.0
 10
98.64992787116671
 20
124.9043452452879
 30
0.0
 10
96.86784351119235
 20
123.8882983067936
 30
0.0
 10
95.40556198300649
 20
122.6741639303742
 30
0.0
 10
93.97418134131414
 20
121.50337075453
 30
0.0
 10
92.37222005972171
 20
121.0800074922462
 30
0.0
 10
91.24567810292368
 20
121.7283194356647
 30
0.0
 10
90.69337556194789
 20
122.1847009242995
 30
0.0
 10
90.40000000000002
 20
122.427124529201
 30
0.0
 11
134.6000000000001
 21
124.064715018775
 31
0.0
 11
133.1043069959775
 21
123.190766086262
 31
0.0
 11
131.5931355664342
 21
122.7896966718825
 31
0.0
 11
129.8814614745928
 21
123.2389230237451
 31
0.0
 11
128.154643675999
 21
124.086912265648
 31
0.0
 11
126.435890294751
 21
124.5607451118339
 31
0.0
 11
124.390410157917
 21
123.9397140692787
 31
0.0
 11
122.3664593391624
 21
122.7364045726065
 31
0.0
 11
120.3398314872286
 21
122.0461208537309
 31
0.0
 11
118.0394589659587
 21
122.7597591673828
 31
0.0
 11
115.7413515404091
 21
124.1514137435044
 31
0.0
 11
113.4817653287657
 21
124.86554805221
 31
0.0
 11
111.0994514088627
 21
123.852755789234
 31
0.0
 11
108.7542169393208
 21
122.0486075634049
 31
0.0
 11
106.3950969650208
 21
121.0555112975085
 31
0.0
 11
104.4759735642621
 21
121.6474483372505
 31
0.0
 11
102.5307446492806
 21
122.9750887669268
 31
0.0
 11
100.5745731472714
 21
124.2382990992488
 31
0.0
 11
98.62262198542973
 21
124.6369458469279
 31
0.0
 11
96.98835251648804
 21
123.9017668299636
 31
0.0
 11
95.37323211106255
 21
122.6506610162344
 31
0.0
 11
93.78259120584596
 21
121.5544895318176
 31
0.0
 11
92.221760237531
 21
121.2841135027905
 31
0.0
 11
91.30776718262122
 21
121.7230365790011
 31
0.0
 11
90.40000000000002
 21
122.427124529201
 31
0.0
  0
SPLINE
  5
DF
330
4F
100
AcDbEntity
  8
1
  6
Continuous
 62
     2
100
AcDbSpline
210
0.0
220
0.0
230
1.0
 70
     8
 71
     3
 72
    11
 73
     7
 74
     5
 42
0.000000001
 43
0.0000000001
 44
0.00000001
 40
0.0
 40
0.0
 40
0.0
 40
0.0
 40
0.1178271818871822
 40
0.216449751699162
 40
0.3312587006904686
 40
0.4726102304497583
 40
0.4726102304497583
 40
0.4726102304497583
 40
0.4726102304497583
 10
90.40000000000002
 20
122.427124529201
 30
0.0
 10
90.37102594690049
 20
122.4530058977821
 30
0.0
 10
90.31780030401714
 20
122.5005502294789
 30
0.0
 10
90.21188015954114
 20
122.5546989398324
 30
0.0
 10
90.09493451913447
 20
122.4984013600135
 30
0.0
 10
90.03375781889909
 20
122.4403724971788
 30
0.0
 10
90.00000000000003
 20
122.408351671731
 30
0.0
 11
90.40000000000002
 21
122.427124529201
 31
0.0
 11
90.30834119994734
 21
122.501164452546
 31
0.0
 11
90.216605731812
 21
122.5373724012519
 31
0.0
 11
90.10835608241055
 21
122.4991217964909
 31
0.0
 11
90.00000000000003
 21
122.408351671731
 31
0.0
  0
SPLINE
  5
E0
330
4F
100
AcDbEntity
  8
1
  6
Continuous
 62
     2
100
AcDbSpline
210
0.0
220
0.0
230
1.0
 70
     8
 71
     3
 72
    11
 73
     7
 74
     5
 42
0.000000001
 43
0.0000000001
 44
0.00000001
 40
0.0
 40
0.0
 40
0.0
 40
0.0
 40
0.1687892823227487
 40
0.3069763211869292
 40
0.3756554547709822
 40
0.4514448963045145
 40
0.4514448963045145
 40
0.4514448963045145
 40
0.4514448963045145
 10
135.0
 20
124.0186361868032
 30
0.0
 10
134.9561224017419
 20
124.0530039322109
 30
0.0
 10
134.8763224009552
 20
124.115508386687
 30
0.0
 10
134.7439434969272
 20
124.1550302494602
 30
0.0
 10
134.6579457275202
 20
124.1092274302492
 30
0.0
 10
134.6199387692095
 20
124.0800314719994
 30
0.0
 10
134.6000000000001
 20
124.064715018775
 30
0.0
 11
135.0
 21
124.0186361868032
 31
0.0
 11
134.8597880815922
 21
124.1126066100592
 31
0.0
 11
134.7238935398188
 21
124.1376731693969
 31
0.0
 11
134.6614531501614
 21
124.1090720975193
 31
0.0
 11
134.6000000000001
 21
124.064715018775
 31
0.0
  0
ENDBLK
  5
51
330
4F
100
AcDbEntity
  8
0
100
AcDbBlockEnd
  0
BLOCK
  5
F8
330
F1
100
AcDbEntity
  8
0
100
AcDbBlockBegin
  2
*D4
 70
     1
 10
0.0
 20
0.0
 30
0.0
  3
*D4
  1

  0
LINE
  5
F2
330
F1
100
AcDbEntity
  8
0
  6
Continuous
 62
     2
100
AcDbLine
 10
90.00000000000007
 20
190.0467932478275
 30
0.0
 11
135.0000000000001
 21
190.0467932478275
 31
0.0
  0
LINE
  5
F3
330
F1
100
AcDbEntity
  8
0
  6
Continuous
 62
     2
100
AcDbLine
 10
135.0000000000001
 20
179.0467932478275
 30
0.0
 11
135.0000000000001
 21
191.0467932478275
 31
0.0
  0
LINE
  5
F4
330
F1
100
AcDbEntity
  8
0
  6
Continuous
 62
     2
100
AcDbLine
 10
90.00000000000007
 20
179.0467932478275
 30
0.0
 11
90.00000000000007
 21
191.0467932478275
 31
0.0
  0
SOLID
  5
F5
330
F1
100
AcDbEntity
  8
0
 62
     2
100
AcDbTrace
 10
93.50000000000007
 20
190.5075769893834
 30
0.0
 11
93.50000000000007
 21
189.5860095062716
 31
0.0
 12
90.00000000000007
 22
190.0467932478275
 32
0.0
 13
90.00000000000007
 23
190.0467932478275
 33
0.0
  0
SOLID
  5
F6
330
F1
100
AcDbEntity
  8
0
 62
     2
100
AcDbTrace
 10
131.5000000000001
 20
189.5860095062716
 30
0.0
 11
131.5000000000001
 21
190.5075769893834
 31
0.0
 12
135.0000000000001
 22
190.0467932478275
 32
0.0
 13
135.0000000000001
 23
190.0467932478275
 33
0.0
  0
MTEXT
  5
F7
330
F1
100
AcDbEntity
  8
0
 62
     7
100
AcDbMText
 10
108.9465257439454
 20
191.0467862907512
 30
0.0
 40
3.5
 41
0.0
 71
     7
 72
     1
  1
\C7;{\Fgdt;n}\C7;45
  7
CONVERTER_12
 11
0.9999999999970619
 21
2.424068405545306E-6
 31
0.0
 73
     1
 44
0.60024009603842
  0
ENDBLK
  5
F9
330
F1
100
AcDbEntity
  8
0
100
AcDbBlockEnd
  0
BLOCK
  5
103
330
FC
100
AcDbEntity
  8
0
100
AcDbBlockBegin
  2
*D5
 70
     1
 10
0.0
 20
0.0
 30
0.0
  3
*D5
  1

  0
LINE
  5
FD
330
FC
100
AcDbEntity
  8
0
  6
Continuous
 62
     2
100
AcDbLine
 10
144.0
 20
55.75687163528549
 30
0.0
 11
144.0
 21
179.0467932478275
 31
0.0
  0
LINE
  5
FE
330
FC
100
AcDbEntity
  8
0
  6
Continuous
 62
     2
100
AcDbLine
 10
135.0
 20
179.0467932478275
 30
0.0
 11
145.0
 21
179.0467932478275
 31
0.0
  0
LINE
  5
FF
330
FC
100
AcDbEntity
  8
0
  6
Continuous
 62
     2
100
AcDbLine
 10
134.6
 20
55.75687163528549
 30
0.0
 11
145.0
 21
55.75687163528549
 31
0.0
  0
SOLID
  5
100
330
FC
100
AcDbEntity
  8
0
 62
     2
100
AcDbTrace
 10
143.5392162584441
 20
59.25687163528549
 30
0.0
 11
144.4607837415559
 21
59.25687163528549
 31
0.0
 12
144.0
 22
55.75687163528549
 32
0.0
 13
144.0
 23
55.75687163528549
 33
0.0
  0
SOLID
  5
101
330
FC
100
AcDbEntity
  8
0
 62
     2
100
AcDbTrace
 10
144.4607837415559
 20
175.5467932478275
 30
0.0
 11
143.5392162584441
 21
175.5467932478275
 31
0.0
 12
144.0
 22
179.0467932478275
 32
0.0
 13
144.0
 23
179.0467932478275
 33
0.0
  0
MTEXT
  5
102
330
FC
100
AcDbEntity
  8
0
 62
     7
100
AcDbMText
 10
143.0
 20
115.5667264397919
 30
0.0
 40
3.5
 41
0.0
 71
     7
 72
     1
  1
300
  7
CONVERTER_12
 11
0.0
 21
1.0
 31
0.0
 73
     1
 44
0.60024009603842
  0
ENDBLK
  5
104
330
FC
100
AcDbEntity
  8
0
100
AcDbBlockEnd
  0
BLOCK
  5
10C
330
107
100
AcDbEntity
  8
0
100
AcDbBlockBegin
  2
*D6
 70
     1
 10
0.0
 20
0.0
 30
0.0
  3
*D6
  1

  0
LINE
  5
108
330
107
100
AcDbEntity
  8
1
  6
Continuous
 62
     2
100
AcDbLine
 10
134.2188583185057
 20
216.6888304283526
 30
0.0
 11
79.17016551311045
 21
258.8207476575018
 31
0.0
  0
SOLID
  5
109
330
107
100
AcDbEntity
  8
1
 62
     2
100
AcDbTrace
 10
91.89077746062695
 20
248.504681706377
 30
0.0
 11
92.45088448059815
 21
249.2365059695085
 31
0.0
 12
94.9502095488491
 22
246.7433762376865
 32
0.0
 13
94.9502095488491
 23
246.7433762376865
 33
0.0
  0
SOLID
  5
10A
330
107
100
AcDbEntity
  8
1
 62
     2
100
AcDbTrace
 10
133.109222539373
 20
218.1183513600464
 30
0.0
 11
132.5491155194019
 21
217.3865270969149
 31
0.0
 12
130.0497904511509
 22
219.8796568287369
 32
0.0
 13
130.0497904511509
 23
219.8796568287369
 33
0.0
  0
MTEXT
  5
10B
330
107
100
AcDbEntity
  8
1
 62
     7
100
AcDbMText
 10
81.046827590082
 20
259.0844509924385
 30
0.0
 40
3.5
 41
0.0
 71
     7
 72
     1
  1
\C7;{\Fgdt;n}\C7;44,2
  7
CONVERTER_12
 11
0.7941081652104465
 21
-0.6077764572160543
 31
0.0
 73
     1
 44
0.60024009603842
  0
ENDBLK
  5
10D
330
107
100
AcDbEntity
  8
0
100
AcDbBlockEnd
  0
ENDSEC
  0
SECTION
  2
ENTITIES
  0
INSERT
  5
52
330
1F
100
AcDbEntity
  8
0
100
AcDbBlockReference
  2
開示A4枠
 10
0.0
 20
0.0
 30
0.0
  0
INSERT
  5
53
330
1F
100
AcDbEntity
  8
1
100
AcDbBlockReference
  2
paipu
 10
135.0004
 20
55.75687163528549
 30
0.0
  0
LINE
  5
E1
330
1F
100
AcDbEntity
  8
1
  6
DASH_CENTER
 62
     2
100
AcDbLine
 10
112.5
 20
52.75687163528549
 30
0.0
 11
112.5
 21
182.0467932478275
 31
0.0
  0
LINE
  5
E2
330
1F
100
AcDbEntity
  8
1
  6
DASH_CENTER
 62
     2
100
AcDbLine
 10
138.0
 20
233.3115165332117
 30
0.0
 11
87.00000000000003
 21
233.3115165332117
 31
0.0
  0
LINE
  5
E3
330
1F
100
AcDbEntity
  8
1
  6
DASH_CENTER
 62
     2
100
AcDbLine
 10
112.5
 20
207.8115165332117
 30
0.0
 11
112.5
 21
258.8115165332117
 31
0.0
  0
MTEXT
  5
E5
330
1F
100
AcDbEntity
  8
1
 62
     7
100
AcDbMText
 10
157.5
 20
12.5
 30
0.0
 40
2.5
 41
0.0
 71
     5
 72
     1
  1
7
  7
CONVERTER_12
 73
     1
 44
0.7202881152461
  0
MTEXT
  5
E6
330
1F
100
AcDbEntity
  8
1
 62
     7
100
AcDbMText
 10
151.75
 20
12.5
 30
0.0
 40
2.5
 41
0.0
 71
     5
 72
     1
  1
04
  7
CONVERTER_12
 73
     1
 44
0.7202881152461
  0
MTEXT
  5
E7
330
1F
100
AcDbEntity
  8
1
 62
     7
100
AcDbMText
 10
140.5
 20
12.5
 30
0.0
 40
2.5
 41
0.0
 71
     5
 72
     1
  1
7
  7
CONVERTER_12
 73
     1
 44
0.7202881152461
  0
MTEXT
  5
E8
330
1F
100
AcDbEntity
  8
1
 62
     7
100
AcDbMText
 10
134.75
 20
12.5
 30
0.0
 40
2.5
 41
0.0
 71
     5
 72
     1
  1
04
  7
CONVERTER_12
 73
     1
 44
0.7202881152461
  0
MTEXT
  5
E9
330
1F
100
AcDbEntity
  8
1
 62
     7
100
AcDbMText
 10
123.5
 20
12.5
 30
0.0
 40
2.5
 41
0.0
 71
     5
 72
     1
  1
7
  7
CONVERTER_12
 73
     1
 44
0.7202881152461
  0
MTEXT
  5
EA
330
1F
100
AcDbEntity
  8
1
 62
     7
100
AcDbMText
 10
117.75
 20
12.5
 30
0.0
 40
2.5
 41
0.0
 71
     5
 72
     1
  1
04
  7
CONVERTER_12
 73
     1
 44
0.7202881152461
  0
MTEXT
  5
EB
330
1F
100
AcDbEntity
  8
1
 62
     7
100
AcDbMText
 10
100.75
 20
12.5
 30
0.0
 40
2.5
 41
0.0
 71
     5
 72
     1
  1
04
  7
CONVERTER_12
 73
     1
 44
0.7202881152461
  0
MTEXT
  5
EC
330
1F
100
AcDbEntity
  8
1
 62
     7
100
AcDbMText
 10
106.5
 20
12.5
 30
0.0
 40
2.5
 41
0.0
 71
     5
 72
     1
  1
7
  7
CONVERTER_12
 73
     1
 44
0.7202881152461
  0
MTEXT
  5
ED
330
1F
100
AcDbEntity
  8
1
 62
     7
100
AcDbMText
 10
93.74999999999999
 20
17.0
 30
0.0
 40
3.5
 41
0.0
 71
     5
 72
     1
  1
1
  7
CONVERTER_12
 73
     1
 44
0.7202881152461
  0
MTEXT
  5
EE
330
1F
100
AcDbEntity
  8
1
 62
     7
100
AcDbMText
 10
57.0
 20
14.25
 30
0.0
 40
3.5
 41
0.0
 71
     5
 72
     1
  1
T40-0
  7
CONVERTER_12
 73
     1
 44
0.7202881152461
  0
MTEXT
  5
EF
330
1F
100
AcDbEntity
  8
1
 62
     7
100
AcDbMText
 10
57.0
 20
22.75000000000001
 30
0.0
 40
3.5
 41
0.0
 71
     5
 72
     1
  1
バス接続パイプ
  7
CONVERTER_11
 73
     1
 44
0.54545454545455
  0
MTEXT
  5
F0
330
1F
100
AcDbEntity
  8
1
 62
     7
100
AcDbMText
 10
85.24999999999999
 20
17.0
 30
0.0
 40
3.5
 41
0.0
 71
     5
 72
     1
  1
1
  7
CONVERTER_12
 73
     1
 44
0.7202881152461
  0
DIMENSION
  5
FB
330
1F
100
AcDbEntity
  8
0
100
AcDbDimension
  2
*D4
 10
90.00000000000007
 20
190.0467932478275
 30
0.0
 11
112.341525743937
 21
192.7967932478275
 31
0.0
 70
    33
  1
<>
 71
     5
 42
-1.0
 53
0.00013888888889
  3
ME10_DIM_10
100
AcDbAlignedDimension
 13
135.0
 23
179.0467932478275
 33
0.0
 14
90.00000000000003
 24
179.0467932478275
 34
0.0
  0
DIMENSION
  5
106
330
1F
100
AcDbEntity
  8
0
100
AcDbDimension
  2
*D5
 10
144.0
 20
55.75687163528549
 30
0.0
 11
141.25
 21
119.7667264397919
 31
0.0
 70
    32
  1
300
 71
     5
 42
-1.0
 53
90.0
  3
ME10_DIM_11
100
AcDbAlignedDimension
 13
135.0
 23
179.0467932478275
 33
0.0
 14
134.6
 24
55.75687163528549
 34
0.0
 50
90.0
100
AcDbRotatedDimension
  0
INSERT
  5
10E
330
1F
100
AcDbEntity
  8
1
100
AcDbBlockReference
  2
*D6
 10
0.0
 20
0.0
 30
0.0
  0
ENDSEC
  0
SECTION
  2
OBJECTS
  0
DICTIONARY
  5
C
330
0
100
AcDbDictionary
281
     1
  3
ACAD_GROUP
350
D
  3
ACAD_LAYOUT
350
1A
  3
ACAD_MATERIAL
350
3B
  3
ACAD_MLEADERSTYLE
350
111
  3
ACAD_MLINESTYLE
350
17
  3
ACAD_PLOTSETTINGS
350
19
  3
ACAD_PLOTSTYLENAME
350
E
  3
ACAD_VISUALSTYLE
350
2A
  3
AcDbVariableDictionary
350
10F
  0
DICTIONARY
  5
D
102
{ACAD_REACTORS
330
C
102
}
330
C
100
AcDbDictionary
281
     1
  0
DICTIONARY
  5
1A
102
{ACAD_REACTORS
330
C
102
}
330
C
100
AcDbDictionary
281
     1
  3
Layout1
350
1E
  3
Layout2
350
26
  3
Model
350
22
  0
DICTIONARY
  5
3B
102
{ACAD_REACTORS
330
C
102
}
330
C
100
AcDbDictionary
281
     1
  3
ByBlock
350
3D
  3
ByLayer
350
3C
  3
Global
350
3E
  0
DICTIONARY
  5
111
102
{ACAD_REACTORS
330
C
102
}
330
C
100
AcDbDictionary
281
     1
  0
DICTIONARY
  5
17
102
{ACAD_REACTORS
330
C
102
}
330
C
100
AcDbDictionary
281
     1
  3
Standard
350
18
  0
DICTIONARY
  5
19
102
{ACAD_REACTORS
330
C
102
}
330
C
100
AcDbDictionary
281
     1
  0
ACDBDICTIONARYWDFLT
  5
E
102
{ACAD_REACTORS
330
C
102
}
330
C
100
AcDbDictionary
281
     1
  3
Normal
350
F
100
AcDbDictionaryWithDefault
340
F
  0
DICTIONARY
  5
2A
102
{ACAD_REACTORS
330
C
102
}
330
C
100
AcDbDictionary
281
     1
  3
2dWireframe
350
2F
  3
3D Hidden
350
31
  3
3dWireframe
350
30
  3
Basic
350
32
  3
Brighten
350
36
  3
ColorChange
350
3A
  3
Conceptual
350
34
  3
Dim
350
35
  3
Facepattern
350
39
  3
Flat
350
2B
  3
FlatWithEdges
350
2C
  3
Gouraud
350
2D
  3
GouraudWithEdges
350
2E
  3
Linepattern
350
38
  3
Realistic
350
33
  3
Thicken
350
37
  0
DICTIONARY
  5
10F
102
{ACAD_REACTORS
330
C
102
}
330
C
100
AcDbDictionary
281
     1
  3
DIMASSOC
350
112
  3
HIDETEXT
350
113
  0
LAYOUT
  5
1E
102
{ACAD_REACTORS
330
1A
102
}
330
1A
100
AcDbPlotSettings
  1

  2
none_device
  4

  6

 40
0.0
 41
0.0
 42
0.0
 43
0.0
 44
0.0
 45
0.0
 46
0.0
 47
0.0
 48
0.0
 49
0.0
140
0.0
141
0.0
142
1.0
143
1.0
 70
   688
 72
     0
 73
     0
 74
     5
  7

 75
    16
147
1.0
148
0.0
149
0.0
100
AcDbLayout
  1
Layout1
 70
     1
 71
     1
 10
0.0
 20
0.0
 11
12.0
 21
9.0
 12
0.0
 22
0.0
 32
0.0
 14
1.00000000000000E+20
 24
1.00000000000000E+20
 34
1.00000000000000E+20
 15
-1.00000000000000E+20
 25
-1.00000000000000E+20
 35
-1.00000000000000E+20
146
0.0
 13
0.0
 23
0.0
 33
0.0
 16
1.0
 26
0.0
 36
0.0
 17
0.0
 27
1.0
 37
0.0
 76
     0
330
1B
  0
LAYOUT
  5
26
102
{ACAD_REACTORS
330
1A
102
}
330
1A
100
AcDbPlotSettings
  1

  2
none_device
  4

  6

 40
0.0
 41
0.0
 42
0.0
 43
0.0
 44
0.0
 45
0.0
 46
0.0
 47
0.0
 48
0.0
 49
0.0
140
0.0
141
0.0
142
1.0
143
1.0
 70
   688
 72
     0
 73
     0
 74
     5
  7

 75
    16
147
1.0
148
0.0
149
0.0
100
AcDbLayout
  1
Layout2
 70
     1
 71
     2
 10
0.0
 20
0.0
 11
0.0
 21
0.0
 12
0.0
 22
0.0
 32
0.0
 14
0.0
 24
0.0
 34
0.0
 15
0.0
 25
0.0
 35
0.0
146
0.0
 13
0.0
 23
0.0
 33
0.0
 16
1.0
 26
0.0
 36
0.0
 17
0.0
 27
1.0
 37
0.0
 76
     0
330
23
  0
LAYOUT
  5
22
102
{ACAD_REACTORS
330
1A
102
}
330
1A
100
AcDbPlotSettings
  1

  2
none_device
  4

  6

 40
0.0
 41
0.0
 42
0.0
 43
0.0
 44
0.0
 45
0.0
 46
0.0
 47
0.0
 48
0.0
 49
0.0
140
0.0
141
0.0
142
1.0
143
1.0
 70
  1712
 72
     0
 73
     0
 74
     0
  7

 75
     0
147
1.0
148
0.0
149
0.0
100
AcDbLayout
  1
Model
 70
     1
 71
     0
 10
0.0
 20
0.0
 11
12.0
 21
9.0
 12
0.0
 22
0.0
 32
0.0
 14
0.0
 24
0.0
 34
0.0
 15
209.9999999999999
 25
297.0
 35
0.0
146
0.0
 13
0.0
 23
0.0
 33
0.0
 16
1.0
 26
0.0
 36
0.0
 17
0.0
 27
1.0
 37
0.0
 76
     0
330
1F
331
29
  0
MATERIAL
  5
3D
102
{ACAD_REACTORS
330
3B
102
}
102
{ACAD_XDICTIONARY
360
136
102
}
330
3B
100
AcDbMaterial
  1
ByBlock
  0
MATERIAL
  5
3C
102
{ACAD_REACTORS
330
3B
102
}
102
{ACAD_XDICTIONARY
360
134
102
}
330
3B
100
AcDbMaterial
  1
ByLayer
  0
MATERIAL
  5
3E
102
{ACAD_REACTORS
330
3B
102
}
102
{ACAD_XDICTIONARY
360
138
102
}
330
3B
100
AcDbMaterial
  1
Global
  0
MLINESTYLE
  5
18
102
{ACAD_REACTORS
330
17
102
}
330
17
100
AcDbMlineStyle
  2
Standard
 70
     0
  3

 62
   256
 51
90.0
 52
90.0
 71
     2
 49
0.5
 62
   256
  6
BYLAYER
 49
-0.5
 62
   256
  6
BYLAYER
  0
ACDBPLACEHOLDER
  5
F
102
{ACAD_REACTORS
330
E
102
}
330
E
  0
VISUALSTYLE
  5
2F
102
{ACAD_REACTORS
330
2A
102
}
102
{ACAD_XDICTIONARY
360
11C
102
}
330
2A
100
AcDbVisualStyle
  2
2dWireframe
 70
     4
 71
     0
 72
     2
 73
     0
 90
        0
 40
-0.6
 41
-30.0
 62
     5
 63
     7
 74
     1
 91
        4
 64
     7
 65
   257
 75
     1
175
     1
 42
1.0
 92
        0
 66
   257
 43
1.0
 76
     1
 77
     6
 78
     2
 67
     7
 79
     5
170
     0
171
     0
290
     0
174
     0
 93
        1
 44
0.0
173
     0
291
     0
 45
0.0
1001
ACAD
1000
AcDbSavedByObjectVersion
1070
     0
  0
VISUALSTYLE
  5
31
102
{ACAD_REACTORS
330
2A
102
}
102
{ACAD_XDICTIONARY
360
120
102
}
330
2A
100
AcDbVisualStyle
  2
3D Hidden
 70
     6
 71
     1
 72
     2
 73
     2
 90
        0
 40
-0.6
 41
-30.0
 62
     5
 63
     7
 74
     2
 91
        2
 64
     7
 65
   257
 75
     2
175
     1
 42
40.0
 92
        0
 66
   257
 43
1.0
 76
     1
 77
     6
 78
     2
 67
     7
 79
     3
170
     0
171
     0
290
     0
174
     0
 93
        1
 44
0.0
173
     0
291
     0
 45
0.0
1001
ACAD
1000
AcDbSavedByObjectVersion
1070
     0
  0
VISUALSTYLE
  5
30
102
{ACAD_REACTORS
330
2A
102
}
102
{ACAD_XDICTIONARY
360
11E
102
}
330
2A
100
AcDbVisualStyle
  2
3dWireframe
 70
     5
 71
     0
 72
     2
 73
     0
 90
        0
 40
-0.6
 41
-30.0
 62
     5
 63
     7
 74
     1
 91
        4
 64
     7
 65
   257
 75
     1
175
     1
 42
1.0
 92
        0
 66
   257
 43
1.0
 76
     1
 77
     6
 78
     2
 67
     7
 79
     5
170
     0
171
     0
290
     0
174
     0
 93
        1
 44
0.0
173
     0
291
     0
 45
0.0
1001
ACAD
1000
AcDbSavedByObjectVersion
1070
     0
  0
VISUALSTYLE
  5
32
102
{ACAD_REACTORS
330
2A
102
}
102
{ACAD_XDICTIONARY
360
122
102
}
330
2A
100
AcDbVisualStyle
  2
Basic
 70
     7
 71
     1
 72
     0
 73
     1
 90
        0
 40
-0.6
 41
-30.0
 62
     5
 63
     7
 74
     0
 91
        4
 64
     7
 65
   257
 75
     1
175
     1
 42
1.0
 92
        8
 66
     7
 43
1.0
 76
     1
 77
     6
 78
     2
 67
     7
 79
     5
170
     0
171
     0
290
     0
174
     0
 93
        1
 44
0.0
173
     0
291
     1
 45
0.0
1001
ACAD
1000
AcDbSavedByObjectVersion
1070
     0
  0
VISUALSTYLE
  5
36
102
{ACAD_REACTORS
330
2A
102
}
102
{ACAD_XDICTIONARY
360
12A
102
}
330
2A
100
AcDbVisualStyle
  2
Brighten
 70
    12
 71
     2
 72
     2
 73
     0
 90
        0
 40
-0.6
 41
-30.0
 62
     5
 63
     7
 74
     1
 91
        4
 64
     7
 65
   257
 75
     1
175
     1
 42
1.0
 92
        8
 66
     7
 43
1.0
 76
     1
 77
     6
 78
     2
 67
     7
 79
     5
170
     0
171
     0
290
     0
174
     0
 93
        1
 44
50.0
173
     0
291
     1
 45
0.0
1001
ACAD
1000
AcDbSavedByObjectVersion
1070
     0
  0
VISUALSTYLE
  5
3A
102
{ACAD_REACTORS
330
2A
102
}
102
{ACAD_XDICTIONARY
360
132
102
}
330
2A
100
AcDbVisualStyle
  2
ColorChange
 70
    16
 71
     2
 72
     2
 73
     3
 90
        0
 40
-0.6
 41
-30.0
 62
     5
 63
     8
 74
     1
 91
        4
 64
     7
 65
   257
 75
     1
175
     1
 42
1.0
 92
        8
 66
     8
 43
1.0
 76
     1
 77
     6
 78
     2
 67
     7
 79
     5
170
     0
171
     0
290
     0
174
     0
 93
        1
 44
0.0
173
     0
291
     1
 45
0.0
1001
ACAD
1000
AcDbSavedByObjectVersion
1070
     0
  0
VISUALSTYLE
  5
34
102
{ACAD_REACTORS
330
2A
102
}
102
{ACAD_XDICTIONARY
360
126
102
}
330
2A
100
AcDbVisualStyle
  2
Conceptual
 70
     9
 71
     3
 72
     2
 73
     0
 90
        0
 40
-0.6
 41
-30.0
 62
     5
 63
     7
 74
     2
 91
        2
 64
     7
 65
   257
 75
     1
175
     1
 42
40.0
 92
        8
 66
     7
 43
1.0
 76
     1
 77
     6
 78
     2
 67
     7
 79
     3
170
     0
171
     0
290
     0
174
     0
 93
        1
 44
0.0
173
     0
291
     0
 45
0.0
1001
ACAD
1000
AcDbSavedByObjectVersion
1070
     0
  0
VISUALSTYLE
  5
35
102
{ACAD_REACTORS
330
2A
102
}
102
{ACAD_XDICTIONARY
360
128
102
}
330
2A
100
AcDbVisualStyle
  2
Dim
 70
    11
 71
     2
 72
     2
 73
     0
 90
        0
 40
-0.6
 41
-30.0
 62
     5
 63
     7
 74
     1
 91
        4
 64
     7
 65
   257
 75
     1
175
     1
 42
1.0
 92
        8
 66
     7
 43
1.0
 76
     1
 77
     6
 78
     2
 67
     7
 79
     5
170
     0
171
     0
290
     0
174
     0
 93
        1
 44
-50.0
173
     0
291
     1
 45
0.0
1001
ACAD
1000
AcDbSavedByObjectVersion
1070
     0
  0
VISUALSTYLE
  5
39
102
{ACAD_REACTORS
330
2A
102
}
102
{ACAD_XDICTIONARY
360
130
102
}
330
2A
100
AcDbVisualStyle
  2
Facepattern
 70
    15
 71
     2
 72
     2
 73
     0
 90
        0
 40
-0.6
 41
-30.0
 62
     5
 63
     7
 74
     1
 91
        4
 64
     7
 65
   257
 75
     1
175
     1
 42
1.0
 92
        8
 66
     7
 43
1.0
 76
     1
 77
     6
 78
     2
 67
     7
 79
     5
170
     0
171
     0
290
     0
174
     0
 93
        1
 44
0.0
173
     0
291
     1
 45
0.0
1001
ACAD
1000
AcDbSavedByObjectVersion
1070
     0
  0
VISUALSTYLE
  5
2B
102
{ACAD_REACTORS
330
2A
102
}
102
{ACAD_XDICTIONARY
360
114
102
}
330
2A
100
AcDbVisualStyle
  2
Flat
 70
     0
 71
     2
 72
     1
 73
     1
 90
        2
 40
-0.6
 41
30.0
 62
     5
 63
     7
 74
     0
 91
        4
 64
     7
 65
   257
 75
     1
175
     1
 42
1.0
 92
        8
 66
     7
 43
1.0
 76
     1
 77
     6
 78
     2
 67
     7
 79
     5
170
     0
171
     0
290
     0
174
     0
 93
       13
 44
0.0
173
     0
291
     1
 45
0.0
1001
ACAD
1000
AcDbSavedByObjectVersion
1070
     0
  0
VISUALSTYLE
  5
2C
102
{ACAD_REACTORS
330
2A
102
}
102
{ACAD_XDICTIONARY
360
116
102
}
330
2A
100
AcDbVisualStyle
  2
FlatWithEdges
 70
     1
 71
     2
 72
     1
 73
     1
 90
        2
 40
-0.6
 41
30.0
 62
     5
 63
     7
 74
     1
 91
        4
 64
     7
 65
   257
 75
     1
175
     1
 42
1.0
 92
        0
 66
   257
 43
1.0
 76
     1
 77
     6
 78
     2
 67
     7
 79
     5
170
     0
171
     0
290
     0
174
     0
 93
       13
 44
0.0
173
     0
291
     1
 45
0.0
1001
ACAD
1000
AcDbSavedByObjectVersion
1070
     0
  0
VISUALSTYLE
  5
2D
102
{ACAD_REACTORS
330
2A
102
}
102
{ACAD_XDICTIONARY
360
118
102
}
330
2A
100
AcDbVisualStyle
  2
Gouraud
 70
     2
 71
     2
 72
     2
 73
     1
 90
        2
 40
-0.6
 41
30.0
 62
     5
 63
     7
 74
     0
 91
        4
 64
     7
 65
   257
 75
     1
175
     1
 42
1.0
 92
        0
 66
     7
 43
1.0
 76
     1
 77
     6
 78
     2
 67
     7
 79
     5
170
     0
171
     0
290
     0
174
     0
 93
       13
 44
0.0
173
     0
291
     1
 45
0.0
1001
ACAD
1000
AcDbSavedByObjectVersion
1070
     0
  0
VISUALSTYLE
  5
2E
102
{ACAD_REACTORS
330
2A
102
}
102
{ACAD_XDICTIONARY
360
11A
102
}
330
2A
100
AcDbVisualStyle
  2
GouraudWithEdges
 70
     3
 71
     2
 72
     2
 73
     1
 90
        2
 40
-0.6
 41
30.0
 62
     5
 63
     7
 74
     1
 91
        4
 64
     7
 65
   257
 75
     1
175
     1
 42
1.0
 92
        0
 66
   257
 43
1.0
 76
     1
 77
     6
 78
     2
 67
     7
 79
     5
170
     0
171
     0
290
     0
174
     0
 93
       13
 44
0.0
173
     0
291
     1
 45
0.0
1001
ACAD
1000
AcDbSavedByObjectVersion
1070
     0
  0
VISUALSTYLE
  5
38
102
{ACAD_REACTORS
330
2A
102
}
102
{ACAD_XDICTIONARY
360
12E
102
}
330
2A
100
AcDbVisualStyle
  2
Linepattern
 70
    14
 71
     2
 72
     2
 73
     0
 90
        0
 40
-0.6
 41
-30.0
 62
     5
 63
     7
 74
     1
 91
        4
 64
     7
 65
   257
 75
     7
175
     7
 42
1.0
 92
        8
 66
     7
 43
1.0
 76
     1
 77
     6
 78
     2
 67
     7
 79
     5
170
     0
171
     0
290
     0
174
     0
 93
        1
 44
0.0
173
     0
291
     1
 45
0.0
1001
ACAD
1000
AcDbSavedByObjectVersion
1070
     0
  0
VISUALSTYLE
  5
33
102
{ACAD_REACTORS
330
2A
102
}
102
{ACAD_XDICTIONARY
360
124
102
}
330
2A
100
AcDbVisualStyle
  2
Realistic
 70
     8
 71
     2
 72
     2
 73
     0
 90
        0
 40
-0.6
 41
-30.0
 62
     5
 63
     7
 74
     1
 91
        0
 64
     7
 65
   257
 75
     1
175
     1
 42
1.0
 92
        8
 66
     8
 43
1.0
 76
     1
 77
     6
 78
     2
 67
     7
 79
     5
170
     0
171
     0
290
     0
174
     0
 93
       13
 44
0.0
173
     0
291
     0
 45
0.0
1001
ACAD
1000
AcDbSavedByObjectVersion
1070
     0
  0
VISUALSTYLE
  5
37
102
{ACAD_REACTORS
330
2A
102
}
102
{ACAD_XDICTIONARY
360
12C
102
}
330
2A
100
AcDbVisualStyle
  2
Thicken
 70
    13
 71
     2
 72
     2
 73
     0
 90
        0
 40
-0.6
 41
-30.0
 62
     5
 63
     7
 74
     1
 91
        4
 64
     7
 65
   257
 75
     1
175
     1
 42
1.0
 92
       12
 66
     7
 43
1.0
 76
     1
 77
     6
 78
     2
 67
     7
 79
     5
170
     0
171
     0
290
     0
174
     0
 93
        1
 44
0.0
173
     0
291
     1
 45
0.0
1001
ACAD
1000
AcDbSavedByObjectVersion
1070
     0
  0
DICTIONARYVAR
  5
112
102
{ACAD_REACTORS
330
10F
102
}
330
10F
100
DictionaryVariables
280
     0
  1
2
  0
DICTIONARYVAR
  5
113
102
{ACAD_REACTORS
330
10F
102
}
330
10F
100
DictionaryVariables
280
     0
  1
1
  0
DICTIONARY
  5
136
330
3D
100
AcDbDictionary
280
     1
281
     1
  3
ACAD_XREC_ROUNDTRIP
360
137
  0
DICTIONARY
  5
134
330
3C
100
AcDbDictionary
280
     1
281
     1
  3
ACAD_XREC_ROUNDTRIP
360
135
  0
DICTIONARY
  5
138
330
3E
100
AcDbDictionary
280
     1
281
     1
  3
ACAD_XREC_ROUNDTRIP
360
139
  0
DICTIONARY
  5
11C
330
2F
100
AcDbDictionary
280
     1
281
     1
  3
ACAD_XREC_ROUNDTRIP
360
11D
  0
DICTIONARY
  5
120
330
31
100
AcDbDictionary
280
     1
281
     1
  3
ACAD_XREC_ROUNDTRIP
360
121
  0
DICTIONARY
  5
11E
330
30
100
AcDbDictionary
280
     1
281
     1
  3
ACAD_XREC_ROUNDTRIP
360
11F
  0
DICTIONARY
  5
122
330
32
100
AcDbDictionary
280
     1
281
     1
  3
ACAD_XREC_ROUNDTRIP
360
123
  0
DICTIONARY
  5
12A
330
36
100
AcDbDictionary
280
     1
281
     1
  3
ACAD_XREC_ROUNDTRIP
360
12B
  0
DICTIONARY
  5
132
330
3A
100
AcDbDictionary
280
     1
281
     1
  3
ACAD_XREC_ROUNDTRIP
360
133
  0
DICTIONARY
  5
126
330
34
100
AcDbDictionary
280
     1
281
     1
  3
ACAD_XREC_ROUNDTRIP
360
127
  0
DICTIONARY
  5
128
330
35
100
AcDbDictionary
280
     1
281
     1
  3
ACAD_XREC_ROUNDTRIP
360
129
  0
DICTIONARY
  5
130
330
39
100
AcDbDictionary
280
     1
281
     1
  3
ACAD_XREC_ROUNDTRIP
360
131
  0
DICTIONARY
  5
114
330
2B
100
AcDbDictionary
280
     1
281
     1
  3
ACAD_XREC_ROUNDTRIP
360
115
  0
DICTIONARY
  5
116
330
2C
100
AcDbDictionary
280
     1
281
     1
  3
ACAD_XREC_ROUNDTRIP
360
117
  0
DICTIONARY
  5
118
330
2D
100
AcDbDictionary
280
     1
281
     1
  3
ACAD_XREC_ROUNDTRIP
360
119
  0
DICTIONARY
  5
11A
330
2E
100
AcDbDictionary
280
     1
281
     1
  3
ACAD_XREC_ROUNDTRIP
360
11B
  0
DICTIONARY
  5
12E
330
38
100
AcDbDictionary
280
     1
281
     1
  3
ACAD_XREC_ROUNDTRIP
360
12F
  0
DICTIONARY
  5
124
330
33
100
AcDbDictionary
280
     1
281
     1
  3
ACAD_XREC_ROUNDTRIP
360
125
  0
DICTIONARY
  5
12C
330
37
100
AcDbDictionary
280
     1
281
     1
  3
ACAD_XREC_ROUNDTRIP
360
12D
  0
XRECORD
  5
137
102
{ACAD_REACTORS
330
136
102
}
330
136
100
AcDbXrecord
280
     1
102
MATERIAL
148
0.0
149
0.0
149
0.0
 93
        0
 94
      127
282
     0
 72
     1
 77
     1
171
     1
175
     1
179
     1
273
     0
  0
XRECORD
  5
135
102
{ACAD_REACTORS
330
134
102
}
330
134
100
AcDbXrecord
280
     1
102
MATERIAL
148
0.0
149
0.0
149
0.0
 93
        0
 94
      127
282
     0
 72
     1
 77
     1
171
     1
175
     1
179
     1
273
     0
  0
XRECORD
  5
139
102
{ACAD_REACTORS
330
138
102
}
330
138
100
AcDbXrecord
280
     1
102
MATERIAL
148
0.0
149
0.0
149
0.0
 93
        0
 94
      127
282
     0
 72
     1
 77
     1
171
     1
175
     1
179
     1
273
     0
  0
XRECORD
  5
11D
102
{ACAD_REACTORS
330
11C
102
}
330
11C
100
AcDbXrecord
280
     1
102
RTVSPropertyOp0
 70
     1
102
RTVSPropertyOp1
 70
     1
102
RTVSPropertyOp2
 70
     1
102
RTVSPropertyOp3
 70
     1
102
RTVSPropertyOp4
 70
     1
102
RTVSPropertyOp5
 70
     1
102
RTVSPropertyOp6
 70
     1
102
RTVSPropertyOp7
 70
     1
102
RTVSPropertyOp8
 70
     1
102
RTVSPropertyOp9
 70
     1
102
RTVSPropertyOp10
 70
     1
102
RTVSPropertyOp11
 70
     1
102
RTVSPropertyOp12
 70
     1
102
RTVSPropertyOp13
 70
     1
102
RTVSPropertyOp14
 70
     1
102
RTVSPropertyOp15
 70
     1
102
RTVSPropertyOp16
 70
     1
102
RTVSPropertyOp17
 70
     1
102
RTVSPropertyOp18
 70
     1
102
RTVSPropertyOp19
 70
     1
102
RTVSPropertyOp20
 70
     1
102
RTVSPropertyOp21
 70
     1
102
RTVSPropertyOp22
 70
     1
102
RTVSPropertyOp23
 70
     1
102
RTVSPropertyOp24
 70
     1
102
RTVSPropertyOp25
 70
     1
102
RTVSPropertyOp26
 70
     1
102
RTVSPropertyOp27
 70
     1
102
RTVSPropertyOp28
 70
     1
102
RTVSPropertyOp29
 70
     1
102
RTVSPropertyOp30
 70
     1
102
RTVSPropertyOp31
 70
     1
102
RTVSPropertyOp32
 70
     1
  0
XRECORD
  5
121
102
{ACAD_REACTORS
330
120
102
}
330
120
100
AcDbXrecord
280
     1
102
RTVSPropertyOp0
 70
     1
102
RTVSPropertyOp1
 70
     1
102
RTVSPropertyOp2
 70
     1
102
RTVSPropertyOp3
 70
     1
102
RTVSPropertyOp4
 70
     1
102
RTVSPropertyOp5
 70
     1
102
RTVSPropertyOp6
 70
     1
102
RTVSPropertyOp7
 70
     1
102
RTVSPropertyOp8
 70
     1
102
RTVSPropertyOp9
 70
     1
102
RTVSPropertyOp10
 70
     1
102
RTVSPropertyOp11
 70
     1
102
RTVSPropertyOp12
 70
     1
102
RTVSPropertyOp13
 70
     1
102
RTVSPropertyOp14
 70
     1
102
RTVSPropertyOp15
 70
     1
102
RTVSPropertyOp16
 70
     1
102
RTVSPropertyOp17
 70
     1
102
RTVSPropertyOp18
 70
     1
102
RTVSPropertyOp19
 70
     1
102
RTVSPropertyOp20
 70
     1
102
RTVSPropertyOp21
 70
     1
102
RTVSPropertyOp22
 70
     1
102
RTVSPropertyOp23
 70
     1
102
RTVSPropertyOp24
 70
     1
102
RTVSPropertyOp25
 70
     1
102
RTVSPropertyOp26
 70
     1
102
RTVSPropertyOp27
 70
     1
102
RTVSPropertyOp28
 70
     1
102
RTVSPropertyOp29
 70
     1
102
RTVSPropertyOp30
 70
     1
102
RTVSPropertyOp31
 70
     1
102
RTVSPropertyOp32
 70
     1
  0
XRECORD
  5
11F
102
{ACAD_REACTORS
330
11E
102
}
330
11E
100
AcDbXrecord
280
     1
102
RTVSPropertyOp0
 70
     1
102
RTVSPropertyOp1
 70
     1
102
RTVSPropertyOp2
 70
     1
102
RTVSPropertyOp3
 70
     1
102
RTVSPropertyOp4
 70
     1
102
RTVSPropertyOp5
 70
     1
102
RTVSPropertyOp6
 70
     1
102
RTVSPropertyOp7
 70
     1
102
RTVSPropertyOp8
 70
     1
102
RTVSPropertyOp9
 70
     1
102
RTVSPropertyOp10
 70
     1
102
RTVSPropertyOp11
 70
     1
102
RTVSPropertyOp12
 70
     1
102
RTVSPropertyOp13
 70
     1
102
RTVSPropertyOp14
 70
     1
102
RTVSPropertyOp15
 70
     1
102
RTVSPropertyOp16
 70
     1
102
RTVSPropertyOp17
 70
     1
102
RTVSPropertyOp18
 70
     1
102
RTVSPropertyOp19
 70
     1
102
RTVSPropertyOp20
 70
     1
102
RTVSPropertyOp21
 70
     1
102
RTVSPropertyOp22
 70
     1
102
RTVSPropertyOp23
 70
     1
102
RTVSPropertyOp24
 70
     1
102
RTVSPropertyOp25
 70
     1
102
RTVSPropertyOp26
 70
     1
102
RTVSPropertyOp27
 70
     1
102
RTVSPropertyOp28
 70
     1
102
RTVSPropertyOp29
 70
     1
102
RTVSPropertyOp30
 70
     1
102
RTVSPropertyOp31
 70
     1
102
RTVSPropertyOp32
 70
     1
  0
XRECORD
  5
123
102
{ACAD_REACTORS
330
122
102
}
330
122
100
AcDbXrecord
280
     1
102
RTVSPropertyOp0
 70
     1
102
RTVSPropertyOp1
 70
     1
102
RTVSPropertyOp2
 70
     1
102
RTVSPropertyOp3
 70
     1
102
RTVSPropertyOp4
 70
     1
102
RTVSPropertyOp5
 70
     1
102
RTVSPropertyOp6
 70
     1
102
RTVSPropertyOp7
 70
     1
102
RTVSPropertyOp8
 70
     1
102
RTVSPropertyOp9
 70
     1
102
RTVSPropertyOp10
 70
     1
102
RTVSPropertyOp11
 70
     1
102
RTVSPropertyOp12
 70
     1
102
RTVSPropertyOp13
 70
     1
102
RTVSPropertyOp14
 70
     1
102
RTVSPropertyOp15
 70
     1
102
RTVSPropertyOp16
 70
     1
102
RTVSPropertyOp17
 70
     1
102
RTVSPropertyOp18
 70
     1
102
RTVSPropertyOp19
 70
     1
102
RTVSPropertyOp20
 70
     1
102
RTVSPropertyOp21
 70
     1
102
RTVSPropertyOp22
 70
     1
102
RTVSPropertyOp23
 70
     1
102
RTVSPropertyOp24
 70
     1
102
RTVSPropertyOp25
 70
     1
102
RTVSPropertyOp26
 70
     1
102
RTVSPropertyOp27
 70
     1
102
RTVSPropertyOp28
 70
     1
102
RTVSPropertyOp29
 70
     1
102
RTVSPropertyOp30
 70
     1
102
RTVSPropertyOp31
 70
     1
102
RTVSPropertyOp32
 70
     1
  0
XRECORD
  5
12B
102
{ACAD_REACTORS
330
12A
102
}
330
12A
100
AcDbXrecord
280
     1
102
RTVSPropertyOp0
 70
     1
102
RTVSPropertyOp1
 70
     1
102
RTVSPropertyOp2
 70
     1
102
RTVSPropertyOp3
 70
     1
102
RTVSPropertyOp4
 70
     1
102
RTVSPropertyOp5
 70
     1
102
RTVSPropertyOp6
 70
     1
102
RTVSPropertyOp7
 70
     1
102
RTVSPropertyOp8
 70
     1
102
RTVSPropertyOp9
 70
     1
102
RTVSPropertyOp10
 70
     1
102
RTVSPropertyOp11
 70
     1
102
RTVSPropertyOp12
 70
     1
102
RTVSPropertyOp13
 70
     1
102
RTVSPropertyOp14
 70
     1
102
RTVSPropertyOp15
 70
     1
102
RTVSPropertyOp16
 70
     1
102
RTVSPropertyOp17
 70
     1
102
RTVSPropertyOp18
 70
     1
102
RTVSPropertyOp19
 70
     1
102
RTVSPropertyOp20
 70
     1
102
RTVSPropertyOp21
 70
     1
102
RTVSPropertyOp22
 70
     1
102
RTVSPropertyOp23
 70
     1
102
RTVSPropertyOp24
 70
     1
102
RTVSPropertyOp25
 70
     1
102
RTVSPropertyOp26
 70
     1
102
RTVSPropertyOp27
 70
     1
102
RTVSPropertyOp28
 70
     1
102
RTVSPropertyOp29
 70
     1
102
RTVSPropertyOp30
 70
     1
102
RTVSPropertyOp31
 70
     1
102
RTVSPropertyOp32
 70
     1
  0
XRECORD
  5
133
102
{ACAD_REACTORS
330
132
102
}
330
132
100
AcDbXrecord
280
     1
102
RTVSPropertyOp0
 70
     1
102
RTVSPropertyOp1
 70
     1
102
RTVSPropertyOp2
 70
     1
102
RTVSPropertyOp3
 70
     1
102
RTVSPropertyOp4
 70
     1
102
RTVSPropertyOp5
 70
     1
102
RTVSPropertyOp6
 70
     1
102
RTVSPropertyOp7
 70
     1
102
RTVSPropertyOp8
 70
     1
102
RTVSPropertyOp9
 70
     1
102
RTVSPropertyOp10
 70
     1
102
RTVSPropertyOp11
 70
     1
102
RTVSPropertyOp12
 70
     1
102
RTVSPropertyOp13
 70
     1
102
RTVSPropertyOp14
 70
     1
102
RTVSPropertyOp15
 70
     1
102
RTVSPropertyOp16
 70
     1
102
RTVSPropertyOp17
 70
     1
102
RTVSPropertyOp18
 70
     1
102
RTVSPropertyOp19
 70
     1
102
RTVSPropertyOp20
 70
     1
102
RTVSPropertyOp21
 70
     1
102
RTVSPropertyOp22
 70
     1
102
RTVSPropertyOp23
 70
     1
102
RTVSPropertyOp24
 70
     1
102
RTVSPropertyOp25
 70
     1
102
RTVSPropertyOp26
 70
     1
102
RTVSPropertyOp27
 70
     1
102
RTVSPropertyOp28
 70
     1
102
RTVSPropertyOp29
 70
     1
102
RTVSPropertyOp30
 70
     1
102
RTVSPropertyOp31
 70
     1
102
RTVSPropertyOp32
 70
     1
  0
XRECORD
  5
127
102
{ACAD_REACTORS
330
126
102
}
330
126
100
AcDbXrecord
280
     1
102
RTVSPropertyOp0
 70
     1
102
RTVSPropertyOp1
 70
     1
102
RTVSPropertyOp2
 70
     1
102
RTVSPropertyOp3
 70
     1
102
RTVSPropertyOp4
 70
     1
102
RTVSPropertyOp5
 70
     1
102
RTVSPropertyOp6
 70
     1
102
RTVSPropertyOp7
 70
     1
102
RTVSPropertyOp8
 70
     1
102
RTVSPropertyOp9
 70
     1
102
RTVSPropertyOp10
 70
     1
102
RTVSPropertyOp11
 70
     1
102
RTVSPropertyOp12
 70
     1
102
RTVSPropertyOp13
 70
     1
102
RTVSPropertyOp14
 70
     1
102
RTVSPropertyOp15
 70
     1
102
RTVSPropertyOp16
 70
     1
102
RTVSPropertyOp17
 70
     1
102
RTVSPropertyOp18
 70
     1
102
RTVSPropertyOp19
 70
     1
102
RTVSPropertyOp20
 70
     1
102
RTVSPropertyOp21
 70
     1
102
RTVSPropertyOp22
 70
     1
102
RTVSPropertyOp23
 70
     1
102
RTVSPropertyOp24
 70
     1
102
RTVSPropertyOp25
 70
     1
102
RTVSPropertyOp26
 70
     1
102
RTVSPropertyOp27
 70
     1
102
RTVSPropertyOp28
 70
     1
102
RTVSPropertyOp29
 70
     1
102
RTVSPropertyOp30
 70
     1
102
RTVSPropertyOp31
 70
     1
102
RTVSPropertyOp32
 70
     1
  0
XRECORD
  5
129
102
{ACAD_REACTORS
330
128
102
}
330
128
100
AcDbXrecord
280
     1
102
RTVSPropertyOp0
 70
     1
102
RTVSPropertyOp1
 70
     1
102
RTVSPropertyOp2
 70
     1
102
RTVSPropertyOp3
 70
     1
102
RTVSPropertyOp4
 70
     1
102
RTVSPropertyOp5
 70
     1
102
RTVSPropertyOp6
 70
     1
102
RTVSPropertyOp7
 70
     1
102
RTVSPropertyOp8
 70
     1
102
RTVSPropertyOp9
 70
     1
102
RTVSPropertyOp10
 70
     1
102
RTVSPropertyOp11
 70
     1
102
RTVSPropertyOp12
 70
     1
102
RTVSPropertyOp13
 70
     1
102
RTVSPropertyOp14
 70
     1
102
RTVSPropertyOp15
 70
     1
102
RTVSPropertyOp16
 70
     1
102
RTVSPropertyOp17
 70
     1
102
RTVSPropertyOp18
 70
     1
102
RTVSPropertyOp19
 70
     1
102
RTVSPropertyOp20
 70
     1
102
RTVSPropertyOp21
 70
     1
102
RTVSPropertyOp22
 70
     1
102
RTVSPropertyOp23
 70
     1
102
RTVSPropertyOp24
 70
     1
102
RTVSPropertyOp25
 70
     1
102
RTVSPropertyOp26
 70
     1
102
RTVSPropertyOp27
 70
     1
102
RTVSPropertyOp28
 70
     1
102
RTVSPropertyOp29
 70
     1
102
RTVSPropertyOp30
 70
     1
102
RTVSPropertyOp31
 70
     1
102
RTVSPropertyOp32
 70
     1
  0
XRECORD
  5
131
102
{ACAD_REACTORS
330
130
102
}
330
130
100
AcDbXrecord
280
     1
102
RTVSPropertyOp0
 70
     1
102
RTVSPropertyOp1
 70
     1
102
RTVSPropertyOp2
 70
     1
102
RTVSPropertyOp3
 70
     1
102
RTVSPropertyOp4
 70
     1
102
RTVSPropertyOp5
 70
     1
102
RTVSPropertyOp6
 70
     1
102
RTVSPropertyOp7
 70
     1
102
RTVSPropertyOp8
 70
     1
102
RTVSPropertyOp9
 70
     1
102
RTVSPropertyOp10
 70
     1
102
RTVSPropertyOp11
 70
     1
102
RTVSPropertyOp12
 70
     1
102
RTVSPropertyOp13
 70
     1
102
RTVSPropertyOp14
 70
     1
102
RTVSPropertyOp15
 70
     1
102
RTVSPropertyOp16
 70
     1
102
RTVSPropertyOp17
 70
     1
102
RTVSPropertyOp18
 70
     1
102
RTVSPropertyOp19
 70
     1
102
RTVSPropertyOp20
 70
     1
102
RTVSPropertyOp21
 70
     1
102
RTVSPropertyOp22
 70
     1
102
RTVSPropertyOp23
 70
     1
102
RTVSPropertyOp24
 70
     1
102
RTVSPropertyOp25
 70
     1
102
RTVSPropertyOp26
 70
     1
102
RTVSPropertyOp27
 70
     1
102
RTVSPropertyOp28
 70
     1
102
RTVSPropertyOp29
 70
     1
102
RTVSPropertyOp30
 70
     1
102
RTVSPropertyOp31
 70
     1
102
RTVSPropertyOp32
 70
     1
  0
XRECORD
  5
115
102
{ACAD_REACTORS
330
114
102
}
330
114
100
AcDbXrecord
280
     1
102
RTVSPropertyOp0
 70
     1
102
RTVSPropertyOp1
 70
     1
102
RTVSPropertyOp2
 70
     1
102
RTVSPropertyOp3
 70
     1
102
RTVSPropertyOp4
 70
     1
102
RTVSPropertyOp5
 70
     1
102
RTVSPropertyOp6
 70
     1
102
RTVSPropertyOp7
 70
     1
102
RTVSPropertyOp8
 70
     1
102
RTVSPropertyOp9
 70
     1
102
RTVSPropertyOp10
 70
     1
102
RTVSPropertyOp11
 70
     1
102
RTVSPropertyOp12
 70
     1
102
RTVSPropertyOp13
 70
     1
102
RTVSPropertyOp14
 70
     1
102
RTVSPropertyOp15
 70
     1
102
RTVSPropertyOp16
 70
     1
102
RTVSPropertyOp17
 70
     1
102
RTVSPropertyOp18
 70
     1
102
RTVSPropertyOp19
 70
     1
102
RTVSPropertyOp20
 70
     1
102
RTVSPropertyOp21
 70
     1
102
RTVSPropertyOp22
 70
     1
102
RTVSPropertyOp23
 70
     1
102
RTVSPropertyOp24
 70
     1
102
RTVSPropertyOp25
 70
     1
102
RTVSPropertyOp26
 70
     1
102
RTVSPropertyOp27
 70
     1
102
RTVSPropertyOp28
 70
     1
102
RTVSPropertyOp29
 70
     1
102
RTVSPropertyOp30
 70
     1
102
RTVSPropertyOp31
 70
     1
102
RTVSPropertyOp32
 70
     1
  0
XRECORD
  5
117
102
{ACAD_REACTORS
330
116
102
}
330
116
100
AcDbXrecord
280
     1
102
RTVSPropertyOp0
 70
     1
102
RTVSPropertyOp1
 70
     1
102
RTVSPropertyOp2
 70
     1
102
RTVSPropertyOp3
 70
     1
102
RTVSPropertyOp4
 70
     1
102
RTVSPropertyOp5
 70
     1
102
RTVSPropertyOp6
 70
     1
102
RTVSPropertyOp7
 70
     1
102
RTVSPropertyOp8
 70
     1
102
RTVSPropertyOp9
 70
     1
102
RTVSPropertyOp10
 70
     1
102
RTVSPropertyOp11
 70
     1
102
RTVSPropertyOp12
 70
     1
102
RTVSPropertyOp13
 70
     1
102
RTVSPropertyOp14
 70
     1
102
RTVSPropertyOp15
 70
     1
102
RTVSPropertyOp16
 70
     1
102
RTVSPropertyOp17
 70
     1
102
RTVSPropertyOp18
 70
     1
102
RTVSPropertyOp19
 70
     1
102
RTVSPropertyOp20
 70
     1
102
RTVSPropertyOp21
 70
     1
102
RTVSPropertyOp22
 70
     1
102
RTVSPropertyOp23
 70
     1
102
RTVSPropertyOp24
 70
     1
102
RTVSPropertyOp25
 70
     1
102
RTVSPropertyOp26
 70
     1
102
RTVSPropertyOp27
 70
     1
102
RTVSPropertyOp28
 70
     1
102
RTVSPropertyOp29
 70
     1
102
RTVSPropertyOp30
 70
     1
102
RTVSPropertyOp31
 70
     1
102
RTVSPropertyOp32
 70
     1
  0
XRECORD
  5
119
102
{ACAD_REACTORS
330
118
102
}
330
118
100
AcDbXrecord
280
     1
102
RTVSPropertyOp0
 70
     1
102
RTVSPropertyOp1
 70
     1
102
RTVSPropertyOp2
 70
     1
102
RTVSPropertyOp3
 70
     1
102
RTVSPropertyOp4
 70
     1
102
RTVSPropertyOp5
 70
     1
102
RTVSPropertyOp6
 70
     1
102
RTVSPropertyOp7
 70
     1
102
RTVSPropertyOp8
 70
     1
102
RTVSPropertyOp9
 70
     1
102
RTVSPropertyOp10
 70
     1
102
RTVSPropertyOp11
 70
     1
102
RTVSPropertyOp12
 70
     1
102
RTVSPropertyOp13
 70
     1
102
RTVSPropertyOp14
 70
     1
102
RTVSPropertyOp15
 70
     1
102
RTVSPropertyOp16
 70
     1
102
RTVSPropertyOp17
 70
     1
102
RTVSPropertyOp18
 70
     1
102
RTVSPropertyOp19
 70
     1
102
RTVSPropertyOp20
 70
     1
102
RTVSPropertyOp21
 70
     1
102
RTVSPropertyOp22
 70
     1
102
RTVSPropertyOp23
 70
     1
102
RTVSPropertyOp24
 70
     1
102
RTVSPropertyOp25
 70
     1
102
RTVSPropertyOp26
 70
     1
102
RTVSPropertyOp27
 70
     1
102
RTVSPropertyOp28
 70
     1
102
RTVSPropertyOp29
 70
     1
102
RTVSPropertyOp30
 70
     1
102
RTVSPropertyOp31
 70
     1
102
RTVSPropertyOp32
 70
     1
  0
XRECORD
  5
11B
102
{ACAD_REACTORS
330
11A
102
}
330
11A
100
AcDbXrecord
280
     1
102
RTVSPropertyOp0
 70
     1
102
RTVSPropertyOp1
 70
     1
102
RTVSPropertyOp2
 70
     1
102
RTVSPropertyOp3
 70
     1
102
RTVSPropertyOp4
 70
     1
102
RTVSPropertyOp5
 70
     1
102
RTVSPropertyOp6
 70
     1
102
RTVSPropertyOp7
 70
     1
102
RTVSPropertyOp8
 70
     1
102
RTVSPropertyOp9
 70
     1
102
RTVSPropertyOp10
 70
     1
102
RTVSPropertyOp11
 70
     1
102
RTVSPropertyOp12
 70
     1
102
RTVSPropertyOp13
 70
     1
102
RTVSPropertyOp14
 70
     1
102
RTVSPropertyOp15
 70
     1
102
RTVSPropertyOp16
 70
     1
102
RTVSPropertyOp17
 70
     1
102
RTVSPropertyOp18
 70
     1
102
RTVSPropertyOp19
 70
     1
102
RTVSPropertyOp20
 70
     1
102
RTVSPropertyOp21
 70
     1
102
RTVSPropertyOp22
 70
     1
102
RTVSPropertyOp23
 70
     1
102
RTVSPropertyOp24
 70
     1
102
RTVSPropertyOp25
 70
     1
102
RTVSPropertyOp26
 70
     1
102
RTVSPropertyOp27
 70
     1
102
RTVSPropertyOp28
 70
     1
102
RTVSPropertyOp29
 70
     1
102
RTVSPropertyOp30
 70
     1
102
RTVSPropertyOp31
 70
     1
102
RTVSPropertyOp32
 70
     1
  0
XRECORD
  5
12F
102
{ACAD_REACTORS
330
12E
102
}
330
12E
100
AcDbXrecord
280
     1
102
RTVSPropertyOp0
 70
     1
102
RTVSPropertyOp1
 70
     1
102
RTVSPropertyOp2
 70
     1
102
RTVSPropertyOp3
 70
     1
102
RTVSPropertyOp4
 70
     1
102
RTVSPropertyOp5
 70
     1
102
RTVSPropertyOp6
 70
     1
102
RTVSPropertyOp7
 70
     1
102
RTVSPropertyOp8
 70
     1
102
RTVSPropertyOp9
 70
     1
102
RTVSPropertyOp10
 70
     1
102
RTVSPropertyOp11
 70
     1
102
RTVSPropertyOp12
 70
     1
102
RTVSPropertyOp13
 70
     1
102
RTVSPropertyOp14
 70
     1
102
RTVSPropertyOp15
 70
     1
102
RTVSPropertyOp16
 70
     1
102
RTVSPropertyOp17
 70
     1
102
RTVSPropertyOp18
 70
     1
102
RTVSPropertyOp19
 70
     1
102
RTVSPropertyOp20
 70
     1
102
RTVSPropertyOp21
 70
     1
102
RTVSPropertyOp22
 70
     1
102
RTVSPropertyOp23
 70
     1
102
RTVSPropertyOp24
 70
     1
102
RTVSPropertyOp25
 70
     1
102
RTVSPropertyOp26
 70
     1
102
RTVSPropertyOp27
 70
     1
102
RTVSPropertyOp28
 70
     1
102
RTVSPropertyOp29
 70
     1
102
RTVSPropertyOp30
 70
     1
102
RTVSPropertyOp31
 70
     1
102
RTVSPropertyOp32
 70
     1
  0
XRECORD
  5
125
102
{ACAD_REACTORS
330
124
102
}
330
124
100
AcDbXrecord
280
     1
102
RTVSPropertyOp0
 70
     1
102
RTVSPropertyOp1
 70
     1
102
RTVSPropertyOp2
 70
     1
102
RTVSPropertyOp3
 70
     1
102
RTVSPropertyOp4
 70
     1
102
RTVSPropertyOp5
 70
     1
102
RTVSPropertyOp6
 70
     1
102
RTVSPropertyOp7
 70
     1
102
RTVSPropertyOp8
 70
     1
102
RTVSPropertyOp9
 70
     1
102
RTVSPropertyOp10
 70
     1
102
RTVSPropertyOp11
 70
     1
102
RTVSPropertyOp12
 70
     1
102
RTVSPropertyOp13
 70
     1
102
RTVSPropertyOp14
 70
     1
102
RTVSPropertyOp15
 70
     1
102
RTVSPropertyOp16
 70
     1
102
RTVSPropertyOp17
 70
     1
102
RTVSPropertyOp18
 70
     1
102
RTVSPropertyOp19
 70
     1
102
RTVSPropertyOp20
 70
     1
102
RTVSPropertyOp21
 70
     1
102
RTVSPropertyOp22
 70
     1
102
RTVSPropertyOp23
 70
     1
102
RTVSPropertyOp24
 70
     1
102
RTVSPropertyOp25
 70
     1
102
RTVSPropertyOp26
 70
     1
102
RTVSPropertyOp27
 70
     1
102
RTVSPropertyOp28
 70
     1
102
RTVSPropertyOp29
 70
     1
102
RTVSPropertyOp30
 70
     1
102
RTVSPropertyOp31
 70
     1
102
RTVSPropertyOp32
 70
     1
  0
XRECORD
  5
12D
102
{ACAD_REACTORS
330
12C
102
}
330
12C
100
AcDbXrecord
280
     1
102
RTVSPropertyOp0
 70
     1
102
RTVSPropertyOp1
 70
     1
102
RTVSPropertyOp2
 70
     1
102
RTVSPropertyOp3
 70
     1
102
RTVSPropertyOp4
 70
     1
102
RTVSPropertyOp5
 70
     1
102
RTVSPropertyOp6
 70
     1
102
RTVSPropertyOp7
 70
     1
102
RTVSPropertyOp8
 70
     1
102
RTVSPropertyOp9
 70
     1
102
RTVSPropertyOp10
 70
     1
102
RTVSPropertyOp11
 70
     1
102
RTVSPropertyOp12
 70
     1
102
RTVSPropertyOp13
 70
     1
102
RTVSPropertyOp14
 70
     1
102
RTVSPropertyOp15
 70
     1
102
RTVSPropertyOp16
 70
     1
102
RTVSPropertyOp17
 70
     1
102
RTVSPropertyOp18
 70
     1
102
RTVSPropertyOp19
 70
     1
102
RTVSPropertyOp20
 70
     1
102
RTVSPropertyOp21
 70
     1
102
RTVSPropertyOp22
 70
     1
102
RTVSPropertyOp23
 70
     1
102
RTVSPropertyOp24
 70
     1
102
RTVSPropertyOp25
 70
     1
102
RTVSPropertyOp26
 70
     1
102
RTVSPropertyOp27
 70
     1
102
RTVSPropertyOp28
 70
     1
102
RTVSPropertyOp29
 70
     1
102
RTVSPropertyOp30
 70
     1
102
RTVSPropertyOp31
 70
     1
102
RTVSPropertyOp32
 70
     1
  0
ENDSEC
  0
EOF
