  0
SECTION
  2
HEADER
  9
$ACADVER
  1
AC1015
  9
$ACADMAINTVER
 70
     6
  9
$DWGCODEPAGE
  3
ANSI_932
  9
$INSBASE
 10
0.0
 20
0.0
 30
0.0
  9
$EXTMIN
 10
0.0
 20
0.0
 30
0.0
  9
$EXTMAX
 10
210.0
 20
297.0
 30
0.0
  9
$LIMMIN
 10
0.0
 20
0.0
  9
$LIMMAX
 10
12.0
 20
9.0
  9
$ORTHOMODE
 70
     0
  9
$REGENMODE
 70
     1
  9
$FILLMODE
 70
     1
  9
$QTEXTMODE
 70
     0
  9
$MIRRTEXT
 70
     1
  9
$LTSCALE
 40
1.0
  9
$ATTMODE
 70
     1
  9
$TEXTSIZE
 40
0.2
  9
$TRACEWID
 40
0.05
  9
$TEXTSTYLE
  7
Standard
  9
$CLAYER
  8
0
  9
$CELTYPE
  6
ByLayer
  9
$CECOLOR
 62
   256
  9
$CELTSCALE
 40
1.0
  9
$DISPSILH
 70
     0
  9
$DIMSCALE
 40
1.0
  9
$DIMASZ
 40
0.18
  9
$DIMEXO
 40
0.0625
  9
$DIMDLI
 40
0.38
  9
$DIMRND
 40
0.0
  9
$DIMDLE
 40
0.0
  9
$DIMEXE
 40
0.18
  9
$DIMTP
 40
0.0
  9
$DIMTM
 40
0.0
  9
$DIMTXT
 40
0.18
  9
$DIMCEN
 40
0.09
  9
$DIMTSZ
 40
0.0
  9
$DIMTOL
 70
     0
  9
$DIMLIM
 70
     0
  9
$DIMTIH
 70
     1
  9
$DIMTOH
 70
     1
  9
$DIMSE1
 70
     0
  9
$DIMSE2
 70
     0
  9
$DIMTAD
 70
     0
  9
$DIMZIN
 70
     0
  9
$DIMBLK
  1

  9
$DIMASO
 70
     1
  9
$DIMSHO
 70
     1
  9
$DIMPOST
  1

  9
$DIMAPOST
  1

  9
$DIMALT
 70
     0
  9
$DIMALTD
 70
     2
  9
$DIMALTF
 40
25.4
  9
$DIMLFAC
 40
1.0
  9
$DIMTOFL
 70
     0
  9
$DIMTVP
 40
0.0
  9
$DIMTIX
 70
     0
  9
$DIMSOXD
 70
     0
  9
$DIMSAH
 70
     0
  9
$DIMBLK1
  1

  9
$DIMBLK2
  1

  9
$DIMSTYLE
  2
Standard
  9
$DIMCLRD
 70
     0
  9
$DIMCLRE
 70
     0
  9
$DIMCLRT
 70
     0
  9
$DIMTFAC
 40
1.0
  9
$DIMGAP
 40
0.09
  9
$DIMJUST
 70
     0
  9
$DIMSD1
 70
     0
  9
$DIMSD2
 70
     0
  9
$DIMTOLJ
 70
     1
  9
$DIMTZIN
 70
     0
  9
$DIMALTZ
 70
     0
  9
$DIMALTTZ
 70
     0
  9
$DIMUPT
 70
     0
  9
$DIMDEC
 70
     4
  9
$DIMTDEC
 70
     4
  9
$DIMALTU
 70
     2
  9
$DIMALTTD
 70
     2
  9
$DIMTXSTY
  7
Standard
  9
$DIMAUNIT
 70
     0
  9
$DIMADEC
 70
     0
  9
$DIMALTRND
 40
0.0
  9
$DIMAZIN
 70
     0
  9
$DIMDSEP
 70
    46
  9
$DIMATFIT
 70
     3
  9
$DIMFRAC
 70
     0
  9
$DIMLDRBLK
  1

  9
$DIMLUNIT
 70
     2
  9
$DIMLWD
 70
    -2
  9
$DIMLWE
 70
    -2
  9
$DIMTMOVE
 70
     0
  9
$LUNITS
 70
     2
  9
$LUPREC
 70
     4
  9
$SKETCHINC
 40
0.1
  9
$FILLETRAD
 40
0.5
  9
$AUNITS
 70
     0
  9
$AUPREC
 70
     0
  9
$MENU
  1
.
  9
$ELEVATION
 40
0.0
  9
$PELEVATION
 40
0.0
  9
$THICKNESS
 40
0.0
  9
$LIMCHECK
 70
     0
  9
$CHAMFERA
 40
0.5
  9
$CHAMFERB
 40
0.5
  9
$CHAMFERC
 40
1.0
  9
$CHAMFERD
 40
0.0
  9
$SKPOLY
 70
     0
  9
$TDCREATE
 40
2460334.572984144
  9
$TDUCREATE
 40
2460334.197984144
  9
$TDUPDATE
 40
2460334.572985417
  9
$TDUUPDATE
 40
2460334.197985417
  9
$TDINDWG
 40
0.0000000116
  9
$TDUSRTIMER
 40
0.0000000116
  9
$USRTIMER
 70
     1
  9
$ANGBASE
 50
0.0
  9
$ANGDIR
 70
     0
  9
$PDMODE
 70
     0
  9
$PDSIZE
 40
0.0
  9
$PLINEWID
 40
0.0
  9
$SPLFRAME
 70
     0
  9
$SPLINETYPE
 70
     6
  9
$SPLINESEGS
 70
     8
  9
$HANDSEED
  5
1C9
  9
$SURFTAB1
 70
     6
  9
$SURFTAB2
 70
     6
  9
$SURFTYPE
 70
     6
  9
$SURFU
 70
     6
  9
$SURFV
 70
     6
  9
$UCSBASE
  2

  9
$UCSNAME
  2

  9
$UCSORG
 10
0.0
 20
0.0
 30
0.0
  9
$UCSXDIR
 10
1.0
 20
0.0
 30
0.0
  9
$UCSYDIR
 10
0.0
 20
1.0
 30
0.0
  9
$UCSORTHOREF
  2

  9
$UCSORTHOVIEW
 70
     0
  9
$UCSORGTOP
 10
0.0
 20
0.0
 30
0.0
  9
$UCSORGBOTTOM
 10
0.0
 20
0.0
 30
0.0
  9
$UCSORGLEFT
 10
0.0
 20
0.0
 30
0.0
  9
$UCSORGRIGHT
 10
0.0
 20
0.0
 30
0.0
  9
$UCSORGFRONT
 10
0.0
 20
0.0
 30
0.0
  9
$UCSORGBACK
 10
0.0
 20
0.0
 30
0.0
  9
$PUCSBASE
  2

  9
$PUCSNAME
  2

  9
$PUCSORG
 10
0.0
 20
0.0
 30
0.0
  9
$PUCSXDIR
 10
1.0
 20
0.0
 30
0.0
  9
$PUCSYDIR
 10
0.0
 20
1.0
 30
0.0
  9
$PUCSORTHOREF
  2

  9
$PUCSORTHOVIEW
 70
     0
  9
$PUCSORGTOP
 10
0.0
 20
0.0
 30
0.0
  9
$PUCSORGBOTTOM
 10
0.0
 20
0.0
 30
0.0
  9
$PUCSORGLEFT
 10
0.0
 20
0.0
 30
0.0
  9
$PUCSORGRIGHT
 10
0.0
 20
0.0
 30
0.0
  9
$PUCSORGFRONT
 10
0.0
 20
0.0
 30
0.0
  9
$PUCSORGBACK
 10
0.0
 20
0.0
 30
0.0
  9
$USERI1
 70
     0
  9
$USERI2
 70
     0
  9
$USERI3
 70
     0
  9
$USERI4
 70
     0
  9
$USERI5
 70
     0
  9
$USERR1
 40
18.1
  9
$USERR2
 40
0.0
  9
$USERR3
 40
0.0
  9
$USERR4
 40
0.0
  9
$USERR5
 40
0.0
  9
$WORLDVIEW
 70
     1
  9
$SHADEDGE
 70
     3
  9
$SHADEDIF
 70
    70
  9
$TILEMODE
 70
     1
  9
$MAXACTVP
 70
    64
  9
$PINSBASE
 10
0.0
 20
0.0
 30
0.0
  9
$PLIMCHECK
 70
     0
  9
$PEXTMIN
 10
1.00000000000000E+20
 20
1.00000000000000E+20
 30
1.00000000000000E+20
  9
$PEXTMAX
 10
-1.00000000000000E+20
 20
-1.00000000000000E+20
 30
-1.00000000000000E+20
  9
$PLIMMIN
 10
0.0
 20
0.0
  9
$PLIMMAX
 10
12.0
 20
9.0
  9
$UNITMODE
 70
     0
  9
$VISRETAIN
 70
     1
  9
$PLINEGEN
 70
     0
  9
$PSLTSCALE
 70
     1
  9
$TREEDEPTH
 70
  3020
  9
$CMLSTYLE
  2
Standard
  9
$CMLJUST
 70
     0
  9
$CMLSCALE
 40
1.0
  9
$PROXYGRAPHICS
 70
     1
  9
$MEASUREMENT
 70
     1
  9
$CELWEIGHT
370
    -1
  9
$ENDCAPS
280
     0
  9
$JOINSTYLE
280
     0
  9
$LWDISPLAY
290
     0
  9
$INSUNITS
 70
     4
  9
$HYPERLINKBASE
  1

  9
$STYLESHEET
  1

  9
$XEDIT
290
     1
  9
$CEPSNTYPE
380
     0
  9
$PSTYLEMODE
290
     1
  9
$FINGERPRINTGUID
  2
{268A9503-FC90-4EC6-A391-126186C20E7C}
  9
$VERSIONGUID
  2
{FAEB1C32-E019-11D5-929B-00C0DF256EC4}
  9
$EXTNAMES
290
     1
  9
$PSVPSCALE
 40
0.0
  9
$OLESTARTUP
290
     0
  0
ENDSEC
  0
SECTION
  2
CLASSES
  0
CLASS
  1
ACDBDICTIONARYWDFLT
  2
AcDbDictionaryWithDefault
  3
ObjectDBX Classes
 90
        0
280
     0
281
     0
  0
CLASS
  1
VISUALSTYLE
  2
AcDbVisualStyle
  3
ObjectDBX Classes
 90
     4095
280
     0
281
     0
  0
CLASS
  1
MATERIAL
  2
AcDbMaterial
  3
ObjectDBX Classes
 90
     1153
280
     0
281
     0
  0
CLASS
  1
DICTIONARYVAR
  2
AcDbDictionaryVar
  3
ObjectDBX Classes
 90
        0
280
     0
281
     0
  0
CLASS
  1
ACDBPLACEHOLDER
  2
AcDbPlaceHolder
  3
ObjectDBX Classes
 90
        0
280
     0
281
     0
  0
CLASS
  1
LAYOUT
  2
AcDbLayout
  3
ObjectDBX Classes
 90
        0
280
     0
281
     0
  0
ENDSEC
  0
SECTION
  2
TABLES
  0
TABLE
  2
VPORT
  5
8
330
0
100
AcDbSymbolTable
 70
     1
  0
VPORT
  5
29
330
8
100
AcDbSymbolTableRecord
100
AcDbViewportTableRecord
  2
*Active
 70
     0
 10
0.0
 20
0.0
 11
1.0
 21
1.0
 12
105.0
 22
148.5
 13
0.0
 23
0.0
 14
0.5
 24
0.5
 15
0.5
 25
0.5
 16
0.0
 26
0.0
 36
1.0
 17
0.0
 27
0.0
 37
0.0
 40
326.7
 41
1.60267857142857
 42
50.0
 43
0.0
 44
0.0
 50
0.0
 51
0.0
 71
     0
 72
   100
 73
     1
 74
     3
 75
     0
 76
     0
 77
     0
 78
     0
281
     0
 65
     1
110
0.0
120
0.0
130
0.0
111
1.0
121
0.0
131
0.0
112
0.0
122
1.0
132
0.0
 79
     0
146
0.0
  0
ENDTAB
  0
TABLE
  2
LTYPE
  5
5
330
0
100
AcDbSymbolTable
 70
     8
  0
LTYPE
  5
14
330
5
100
AcDbSymbolTableRecord
100
AcDbLinetypeTableRecord
  2
ByBlock
 70
     0
  3

 72
    65
 73
     0
 40
0.0
  0
LTYPE
  5
15
330
5
100
AcDbSymbolTableRecord
100
AcDbLinetypeTableRecord
  2
ByLayer
 70
     0
  3

 72
    65
 73
     0
 40
0.0
  0
LTYPE
  5
16
330
5
100
AcDbSymbolTableRecord
100
AcDbLinetypeTableRecord
  2
Continuous
 70
     0
  3
Solid line
 72
    65
 73
     0
 40
0.0
  0
LTYPE
  5
3F
330
5
100
AcDbSymbolTableRecord
100
AcDbLinetypeTableRecord
  2
DASHED
 70
     0
  3
Dashed
 72
    65
 73
     2
 40
15.0
 49
7.0
 74
     0
 49
-8.0
 74
     0
  0
LTYPE
  5
40
330
5
100
AcDbSymbolTableRecord
100
AcDbLinetypeTableRecord
  2
DOTTED
 70
     0
  3
Dotted
 72
    65
 73
     2
 40
1.0
 49
0.0
 74
     0
 49
-1.0
 74
     0
  0
LTYPE
  5
41
330
5
100
AcDbSymbolTableRecord
100
AcDbLinetypeTableRecord
  2
DOT_CENTER
 70
     0
  3
Dot_Center
 72
    65
 73
     4
 40
14.0
 49
12.0
 74
     0
 49
-1.0
 74
     0
 49
0.0
 74
     0
 49
-1.0
 74
     0
  0
LTYPE
  5
42
330
5
100
AcDbSymbolTableRecord
100
AcDbLinetypeTableRecord
  2
LONG_DASHED
 70
     0
  3
Long_Dashed
 72
    65
 73
     2
 40
15.0
 49
10.0
 74
     0
 49
-5.0
 74
     0
  0
LTYPE
  5
43
330
5
100
AcDbSymbolTableRecord
100
AcDbLinetypeTableRecord
  2
DASH_CENTER
 70
     0
  3
Dash_Center
 72
    65
 73
     4
 40
14.0
 49
11.0
 74
     0
 49
-1.0
 74
     0
 49
1.0
 74
     0
 49
-1.0
 74
     0
  0
LTYPE
  5
44
330
5
100
AcDbSymbolTableRecord
100
AcDbLinetypeTableRecord
  2
PHANTOM
 70
     0
  3
Phantom
 72
    65
 73
     6
 40
13.0
 49
10.0
 74
     0
 49
-1.0
 74
     0
 49
0.0
 74
     0
 49
-1.0
 74
     0
 49
0.0
 74
     0
 49
-1.0
 74
     0
  0
LTYPE
  5
45
330
5
100
AcDbSymbolTableRecord
100
AcDbLinetypeTableRecord
  2
CENTER_DASH_DASH
 70
     0
  3
Center_Dash_Dash
 72
    65
 73
     6
 40
14.0
 49
9.0
 74
     0
 49
-1.0
 74
     0
 49
1.0
 74
     0
 49
-1.0
 74
     0
 49
1.0
 74
     0
 49
-1.0
 74
     0
  0
ENDTAB
  0
TABLE
  2
LAYER
  5
2
330
0
100
AcDbSymbolTable
 70
     6
  0
LAYER
  5
10
330
2
100
AcDbSymbolTableRecord
100
AcDbLayerTableRecord
  2
0
 70
     0
 62
     7
  6
Continuous
370
    -3
390
F
  0
LAYER
  5
46
330
2
100
AcDbSymbolTableRecord
100
AcDbLayerTableRecord
  2
1
 70
     0
 62
     7
  6
Continuous
370
    -3
390
F
  0
LAYER
  5
47
330
2
100
AcDbSymbolTableRecord
100
AcDbLayerTableRecord
  2
LAY-1
 70
     0
 62
     7
  6
Continuous
370
    -3
390
F
  0
LAYER
  5
48
330
2
100
AcDbSymbolTableRecord
100
AcDbLayerTableRecord
  2
LAY-124
 70
     0
 62
     7
  6
Continuous
370
    -3
390
F
  0
LAYER
  5
49
330
2
100
AcDbSymbolTableRecord
100
AcDbLayerTableRecord
  2
LAY-3
 70
     0
 62
     7
  6
Continuous
370
    -3
390
F
  0
LAYER
  5
4A
330
2
100
AcDbSymbolTableRecord
100
AcDbLayerTableRecord
  2
_U_30EC_U_30A4_U_30E4_U_30FC_1
 70
     0
 62
     7
  6
Continuous
370
    -3
390
F
  0
ENDTAB
  0
TABLE
  2
STYLE
  5
3
330
0
100
AcDbSymbolTable
 70
     3
  0
STYLE
  5
11
330
3
100
AcDbSymbolTableRecord
100
AcDbTextStyleTableRecord
  2
Standard
 70
     0
 40
0.0
 41
1.0
 50
0.0
 71
     0
 42
0.2
  3
txt
  4

  0
STYLE
  5
BD
330
3
100
AcDbSymbolTableRecord
100
AcDbTextStyleTableRecord
  2
CONVERTER_11
 70
     0
 40
0.0
 41
0.89
 50
0.0
 71
     0
 42
0.2
  3
MS Mincho.ttf
  4

1001
ACAD
1000
MS Mincho
1071
    32785
  0
STYLE
  5
132
330
3
100
AcDbSymbolTableRecord
100
AcDbTextStyleTableRecord
  2
CONVERTER_12
 70
     0
 40
0.0
 41
0.9
 50
0.0
 71
     0
 42
0.2
  3
txt.shx
  4

  0
ENDTAB
  0
TABLE
  2
VIEW
  5
6
330
0
100
AcDbSymbolTable
 70
     0
  0
ENDTAB
  0
TABLE
  2
UCS
  5
7
330
0
100
AcDbSymbolTable
 70
     0
  0
ENDTAB
  0
TABLE
  2
APPID
  5
9
330
0
100
AcDbSymbolTable
 70
     1
  0
APPID
  5
12
330
9
100
AcDbSymbolTableRecord
100
AcDbRegAppTableRecord
  2
ACAD
 70
     0
  0
ENDTAB
  0
TABLE
  2
DIMSTYLE
  5
A
330
0
100
AcDbSymbolTable
 70
     8
100
AcDbDimStyleTable
  0
DIMSTYLE
105
27
330
A
100
AcDbSymbolTableRecord
100
AcDbDimStyleTableRecord
  2
Standard
 70
     0
178
     0
340
11
  0
DIMSTYLE
105
14A
102
{ACAD_REACTORS
330
14B
102
}
330
A
100
AcDbSymbolTableRecord
100
AcDbDimStyleTableRecord
  2
ME10_DIM_10
 70
     0
 41
3.5
 42
0.0
 44
1.0
 73
     0
 74
     0
 77
     1
 78
     8
140
3.5
147
1.0
172
     1
173
     1
174
     1
175
     1
176
     2
177
     2
271
     2
178
     7
271
     2
340
132
  0
DIMSTYLE
105
155
102
{ACAD_REACTORS
330
156
102
}
330
A
100
AcDbSymbolTableRecord
100
AcDbDimStyleTableRecord
  2
ME10_DIM_11
 70
     0
  3
{\Fgdt;n}<>
 41
3.5
 42
0.0
 44
1.0
 73
     0
 74
     0
 77
     1
 78
     8
140
3.5
147
1.0
172
     1
173
     1
174
     1
175
     1
176
     2
177
     2
271
     2
178
     7
271
     2
340
132
  0
DIMSTYLE
105
160
102
{ACAD_REACTORS
330
161
102
}
330
A
100
AcDbSymbolTableRecord
100
AcDbDimStyleTableRecord
  2
ME10_DIM_12
 70
     0
  3
{\Fgdt;n}<>
 41
3.5
 42
0.0
 44
1.0
 73
     0
 74
     0
 77
     1
 78
     8
140
3.5
147
1.0
172
     1
173
     1
174
     1
175
     1
176
     2
177
     2
271
     2
178
     7
271
     2
340
132
  0
DIMSTYLE
105
16B
102
{ACAD_REACTORS
330
16C
102
}
330
A
100
AcDbSymbolTableRecord
100
AcDbDimStyleTableRecord
  2
ME10_DIM_13
 70
     0
  3
{\Fgdt;n}<>
 41
3.5
 42
0.0
 44
1.0
 73
     0
 74
     0
 77
     1
 78
     8
140
3.5
147
1.0
172
     1
173
     1
174
     1
175
     1
176
     2
177
     2
271
     2
178
     7
271
     2
340
132
  0
DIMSTYLE
105
176
102
{ACAD_REACTORS
330
177
102
}
330
A
100
AcDbSymbolTableRecord
100
AcDbDimStyleTableRecord
  2
ME10_DIM_14
 70
     0
 41
3.5
 42
0.0
 44
1.0
 73
     0
 74
     0
 77
     1
 78
     8
140
3.5
147
1.0
172
     1
173
     1
174
     1
175
     1
176
     2
177
     2
271
     2
178
     7
271
     2
340
132
  0
DIMSTYLE
105
181
102
{ACAD_REACTORS
330
182
102
}
330
A
100
AcDbSymbolTableRecord
100
AcDbDimStyleTableRecord
  2
ME10_DIM_15
 70
     0
 41
3.5
 42
0.0
 44
1.0
 73
     0
 74
     0
 77
     1
 78
     8
140
3.5
147
1.0
172
     1
173
     1
174
     1
175
     1
176
     2
177
     2
271
     2
178
     7
271
     2
340
132
  0
DIMSTYLE
105
18C
102
{ACAD_REACTORS
330
18D
102
}
330
A
100
AcDbSymbolTableRecord
100
AcDbDimStyleTableRecord
  2
ME10_DIM_16
 70
     0
 41
3.5
 42
0.0
 44
1.0
 73
     0
 74
     0
 77
     1
 78
     8
140
3.5
147
1.0
172
     1
173
     1
174
     1
175
     1
176
     2
177
     2
271
     2
178
     7
271
     2
340
132
  0
ENDTAB
  0
TABLE
  2
BLOCK_RECORD
  5
1
330
0
100
AcDbSymbolTable
 70
    14
  0
BLOCK_RECORD
  5
1F
330
1
100
AcDbSymbolTableRecord
100
AcDbBlockTableRecord
  2
*Model_Space
340
22
  0
BLOCK_RECORD
  5
1B
330
1
100
AcDbSymbolTableRecord
100
AcDbBlockTableRecord
  2
*Paper_Space
340
1E
  0
BLOCK_RECORD
  5
23
330
1
100
AcDbSymbolTableRecord
100
AcDbBlockTableRecord
  2
*Paper_Space0
340
26
  0
BLOCK_RECORD
  5
4B
330
1
100
AcDbSymbolTableRecord
100
AcDbBlockTableRecord
  2
開示A4
340
0
102
{BLKREFS
331
4F
102
}
  0
BLOCK_RECORD
  5
4E
330
1
100
AcDbSymbolTableRecord
100
AcDbBlockTableRecord
  2
開示A4枠
340
0
102
{BLKREFS
331
58
102
}
  0
BLOCK_RECORD
  5
52
330
1
100
AcDbSymbolTableRecord
100
AcDbBlockTableRecord
  2
body
340
0
102
{BLKREFS
331
59
102
}
  0
BLOCK_RECORD
  5
55
330
1
100
AcDbSymbolTableRecord
100
AcDbBlockTableRecord
  2
nut
340
0
102
{BLKREFS
331
5A
102
}
  0
BLOCK_RECORD
  5
141
330
1
100
AcDbSymbolTableRecord
100
AcDbBlockTableRecord
  2
*D5
340
0
  0
BLOCK_RECORD
  5
14C
330
1
100
AcDbSymbolTableRecord
100
AcDbBlockTableRecord
  2
*D6
340
0
  0
BLOCK_RECORD
  5
157
330
1
100
AcDbSymbolTableRecord
100
AcDbBlockTableRecord
  2
*D7
340
0
  0
BLOCK_RECORD
  5
162
330
1
100
AcDbSymbolTableRecord
100
AcDbBlockTableRecord
  2
*D8
340
0
  0
BLOCK_RECORD
  5
16D
330
1
100
AcDbSymbolTableRecord
100
AcDbBlockTableRecord
  2
*D9
340
0
  0
BLOCK_RECORD
  5
178
330
1
100
AcDbSymbolTableRecord
100
AcDbBlockTableRecord
  2
*D10
340
0
  0
BLOCK_RECORD
  5
183
330
1
100
AcDbSymbolTableRecord
100
AcDbBlockTableRecord
  2
*D11
340
0
  0
BLOCK_RECORD
  5
18E
330
1
100
AcDbSymbolTableRecord
100
AcDbBlockTableRecord
  2
*D12
340
0
102
{BLKREFS
331
195
102
}
  0
BLOCK_RECORD
  5
196
330
1
100
AcDbSymbolTableRecord
100
AcDbBlockTableRecord
  2
*D13
340
0
102
{BLKREFS
331
19D
102
}
  0
ENDTAB
  0
ENDSEC
  0
SECTION
  2
BLOCKS
  0
BLOCK
  5
20
330
1F
100
AcDbEntity
  8
0
100
AcDbBlockBegin
  2
*Model_Space
 70
     0
 10
0.0
 20
0.0
 30
0.0
  3
*Model_Space
  1

  0
ENDBLK
  5
21
330
1F
100
AcDbEntity
  8
0
100
AcDbBlockEnd
  0
BLOCK
  5
1C
330
1B
100
AcDbEntity
 67
     1
  8
0
100
AcDbBlockBegin
  2
*Paper_Space
 70
     0
 10
0.0
 20
0.0
 30
0.0
  3
*Paper_Space
  1

  0
ENDBLK
  5
1D
330
1B
100
AcDbEntity
 67
     1
  8
0
100
AcDbBlockEnd
  0
BLOCK
  5
24
330
23
100
AcDbEntity
  8
0
100
AcDbBlockBegin
  2
*Paper_Space0
 70
     0
 10
0.0
 20
0.0
 30
0.0
  3
*Paper_Space0
  1

  0
ENDBLK
  5
25
330
23
100
AcDbEntity
  8
0
100
AcDbBlockEnd
  0
BLOCK
  5
4C
330
4B
100
AcDbEntity
  8
0
100
AcDbBlockBegin
  2
開示A4
 70
     0
 10
0.0
 20
0.0
 30
0.0
  3
開示A4
  1

  0
POINT
  5
5B
330
4B
100
AcDbEntity
  8
1
 62
     4
100
AcDbPoint
 10
183.0000000000001
 20
15.0
 30
0.0
  0
POINT
  5
5C
330
4B
100
AcDbEntity
  8
1
 62
     4
100
AcDbPoint
 10
93.75000000000006
 20
17.0
 30
0.0
  0
POINT
  5
5D
330
4B
100
AcDbEntity
  8
1
 62
     4
100
AcDbPoint
 10
85.25000000000006
 20
17.0
 30
0.0
  0
POINT
  5
5E
330
4B
100
AcDbEntity
  8
1
 62
     4
100
AcDbPoint
 10
106.5000000000001
 20
19.0
 30
0.0
  0
POINT
  5
5F
330
4B
100
AcDbEntity
  8
1
 62
     4
100
AcDbPoint
 10
106.5000000000001
 20
12.5
 30
0.0
  0
POINT
  5
60
330
4B
100
AcDbEntity
  8
1
 62
     4
100
AcDbPoint
 10
112.2500000000001
 20
12.5
 30
0.0
  0
POINT
  5
61
330
4B
100
AcDbEntity
  8
1
 62
     4
100
AcDbPoint
 10
100.7500000000001
 20
12.5
 30
0.0
  0
POINT
  5
62
330
4B
100
AcDbEntity
  8
1
 62
     4
100
AcDbPoint
 10
123.5000000000001
 20
19.0
 30
0.0
  0
POINT
  5
63
330
4B
100
AcDbEntity
  8
1
 62
     4
100
AcDbPoint
 10
123.5000000000001
 20
12.5
 30
0.0
  0
POINT
  5
64
330
4B
100
AcDbEntity
  8
1
 62
     4
100
AcDbPoint
 10
129.2500000000001
 20
12.5
 30
0.0
  0
POINT
  5
65
330
4B
100
AcDbEntity
  8
1
 62
     4
100
AcDbPoint
 10
117.7500000000001
 20
12.5
 30
0.0
  0
POINT
  5
66
330
4B
100
AcDbEntity
  8
1
 62
     4
100
AcDbPoint
 10
140.5000000000001
 20
19.0
 30
0.0
  0
POINT
  5
67
330
4B
100
AcDbEntity
  8
1
 62
     4
100
AcDbPoint
 10
140.5000000000001
 20
12.5
 30
0.0
  0
POINT
  5
68
330
4B
100
AcDbEntity
  8
1
 62
     4
100
AcDbPoint
 10
146.2500000000001
 20
12.5
 30
0.0
  0
POINT
  5
69
330
4B
100
AcDbEntity
  8
1
 62
     4
100
AcDbPoint
 10
134.7500000000001
 20
12.5
 30
0.0
  0
POINT
  5
6A
330
4B
100
AcDbEntity
  8
1
 62
     4
100
AcDbPoint
 10
151.7500000000001
 20
12.5
 30
0.0
  0
POINT
  5
6B
330
4B
100
AcDbEntity
  8
1
 62
     4
100
AcDbPoint
 10
163.2500000000001
 20
12.5
 30
0.0
  0
POINT
  5
6C
330
4B
100
AcDbEntity
  8
1
 62
     4
100
AcDbPoint
 10
157.5000000000001
 20
12.5
 30
0.0
  0
POINT
  5
6D
330
4B
100
AcDbEntity
  8
1
 62
     4
100
AcDbPoint
 10
57.00000000000004
 20
14.25
 30
0.0
  0
POINT
  5
6E
330
4B
100
AcDbEntity
  8
1
 62
     4
100
AcDbPoint
 10
57.00000000000004
 20
22.75
 30
0.0
  0
POINT
  5
6F
330
4B
100
AcDbEntity
  8
1
 62
     4
100
AcDbPoint
 10
47.50000000000004
 20
282.0000000000003
 30
0.0
  0
POINT
  5
70
330
4B
100
AcDbEntity
  8
1
 62
     4
100
AcDbPoint
 10
157.5000000000001
 20
19.0
 30
0.0
  0
POINT
  5
71
330
4B
100
AcDbEntity
  8
1
 62
     4
100
AcDbPoint
 10
57.00000000000004
 20
16.25
 30
0.0
  0
POINT
  5
72
330
4B
100
AcDbEntity
  8
1
 62
     4
100
AcDbPoint
 10
57.00000000000004
 20
24.75
 30
0.0
  0
POINT
  5
73
330
4B
100
AcDbEntity
  8
1
 62
     4
100
AcDbPoint
 10
57.00000000000004
 20
20.75
 30
0.0
  0
POINT
  5
74
330
4B
100
AcDbEntity
  8
1
 62
     4
100
AcDbPoint
 10
57.00000000000004
 20
12.25
 30
0.0
  0
POINT
  5
75
330
4B
100
AcDbEntity
  8
1
 62
     4
100
AcDbPoint
 10
33.99999999999999
 20
34.0
 30
0.0
  0
LINE
  5
7A
330
4B
100
AcDbEntity
  8
1
  6
Continuous
 62
     7
100
AcDbLine
 10
105.0000000000001
 20
10.0
 30
0.0
 11
200.0
 21
10.0
 31
0.0
  0
LINE
  5
7B
330
4B
100
AcDbEntity
  8
1
  6
Continuous
 62
     2
100
AcDbLine
 10
105.0000000000001
 20
10.0
 30
0.0
 11
105.0000000000001
 21
5.0
 31
0.0
  0
LINE
  5
7C
330
4B
100
AcDbEntity
  8
1
  6
Continuous
 62
     7
100
AcDbLine
 10
200.0
 20
148.5
 30
0.0
 11
200.0
 21
287.0000000000003
 31
0.0
  0
LINE
  5
7D
330
4B
100
AcDbEntity
  8
1
  6
Continuous
 62
     2
100
AcDbLine
 10
200.0
 20
148.5
 30
0.0
 11
205.0
 21
148.5
 31
0.0
  0
LINE
  5
7E
330
4B
100
AcDbEntity
  8
1
  6
Continuous
 62
     7
100
AcDbLine
 10
24.99999999999999
 20
148.5
 30
0.0
 11
24.99999999999999
 21
287.0000000000003
 31
0.0
  0
LINE
  5
7F
330
4B
100
AcDbEntity
  8
1
  6
Continuous
 62
     2
100
AcDbLine
 10
24.99999999999999
 20
148.5
 30
0.0
 11
19.99999999999999
 21
148.5
 31
0.0
  0
LINE
  5
80
330
4B
100
AcDbEntity
  8
1
  6
Continuous
 62
     7
100
AcDbLine
 10
105.0000000000001
 20
287.0000000000003
 30
0.0
 11
24.99999999999999
 21
287.0000000000003
 31
0.0
  0
LINE
  5
81
330
4B
100
AcDbEntity
  8
1
  6
Continuous
 62
     2
100
AcDbLine
 10
105.0000000000001
 20
287.0000000000003
 30
0.0
 11
105.0000000000001
 21
292.0000000000003
 31
0.0
  0
LINE
  5
82
330
4B
100
AcDbEntity
  8
1
  6
Continuous
 62
     2
100
AcDbLine
 10
166.0000000000001
 20
20.0
 30
0.0
 11
200.0
 21
20.0
 31
0.0
  0
LINE
  5
83
330
4B
100
AcDbEntity
  8
1
  6
Continuous
 62
     2
100
AcDbLine
 10
98.00000000000006
 20
27.0
 30
0.0
 11
98.00000000000006
 21
10.0
 31
0.0
  0
LINE
  5
84
330
4B
100
AcDbEntity
  8
1
  6
Continuous
 62
     2
100
AcDbLine
 10
115.0000000000001
 20
27.0
 30
0.0
 11
115.0000000000001
 21
10.0
 31
0.0
  0
LINE
  5
85
330
4B
100
AcDbEntity
  8
1
  6
Continuous
 62
     2
100
AcDbLine
 10
149.0000000000001
 20
27.0
 30
0.0
 11
149.0000000000001
 21
10.0
 31
0.0
  0
LINE
  5
86
330
4B
100
AcDbEntity
  8
1
  6
Continuous
 62
     2
100
AcDbLine
 10
132.0000000000001
 20
27.0
 30
0.0
 11
132.0000000000001
 21
10.0
 31
0.0
  0
LINE
  5
87
330
4B
100
AcDbEntity
  8
1
  6
Continuous
 62
     2
100
AcDbLine
 10
166.0000000000001
 20
27.0
 30
0.0
 11
166.0000000000001
 21
10.0
 31
0.0
  0
LINE
  5
88
330
4B
100
AcDbEntity
  8
1
  6
Continuous
 62
     2
100
AcDbLine
 10
55.00000000000004
 20
277.0000000000003
 30
0.0
 11
24.99999999999999
 21
277.0000000000003
 31
0.0
  0
LINE
  5
89
330
4B
100
AcDbEntity
  8
1
  6
Continuous
 62
     7
100
AcDbLine
 10
24.99999999999999
 20
10.0
 30
0.0
 11
24.99999999999999
 21
148.5
 31
0.0
  0
LINE
  5
8A
330
4B
100
AcDbEntity
  8
1
  6
Continuous
 62
     2
100
AcDbLine
 10
40.00000000000004
 20
287.0000000000003
 30
0.0
 11
40.00000000000004
 21
277.0000000000003
 31
0.0
  0
LINE
  5
8B
330
4B
100
AcDbEntity
  8
1
  6
Continuous
 62
     2
100
AcDbLine
 10
55.00000000000004
 20
287.0000000000003
 30
0.0
 11
55.00000000000004
 21
277.0000000000003
 31
0.0
  0
LINE
  5
8C
330
4B
100
AcDbEntity
  8
1
  6
Continuous
 62
     2
100
AcDbLine
 10
32.99999999999999
 20
41.0
 30
0.0
 11
32.99999999999999
 21
27.0
 31
0.0
  0
LINE
  5
8D
330
4B
100
AcDbEntity
  8
1
  6
Continuous
 62
     7
100
AcDbLine
 10
200.0
 20
27.0
 30
0.0
 11
24.99999999999999
 21
27.0
 31
0.0
  0
LINE
  5
8E
330
4B
100
AcDbEntity
  8
1
  6
Continuous
 62
     7
100
AcDbLine
 10
24.99999999999999
 20
41.0
 30
0.0
 11
200.0
 21
41.0
 31
0.0
  0
LINE
  5
8F
330
4B
100
AcDbEntity
  8
1
  6
PHANTOM
 62
     4
100
AcDbLine
 10
0.0
 20
0.0
 30
0.0
 11
210.0
 21
0.0
 31
0.0
  0
LINE
  5
90
330
4B
100
AcDbEntity
  8
1
  6
PHANTOM
 62
     4
100
AcDbLine
 10
210.0
 20
0.0
 30
0.0
 11
210.0
 21
297.0
 31
0.0
  0
LINE
  5
91
330
4B
100
AcDbEntity
  8
1
  6
PHANTOM
 62
     4
100
AcDbLine
 10
210.0
 20
297.0
 30
0.0
 11
0.0
 21
297.0
 31
0.0
  0
LINE
  5
92
330
4B
100
AcDbEntity
  8
1
  6
PHANTOM
 62
     4
100
AcDbLine
 10
0.0
 20
297.0
 30
0.0
 11
0.0
 21
0.0
 31
0.0
  0
LINE
  5
93
330
4B
100
AcDbEntity
  8
1
  6
Continuous
 62
     7
100
AcDbLine
 10
24.99999999999999
 20
10.0
 30
0.0
 11
105.0000000000001
 21
10.0
 31
0.0
  0
LINE
  5
94
330
4B
100
AcDbEntity
  8
1
  6
Continuous
 62
     7
100
AcDbLine
 10
200.0
 20
10.0
 30
0.0
 11
200.0
 21
148.5
 31
0.0
  0
LINE
  5
95
330
4B
100
AcDbEntity
  8
1
  6
Continuous
 62
     7
100
AcDbLine
 10
200.0
 20
287.0000000000003
 30
0.0
 11
105.0000000000001
 21
287.0000000000003
 31
0.0
  0
LINE
  5
96
330
4B
100
AcDbEntity
  8
1
  6
Continuous
 62
     2
100
AcDbLine
 10
24.99999999999999
 20
18.5
 30
0.0
 11
81.00000000000006
 21
18.5
 31
0.0
  0
LINE
  5
97
330
4B
100
AcDbEntity
  8
1
  6
Continuous
 62
     2
100
AcDbLine
 10
32.99999999999999
 20
27.0
 30
0.0
 11
32.99999999999999
 21
10.0
 31
0.0
  0
LINE
  5
98
330
4B
100
AcDbEntity
  8
1
  6
Continuous
 62
     7
100
AcDbLine
 10
191.0000000000001
 20
24.69999999999999
 30
0.0
 11
191.0000000000001
 21
22.30000000000001
 31
0.0
  0
LINE
  5
99
330
4B
100
AcDbEntity
  8
1
  6
Continuous
 62
     7
100
AcDbLine
 10
191.0000000000001
 20
24.69999999999999
 30
0.0
 11
196.0
 21
25.5
 31
0.0
  0
LINE
  5
9A
330
4B
100
AcDbEntity
  8
1
  6
Continuous
 62
     7
100
AcDbLine
 10
196.0
 20
25.5
 30
0.0
 11
196.0
 21
21.5
 31
0.0
  0
LINE
  5
9B
330
4B
100
AcDbEntity
  8
1
  6
Continuous
 62
     7
100
AcDbLine
 10
196.0
 20
21.5
 30
0.0
 11
191.0000000000001
 21
22.30000000000001
 31
0.0
  0
LINE
  5
9C
330
4B
100
AcDbEntity
  8
1
  6
DOT_CENTER
 62
     2
100
AcDbLine
 10
184.0000000000001
 20
23.5
 30
0.0
 11
197.0
 21
23.5
 31
0.0
  0
LINE
  5
9D
330
4B
100
AcDbEntity
  8
1
  6
DOT_CENTER
 62
     2
100
AcDbLine
 10
187.0000000000001
 20
26.5
 30
0.0
 11
187.0000000000001
 21
20.5
 31
0.0
  0
LINE
  5
9E
330
4B
100
AcDbEntity
  8
1
  6
Continuous
 62
     2
100
AcDbLine
 10
81.00000000000006
 20
27.0
 30
0.0
 11
81.00000000000006
 21
10.0
 31
0.0
  0
CIRCLE
  5
9F
330
4B
100
AcDbEntity
  8
1
  6
Continuous
 62
     7
100
AcDbCircle
 10
103.5000000000001
 20
12.5
 30
0.0
 40
0.2999999999998977
  0
CIRCLE
  5
A0
330
4B
100
AcDbEntity
  8
1
  6
Continuous
 62
     7
100
AcDbCircle
 10
109.5000000000001
 20
12.5
 30
0.0
 40
0.2999999999998977
  0
CIRCLE
  5
A1
330
4B
100
AcDbEntity
  8
1
  6
Continuous
 62
     7
100
AcDbCircle
 10
120.5000000000001
 20
12.5
 30
0.0
 40
0.2999999999998977
  0
CIRCLE
  5
A2
330
4B
100
AcDbEntity
  8
1
  6
Continuous
 62
     7
100
AcDbCircle
 10
126.5000000000001
 20
12.5
 30
0.0
 40
0.2999999999998977
  0
CIRCLE
  5
A3
330
4B
100
AcDbEntity
  8
1
  6
Continuous
 62
     7
100
AcDbCircle
 10
137.5000000000001
 20
12.5
 30
0.0
 40
0.2999999999998977
  0
CIRCLE
  5
A4
330
4B
100
AcDbEntity
  8
1
  6
Continuous
 62
     7
100
AcDbCircle
 10
143.5000000000001
 20
12.5
 30
0.0
 40
0.2999999999998977
  0
CIRCLE
  5
A5
330
4B
100
AcDbEntity
  8
1
  6
Continuous
 62
     7
100
AcDbCircle
 10
160.5000000000001
 20
12.5
 30
0.0
 40
0.2999999999998977
  0
CIRCLE
  5
A6
330
4B
100
AcDbEntity
  8
1
  6
Continuous
 62
     7
100
AcDbCircle
 10
154.5000000000001
 20
12.5
 30
0.0
 40
0.2999999999998977
  0
CIRCLE
  5
A7
330
4B
100
AcDbEntity
  8
1
  6
Continuous
 62
     7
100
AcDbCircle
 10
187.0000000000001
 20
23.5
 30
0.0
 40
1.200000000000074
  0
CIRCLE
  5
A8
330
4B
100
AcDbEntity
  8
1
  6
Continuous
 62
     7
100
AcDbCircle
 10
187.0000000000001
 20
23.5
 30
0.0
 40
2.0
  0
CIRCLE
  5
A9
330
4B
100
AcDbEntity
  8
1
  6
DOT_CENTER
 62
     7
100
AcDbCircle
 10
89.50000000000006
 20
16.0
 30
0.0
 40
0.0999999999999943
  0
CIRCLE
  5
AA
330
4B
100
AcDbEntity
  8
1
  6
DOT_CENTER
 62
     7
100
AcDbCircle
 10
89.50000000000006
 20
18.0
 30
0.0
 40
0.0999999999999943
  0
SPLINE
  5
AB
102
{ACAD_REACTORS
330
CA
102
}
330
4B
100
AcDbEntity
  8
_U_30EC_U_30A4_U_30E4_U_30FC_1
  6
Continuous
 62
     2
100
AcDbSpline
210
0.0
220
0.0
230
1.0
 70
     8
 71
     3
 72
    24
 73
    20
 74
    18
 42
0.000000001
 43
0.0000000001
 44
0.00000001
 40
0.0
 40
0.0
 40
0.0
 40
0.0
 40
0.2211075008753365
 40
0.4273218586245928
 40
0.508017467923927
 40
0.5914835907870206
 40
0.8143265690192786
 40
1.054651302686586
 40
1.295452694023157
 40
1.518109231328774
 40
1.540864321905388
 40
1.595126460622645
 40
1.659890947895956
 40
1.71415308518731
 40
1.736908174961609
 40
1.764951100735315
 40
1.8015622912209
 40
1.953914424543608
 40
2.126104167379626
 40
2.126104167379626
 40
2.126104167379626
 40
2.126104167379626
 10
185.9375369556888
 20
15.5898929511302
 30
0.0
 10
185.9112579081811
 20
15.53097628234377
 30
0.0
 10
185.8604698894426
 20
15.41711139679255
 30
0.0
 10
185.8131784839112
 20
15.14441958233111
 30
0.0
 10
185.7043482802617
 20
15.24445482575456
 30
0.0
 10
185.5514800279638
 20
15.27118593367333
 30
0.0
 10
185.7686155181198
 20
15.48518135017634
 30
0.0
 10
185.7838483674381
 20
15.70332117782488
 30
0.0
 10
185.8906889492
 20
15.88451579066426
 30
0.0
 10
185.8305380947079
 20
16.16913226311398
 30
0.0
 10
185.9334317395402
 20
16.14114089222448
 30
0.0
 10
185.977993346815
 20
16.13243251602299
 30
0.0
 10
186.0380842395396
 20
16.12139654183355
 30
0.0
 10
186.0756619587439
 20
16.10767523055561
 30
0.0
 10
186.1252466928605
 20
16.10756076160226
 30
0.0
 10
186.0930158919325
 20
16.07306592398623
 30
0.0
 10
186.0171802221881
 20
16.0840410453797
 30
0.0
 10
186.0429447159694
 20
15.89858969582451
 30
0.0
 10
186.005589676385
 20
15.80702313549592
 30
0.0
 10
185.9857704961609
 20
15.75844135397711
 30
0.0
 11
185.9375369556888
 21
15.5898929511302
 31
0.0
 11
185.8616471328552
 21
15.38221708318564
 31
0.0
 11
185.7717402238432
 21
15.19663392356191
 31
0.0
 11
185.701149392311
 21
15.23573272563551
 31
0.0
 11
185.6245525192651
 21
15.26889163187721
 31
0.0
 11
185.7214026947455
 21
15.46958801203541
 31
0.0
 11
185.7994641467471
 21
15.69688163177026
 31
0.0
 11
185.858971692972
 21
15.93021436608692
 31
0.0
 11
185.9001601511226
 21
16.14902808999051
 31
0.0
 11
185.9224183822214
 21
16.14429889221392
 31
0.0
 11
185.975495702534
 21
16.13302157443898
 31
0.0
 11
186.0388460525844
 21
16.11956154999793
 31
0.0
 11
186.091923372897
 21
16.10828423222299
 31
0.0
 11
186.1141816039958
 21
16.1035550344464
 31
0.0
 11
186.096409715746
 21
16.0818625084101
 31
0.0
 11
186.0606122998071
 21
16.0741862844537
 31
0.0
 11
186.028195330148
 21
15.92532288171313
 31
0.0
 11
185.9857704961609
 21
15.75844135397711
 31
0.0
  0
SPLINE
  5
AC
102
{ACAD_REACTORS
330
CA
102
}
330
4B
100
AcDbEntity
  8
_U_30EC_U_30A4_U_30E4_U_30FC_1
  6
Continuous
 62
     2
100
AcDbSpline
210
0.0
220
0.0
230
1.0
 70
     8
 71
     3
 72
    70
 73
    66
 74
    64
 42
0.000000001
 43
0.0000000001
 44
0.00000001
 40
0.0
 40
0.0
 40
0.0
 40
0.0
 40
0.0241731073021188
 40
0.0846058988987013
 40
0.1631685280352715
 40
0.2417311571788903
 40
0.3021639488291614
 40
0.3263370654894688
 40
0.3533118254248028
 40
0.4228783438921259
 40
0.5179999095312514
 40
0.6216398239465178
 40
0.7167613891498782
 40
0.786327906964894
 40
0.8133026791760877
 40
0.8372943998771001
 40
0.8945054261372204
 40
0.962789554196227
 40
1.020000580349038
 40
1.043992300975165
 40
1.071934345522925
 40
1.113121768772912
 40
1.14522519933223
 40
1.22548377541275
 40
1.329819923771441
 40
1.43415607199431
 40
1.514414647795715
 40
1.546518078208318
 40
1.578974764260091
 40
1.662678849314086
 40
1.777131373668307
 40
1.901833377474697
 40
2.016285900500487
 40
2.099989982527855
 40
2.132446666570213
 40
2.158782354485951
 40
2.21672086790777
 40
2.274659381334224
 40
2.300995069256174
 40
2.333451754066146
 40
2.417155836543826
 40
2.531608358985266
 40
2.656310362283761
 40
2.770762886388893
 40
2.854466971340059
 40
2.886923657363865
 40
2.913597976833295
 40
2.982389642875089
 40
3.076451716946944
 40
3.178937260458546
 40
3.272999334739937
 40
3.341791001059152
 40
3.36846532066346
 40
3.396976080738709
 40
3.472140811845946
 40
3.578408190308635
 40
3.7002268924561
 40
3.822045594634345
 40
3.928312973256481
 40
4.003477705314878
 40
4.031988456866944
 40
4.058324144797745
 40
4.116262658236912
 40
4.174201171400719
 40
4.200536849608654
 40
4.200536849608654
 40
4.200536849608654
 40
4.200536849608654
 10
185.9857704961609
 20
15.75844135397711
 30
0.0
 10
185.9938259544679
 20
15.75844359811693
 30
0.0
 10
186.0220200663241
 20
15.75845146032804
 30
0.0
 10
186.0765534803672
 20
15.75830754828377
 30
0.0
 10
186.1482891808603
 20
15.75909120499904
 30
0.0
 10
186.2236240137062
 20
15.75627570463817
 30
0.0
 10
186.2713052366438
 20
15.76298403400963
 30
0.0
 10
186.3195071245615
 20
15.75197563692438
 30
0.0
 10
186.3062571799873
 20
15.80546402997039
 30
0.0
 10
186.3151093964537
 20
15.86049583543097
 30
0.0
 10
186.3108698036285
 20
15.95419908726114
 30
0.0
 10
186.3133483481279
 20
16.04959482218539
 30
0.0
 10
186.3090938706059
 20
16.14356821983392
 30
0.0
 10
186.3179818665846
 20
16.19795062438018
 30
0.0
 10
186.3046977409944
 20
16.25233997691466
 30
0.0
 10
186.3514119277108
 20
16.23842216335363
 30
0.0
 10
186.3943254545736
 20
16.24103877374047
 30
0.0
 10
186.4605443456684
 20
16.23648422450756
 30
0.0
 10
186.5013342271798
 20
16.22778162134162
 30
0.0
 10
186.5525145690819
 20
16.23531799890195
 30
0.0
 10
186.52537204872
 20
16.19349970223286
 30
0.0
 10
186.4803096055707
 20
16.20284992072593
 30
0.0
 10
186.4942065045051
 20
16.13841207371836
 30
0.0
 10
186.4858414431654
 20
16.07378219627399
 30
0.0
 10
186.4903632178398
 20
15.97529141193889
 30
0.0
 10
186.4854741311167
 20
15.87595932842574
 30
0.0
 10
186.4950258992081
 20
15.81293115552973
 30
0.0
 10
186.47997614552
 20
15.74964011499795
 30
0.0
 10
186.5449159457208
 20
15.76515072944275
 30
0.0
 10
186.6116246399497
 20
15.75499387697818
 30
0.0
 10
186.7241435470827
 20
15.75988800099373
 30
0.0
 10
186.8390235448954
 20
15.7569120473279
 30
0.0
 10
186.9519871999747
 20
15.76221664184996
 30
0.0
 10
187.0176267597677
 20
15.75107306472095
 30
0.0
 10
187.0816276691053
 20
15.76744532319863
 30
0.0
 10
187.0703142889189
 20
15.71761689905279
 30
0.0
 10
187.0775339871509
 20
15.67416715212124
 30
0.0
 10
187.0703142611269
 20
15.63071745587444
 30
0.0
 10
187.0816277175994
 20
15.58088895196874
 30
0.0
 10
187.0176263598971
 20
15.59726166091359
 30
0.0
 10
186.9519921240459
 20
15.58611271661585
 30
0.0
 10
186.838997431733
 20
15.59144857206851
 30
0.0
 10
186.7242456548644
 20
15.58834345663819
 30
0.0
 10
186.611318368686
 20
15.59364894682585
 30
0.0
 10
186.5455220903584
 20
15.58257300019591
 30
0.0
 10
186.4816097975358
 20
15.59887597847614
 30
0.0
 10
186.4936015165126
 20
15.54423524395739
 30
0.0
 10
186.4862104613005
 20
15.4885429504784
 30
0.0
 10
186.4892684841983
 20
15.39649689140569
 30
0.0
 10
186.4893422785683
 20
15.30179109873102
 30
0.0
 10
186.4860313578359
 20
15.20952782902267
 30
0.0
 10
186.4939505989904
 20
15.15435768736141
 30
0.0
 10
186.4815076611617
 20
15.10058169100138
 30
0.0
 10
186.5389116551632
 20
15.11453768862784
 30
0.0
 10
186.5994708140383
 20
15.10511457884229
 30
0.0
 10
186.7048680855082
 20
15.10942885928708
 30
0.0
 10
186.8204294070623
 20
15.10835504612034
 30
0.0
 10
186.9359688877797
 20
15.10725965900997
 30
0.0
 10
187.0414181130843
 20
15.11162525770636
 30
0.0
 10
187.1018680471805
 20
15.10209426030673
 30
0.0
 10
187.1592837739111
 20
15.11617289606383
 30
0.0
 10
187.147777387671
 20
15.06707153265684
 30
0.0
 10
187.153756678175
 20
15.02564658018651
 30
0.0
 10
187.1520311050803
 20
14.97651677966697
 30
0.0
 10
187.1521500122972
 20
14.94854428447609
 30
0.0
 10
187.1521871691834
 20
14.93980288195951
 30
0.0
 11
185.9857704961609
 21
15.75844135397711
 31
0.0
 11
186.0099436128281
 21
15.75844135397711
 31
0.0
 11
186.0703764044962
 21
15.75844135397711
 31
0.0
 11
186.1489390336648
 21
15.75844135397711
 31
0.0
 11
186.2275016628333
 21
15.75844135397711
 31
0.0
 11
186.2879344545013
 21
15.75844135397711
 31
0.0
 11
186.3121075711686
 21
15.75844135397711
 31
0.0
 11
186.3121075711686
 21
15.78541612620069
 31
0.0
 11
186.3121075711686
 21
15.85498264404045
 31
0.0
 11
186.3121075711686
 21
15.95010420924991
 31
0.0
 11
186.3121075711686
 21
16.05374412358261
 31
0.0
 11
186.3121075711686
 21
16.14886568879207
 31
0.0
 11
186.3121075711686
 21
16.21843220663183
 31
0.0
 11
186.3121075711686
 21
16.24540697885541
 31
0.0
 11
186.3360407604891
 21
16.24373213107805
 31
0.0
 11
186.3931122119457
 21
16.23973826330125
 31
0.0
 11
186.461229750781
 21
16.23497138885797
 31
0.0
 11
186.5183012022376
 21
16.23097752108118
 31
0.0
 11
186.5422343915581
 21
16.22930267330381
 31
0.0
 11
186.5274972731229
 21
16.20556293372638
 31
0.0
 11
186.4886640249976
 21
16.1918376733131
 31
0.0
 11
186.4886640249976
 21
16.15973424225117
 31
0.0
 11
186.4886640249976
 21
16.07947566459636
 31
0.0
 11
186.4886640249976
 21
15.9751395136451
 31
0.0
 11
186.4886640249976
 21
15.87080336269385
 31
0.0
 11
186.4886640249976
 21
15.79054478503904
 31
0.0
 11
186.4886640249976
 21
15.75844135397711
 31
0.0
 11
186.5211207110824
 21
15.75844135397711
 31
0.0
 11
186.6048247962486
 21
15.75844135397711
 31
0.0
 11
186.7192773208634
 21
15.75844135397711
 31
0.0
 11
186.8439793252946
 21
15.75844135397711
 31
0.0
 11
186.9584318499095
 21
15.75844135397711
 31
0.0
 11
187.0421359350756
 21
15.75844135397711
 31
0.0
 11
187.0745926211604
 21
15.75844135397711
 31
0.0
 11
187.0745926211604
 21
15.73210566604966
 31
0.0
 11
187.0745926211604
 21
15.67416715260926
 31
0.0
 11
187.0745926211604
 21
15.61622863916886
 31
0.0
 11
187.0745926211604
 21
15.58989295124141
 31
0.0
 11
187.0421359350756
 21
15.58989295124141
 31
0.0
 11
186.9584318499095
 21
15.58989295124141
 31
0.0
 11
186.8439793252946
 21
15.58989295124141
 31
0.0
 11
186.7192773208634
 21
15.58989295124141
 31
0.0
 11
186.6048247962485
 21
15.58989295124141
 31
0.0
 11
186.5211207110824
 21
15.58989295124141
 31
0.0
 11
186.4886640249976
 21
15.58989295124141
 31
0.0
 11
186.4886640249976
 21
15.56321863152019
 31
0.0
 11
186.4886640249976
 21
15.49442696487073
 31
0.0
 11
186.4886640249976
 21
15.40036489006433
 31
0.0
 11
186.4886640249976
 21
15.29787934587228
 31
0.0
 11
186.4886640249976
 21
15.20381727106588
 31
0.0
 11
186.4886640249976
 21
15.13502560441642
 31
0.0
 11
186.4886640249976
 21
15.1083512846952
 31
0.0
 11
186.5171747850993
 21
15.1083512846952
 31
0.0
 11
186.5923395162767
 21
15.1083512846952
 31
0.0
 11
186.6986068948376
 21
15.1083512846952
 31
0.0
 11
186.8204255970905
 21
15.1083512846952
 31
0.0
 11
186.9422442993434
 21
15.1083512846952
 31
0.0
 11
187.0485116779044
 21
15.1083512846952
 31
0.0
 11
187.1236764090817
 21
15.1083512846952
 31
0.0
 11
187.1521871691834
 21
15.1083512846952
 31
0.0
 11
187.1521871691834
 21
15.08201559676775
 31
0.0
 11
187.1521871691834
 21
15.02407708332736
 31
0.0
 11
187.1521871691834
 21
14.96613856988696
 31
0.0
 11
187.1521871691834
 21
14.93980288195951
 31
0.0
  0
SPLINE
  5
AD
102
{ACAD_REACTORS
330
CA
102
}
330
4B
100
AcDbEntity
  8
_U_30EC_U_30A4_U_30E4_U_30FC_1
  6
Continuous
 62
     2
100
AcDbSpline
210
0.0
220
0.0
230
1.0
 70
     8
 71
     3
 72
    62
 73
    58
 74
    56
 42
0.000000001
 43
0.0000000001
 44
0.00000001
 40
0.0
 40
0.0
 40
0.0
 40
0.0
 40
0.0598250028308769
 40
0.2024846486897616
 40
0.3727558389220746
 40
0.515415484793607
 40
0.5752404975785339
 40
0.9332326775486943
 40
1.290451762839436
 40
1.602077253145789
 40
1.699931634112049
 40
1.799359756424971
 40
2.270120149657023
 40
2.804661928461452
 40
2.882342287383165
 40
3.076543185719021
 40
3.329004354835488
 40
3.58146552456832
 40
3.775666424543606
 40
3.853346784558228
 40
3.899120679595002
 40
3.984129341792028
 40
4.029903236817406
 40
4.105797496059566
 40
4.29553314415254
 40
4.542189486611798
 40
4.788845828875765
 40
4.978581476410161
 40
5.054475735244409
 40
5.621734664339436
 40
6.130867242037435
 40
6.225249780948677
 40
6.3189130397273
 40
6.663579954558868
 40
7.047498900224696
 40
7.435230791575631
 40
7.498943906668043
 40
7.650875181210036
 40
7.832212509001547
 40
7.984143783696933
 40
8.04785689890306
 40
8.09155463273257
 40
8.172707566964238
 40
8.216405300767965
 40
8.289021782160821
 40
8.462184160757138
 40
8.668861838005304
 40
8.84202421526381
 40
8.914640695475006
 40
8.989881580861201
 40
9.15541152882709
 40
9.320941477743853
 40
9.396182352487095
 40
9.454709011143613
 40
9.583467660170605
 40
9.712226309012827
 40
9.770752957989309
 40
9.770752957989309
 40
9.770752957989309
 40
9.770752957989309
 10
187.1521871691834
 20
14.93980288195951
 30
0.0
 10
187.1322348171624
 20
14.93980875568672
 30
0.0
 10
187.0647037716466
 20
14.93982863806158
 30
0.0
 10
186.9410612161789
 20
14.93949362520326
 30
0.0
 10
186.7863180150057
 20
14.94107673750513
 30
0.0
 10
186.669734948248
 20
14.93686078860496
 30
0.0
 10
186.4550942634242
 20
14.95215205331628
 30
0.0
 10
186.8518948407228
 20
14.59198721286191
 30
0.0
 10
186.8945656069269
 20
14.37510503397169
 30
0.0
 10
187.318916214661
 20
14.19325062511453
 30
0.0
 10
187.1439821496074
 20
14.0898519656807
 30
0.0
 10
187.0194523925084
 20
13.8783152321273
 30
0.0
 10
186.7666277235944
 20
14.34806081001561
 30
0.0
 10
186.4797602893625
 20
14.99511516984519
 30
0.0
 10
186.490633592666
 20
14.68782672154693
 30
0.0
 10
186.4882892777959
 20
14.52288616971777
 30
0.0
 10
186.4861096126411
 20
14.28879670711691
 30
0.0
 10
186.4980774396346
 20
14.04498072421781
 30
0.0
 10
186.4687984740631
 20
13.89855796860981
 30
0.0
 10
186.5114522625469
 20
13.75113490174534
 30
0.0
 10
186.4239814005639
 20
13.76685797306217
 30
0.0
 10
186.3768527606743
 20
13.76694303543452
 30
0.0
 10
186.2898973207712
 20
13.75109425482906
 30
0.0
 10
186.3313474021722
 20
13.8952777142276
 30
0.0
 10
186.3029875004284
 20
14.03855052698454
 30
0.0
 10
186.3145973775299
 20
14.27674947365266
 30
0.0
 10
186.312417564827
 20
14.50517235240348
 30
0.0
 10
186.3103111127993
 20
14.66705729375998
 30
0.0
 10
186.3208035438321
 20
14.98153709333756
 30
0.0
 10
186.0128963252894
 20
14.2922947087244
 30
0.0
 10
185.7055258267455
 20
13.81476750243042
 30
0.0
 10
185.5851367066275
 20
14.03741112637428
 30
0.0
 10
185.4074607910723
 20
14.15011034955564
 30
0.0
 10
185.8853326362894
 20
14.32548143465468
 30
0.0
 10
185.9353959057207
 20
14.56091929252034
 30
0.0
 10
186.3583799621716
 20
14.95322989344608
 30
0.0
 10
186.1276754273541
 20
14.93655307029067
 30
0.0
 10
186.004968585934
 20
14.94269518948772
 30
0.0
 10
185.8325483095662
 20
14.93312822699574
 30
0.0
 10
185.7213224694449
 20
14.95448818489667
 30
0.0
 10
185.6025779627448
 20
14.92136265357421
 30
0.0
 10
185.6183169706686
 20
15.00203900606886
 30
0.0
 10
185.6178550933762
 20
15.04645414290856
 30
0.0
 10
185.6027881889931
 20
15.12967081778534
 30
0.0
 10
185.7372380935443
 20
15.09062651983887
 30
0.0
 10
185.8619755545746
 20
15.11739729328424
 30
0.0
 10
186.0628755237279
 20
15.10063949044055
 30
0.0
 10
186.1921540949353
 20
15.12204225913006
 30
0.0
 10
186.3328419928293
 20
15.08868778853423
 30
0.0
 10
186.2980927452615
 20
15.22651875785069
 30
0.0
 10
186.3222185666712
 20
15.34963257349482
 30
0.0
 10
186.2967086182391
 20
15.47024055670333
 30
0.0
 10
186.3333251146684
 20
15.60539865141491
 30
0.0
 10
186.2211417027768
 20
15.58094545781887
 30
0.0
 10
186.1280356457135
 20
15.59307749842019
 30
0.0
 10
186.0191547579819
 20
15.58957630069991
 30
0.0
 10
185.9569697640963
 20
15.58981755951599
 30
0.0
 10
185.9375369557245
 20
15.58989295124141
 30
0.0
 11
187.1521871691834
 21
14.93980288195951
 31
0.0
 11
187.0923621563983
 21
14.93980288195951
 31
0.0
 11
186.949702510526
 21
14.93980288195951
 31
0.0
 11
186.7794313202915
 21
14.93980288195951
 31
0.0
 11
186.6367716744192
 21
14.93980288195951
 31
0.0
 11
186.5769466616341
 21
14.93980288195951
 31
0.0
 11
186.7679960754843
 21
14.63705127966892
 31
0.0
 11
186.994127278563
 21
14.36051890576686
 31
0.0
 11
187.2244526173371
 21
14.1506125349346
 31
0.0
 11
187.1521596330704
 21
14.08466403668715
 31
0.0
 11
187.0879364402643
 21
14.00876059052561
 31
0.0
 11
186.7732818215558
 21
14.35891458349366
 31
0.0
 11
186.4886640249976
 21
14.811382951436
 31
0.0
 11
186.4886640249976
 21
14.73370259137312
 31
0.0
 11
186.4886640249976
 21
14.53950169121591
 31
0.0
 11
186.4886640249976
 21
14.28704052101154
 31
0.0
 11
186.4886640249976
 21
14.03457935080718
 31
0.0
 11
186.4886640249976
 21
13.84037845064997
 31
0.0
 11
186.4886640249976
 21
13.76269809058709
 31
0.0
 11
186.4428901295605
 21
13.76269809058709
 31
0.0
 11
186.3578814666058
 21
13.76269809058709
 31
0.0
 11
186.3121075711686
 21
13.76269809058709
 31
0.0
 11
186.3121075711686
 21
13.83859234982738
 31
0.0
 11
186.3121075711686
 21
14.0283279979281
 31
0.0
 11
186.3121075711686
 21
14.27498434045904
 31
0.0
 11
186.3121075711686
 21
14.52164068298998
 31
0.0
 11
186.3121075711686
 21
14.7113763310907
 31
0.0
 11
186.3121075711686
 21
14.78727059033099
 31
0.0
 11
185.9987626399266
 21
14.31440946197692
 31
0.0
 11
185.6352328662148
 21
13.9579517710938
 31
0.0
 11
185.5773927461628
 21
14.03253450545024
 31
0.0
 11
185.5094852305342
 21
14.0970432293924
 31
0.0
 11
185.7750721898319
 21
14.31672219795893
 31
0.0
 11
186.0233764972061
 21
14.609533959717
 31
0.0
 11
186.226498280526
 21
14.93980288195951
 31
0.0
 11
186.1627851652721
 21
14.93980288195951
 31
0.0
 11
186.0108538904359
 21
14.93980288195951
 31
0.0
 11
185.8295165624055
 21
14.93980288195951
 31
0.0
 11
185.6775852875693
 21
14.93980288195951
 31
0.0
 11
185.6138721723154
 21
14.93980288195951
 31
0.0
 11
185.6138721723154
 21
14.9835006160021
 31
0.0
 11
185.6138721723154
 21
15.06465355065261
 31
0.0
 11
185.6138721723154
 21
15.1083512846952
 31
0.0
 11
185.6864886537961
 21
15.1083512846952
 31
0.0
 11
185.8596510327117
 21
15.1083512846952
 31
0.0
 11
186.0663287107723
 21
15.1083512846952
 31
0.0
 11
186.2394910896879
 21
15.1083512846952
 31
0.0
 11
186.3121075711686
 21
15.1083512846952
 31
0.0
 11
186.3121075711686
 21
15.18359217009304
 31
0.0
 11
186.3121075711686
 21
15.3491221179683
 31
0.0
 11
186.3121075711686
 21
15.51465206584357
 31
0.0
 11
186.3121075711686
 21
15.58989295124141
 31
0.0
 11
186.2535809125055
 21
15.58989295124141
 31
0.0
 11
186.1248222634466
 21
15.58989295124141
 31
0.0
 11
185.9960636143877
 21
15.58989295124141
 31
0.0
 11
185.9375369557245
 21
15.58989295124141
 31
0.0
  0
SPLINE
  5
AE
102
{ACAD_REACTORS
330
CB
102
}
330
4B
100
AcDbEntity
  8
_U_30EC_U_30A4_U_30E4_U_30FC_1
  6
Continuous
 62
     2
100
AcDbSpline
210
0.0
220
0.0
230
1.0
 70
    11
 71
     3
 72
   124
 73
   120
 74
   118
 42
0.000000001
 43
0.0000000001
 44
0.00000001
 40
0.0
 40
0.0
 40
0.0
 40
0.0
 40
0.0278187229624226
 40
0.1011590162383985
 40
0.2048470170589954
 40
0.3237088716558677
 40
0.4425707262521431
 40
0.5462587270698694
 40
0.6195990203311229
 40
0.6474177522577808
 40
0.6750060736114389
 40
0.7357003855241959
 40
0.7963946998053693
 40
0.823983024557102
 40
0.8540933811102114
 40
0.9373396629408794
 40
1.063094687343132
 40
1.22073126863797
 40
1.399622220914644
 40
1.589140358637629
 40
1.778658496423738
 40
1.957549448940377
 40
2.115186030872999
 40
2.240941056914303
 40
2.324187341760372
 40
2.354297700109222
 40
2.38188602467173
 40
2.442580338710321
 40
2.50327465275035
 40
2.530862977314457
 40
2.56098394927841
 40
2.640393784452756
 40
2.752662861758979
 40
2.881361560117967
 40
3.010060258455014
 40
3.122329335705218
 40
3.201739170817775
 40
3.231860142753164
 40
3.264298024030219
 40
3.352343701778085
 40
3.482095226868604
 40
3.63965065017286
 40
3.811108022565308
 40
3.98256539492781
 40
4.140120818152384
 40
4.269872343141091
 40
4.357918020802148
 40
4.390355902043775
 40
4.423256253992345
 40
4.508104530072923
 40
4.624121560636691
 40
4.750528176031476
 40
4.866545206601951
 40
4.951393482691965
 40
4.984293834645366
 40
5.011450833242278
 40
5.071196230152057
 40
5.130941627057127
 40
5.15809862564879
 40
5.190998977601452
 40
5.275847253689334
 40
5.391864284256825
 40
5.518270899648399
 40
5.634287930209466
 40
5.71913620628814
 40
5.752036558236056
 40
5.782130946283083
 40
5.86278390622926
 40
5.979550131775134
 40
6.117984316640544
 40
6.263641154588094
 40
6.402075339414307
 40
6.518841564908111
 40
6.599494524815696
 40
6.629588912848933
 40
6.65440302822651
 40
6.713575149488249
 40
6.784199939329567
 40
6.843372060493612
 40
6.868186175802858
 40
6.896246243201923
 40
6.939586233758259
 40
6.967846564564887
 40
7.043584251089825
 40
7.153234334451678
 40
7.283231855734426
 40
7.420011856035456
 40
7.550009376579803
 40
7.659659458835204
 40
7.735397144417194
 40
7.763657474851366
 40
7.796409728011023
 40
7.880876065096297
 40
7.996370852465683
 40
8.122208446418577
 40
8.237703224799171
 40
8.322169562010894
 40
8.354921815205879
 40
8.382078813307656
 40
8.441824209206956
 40
8.501569605240098
 40
8.528726603485675
 40
8.561478856695695
 40
8.645945193877745
 40
8.761439980865285
 40
8.887277580764428
 40
9.002772362000949
 40
9.08723869666114
 40
9.119990949235623
 40
9.15242883061332
 40
9.240474508638533
 40
9.37022603414948
 40
9.527781457984357
 40
9.69923883098134
 40
9.870696203978524
 40
10.02825162781394
 40
10.15800315332555
 40
10.2460488313511
 40
10.27848670378512
 40
10.27848670378512
 40
10.27848670378512
 40
10.27848670378512
 10
195.3821827564384
 20
14.01410517385762
 30
0.0
 10
195.3914554737524
 20
14.01410498511279
 30
0.0
 10
195.4251744536861
 20
14.01410430876719
 30
0.0
 10
195.4934706812466
 20
14.01411807243309
 30
0.0
 10
195.592014171158
 20
14.0140322421955
 30
0.0
 10
195.7062066464812
 20
14.01441755612255
 30
0.0
 10
195.8185894417071
 20
14.0130083589755
 30
0.0
 10
195.9214376600119
 20
14.01719117422248
 30
0.0
 10
195.9806839874849
 20
14.00823089251988
 30
0.0
 10
196.0371265937032
 20
14.02164434526065
 30
0.0
 10
196.0246255586954
 20
13.97087198613365
 30
0.0
 10
196.0329549635703
 20
13.92589320939071
 30
0.0
 10
196.024817084112
 20
13.88056752990493
 30
0.0
 10
196.0370529214457
 20
13.8293193240847
 30
0.0
 10
195.9747773490333
 20
13.8444795536528
 30
0.0
 10
195.9060513026868
 20
13.83359750710747
 30
0.0
 10
195.7782756749591
 20
13.83911304747976
 30
0.0
 10
195.6262984511644
 20
13.83700851253703
 30
0.0
 10
195.4502695972523
 20
13.83771002588477
 30
0.0
 10
195.2644431934287
 20
13.83745237531295
 30
0.0
 10
195.0786167437176
 20
13.83771005144607
 30
0.0
 10
194.9025880142169
 20
13.83700841847735
 30
0.0
 10
194.7506104154195
 20
13.83911332229993
 30
0.0
 10
194.6228357664555
 20
13.83359680767644
 30
0.0
 10
194.5541077836582
 20
13.84448077125946
 30
0.0
 10
194.4918349042883
 20
13.82931786684213
 30
0.0
 10
194.5040616290019
 20
13.88057510805176
 30
0.0
 10
194.4960004462598
 20
13.9258247327243
 30
0.0
 10
194.5040675809893
 20
13.97106357955328
 30
0.0
 10
194.4918238487084
 20
14.02234176909963
 30
0.0
 10
194.5525017120699
 20
14.0074957736314
 30
0.0
 10
194.6162810745737
 20
14.0175644817074
 30
0.0
 10
194.7277314353503
 20
14.01294644212005
 30
0.0
 10
194.8497533443824
 20
14.01413328905474
 30
0.0
 10
194.9719538137824
 20
14.01515863900639
 30
0.0
 10
195.0829794287392
 20
14.01092475623406
 30
0.0
 10
195.1476517413959
 20
14.02018584521744
 30
0.0
 10
195.2091162810502
 20
14.00604423049686
 30
0.0
 10
195.1930065601337
 20
14.07235527884521
 30
0.0
 10
195.2042980327359
 20
14.1444779012198
 30
0.0
 10
195.1987400822561
 20
14.2751376088829
 30
0.0
 10
195.2008035061691
 20
14.42607323708244
 30
0.0
 10
195.2000167127296
 20
14.59335873107889
 30
0.0
 10
195.2007845215628
 20
14.76061110332305
 30
0.0
 10
195.198803878563
 20
14.91163289269916
 30
0.0
 10
195.2041306156621
 20
15.04206069552996
 30
0.0
 10
195.1933101388425
 20
15.114654426059
 30
0.0
 10
195.2090326429876
 20
15.18150469436799
 30
0.0
 10
195.1432708132491
 20
15.16580512490825
 30
0.0
 10
195.0756367830764
 20
15.17609243083997
 30
0.0
 10
194.9615885293809
 20
15.17113786847122
 30
0.0
 10
194.8451242674903
 20
15.17414128030476
 30
0.0
 10
194.7306554121476
 20
15.16880303143389
 30
0.0
 10
194.6640324657812
 20
15.18001268074826
 30
0.0
 10
194.5990769715184
 20
15.16349132665012
 30
0.0
 10
194.6107989758707
 20
15.2147372047706
 30
0.0
 10
194.603283018912
 20
15.25950333784091
 30
0.0
 10
194.6107989878834
 20
15.3042694489796
 30
0.0
 10
194.5990769505346
 20
15.35551536129739
 30
0.0
 10
194.6640326339199
 20
15.33899381766813
 30
0.0
 10
194.730653333982
 20
15.35020571373943
 30
0.0
 10
194.8451352858064
 20
15.34485436710663
 30
0.0
 10
194.9615454436962
 20
15.34791188771116
 30
0.0
 10
195.0757660174642
 20
15.34278499010707
 30
0.0
 10
195.1430150439227
 20
15.35345733355597
 30
0.0
 10
195.2083325941439
 20
15.33742082669076
 30
0.0
 10
195.1941391448553
 20
15.39949685750052
 30
0.0
 10
195.2036059462996
 20
15.46586761628762
 30
0.0
 10
195.1990269004085
 20
15.58239972741966
 30
0.0
 10
195.2007696555949
 20
15.71426685022376
 30
0.0
 10
195.1997551495392
 20
15.85615960150274
 30
0.0
 10
195.2017191344373
 20
15.98769050702581
 30
0.0
 10
195.1964668553852
 20
16.10524577283005
 30
0.0
 10
195.2073408763474
 20
16.16947789001586
 30
0.0
 10
195.1919536641855
 20
16.2310880254505
 30
0.0
 10
195.2407591537801
 20
16.21702407382113
 30
0.0
 10
195.2853995564726
 20
16.21954742075317
 30
0.0
 10
195.3538643946742
 20
16.21512797401712
 30
0.0
 10
195.3959106169103
 20
16.20613025544037
 30
0.0
 10
195.4487544758774
 20
16.21411714866512
 30
0.0
 10
195.4207035002015
 20
16.17113917611682
 30
0.0
 10
195.3749142248594
 20
16.1825955204383
 30
0.0
 10
195.3869539073266
 20
16.12173520005135
 30
0.0
 10
195.3796086070642
 20
16.0576929946877
 30
0.0
 10
195.3831195826162
 20
15.94909368863908
 30
0.0
 10
195.3819806760175
 20
15.82494319144751
 30
0.0
 10
195.3819174780263
 20
15.69189719829876
 30
0.0
 10
195.3832872966869
 20
15.56797381249554
 30
0.0
 10
195.3791638801314
 20
15.45868337849337
 30
0.0
 10
195.3877763103564
 20
15.39608580094168
 30
0.0
 10
195.3746757454402
 20
15.33740133296364
 30
0.0
 10
195.4393884328199
 20
15.35362113810901
 30
0.0
 10
195.5060405953157
 20
15.34270260383311
 30
0.0
 10
195.6198779541103
 20
15.34793740173754
 30
0.0
 10
195.7357259122097
 20
15.34485547516912
 30
0.0
 10
195.8496924263281
 20
15.35018259812511
 30
0.0
 10
195.91603410181
 20
15.33904208166541
 30
0.0
 10
195.9807188525481
 20
15.35546979593176
 30
0.0
 10
195.9689820772723
 20
15.3042592521005
 30
0.0
 10
195.9765168063041
 20
15.25950334121
 30
0.0
 10
195.9689820992258
 20
15.21474739010028
 30
0.0
 10
195.9807188140737
 20
15.16353690871041
 30
0.0
 10
195.9160344075253
 20
15.17996427794221
 30
0.0
 10
195.8496886430826
 20
15.16882784447271
 30
0.0
 10
195.7357459487013
 20
15.17413115893121
 30
0.0
 10
195.6197995623055
 20
15.17114764593545
 30
0.0
 10
195.5062756882124
 20
15.17606892268394
 30
0.0
 10
195.4389231318804
 20
15.1658508751352
 30
0.0
 10
195.3734285122496
 20
15.18145996138817
 30
0.0
 10
195.3891713619217
 20
15.11463851827412
 30
0.0
 10
195.3783275998215
 20
15.0420705781588
 30
0.0
 10
195.3836581629792
 20
14.91162247614418
 30
0.0
 10
195.3817136151856
 20
14.76064558185228
 30
0.0
 10
195.3823133683215
 20
14.59322243934161
 30
0.0
 10
195.3821506559606
 20
14.42656176118374
 30
0.0
 10
195.3821895488135
 20
14.2736014292164
 30
0.0
 10
195.3821816413101
 20
14.1484917898571
 30
0.0
 10
195.3821828382745
 20
14.06507890991425
 30
0.0
 10
195.382182771621
 20
14.02491778281981
 30
0.0
 10
195.3821827564384
 20
14.01410517385762
 30
0.0
 11
195.3821827564384
 21
14.01410517385762
 31
0.0
 11
195.4100014883675
 21
14.01410517385762
 31
0.0
 11
195.4833417816353
 21
14.01410517385762
 31
0.0
 11
195.5870297824623
 21
14.01410517385762
 31
0.0
 11
195.7058916370687
 21
14.01410517385762
 31
0.0
 11
195.8247534916752
 21
14.01410517385762
 31
0.0
 11
195.928441492502
 21
14.01410517385762
 31
0.0
 11
196.0017817857699
 21
14.01410517385762
 31
0.0
 11
196.029600517699
 21
14.01410517385762
 31
0.0
 11
196.029600517699
 21
13.98651684921174
 31
0.0
 11
196.029600517699
 21
13.92582253499081
 31
0.0
 11
196.029600517699
 21
13.86512822076989
 31
0.0
 11
196.029600517699
 21
13.83753989612401
 31
0.0
 11
195.9994901593494
 21
13.83753989612401
 31
0.0
 11
195.9162438745004
 21
13.83753989612401
 31
0.0
 11
195.7904888484521
 21
13.83753989612401
 31
0.0
 11
195.6328522665042
 21
13.83753989612401
 31
0.0
 11
195.4539613139565
 21
13.83753989612401
 31
0.0
 11
195.2644431761089
 21
13.83753989612401
 31
0.0
 11
195.0749250382613
 21
13.83753989612401
 31
0.0
 11
194.8960340857137
 21
13.83753989612401
 31
0.0
 11
194.7383975037657
 21
13.83753989612401
 31
0.0
 11
194.6126424777173
 21
13.83753989612401
 31
0.0
 11
194.5293961928684
 21
13.83753989612401
 31
0.0
 11
194.4992858345188
 21
13.83753989612401
 31
0.0
 11
194.4992858345188
 21
13.86512822076989
 31
0.0
 11
194.4992858345188
 21
13.92582253499081
 31
0.0
 11
194.4992858345188
 21
13.98651684921175
 31
0.0
 11
194.4992858345188
 21
14.01410517385762
 31
0.0
 11
194.5294068064948
 21
14.01410517385762
 31
0.0
 11
194.6088166417041
 21
14.01410517385762
 31
0.0
 11
194.7210857190691
 21
14.01410517385762
 31
0.0
 11
194.8497844175118
 21
14.01410517385762
 31
0.0
 11
194.9784831159546
 21
14.01410517385762
 31
0.0
 11
195.0907521933196
 21
14.01410517385762
 31
0.0
 11
195.1701620285289
 21
14.01410517385762
 31
0.0
 11
195.2002830005049
 21
14.01410517385762
 31
0.0
 11
195.2002830005049
 21
14.0465430552384
 31
0.0
 11
195.2002830005049
 21
14.13458873327195
 31
0.0
 11
195.2002830005049
 21
14.26434025879507
 31
0.0
 11
195.2002830005049
 21
14.42189568264457
 31
0.0
 11
195.2002830005049
 21
14.59335305565726
 31
0.0
 11
195.2002830005049
 21
14.76481042866996
 31
0.0
 11
195.2002830005049
 21
14.92236585251946
 31
0.0
 11
195.2002830005049
 21
15.05211737804258
 31
0.0
 11
195.2002830005049
 21
15.14016305607613
 31
0.0
 11
195.2002830005049
 21
15.17260093745691
 31
0.0
 11
195.1673826485529
 21
15.17260093745691
 31
0.0
 11
195.0825343724663
 21
15.17260093745691
 31
0.0
 11
194.9665173418988
 21
15.17260093745691
 31
0.0
 11
194.8401107265044
 21
15.17260093745691
 31
0.0
 11
194.724093695937
 21
15.17260093745691
 31
0.0
 11
194.6392454198503
 21
15.17260093745691
 31
0.0
 11
194.6063450678983
 21
15.17260093745691
 31
0.0
 11
194.6063450678983
 21
15.19975793614803
 31
0.0
 11
194.6063450678983
 21
15.2595033332685
 31
0.0
 11
194.6063450678983
 21
15.31924873038897
 31
0.0
 11
194.6063450678983
 21
15.34640572908009
 31
0.0
 11
194.6392454198503
 21
15.34640572908009
 31
0.0
 11
194.7240936959369
 21
15.34640572908009
 31
0.0
 11
194.8401107265044
 21
15.34640572908009
 31
0.0
 11
194.9665173418988
 21
15.34640572908009
 31
0.0
 11
195.0825343724663
 21
15.34640572908009
 31
0.0
 11
195.1673826485529
 21
15.34640572908009
 31
0.0
 11
195.2002830005049
 21
15.34640572908009
 31
0.0
 11
195.2002830005049
 21
15.37650011731369
 31
0.0
 11
195.2002830005049
 21
15.45715307777973
 31
0.0
 11
195.2002830005049
 21
15.57391930412609
 31
0.0
 11
195.2002830005049
 21
15.71235349000064
 31
0.0
 11
195.2002830005049
 21
15.85801032905125
 31
0.0
 11
195.2002830005049
 21
15.9964445149258
 31
0.0
 11
195.2002830005049
 21
16.11321074127216
 31
0.0
 11
195.2002830005049
 21
16.1938637017382
 31
0.0
 11
195.2002830005049
 21
16.2239580899718
 31
0.0
 11
195.2250405288619
 21
16.22228324219444
 31
0.0
 11
195.284077711867
 21
16.21828937441768
 31
0.0
 11
195.3545414464215
 21
16.21352249997443
 31
0.0
 11
195.4135786294265
 21
16.20952863219766
 31
0.0
 11
195.4383361577835
 21
16.20785378442031
 31
0.0
 11
195.423306722403
 21
16.18415814206513
 31
0.0
 11
195.3821827564384
 21
16.17047697887401
 31
0.0
 11
195.3821827564384
 21
16.1422166479483
 31
0.0
 11
195.3821827564384
 21
16.06647896106737
 31
0.0
 11
195.3821827564384
 21
15.95682887707559
 31
0.0
 11
195.3821827564384
 21
15.82683135481729
 31
0.0
 11
195.3821827564384
 21
15.69005135313681
 31
0.0
 11
195.3821827564384
 21
15.56005383087852
 31
0.0
 11
195.3821827564384
 21
15.45040374688673
 31
0.0
 11
195.3821827564384
 21
15.37466606000581
 31
0.0
 11
195.3821827564384
 21
15.34640572908009
 31
0.0
 11
195.4149350096116
 21
15.34640572908009
 31
0.0
 11
195.4994013467423
 21
15.34640572908009
 31
0.0
 11
195.6148961342477
 21
15.34640572908009
 31
0.0
 11
195.7407337385446
 21
15.34640572908009
 31
0.0
 11
195.8562285260499
 21
15.34640572908009
 31
0.0
 11
195.9406948631807
 21
15.34640572908009
 31
0.0
 11
195.9734471163539
 21
15.34640572908009
 31
0.0
 11
195.9734471163539
 21
15.31924873038897
 31
0.0
 11
195.9734471163539
 21
15.2595033332685
 31
0.0
 11
195.9734471163539
 21
15.19975793614803
 31
0.0
 11
195.9734471163539
 21
15.17260093745691
 31
0.0
 11
195.9406948631807
 21
15.17260093745691
 31
0.0
 11
195.85622852605
 21
15.17260093745691
 31
0.0
 11
195.7407337385446
 21
15.17260093745691
 31
0.0
 11
195.6148961342477
 21
15.17260093745691
 31
0.0
 11
195.4994013467423
 21
15.17260093745691
 31
0.0
 11
195.4149350096116
 21
15.17260093745691
 31
0.0
 11
195.3821827564384
 21
15.17260093745691
 31
0.0
 11
195.3821827564384
 21
15.14016305607613
 31
0.0
 11
195.3821827564384
 21
15.05211737804258
 31
0.0
 11
195.3821827564384
 21
14.92236585251946
 31
0.0
 11
195.3821827564384
 21
14.76481042866996
 31
0.0
 11
195.3821827564384
 21
14.59335305565726
 31
0.0
 11
195.3821827564384
 21
14.42189568264457
 31
0.0
 11
195.3821827564384
 21
14.26434025879507
 31
0.0
 11
195.3821827564384
 21
14.13458873327195
 31
0.0
 11
195.3821827564384
 21
14.0465430552384
 31
0.0
 11
195.3821827564384
 21
14.01410517385762
 31
0.0
  0
SPLINE
  5
AF
102
{ACAD_REACTORS
330
CC
102
}
330
4B
100
AcDbEntity
  8
_U_30EC_U_30A4_U_30E4_U_30FC_1
  6
Continuous
 62
     2
100
AcDbSpline
210
0.0
220
0.0
230
1.0
 70
    11
 71
     3
 72
   131
 73
   127
 74
   125
 42
0.000000001
 43
0.0000000001
 44
0.00000001
 40
0.0
 40
0.0
 40
0.0
 40
0.0
 40
0.019557702982603
 40
0.0426490537461317
 40
0.2863607575856462
 40
0.5344948436189635
 40
0.7842238845573755
 40
0.873731578946785
 40
0.9803832810313335
 40
1.092842274517105
 40
1.199761146656871
 40
1.289788768186589
 40
1.351573580786278
 40
1.370727117561502
 40
1.416400936017895
 40
1.470914848356032
 40
1.516588666791787
 40
1.535742203552865
 40
1.63421659229325
 40
1.760283341175076
 40
1.897966686682173
 40
2.031216387368887
 40
2.049689751137883
 40
2.101115601646821
 40
2.179502577739942
 40
2.278859318314062
 40
2.393194462258723
 40
2.516516648383843
 40
2.642834515405976
 40
2.766156701983485
 40
2.880491846754603
 40
2.979848588358649
 40
3.05823556544383
 40
3.109661416668986
 40
3.128134780704163
 40
3.14678374238648
 40
3.191254343315369
 40
3.244332157316028
 40
3.28880275822596
 40
3.307451719895231
 40
3.327717853844843
 40
3.383747753580207
 40
3.468388665924601
 40
3.574487837698912
 40
3.694892515729021
 40
3.822449946852165
 40
3.95000737792056
 40
4.070412055800654
 40
4.176511227368215
 40
4.261152139501663
 40
4.317182039076858
 40
4.337448172964779
 40
4.620011002696391
 40
4.885096638397585
 40
4.945373043518454
 40
5.014107710488791
 40
5.070481727652141
 40
5.319246955636606
 40
5.584812164506055
 40
5.859000912056894
 40
6.133746937542057
 40
6.401732212968856
 40
6.420736683995447
 40
6.472845717451069
 40
6.550702743894025
 40
6.646951193874234
 40
6.754234497930501
 40
6.865196086587279
 40
6.972479390357709
 40
7.068727839771871
 40
7.146584865450851
 40
7.198693898189081
 40
7.217698368905221
 40
7.234950401630702
 40
7.276089864269744
 40
7.325191803515853
 40
7.366331266090238
 40
7.38358329876959
 40
7.402779163491967
 40
7.453386443254399
 40
7.5249346664454
 40
7.60695336140574
 40
7.688972056428891
 40
7.760520279784142
 40
7.811127559734384
 40
7.830323424546005
 40
7.847844055299635
 40
7.894799345666669
 40
7.96277939274435
 40
8.04337429356039
 40
8.128174145149291
 40
8.208769044817082
 40
8.276749090376779
 40
8.323704379669337
 40
8.341225010056068
 40
8.358497614800216
 40
8.401679126686393
 40
8.457815092185422
 40
8.513951057727827
 40
8.557132569707726
 40
8.574405174504797
 40
8.602340668616128
 40
8.64345566053959
 40
8.663225271966258
 40
8.715345156563892
 40
8.789031889628216
 40
8.87350204551993
 40
8.95797219432354
 40
9.03165892556742
 40
9.083778811234097
 40
9.103548423002557
 40
9.119550083123123
 40
9.160817522379396
 40
9.21724442910979
 40
9.278724491644276
 40
9.335151398295032
 40
9.376418837357328
 40
9.392420497300115
 40
9.401196302734299
 40
9.417494229383705
 40
9.426270027748968
 40
9.440875075476997
 40
9.47570249699817
 40
9.517270709865326
 40
9.552098131993487
 40
9.566703169883692
 40
9.566703169883692
 40
9.566703169883692
 40
9.566703169883692
 10
194.6170254148479
 20
15.67015871511029
 30
0.0
 10
194.6134345093371
 20
15.66453690702162
 30
0.0
 10
194.6056039123625
 20
15.65227754419115
 30
0.0
 10
194.5129968974547
 20
15.61601916040978
 30
0.0
 10
194.4887622233248
 20
15.4014844421271
 30
0.0
 10
194.3858709845937
 20
15.2219728450971
 30
0.0
 10
194.1220492364304
 20
15.03615573798147
 30
0.0
 10
194.2845471569179
 20
14.95959336566085
 30
0.0
 10
194.3607225760837
 20
14.89856693195444
 30
0.0
 10
194.4492171072758
 20
14.83515804544764
 30
0.0
 10
194.5389930233109
 20
14.77525634219562
 30
0.0
 10
194.5883817636046
 20
14.72102154849209
 30
0.0
 10
194.674570815738
 20
14.69286240541831
 30
0.0
 10
194.6411260674228
 20
14.65713309652809
 30
0.0
 10
194.621467116631
 20
14.62550387991902
 30
0.0
 10
194.5919888217881
 20
14.5847587279607
 30
0.0
 10
194.5688989446032
 20
14.55504663489641
 30
0.0
 10
194.5380205968356
 20
14.50211422668492
 30
0.0
 10
194.4729193365739
 20
14.62740334938896
 30
0.0
 10
194.3796000122415
 20
14.68213900233937
 30
0.0
 10
194.2950636285138
 20
14.73916423939338
 30
0.0
 10
194.1722498125744
 20
14.89675287427522
 30
0.0
 10
194.1764450847302
 20
14.82035806766838
 30
0.0
 10
194.1751478652678
 20
14.77361280161297
 30
0.0
 10
194.1758126448078
 20
14.69584785812603
 30
0.0
 10
194.1755549986958
 20
14.59902068324423
 30
0.0
 10
194.1756431239922
 20
14.4865027907881
 30
0.0
 10
194.1756077302282
 20
14.36524085945699
 30
0.0
 10
194.175651175828
 20
14.2408689785896
 30
0.0
 10
194.1755199942406
 20
14.11967683631335
 30
0.0
 10
194.1759477562047
 20
14.00691148919741
 30
0.0
 10
194.1746678202312
 20
13.91082913768742
 30
0.0
 10
194.1779759851042
 20
13.83113826468697
 30
0.0
 10
194.1715197740088
 20
13.78815175788782
 30
0.0
 10
194.1806208705556
 20
13.74955432372039
 30
0.0
 10
194.1447910339936
 20
13.75810887724068
 30
0.0
 10
194.1115223815252
 20
13.75342519985443
 30
0.0
 10
194.0604562576041
 20
13.75351298759782
 30
0.0
 10
194.0269723972813
 20
13.75794430283818
 30
0.0
 10
193.9907585408754
 20
13.74960793842506
 30
0.0
 10
194.0009782568665
 20
13.79145277179281
 30
0.0
 10
193.9936487887773
 20
13.83778560820171
 30
0.0
 10
193.9973633136103
 20
13.92374831106012
 30
0.0
 10
193.9959480554896
 20
14.02605142704847
 30
0.0
 10
193.9964105554638
 20
14.1445322393151
 30
0.0
 10
193.9962773686231
 20
14.26957683153355
 30
0.0
 10
193.9963015910045
 20
14.39475828107049
 30
0.0
 10
193.9963354925551
 20
14.51286645379058
 30
0.0
 10
193.9962060293132
 20
14.61628748709516
 30
0.0
 10
193.996550754908
 20
14.69932036153667
 30
0.0
 10
193.995869827869
 20
14.75143368521244
 30
0.0
 10
193.9994586600621
 20
14.87912907821359
 30
0.0
 10
193.7826171386436
 20
14.58048716819627
 30
0.0
 10
193.6021354921953
 20
14.35263981511516
 30
0.0
 10
193.5490322295611
 20
14.49373443289814
 30
0.0
 10
193.5200429133149
 20
14.54325767560942
 30
0.0
 10
193.4196648062823
 20
14.64641779790116
 30
0.0
 10
193.7405127723262
 20
14.72695035023777
 30
0.0
 10
193.8689897005429
 20
14.91066283036436
 30
0.0
 10
194.0906454325359
 20
15.11931995771763
 30
0.0
 10
194.1770224894068
 20
15.29339211228346
 30
0.0
 10
194.4549394229073
 20
15.56967051342519
 30
0.0
 10
194.3346247839283
 20
15.56534559551119
 30
0.0
 10
194.2863197351348
 20
15.5661485620256
 30
0.0
 10
194.2102377454903
 20
15.5657458214659
 30
0.0
 10
194.116701000975
 20
15.56590275611615
 30
0.0
 10
194.0117594788556
 20
15.5658250257623
 30
0.0
 10
193.9033887738717
 20
15.5659546437856
 30
0.0
 10
193.7981454235897
 20
15.56554393490698
 30
0.0
 10
193.7056237819411
 20
15.56682073671597
 30
0.0
 10
193.6268130800708
 20
15.56340766534856
 30
0.0
 10
193.5839674565378
 20
15.57023350036325
 30
0.0
 10
193.5449499586516
 20
15.5606506420113
 30
0.0
 10
193.5526365271863
 20
15.59420779565548
 30
0.0
 10
193.5485464404313
 20
15.62523550322239
 30
0.0
 10
193.5485531368814
 20
15.67236529270906
 30
0.0
 10
193.5526239724911
 20
15.70340941646784
 30
0.0
 10
193.5449495574583
 20
15.73701861635907
 30
0.0
 10
193.5834819405494
 20
15.72748410420877
 30
0.0
 10
193.624122801448
 20
15.73397435498077
 30
0.0
 10
193.6951471850463
 20
15.7310015065026
 30
0.0
 10
193.7729318149633
 20
15.73174761399163
 30
0.0
 10
193.8507292246474
 20
15.73247814044531
 30
0.0
 10
193.9217232089907
 20
15.72954235514166
 30
0.0
 10
193.962427979182
 20
15.73595468772958
 30
0.0
 10
194.0009853489909
 20
15.7265052417601
 30
0.0
 10
193.9927342754928
 20
15.7626469215879
 30
0.0
 10
193.9982346669358
 20
15.80129837613232
 30
0.0
 10
193.9955754206163
 20
15.86913528561843
 30
0.0
 10
193.9965815471533
 20
15.94591641538744
 30
0.0
 10
193.9960178018319
 20
16.02849393582759
 30
0.0
 10
193.9970714526592
 20
16.1051732922988
 30
0.0
 10
193.994267586313
 20
16.17331990776701
 30
0.0
 10
194.0000702721303
 20
16.21132399809348
 30
0.0
 10
193.9915654551159
 20
16.24758448077647
 30
0.0
 10
194.0255610233124
 20
16.23755723771853
 30
0.0
 10
194.0594575683099
 20
16.24073266813706
 30
0.0
 10
194.1126669060345
 20
16.2350896564061
 30
0.0
 10
194.1660768574482
 20
16.23434774436426
 30
0.0
 10
194.1995914649489
 20
16.22819223482979
 30
0.0
 10
194.2388086183038
 20
16.23346029773595
 30
0.0
 10
194.2120263698492
 20
16.1925338079349
 30
0.0
 10
194.1708111001724
 20
16.20371204538105
 30
0.0
 10
194.1782641540874
 20
16.15867056192122
 30
0.0
 10
194.1742227952186
 20
16.11412278028143
 30
0.0
 10
194.176171404964
 20
16.04223572621703
 30
0.0
 10
194.175236484976
 20
15.96168630588772
 30
0.0
 10
194.176510719003
 20
15.88173995404998
 30
0.0
 10
194.1732043793865
 20
15.80841837083187
 30
0.0
 10
194.1802106179962
 20
15.76688643002573
 30
0.0
 10
194.1701440380126
 20
15.72752418568118
 30
0.0
 10
194.2029814803923
 20
15.73468063430987
 30
0.0
 10
194.2364577296481
 20
15.73027243137949
 30
0.0
 10
194.2915053476019
 20
15.73217943347903
 30
0.0
 10
194.3489502595316
 20
15.73185366407294
 30
0.0
 10
194.4023026248311
 20
15.73106308733088
 30
0.0
 10
194.4398540896639
 20
15.73313959118079
 30
0.0
 10
194.4623172523238
 20
15.73022338167116
 30
0.0
 10
194.4751678073731
 20
15.73572552644058
 30
0.0
 10
194.4858255685889
 20
15.73801118197792
 30
0.0
 10
194.4986635650143
 20
15.74494972588047
 30
0.0
 10
194.5145991033071
 20
15.7285304631367
 30
0.0
 10
194.5410623920891
 20
15.71709122319446
 30
0.0
 10
194.5726805253757
 20
15.6964468783519
 30
0.0
 10
194.5987255892151
 20
15.68116869628295
 30
0.0
 10
194.6128517723973
 20
15.67266976323185
 30
0.0
 10
194.6170254148479
 20
15.67015871511029
 30
0.0
 11
194.6170254148479
 21
15.67015871511029
 31
0.0
 11
194.6049990002243
 21
15.65473571164191
 31
0.0
 11
194.5848961795565
 21
15.64337406233921
 31
0.0
 11
194.4778986355814
 21
15.4244062023116
 31
0.0
 11
194.3477039934324
 21
15.21317201512161
 31
0.0
 11
194.199654036607
 21
15.01206059027481
 31
0.0
 11
194.2734958253734
 21
14.96147384935382
 31
0.0
 11
194.3605664311799
 21
14.89988411653743
 31
0.0
 11
194.4518003750404
 21
14.83413160594429
 31
0.0
 11
194.5381321779687
 21
14.77105653169307
 31
0.0
 11
194.6104963609787
 21
14.71749910790242
 31
0.0
 11
194.6598274450842
 21
14.68029954869101
 31
0.0
 11
194.6486940702212
 21
14.66471410869491
 31
0.0
 11
194.6221452532402
 21
14.62754882870421
 31
0.0
 11
194.5904579555532
 21
14.58319026871531
 31
0.0
 11
194.5639091385723
 21
14.54602498872461
 31
0.0
 11
194.5527757637093
 21
14.53043954872851
 31
0.0
 11
194.4807013362947
 21
14.59754008690615
 31
0.0
 11
194.385285698538
 21
14.67993354174669
 31
0.0
 11
194.2793264152169
 21
14.76785017366918
 31
0.0
 11
194.1756210511091
 21
14.85152024309269
 31
0.0
 11
194.1756210511091
 21
14.83304687900865
 31
0.0
 11
194.1756210511091
 21
14.78162102763957
 31
0.0
 11
194.1756210511091
 21
14.70323405031
 31
0.0
 11
194.1756210511091
 21
14.60387730834449
 31
0.0
 11
194.1756210511091
 21
14.48954216306761
 31
0.0
 11
194.1756210511091
 21
14.36621997580389
 31
0.0
 11
194.1756210511091
 21
14.23990210787789
 31
0.0
 11
194.1756210511091
 21
14.11657992061417
 31
0.0
 11
194.1756210511091
 21
14.00224477533729
 31
0.0
 11
194.1756210511091
 21
13.90288803337178
 31
0.0
 11
194.1756210511091
 21
13.82450105604221
 31
0.0
 11
194.1756210511091
 21
13.77307520467313
 31
0.0
 11
194.1756210511091
 21
13.75460184058909
 31
0.0
 11
194.1569720893627
 21
13.75460184058909
 31
0.0
 11
194.112501488275
 21
13.75460184058909
 31
0.0
 11
194.0594236740736
 21
13.75460184058909
 31
0.0
 11
194.0149530729859
 21
13.75460184058909
 31
0.0
 11
193.9963041112395
 21
13.75460184058909
 31
0.0
 11
193.9963041112395
 21
13.77486797460216
 31
0.0
 11
193.9963041112395
 21
13.83089787452064
 31
0.0
 11
193.9963041112395
 21
13.91553878716345
 31
0.0
 11
193.9963041112395
 21
14.02163795934951
 31
0.0
 11
193.9963041112395
 21
14.14204263789774
 31
0.0
 11
193.9963041112395
 21
14.26960006962705
 31
0.0
 11
193.9963041112395
 21
14.39715750135635
 31
0.0
 11
193.9963041112395
 21
14.51756217990458
 31
0.0
 11
193.9963041112395
 21
14.62366135209064
 31
0.0
 11
193.9963041112395
 21
14.70830226473345
 31
0.0
 11
193.9963041112395
 21
14.76433216465193
 31
0.0
 11
193.9963041112395
 21
14.784598298665
 31
0.0
 11
193.7883272849481
 21
14.59331998274057
 31
0.0
 11
193.5763486358426
 21
14.43414885430809
 31
0.0
 11
193.5495629014483
 21
14.48814671952096
 31
0.0
 11
193.5138765415024
 21
14.54689140572028
 31
0.0
 11
193.4799697494125
 21
14.59192871537979
 31
0.0
 11
193.6830287742319
 21
14.73563387201054
 31
0.0
 11
193.881853195826
 21
14.91168423529989
 31
0.0
 11
194.0677041444178
 21
15.11327514524951
 31
0.0
 11
194.2318427502302
 21
15.33360194186112
 31
0.0
 11
194.3655301434863
 21
15.56585996513641
 31
0.0
 11
194.3465256724481
 21
15.56585996513641
 31
0.0
 11
194.2944166389561
 21
15.56585996513641
 31
0.0
 11
194.2165596124446
 21
15.56585996513641
 31
0.0
 11
194.1203111623477
 21
15.56585996513641
 31
0.0
 11
194.0130278580996
 21
15.56585996513641
 31
0.0
 11
193.9020662691344
 21
15.56585996513641
 31
0.0
 11
193.7947829648863
 21
15.56585996513641
 31
0.0
 11
193.6985345147894
 21
15.56585996513641
 31
0.0
 11
193.620677488278
 21
15.56585996513641
 31
0.0
 11
193.568568454786
 21
15.56585996513641
 31
0.0
 11
193.5495639837478
 21
15.56585996513641
 31
0.0
 11
193.5495639837478
 21
15.58311199790988
 31
0.0
 11
193.5495639837478
 21
15.62425146067737
 31
0.0
 11
193.5495639837478
 21
15.67335340010955
 31
0.0
 11
193.5495639837478
 21
15.71449286287704
 31
0.0
 11
193.5495639837478
 21
15.73174489565051
 31
0.0
 11
193.5687598486009
 21
15.73174489565051
 31
0.0
 11
193.6193671286684
 21
15.73174489565051
 31
0.0
 11
193.690915352212
 21
15.73174489565051
 31
0.0
 11
193.7729340474937
 21
15.73174489565051
 31
0.0
 11
193.8549527427753
 21
15.73174489565051
 31
0.0
 11
193.9265009663189
 21
15.73174489565051
 31
0.0
 11
193.9771082463864
 21
15.73174489565051
 31
0.0
 11
193.9963041112395
 21
15.73174489565051
 31
0.0
 11
193.9963041112395
 21
15.74926552655224
 31
0.0
 11
193.9963041112395
 21
15.79622081736887
 31
0.0
 11
193.9963041112395
 21
15.86420086526758
 31
0.0
 11
193.9963041112395
 21
15.94479576741553
 31
0.0
 11
193.9963041112395
 21
16.02959562097989
 31
0.0
 11
193.9963041112395
 21
16.11019052312784
 31
0.0
 11
193.9963041112395
 21
16.17817057102655
 31
0.0
 11
193.9963041112395
 21
16.22512586184318
 31
0.0
 11
193.9963041112395
 21
16.24264649274491
 31
0.0
 11
194.0135484112111
 21
16.2416580616752
 31
0.0
 11
194.05665916114
 21
16.23918698400092
 31
0.0
 11
194.1127031360477
 21
16.23597458302436
 31
0.0
 11
194.1687471109553
 21
16.2327621820478
 31
0.0
 11
194.2118578608842
 21
16.23029110437352
 31
0.0
 11
194.2291021608558
 21
16.22930267330381
 31
0.0
 11
194.2143774674851
 21
16.20556293372638
 31
0.0
 11
194.1756210511091
 21
16.1918376733131
 31
0.0
 11
194.1756210511091
 21
16.17206806177291
 31
0.0
 11
194.1756210511091
 21
16.11994817680332
 31
0.0
 11
194.1756210511091
 21
16.04626144288079
 31
0.0
 11
194.1756210511091
 21
15.96179128448181
 31
0.0
 11
194.1756210511091
 21
15.87732112608281
 31
0.0
 11
194.1756210511091
 21
15.80363439216029
 31
0.0
 11
194.1756210511091
 21
15.7515145071907
 31
0.0
 11
194.1756210511091
 21
15.73174489565051
 31
0.0
 11
194.1916227112937
 21
15.73174489565051
 31
0.0
 11
194.2328901507171
 21
15.73174489565051
 31
0.0
 11
194.2893170576838
 21
15.73174489565051
 31
0.0
 11
194.3507971204982
 21
15.73174489565051
 31
0.0
 11
194.4072240274649
 21
15.73174489565051
 31
0.0
 11
194.4484914668883
 21
15.73174489565051
 31
0.0
 11
194.4644931270729
 21
15.73174489565051
 31
0.0
 11
194.4728206422925
 21
15.73451387455924
 31
0.0
 11
194.4882860277004
 21
15.73965626396117
 31
0.0
 11
194.49661354292
 21
15.7424252428699
 31
0.0
 11
194.5091363776005
 21
15.7349095239829
 31
0.0
 11
194.5389985218386
 21
15.71698742509852
 31
0.0
 11
194.5746404359293
 21
15.69559653288167
 31
0.0
 11
194.6045025801674
 21
15.67767443399729
 31
0.0
 11
194.6170254148479
 21
15.67015871511029
 31
0.0
  0
SPLINE
  5
B0
102
{ACAD_REACTORS
330
CD
102
}
330
4B
100
AcDbEntity
  8
_U_30EC_U_30A4_U_30E4_U_30FC_1
  6
Continuous
 62
     2
100
AcDbSpline
210
0.0
220
0.0
230
1.0
 70
    11
 71
     3
 72
    91
 73
    87
 74
    85
 42
0.000000001
 43
0.0000000001
 44
0.00000001
 40
0.0
 40
0.0
 40
0.0
 40
0.0
 40
0.0267532254356826
 40
0.0856103386464511
 40
0.1444674521997296
 40
0.1712206856619314
 40
0.2039416005643336
 40
0.2955601971653283
 40
0.4362601844618001
 40
0.6162252844508334
 40
0.8256392189705781
 40
1.054685709844576
 40
1.29354847889364
 40
1.53241124793844
 40
1.761457738799705
 40
1.970871673298673
 40
2.150836773256869
 40
2.29153676049573
 40
2.383155356836865
 40
2.415876284101485
 40
2.442629517488141
 40
2.501486630949299
 40
2.560343744424475
 40
2.58709697782676
 40
2.617068194441187
 40
2.699247336756328
 40
2.822032643466669
 40
2.973822353258199
 40
3.143014704823641
 40
3.31800793688022
 40
3.487200288187082
 40
3.638989997548562
 40
3.761775303795118
 40
3.843954445753424
 40
3.87392566223012
 40
3.890812773500866
 40
3.907699884772056
 40
3.937960767857669
 40
3.980983618142731
 40
4.199085915228906
 40
4.43944433923771
 40
4.677588241261327
 40
5.050698317838213
 40
5.448212454763599
 40
5.855291218045124
 40
6.138575438885807
 40
6.417434507584627
 40
6.444551104394312
 40
6.504207617363614
 40
6.56386413031494
 40
6.590980727104534
 40
6.848609460381949
 40
7.10961199066893
 40
7.352910904446585
 40
7.5578302207059
 40
7.587518925913822
 40
7.652834077376253
 40
7.718149228846202
 40
7.747837934062511
 40
7.854880190301492
 40
7.976511257404035
 40
8.36948789659278
 40
8.757514959224102
 40
9.126072419331564
 40
9.460639380392683
 40
9.746695593036508
 40
9.777569943119245
 40
9.807050320932305
 40
9.830377336129434
 40
9.8860032954365
 40
9.952395569430404
 40
10.00802152870675
 40
10.03134854388267
 40
10.21356951009641
 40
10.42203479292932
 40
10.66154556731122
 40
10.91693789564361
 40
11.15832906556621
 40
11.18982674596679
 40
11.27286608520466
 40
11.39026653033414
 40
11.5248475284095
 40
11.65942852648515
 40
11.77682897161556
 40
11.85986831085753
 40
11.89136598230501
 40
11.89136598230501
 40
11.89136598230501
 40
11.89136598230501
 10
190.7027885008195
 20
14.70699600701769
 30
0.0
 10
190.7028237765287
 20
14.71587847311982
 30
0.0
 10
190.7029366710794
 20
14.74430237047345
 30
0.0
 10
190.7012984568489
 20
14.79409639169804
 30
0.0
 10
190.706975029291
 20
14.83657564478157
 30
0.0
 10
190.6956928731705
 20
14.88730154856852
 30
0.0
 10
190.7632296979031
 20
14.87012900740114
 30
0.0
 10
190.83880292107
 20
14.88290227166002
 30
0.0
 10
190.9828357056
 20
14.87629729457386
 30
0.0
 10
191.1569419185426
 20
14.87888462206471
 30
0.0
 10
191.3639599611002
 20
14.87800591955557
 30
0.0
 10
191.5894688172376
 20
14.87828207920032
 30
0.0
 10
191.8251162293406
 20
14.87818339658668
 30
0.0
 10
192.0607640531347
 20
14.87828184412772
 30
0.0
 10
192.2862717580626
 20
14.87800678190793
 30
0.0
 10
192.4932934632804
 20
14.8788818627074
 30
0.0
 10
192.6673888915288
 20
14.87630522678452
 30
0.0
 10
192.8114492071985
 20
14.88288290449218
 30
0.0
 10
192.8869691915293
 20
14.87016243405609
 30
0.0
 10
192.9545776037029
 20
14.88726400191691
 30
0.0
 10
192.9430840140676
 20
14.83674785802943
 30
0.0
 10
192.9505104581733
 20
14.79253252226502
 30
0.0
 10
192.9428838927986
 20
14.74867966503609
 30
0.0
 10
192.9546489459425
 20
14.69878374479325
 30
0.0
 10
192.8930788491983
 20
14.71393227712508
 30
0.0
 10
192.8256791738671
 20
14.7031066535067
 30
0.0
 10
192.7013004056221
 20
14.70852031626234
 30
0.0
 10
192.555442823657
 20
14.70649205390782
 30
0.0
 10
192.3893576440086
 20
14.70715777578384
 30
0.0
 10
192.2188412621724
 20
14.70689643521239
 30
0.0
 10
192.0519790855388
 20
14.70721553391091
 30
0.0
 10
191.9087346827105
 20
14.7063530259076
 30
0.0
 10
191.7773313869832
 20
14.70863300482983
 30
0.0
 10
191.7239859134656
 20
14.70407704374202
 30
0.0
 10
191.6485188456911
 20
14.70999914992871
 30
0.0
 10
191.6769075779232
 20
14.70094169343355
 30
0.0
 10
191.7033652409542
 20
14.6972591226894
 30
0.0
 10
191.6633522907702
 20
14.66654271968273
 30
0.0
 10
191.5713663691868
 20
14.67667591174643
 30
0.0
 10
191.5439396207069
 20
14.43032502247783
 30
0.0
 10
191.4478793967234
 20
14.27499558764375
 30
0.0
 10
191.1917277964473
 20
13.94525417931568
 30
0.0
 10
191.7627537732762
 20
14.0843002221045
 30
0.0
 10
192.0173656320517
 20
14.08291779973365
 30
0.0
 10
192.6279647048616
 20
13.99790569242084
 30
0.0
 10
192.3340698578083
 20
14.29685417558201
 30
0.0
 10
192.0133304286516
 20
14.44330856901777
 30
0.0
 10
192.1313543360434
 20
14.50025540818286
 30
0.0
 10
192.172471646626
 20
14.52420099873347
 30
0.0
 10
192.215681239441
 20
14.5459975881123
 30
0.0
 10
192.3174574094452
 20
14.60928721253905
 30
0.0
 10
192.4328867625247
 20
14.35147151408778
 30
0.0
 10
192.6329591642278
 20
14.21616041113681
 30
0.0
 10
192.7269077387227
 20
14.03792795138883
 30
0.0
 10
192.9558829746393
 20
13.87997821027051
 30
0.0
 10
192.8596031846708
 20
13.82915972576301
 30
0.0
 10
192.8167959763779
 20
13.79881292523053
 30
0.0
 10
192.7718243528779
 20
13.77466130281456
 30
0.0
 10
192.7121720925213
 20
13.72552146747562
 30
0.0
 10
192.6789731061325
 20
13.85997475673608
 30
0.0
 10
192.5582013350796
 20
14.01594265286578
 30
0.0
 10
192.1970976005979
 20
13.88569928059555
 30
0.0
 10
191.8385061955541
 20
13.9022469440948
 30
0.0
 10
191.4570920450079
 20
13.89331229351867
 30
0.0
 10
191.1703455282893
 20
13.82882671672398
 30
0.0
 10
190.859205559971
 20
13.94230668192846
 30
0.0
 10
190.8268737818788
 20
13.83122259927767
 30
0.0
 10
190.7896178253317
 20
13.81196313850018
 30
0.0
 10
190.7865737632754
 20
13.858747840873
 30
0.0
 10
190.7679892860607
 20
13.89806853919137
 30
0.0
 10
190.7512436616778
 20
13.95765983478234
 30
0.0
 10
190.7383730915753
 20
14.00201969871284
 30
0.0
 10
190.7042327806429
 20
14.09106331120201
 30
0.0
 10
190.9482714457754
 20
14.02181042943768
 30
0.0
 10
191.1441394486672
 20
14.00030369057741
 30
0.0
 10
191.2395426381277
 20
14.28226484478463
 30
0.0
 10
191.2945135769596
 20
14.44363045421124
 30
0.0
 10
191.5159619357157
 20
14.71391177589737
 30
0.0
 10
191.3849239381217
 20
14.70548446853731
 30
0.0
 10
191.3110026555855
 20
14.70779008496967
 30
0.0
 10
191.1977459876244
 20
14.70671378321654
 30
0.0
 10
191.0694251807484
 20
14.70707639076507
 30
0.0
 10
190.9404252030415
 20
14.70697724466082
 30
0.0
 10
190.8287840946291
 20
14.70699932712569
 30
0.0
 10
190.7514663970024
 20
14.70699579189666
 30
0.0
 10
190.713287653201
 20
14.70699595845078
 30
0.0
 10
190.7027885008195
 20
14.70699600701769
 30
0.0
 11
190.7027885008195
 21
14.70699600701769
 31
0.0
 11
190.7027885008195
 21
14.73374924051796
 31
0.0
 11
190.7027885008195
 21
14.79260635421855
 31
0.0
 11
190.7027885008195
 21
14.85146346791913
 31
0.0
 11
190.7027885008195
 21
14.8782167014194
 31
0.0
 11
190.7355094280988
 21
14.8782167014194
 31
0.0
 11
190.8271280244808
 21
14.8782167014194
 31
0.0
 11
190.9678280117818
 21
14.8782167014194
 31
0.0
 11
191.1477931118179
 21
14.8782167014194
 31
0.0
 11
191.3572070464053
 21
14.8782167014194
 31
0.0
 11
191.5862535373604
 21
14.8782167014194
 31
0.0
 11
191.8251163064992
 21
14.8782167014194
 31
0.0
 11
192.0639790756381
 21
14.8782167014194
 31
0.0
 11
192.2930255665931
 21
14.8782167014194
 31
0.0
 11
192.5024395011805
 21
14.8782167014194
 31
0.0
 11
192.6824046012167
 21
14.8782167014194
 31
0.0
 11
192.8231045885176
 21
14.8782167014194
 31
0.0
 11
192.9147231848996
 21
14.8782167014194
 31
0.0
 11
192.9474441121789
 21
14.8782167014194
 31
0.0
 11
192.9474441121789
 21
14.85146346791913
 31
0.0
 11
192.9474441121789
 21
14.79260635421855
 31
0.0
 11
192.9474441121789
 21
14.73374924051796
 31
0.0
 11
192.9474441121789
 21
14.70699600701769
 31
0.0
 11
192.9174728954758
 21
14.70699600701769
 31
0.0
 11
192.8352937529027
 21
14.70699600701769
 31
0.0
 11
192.7125084457639
 21
14.70699600701769
 31
0.0
 11
192.5607187353642
 21
14.70699600701769
 31
0.0
 11
192.3915263830077
 21
14.70699600701769
 31
0.0
 11
192.216533149999
 21
14.70699600701769
 31
0.0
 11
192.0473407976426
 21
14.70699600701769
 31
0.0
 11
191.8955510872428
 21
14.70699600701769
 31
0.0
 11
191.7727657801041
 21
14.70699600701769
 31
0.0
 11
191.6905866375309
 21
14.70699600701769
 31
0.0
 11
191.6606154208278
 21
14.70699600701769
 31
0.0
 11
191.6766359412525
 21
14.70165583340795
 31
0.0
 11
191.6926564616771
 21
14.69631565979822
 31
0.0
 11
191.6706155681421
 21
14.67558114591445
 31
0.0
 11
191.6284861855363
 21
14.66685871536112
 31
0.0
 11
191.5365235541377
 21
14.46909247312657
 31
0.0
 11
191.4279078521763
 21
14.25467511978507
 31
0.0
 11
191.3127500824807
 21
14.0462255905162
 31
0.0
 11
191.685736667502
 21
14.05582441253028
 31
0.0
 11
192.083070003615
 21
14.06781232404995
 31
0.0
 11
192.4899342191145
 21
14.08102711828531
 31
0.0
 11
192.2983119496978
 21
14.28966761302479
 31
0.0
 11
192.0966752013698
 21
14.4822942015183
 31
0.0
 11
192.1204947794749
 21
14.49525327269563
 31
0.0
 11
192.1728978513061
 21
14.52376322928575
 31
0.0
 11
192.2253009231374
 21
14.55227318587587
 31
0.0
 11
192.2491205012425
 21
14.5652322570532
 31
0.0
 11
192.4387101558627
 21
14.39079508370266
 31
0.0
 11
192.6200310940436
 21
14.20305846374089
 31
0.0
 11
192.7777729231148
 21
14.01782380992436
 31
0.0
 11
192.8966252504058
 21
13.85089253500951
 31
0.0
 11
192.8715408217923
 21
13.8350120228607
 31
0.0
 11
192.8163550788425
 21
13.80007489613331
 31
0.0
 11
192.7611693358928
 21
13.76513776940592
 31
0.0
 11
192.7360849072793
 21
13.74925725725711
 31
0.0
 11
192.6775518151612
 21
13.83887824681808
 31
0.0
 11
192.6050015078457
 21
13.93650288221031
 31
0.0
 11
192.2125412924095
 21
13.91636286943758
 31
0.0
 11
191.8249474069561
 21
13.89803302999772
 31
0.0
 11
191.4567378976213
 21
13.88202178722394
 31
0.0
 11
191.1224308105412
 21
13.86883756444947
 31
0.0
 11
190.8365441918517
 21
13.85898878500751
 31
0.0
 11
190.821186232174
 21
13.83220523466696
 31
0.0
 11
190.7937434290546
 21
13.82143559057249
 31
0.0
 11
190.7867927192319
 21
13.84370299445581
 31
0.0
 11
190.7702179496548
 21
13.89680218833141
 31
0.0
 11
190.7504351601596
 21
13.96017864553778
 31
0.0
 11
190.7338603905825
 21
14.01327783941338
 31
0.0
 11
190.7269096807598
 21
14.0355452432967
 31
0.0
 11
190.9091199859153
 21
14.03751638912951
 31
0.0
 11
191.1174975848589
 21
14.04356211829472
 31
0.0
 11
191.2303203127216
 21
14.25483550301554
 31
0.0
 11
191.3407936722035
 21
14.4850981315588
 31
0.0
 11
191.4358254265628
 21
14.70699600701769
 31
0.0
 11
191.4043277461597
 21
14.70699600701769
 31
0.0
 11
191.3212884069154
 21
14.70699600701769
 31
0.0
 11
191.2038879617768
 21
14.70699600701769
 31
0.0
 11
191.0693069636912
 21
14.70699600701769
 31
0.0
 11
190.9347259656055
 21
14.70699600701769
 31
0.0
 11
190.8173255204669
 21
14.70699600701769
 31
0.0
 11
190.7342861812226
 21
14.70699600701769
 31
0.0
 11
190.7027885008195
 21
14.70699600701769
 31
0.0
  0
SPLINE
  5
B1
102
{ACAD_REACTORS
330
CE
102
}
330
4B
100
AcDbEntity
  8
_U_30EC_U_30A4_U_30E4_U_30FC_1
  6
Continuous
 62
     2
100
AcDbSpline
210
0.0
220
0.0
230
1.0
 70
    11
 71
     3
 72
    35
 73
    31
 74
    29
 42
0.000000001
 43
0.0000000001
 44
0.00000001
 40
0.0
 40
0.0
 40
0.0
 40
0.0
 40
0.0335231036620122
 40
0.071321857171199
 40
0.4278866681487474
 40
0.8116865841964391
 40
1.198190238000088
 40
1.561379546812646
 40
1.659983174621897
 40
1.75931557380707
 40
2.132719617231007
 40
2.525233363588769
 40
2.910815397779674
 40
3.265244364303281
 40
3.592606723581967
 40
3.964386154603922
 40
4.359942131737769
 40
4.758154118639318
 40
4.843846538699923
 40
4.936650065543246
 40
5.25661660253732
 40
5.581707404416045
 40
5.899719158308177
 40
6.198363494280785
 40
6.46630104661588
 40
6.493895311537145
 40
6.559697020196938
 40
6.638234543442429
 40
6.704036252154155
 40
6.731630508422933
 40
6.731630508422933
 40
6.731630508422933
 40
6.731630508422933
 10
191.9736010568668
 20
16.23463843719131
 30
0.0
 10
191.9676006097788
 20
16.2248069054232
 30
0.0
 10
191.9548344099156
 20
16.20388988579794
 30
0.0
 10
191.7949362006553
 20
16.1712712653271
 30
0.0
 10
192.2322025842337
 20
15.88206680336695
 30
0.0
 10
192.4345394828261
 20
15.68041138358442
 30
0.0
 10
192.6819564267973
 20
15.43749387603277
 30
0.0
 10
193.1831513624604
 20
15.3604766275779
 30
0.0
 10
193.012556219897
 20
15.21876939174653
 30
0.0
 10
192.9383299463203
 20
15.01710366209101
 30
0.0
 10
192.6131432248188
 20
15.36956287174722
 30
0.0
 10
192.3277741670665
 20
15.53175212559563
 30
0.0
 10
192.0337604077658
 20
15.73687130053048
 30
0.0
 10
191.8084452691134
 20
16.2182748859546
 30
0.0
 10
191.5993085055522
 20
15.75343046609225
 30
0.0
 10
191.3207873674835
 20
15.54350952252915
 30
0.0
 10
191.037138317721
 20
15.37424456359985
 30
0.0
 10
190.7078639527832
 20
15.00142360907945
 30
0.0
 10
190.6277012318224
 20
15.19708014459003
 30
0.0
 10
190.4759724909745
 20
15.32491104190603
 30
0.0
 10
190.9083395826794
 20
15.40454031765938
 30
0.0
 10
191.0962565329765
 20
15.60026634915477
 30
0.0
 10
191.3468477420503
 20
15.81632996916755
 30
0.0
 10
191.5714350470162
 20
15.9819099230006
 30
0.0
 10
191.6259775409712
 20
16.26133964636833
 30
0.0
 10
191.7494661029012
 20
16.24737950408083
 30
0.0
 10
191.8060273344521
 20
16.2452126886765
 30
0.0
 10
191.8761870984944
 20
16.24046859881359
 30
0.0
 10
191.9333414022105
 20
16.2370942935054
 30
0.0
 10
191.9644190320837
 20
16.23519854711116
 30
0.0
 10
191.9736010568668
 20
16.23463843719131
 30
0.0
 11
191.9736010568668
 21
16.23463843719131
 31
0.0
 11
191.9525319069884
 21
16.20856374969784
 31
0.0
 11
191.9174464559424
 21
16.1945011455347
 31
0.0
 11
192.1512374769094
 21
15.92527961131382
 31
0.0
 11
192.4414585957566
 21
15.67413407969261
 31
0.0
 11
192.7612797483684
 21
15.45710987618787
 31
0.0
 11
193.0838708706288
 21
15.29025232631639
 31
0.0
 11
193.0213299868077
 21
15.21402035584931
 31
0.0
 11
192.9688035818976
 21
15.12971197913421
 31
0.0
 11
192.6436279095814
 21
15.31326404831577
 31
0.0
 11
192.3237227768436
 21
15.54070139743428
 31
0.0
 11
192.0354200158608
 21
15.79673855123312
 31
0.0
 11
191.8050514588095
 21
16.0660900344557
 31
0.0
 11
191.5995531719517
 21
15.8112634872104
 31
0.0
 11
191.3288301341536
 21
15.55645182277759
 31
0.0
 11
191.0119538423247
 21
15.31969466354859
 31
0.0
 11
190.6679957933741
 21
15.11903163191471
 31
0.0
 11
190.6218855341338
 21
15.19126067703555
 31
0.0
 11
190.5636970460348
 21
15.26355586798971
 31
0.0
 11
190.8433040489015
 21
15.41911456961748
 31
0.0
 11
191.1093004621154
 21
15.60601009790407
 31
0.0
 11
191.3499997459747
 21
15.81384496285209
 31
0.0
 11
191.5537153607775
 21
16.03222167446417
 31
0.0
 11
191.7087607668219
 21
16.25074274274292
 31
0.0
 11
191.7363041569866
 21
16.24906789496555
 31
0.0
 11
191.8019845489177
 21
16.24507402718875
 31
0.0
 11
191.880377274771
 21
16.24030715274548
 31
0.0
 11
191.9460576667021
 21
16.23631328496868
 31
0.0
 11
191.9736010568668
 21
16.23463843719131
 31
0.0
  0
SPLINE
  5
B2
102
{ACAD_REACTORS
330
CF
102
}
330
4B
100
AcDbEntity
  8
_U_30EC_U_30A4_U_30E4_U_30FC_1
  6
Continuous
 62
     2
100
AcDbSpline
210
0.0
220
0.0
230
1.0
 70
    11
 71
     3
 72
    15
 73
    11
 74
     9
 42
0.000000001
 43
0.0000000001
 44
0.00000001
 40
0.0
 40
0.0
 40
0.0
 40
0.0
 40
0.2785535985096468
 40
0.5215624748199095
 40
0.6076917376040633
 40
0.6938210001741257
 40
0.9405019146455259
 40
1.221691403489039
 40
1.300471877080919
 40
1.379252341684645
 40
1.379252341684645
 40
1.379252341684645
 40
1.379252341684645
 10
189.5681493630999
 20
16.22930267330381
 30
0.0
 10
189.6296017794178
 20
16.17691646592716
 30
0.0
 10
189.7446649974113
 20
16.07882876798224
 30
0.0
 10
190.0397348497244
 20
15.92889785897219
 30
0.0
 10
189.9025147631857
 20
15.84343227515012
 30
0.0
 10
189.8041227843778
 20
15.71085785201555
 30
0.0
 10
189.7130033590649
 20
16.01616985781412
 30
0.0
 10
189.3636839480657
 20
16.07967869465372
 30
0.0
 10
189.511925837657
 20
16.17896509880877
 30
0.0
 10
189.5494081874237
 20
16.21252348402382
 30
0.0
 10
189.5681493630999
 20
16.22930267330381
 30
0.0
 11
189.5681493630999
 21
16.22930267330381
 31
0.0
 11
189.7919222440596
 21
16.06341774278974
 31
0.0
 11
189.9695046306383
 21
15.89753281227561
 31
0.0
 11
189.9066308127979
 21
15.8386674303459
 31
0.0
 11
189.8437569949575
 21
15.7798020484162
 31
0.0
 11
189.6688535117725
 21
15.95375677059491
 31
0.0
 11
189.4478256856141
 21
16.12757920110701
 31
0.0
 11
189.507987524357
 21
16.17844093720541
 31
0.0
 11
189.5681493630999
 21
16.22930267330381
 31
0.0
  0
SPLINE
  5
B3
102
{ACAD_REACTORS
330
D0
102
}
330
4B
100
AcDbEntity
  8
_U_30EC_U_30A4_U_30E4_U_30FC_1
  6
Continuous
 62
     2
100
AcDbSpline
210
0.0
220
0.0
230
1.0
 70
    11
 71
     3
 72
    75
 73
    71
 74
    69
 42
0.000000001
 43
0.0000000001
 44
0.00000001
 40
0.0
 40
0.0
 40
0.0
 40
0.0
 40
0.0342546099129655
 40
0.124562241443224
 40
0.2522385480897252
 40
0.3985991922940271
 40
0.5449598364980288
 40
0.6726361431438177
 40
0.7629437746736178
 40
0.7971983935297173
 40
1.101723623449564
 40
1.40859124403657
 40
1.433332471690271
 40
1.487763172450057
 40
1.542193873081879
 40
1.566935100592421
 40
1.923523931821681
 40
2.271755704953508
 40
2.590579755100748
 40
2.858943305581036
 40
2.889120339309014
 40
2.918305855190959
 40
2.941366645531075
 40
2.996357760972951
 40
3.061992318140478
 40
3.116983433626658
 40
3.140044223997331
 40
3.411273122936286
 40
3.732441619740837
 40
3.761068217532535
 40
3.837787499630091
 40
3.94885869912573
 40
4.080541049104099
 40
4.219093782625476
 40
4.350776132722023
 40
4.461847332405352
 40
4.538566614678084
 40
4.567193212544328
 40
4.594907573998587
 40
4.666381453557126
 40
4.764111044010708
 40
4.870592538125511
 40
4.968322128641933
 40
5.03979600828659
 40
5.067510369784049
 40
5.094263603185262
 40
5.153120716667894
 40
5.211977830150339
 40
5.238731063551342
 40
5.27229053513858
 40
5.363380529444441
 40
5.497618415781119
 40
5.660621563453361
 40
5.838007341749062
 40
6.015393119910414
 40
6.178396267038039
 40
6.312634151841991
 40
6.40372414305898
 40
6.437283612672076
 40
6.46403684626069
 40
6.522893960004303
 40
6.581751071483566
 40
6.608504301590511
 40
6.637253941280658
 40
6.71139774890251
 40
6.812778057283122
 40
6.923237199248899
 40
7.024617507623542
 40
7.098761315207195
 40
7.127510946007146
 40
7.127510946007146
 40
7.127510946007146
 40
7.127510946007146
 10
188.4418622390564
 20
14.95849128473262
 30
0.0
 10
188.4418622819707
 20
14.94707313408718
 30
0.0
 10
188.4418624481129
 20
14.90555257842628
 30
0.0
 10
188.4418593081787
 20
14.82146922003771
 30
0.0
 10
188.44187882798
 20
14.70004497322329
 30
0.0
 10
188.4417912187737
 20
14.5598049404745
 30
0.0
 10
188.442111623523
 20
14.42006556794579
 30
0.0
 10
188.4411605909741
 20
14.29745038894933
 30
0.0
 10
188.4431978595967
 20
14.21587074438048
 30
0.0
 10
188.4349433178745
 20
14.06271267077705
 30
0.0
 10
188.74307979409
 20
14.22560236054714
 30
0.0
 10
189.0350645173738
 20
14.39482938688005
 30
0.0
 10
189.0408354448707
 20
14.2597323578191
 30
0.0
 10
189.0455471719891
 20
14.21617221160444
 30
0.0
 10
189.0482535411918
 20
14.17211249350546
 30
0.0
 10
189.0672545672959
 20
14.02272590363136
 30
0.0
 10
188.6583942247302
 20
14.08681172241261
 30
0.0
 10
188.3793710348833
 20
13.97296341411018
 30
0.0
 10
188.1018081587166
 20
13.87364095811145
 30
0.0
 10
187.8099837184401
 20
13.91630687596355
 30
0.0
 10
187.7869144678658
 20
13.81321679744545
 30
0.0
 10
187.7537474383333
 20
13.78691091244476
 30
0.0
 10
187.7480653962738
 20
13.83455309036308
 30
0.0
 10
187.7284214559045
 20
13.87180336115073
 30
0.0
 10
187.7095089485624
 20
13.93007387847566
 30
0.0
 10
187.6942849867706
 20
13.97385201007804
 30
0.0
 10
187.6477246372937
 20
14.08759421046312
 30
0.0
 10
187.9890897312449
 20
14.05576301120051
 30
0.0
 10
188.2679649367386
 20
14.02161435106484
 30
0.0
 10
188.2617753034906
 20
14.16913976479653
 30
0.0
 10
188.2630935452772
 20
14.24013150908833
 30
0.0
 10
188.2624831689947
 20
14.34719767958661
 30
0.0
 10
188.2625871570723
 20
14.47398529785998
 30
0.0
 10
188.2629987964055
 20
14.60849243496049
 30
0.0
 10
188.2613907841967
 20
14.73395549951183
 30
0.0
 10
188.2659902567925
 20
14.84505246719116
 30
0.0
 10
188.2564186502209
 20
14.90761886800687
 30
0.0
 10
188.270400178369
 20
14.96595388294999
 30
0.0
 10
188.2147384386703
 20
14.95289710582236
 30
0.0
 10
188.1575655197821
 20
14.96136307749497
 30
0.0
 10
188.0616048925646
 20
14.95729976080634
 30
0.0
 10
187.9633767522821
 20
14.95970889852473
 30
0.0
 10
187.8672582457559
 20
14.95551600613385
 30
0.0
 10
187.8104648525812
 20
14.96429346441161
 30
0.0
 10
187.7550356873384
 20
14.95094936850119
 30
0.0
 10
187.7670679427917
 20
15.00036910959254
 30
0.0
 10
187.7592003173938
 20
15.04393988030393
 30
0.0
 10
187.7666295563828
 20
15.08830469118522
 30
0.0
 10
187.7551930564144
 20
15.13902297763988
 30
0.0
 10
187.8232102370132
 20
15.1216246075774
 30
0.0
 10
187.8968496879747
 20
15.13417450237186
 30
0.0
 10
188.0325064058211
 20
15.12799677011094
 30
0.0
 10
188.1884909024525
 20
15.13029203093081
 30
0.0
 10
188.3615926358143
 20
15.12940968262527
 30
0.0
 10
188.5346942964181
 20
15.13029207142405
 30
0.0
 10
188.6906789811216
 20
15.12799662955547
 30
0.0
 10
188.8263351889797
 20
15.13417486262428
 30
0.0
 10
188.8999756705652
 20
15.12162394218332
 30
0.0
 10
188.9679914174724
 20
15.1390237301214
 30
0.0
 10
188.9565590885922
 20
15.08830130414552
 30
0.0
 10
188.9639539458298
 20
15.04397060811106
 30
0.0
 10
188.956203991227
 20
15.00028307550193
 30
0.0
 10
188.9681203741877
 20
14.95063590098475
 30
0.0
 10
188.9108170223616
 20
14.96461411338423
 30
0.0
 10
188.8520145789772
 20
14.95539755673252
 30
0.0
 10
188.7525293633199
 20
14.95952268164927
 30
0.0
 10
188.649428009835
 20
14.95822760025886
 30
0.0
 10
188.5537846354573
 20
14.95854077077638
 30
0.0
 10
188.4857467971617
 20
14.95848776697143
 30
0.0
 10
188.4514462213443
 20
14.95849051871654
 30
0.0
 10
188.4418622390564
 20
14.95849128473262
 30
0.0
 11
188.4418622390564
 21
14.95849128473262
 31
0.0
 11
188.4418622390564
 21
14.92423666587183
 31
0.0
 11
188.4418622390564
 21
14.83392903432974
 31
0.0
 11
188.4418622390564
 21
14.7062527276668
 31
0.0
 11
188.4418622390564
 21
14.55989208344342
 31
0.0
 11
188.4418622390564
 21
14.41353143922004
 31
0.0
 11
188.4418622390564
 21
14.28585513255709
 31
0.0
 11
188.4418622390564
 21
14.195547501015
 31
0.0
 11
188.4418622390564
 21
14.16129288215421
 31
0.0
 11
188.7391932644567
 21
14.22709475713766
 31
0.0
 11
189.0384623627245
 21
14.29496038212071
 31
0.0
 11
189.0405487124976
 21
14.27030727882827
 31
0.0
 11
189.0451386819987
 21
14.2160704515849
 31
0.0
 11
189.0497286514996
 21
14.16183362434153
 31
0.0
 11
189.0518150012728
 21
14.13718052104909
 31
0.0
 11
188.705639688924
 21
14.05163370140898
 31
0.0
 11
188.3669653138838
 21
13.97060877629902
 31
0.0
 11
188.0563731516688
 21
13.89862764024931
 31
0.0
 11
187.7944444777955
 21
13.84021218778992
 31
0.0
 11
187.7817515029292
 21
13.81283442738019
 31
0.0
 11
187.7569794787513
 21
13.79740260446741
 31
0.0
 11
187.7491867589501
 21
13.81910683390642
 31
0.0
 11
187.7306041194242
 21
13.87086307333789
 31
0.0
 11
187.70842483999
 21
13.93263664943353
 31
0.0
 11
187.689842200464
 21
13.984392888865
 31
0.0
 11
187.6820494806628
 21
14.00609711830401
 31
0.0
 11
187.9482776335932
 21
14.05794001759669
 31
0.0
 11
188.2626334936288
 21
14.12373968771911
 31
0.0
 11
188.2626334936288
 21
14.15236628569625
 31
0.0
 11
188.2626334936288
 21
14.229085568275
 31
0.0
 11
188.2626334936288
 21
14.34015676842632
 31
0.0
 11
188.2626334936288
 21
14.47183911912118
 31
0.0
 11
188.2626334936288
 21
14.61039185333055
 31
0.0
 11
188.2626334936288
 21
14.74207420402541
 31
0.0
 11
188.2626334936288
 21
14.85314540417673
 31
0.0
 11
188.2626334936288
 21
14.92986468675548
 31
0.0
 11
188.2626334936288
 21
14.95849128473262
 31
0.0
 11
188.2349191321107
 21
14.95849128473262
 31
0.0
 11
188.1634452524063
 21
14.95849128473262
 31
0.0
 11
188.06571566179
 21
14.95849128473262
 31
0.0
 11
187.9592341675364
 21
14.95849128473262
 31
0.0
 11
187.86150457692
 21
14.95849128473262
 31
0.0
 11
187.7900306972156
 21
14.95849128473262
 31
0.0
 11
187.7623163356975
 21
14.95849128473262
 31
0.0
 11
187.7623163356975
 21
14.98524451823287
 31
0.0
 11
187.7623163356975
 21
15.04410163193342
 31
0.0
 11
187.7623163356975
 21
15.10295874563396
 31
0.0
 11
187.7623163356975
 21
15.12971197913421
 31
0.0
 11
187.7958758072874
 21
15.12971197913421
 31
0.0
 11
187.8869658016031
 21
15.12971197913421
 31
0.0
 11
188.0212036879629
 21
15.12971197913421
 31
0.0
 11
188.1842068356856
 21
15.12971197913421
 31
0.0
 11
188.3615926140897
 21
15.12971197913421
 31
0.0
 11
188.5389783924938
 21
15.12971197913421
 31
0.0
 11
188.7019815402164
 21
15.12971197913421
 31
0.0
 11
188.8362194265763
 21
15.12971197913421
 31
0.0
 11
188.9273094208918
 21
15.12971197913421
 31
0.0
 11
188.9608688924818
 21
15.12971197913421
 31
0.0
 11
188.9608688924818
 21
15.10295874563396
 31
0.0
 11
188.9608688924818
 21
15.04410163193342
 31
0.0
 11
188.9608688924818
 21
14.98524451823287
 31
0.0
 11
188.9608688924818
 21
14.95849128473262
 31
0.0
 11
188.9321192527877
 21
14.95849128473262
 31
0.0
 11
188.8579754451555
 21
14.95849128473262
 31
0.0
 11
188.7565951367604
 21
14.95849128473262
 31
0.0
 11
188.6461359947778
 21
14.95849128473262
 31
0.0
 11
188.5447556863827
 21
14.95849128473262
 31
0.0
 11
188.4706118787505
 21
14.95849128473262
 31
0.0
 11
188.4418622390564
 21
14.95849128473262
 31
0.0
  0
SPLINE
  5
B4
102
{ACAD_REACTORS
330
D1
102
}
330
4B
100
AcDbEntity
  8
_U_30EC_U_30A4_U_30E4_U_30FC_1
  6
Continuous
 62
     2
100
AcDbSpline
210
0.0
220
0.0
230
1.0
 70
    11
 71
     3
 72
    91
 73
    87
 74
    85
 42
0.000000001
 43
0.0000000001
 44
0.00000001
 40
0.0
 40
0.0
 40
0.0
 40
0.0
 40
0.0345987051695718
 40
0.1258134969461369
 40
0.2547723404888987
 40
0.4026032099154125
 40
0.5504340793416704
 40
0.679392922883608
 40
0.7706077146571035
 40
0.8052064287780925
 40
1.124852390615282
 40
1.42740223630888
 40
1.706356627453533
 40
1.955541417875219
 40
2.169485938566374
 40
2.344350786664821
 40
2.480568411561976
 40
2.590440557428999
 40
2.649189927151153
 40
2.74932064330639
 40
2.912632739880092
 40
3.1477456560003
 40
3.244827496385087
 40
3.338490056946675
 40
3.583815413207091
 40
3.761423943238426
 40
3.886956104362582
 40
3.98585545188674
 40
4.091766255337541
 40
4.250186473811762
 40
4.422734315084428
 40
4.628285684838538
 40
4.872093227758377
 40
5.152549652145483
 40
5.464967135837459
 40
5.803201477852369
 40
6.160362988813836
 40
6.193449448275891
 40
6.284170385501546
 40
6.419718138764416
 40
6.587285046385666
 40
6.77406344672358
 40
6.967245678113563
 40
7.154024078817549
 40
7.321590987025934
 40
7.457138740890293
 40
7.547859678556029
 40
7.580946138182589
 40
7.608533084714643
 40
7.669224367077621
 40
7.729915649429842
 40
7.757502595949895
 40
7.790278062553349
 40
7.880146277430847
 40
8.014419963180309
 40
8.18041184239781
 40
8.365434637679279
 40
8.55680107162258
 40
8.741823866830693
 40
8.907815745916203
 40
9.042089431507357
 40
9.131957646249482
 40
9.164733112797059
 40
9.415425063139965
 40
9.667986180958401
 40
9.69416980746254
 40
9.75660768604747
 40
9.831130315322277
 40
9.893568193899684
 40
9.9197518203985
 40
9.950967964690342
 40
9.996421631210433
 40
10.22087981037437
 40
10.44341866197525
 40
10.47847970788837
 40
10.57091337438738
 40
10.70159545461212
 40
10.85140174170343
 40
11.0012080288046
 40
11.13189010907366
 40
11.22432377582993
 40
11.2593848093894
 40
11.28697175596128
 40
11.34766303835903
 40
11.40835432042053
 40
11.43594125892088
 40
11.43594125892088
 40
11.43594125892088
 40
11.43594125892088
 10
190.0818114333289
 20
15.55242795125079
 30
0.0
 10
190.0702785844941
 20
15.55242790287917
 30
0.0
 10
190.0283409444998
 20
15.55242773704166
 30
0.0
 10
189.9434129719026
 20
15.55243125800911
 30
0.0
 10
189.8207688553128
 20
15.5524092643588
 30
0.0
 10
189.6791206916993
 20
15.55250801177056
 30
0.0
 10
189.537975369849
 20
15.55214686232423
 30
0.0
 10
189.4141351317904
 20
15.55321883609091
 30
0.0
 10
189.3317217825382
 20
15.5509224909127
 30
0.0
 10
189.1727791229692
 20
15.56048569373422
 30
0.0
 10
189.3503402353376
 20
15.19785394311372
 30
0.0
 10
189.3379739205452
 20
14.95243127723115
 30
0.0
 10
189.4064519473866
 20
14.66862501324836
 30
0.0
 10
189.4693024320969
 20
14.43250999939034
 30
0.0
 10
189.5452253431729
 20
14.23326740396129
 30
0.0
 10
189.6303189577016
 20
14.07745347451371
 30
0.0
 10
189.7244607592935
 20
13.9765785778139
 30
0.0
 10
189.8282648207728
 20
13.92465852638961
 30
0.0
 10
189.9125872030774
 20
13.97606484379616
 30
0.0
 10
189.9351322179452
 20
14.09144544037511
 30
0.0
 10
189.9745730975371
 20
14.21885149702378
 30
0.0
 10
189.9202919734944
 20
14.53622328086755
 30
0.0
 10
190.0451218072473
 20
14.38982180140903
 30
0.0
 10
190.2019291513604
 20
14.35795300331174
 30
0.0
 10
190.0947720007055
 20
14.12421357767631
 30
0.0
 10
190.0808711209868
 20
13.9597277658366
 30
0.0
 10
190.0234709467225
 20
13.83130869122488
 30
0.0
 10
189.9335020145009
 20
13.76018802352833
 30
0.0
 10
189.8095274657878
 20
13.74432324142258
 30
0.0
 10
189.6634273196861
 20
13.77993797554177
 30
0.0
 10
189.5243894320284
 20
13.90000570500281
 30
0.0
 10
189.4102003962144
 20
14.07435682550324
 30
0.0
 10
189.3146141301485
 20
14.29946603111244
 30
0.0
 10
189.2318652572626
 20
14.56388246006446
 30
0.0
 10
189.1807179256411
 20
14.88187933098546
 30
0.0
 10
189.0770189207338
 20
15.15543728488914
 30
0.0
 10
189.2042841208521
 20
15.56005818612869
 30
0.0
 10
189.0357890623019
 20
15.5511236784968
 30
0.0
 10
188.9511995787077
 20
15.55315961418365
 30
0.0
 10
188.8189876387627
 20
15.55213937388408
 30
0.0
 10
188.6560505094104
 20
15.55253230318431
 30
0.0
 10
188.4733759170532
 20
15.5523569631337
 30
0.0
 10
188.2847057373383
 20
15.5526010530747
 30
0.0
 10
188.1014469020189
 20
15.55185657906239
 30
0.0
 10
187.9404746832718
 20
15.55416360522427
 30
0.0
 10
187.8029808335276
 20
15.54799804883665
 30
0.0
 10
187.728959037231
 20
15.56032838458212
 30
0.0
 10
187.6613215186857
 20
15.54329323723558
 30
0.0
 10
187.6732373719269
 20
15.59524438447529
 30
0.0
 10
187.6655677285694
 20
15.64071424966531
 30
0.0
 10
187.6732592225115
 20
15.68614453703707
 30
0.0
 10
187.6613141797762
 20
15.73802395984572
 30
0.0
 10
187.7283588305867
 20
15.72119143490266
 30
0.0
 10
187.8017375665676
 20
15.73335409092673
 30
0.0
 10
187.9379128305272
 20
15.7272723107496
 30
0.0
 10
188.0973811801512
 20
15.7295483431506
 30
0.0
 10
188.2789173085836
 20
15.72881233998964
 30
0.0
 10
188.4658034862179
 20
15.72905954196136
 30
0.0
 10
188.6468012316836
 20
15.72886400799256
 30
0.0
 10
188.8080802578878
 20
15.72932234714841
 30
0.0
 10
188.9393882124887
 20
15.72812673751208
 30
0.0
 10
189.0225051322596
 20
15.73051347319744
 30
0.0
 10
189.1556236547815
 20
15.72230605725467
 30
0.0
 10
189.0645893502658
 20
15.97752868952655
 30
0.0
 10
188.978963307442
 20
16.24164358328243
 30
0.0
 10
189.0990589003456
 20
16.22904442969164
 30
0.0
 10
189.1514264948544
 20
16.22694235763075
 30
0.0
 10
189.2214497569716
 20
16.22535399889657
 30
0.0
 10
189.2671922337817
 20
16.21602567538114
 30
0.0
 10
189.3220812646933
 20
16.22545966915428
 30
0.0
 10
189.2963574785681
 20
16.17733028655173
 30
0.0
 10
189.1825397571452
 20
16.18266829744184
 30
0.0
 10
189.3159346621136
 20
15.95449174576776
 30
0.0
 10
189.1943658735471
 20
15.72156856595925
 30
0.0
 10
189.3223188769413
 20
15.73087258884441
 30
0.0
 10
189.4049048406461
 20
15.72801001754682
 30
0.0
 10
189.5307214850824
 20
15.72923437412305
 30
0.0
 10
189.6741469838057
 20
15.72932431888966
 30
0.0
 10
189.8157420951728
 20
15.72746163183855
 30
0.0
 10
189.9459127249967
 20
15.73333075937165
 30
0.0
 10
190.0193452286191
 20
15.72070340823206
 30
0.0
 10
190.0891112922096
 20
15.73877563110414
 30
0.0
 10
190.0775772605396
 20
15.68612850546328
 30
0.0
 10
190.0833184346682
 20
15.64221317686549
 30
0.0
 10
190.081661577091
 20
15.5908998267655
 30
0.0
 10
190.081775756167
 20
15.56158792021636
 30
0.0
 10
190.0818114333289
 20
15.55242795125079
 30
0.0
 11
190.0818114333289
 21
15.55242795125079
 31
0.0
 11
190.0472127192051
 21
15.55242795125079
 31
0.0
 11
189.9559979274241
 21
15.55242795125079
 31
0.0
 11
189.8270390838717
 21
15.55242795125079
 31
0.0
 11
189.6792082144335
 21
15.55242795125079
 31
0.0
 11
189.5313773449954
 21
15.55242795125079
 31
0.0
 11
189.402418501443
 21
15.55242795125079
 31
0.0
 11
189.311203709662
 21
15.55242795125079
 31
0.0
 11
189.2766049955382
 21
15.55242795125079
 31
0.0
 11
189.3083140497693
 21
15.23435864930123
 31
0.0
 11
189.3527866656866
 21
14.93509522788082
 31
0.0
 11
189.409238911832
 21
14.66191269512577
 31
0.0
 11
189.4768868567478
 21
14.42208605917227
 31
0.0
 11
189.5549465689762
 21
14.22289032815653
 31
0.0
 11
189.6426341170591
 21
14.07160051021475
 31
0.0
 11
189.7391655695388
 21
13.97549161348314
 31
0.0
 11
189.8437569949575
 21
13.94183864609789
 31
0.0
 11
189.8943077302786
 21
13.97177376978832
 31
0.0
 11
189.9310588991552
 21
14.06491619815045
 31
0.0
 11
189.9562640977528
 21
14.22627151712052
 31
0.0
 11
189.9721769222369
 21
14.4608453126348
 31
0.0
 11
190.0494082682583
 21
14.40202182306619
 31
0.0
 11
190.1327184184385
 21
14.35921885432691
 31
0.0
 11
190.1066365811216
 21
14.11528388661012
 31
0.0
 11
190.0673317805105
 21
13.94207902887566
 31
0.0
 11
190.0105702596765
 21
13.83011272445922
 31
0.0
 11
189.932118261691
 21
13.7698934166965
 31
0.0
 11
189.8277420296257
 21
13.75192954892322
 31
0.0
 11
189.6738595065098
 21
13.78957440012366
 31
0.0
 11
189.5388902376748
 21
13.89707348877408
 31
0.0
 11
189.4221739916163
 21
14.06627361744813
 31
0.0
 11
189.32305053683
 21
14.28902158871947
 31
0.0
 11
189.2408596418113
 21
14.55716420516176
 31
0.0
 11
189.1749410750559
 21
14.86254826934864
 31
0.0
 11
189.1246346050593
 21
15.19702058385376
 31
0.0
 11
189.0892800003171
 21
15.55242795125079
 31
0.0
 11
189.0561935405844
 21
15.55242795125079
 31
0.0
 11
188.9654726026075
 21
15.55242795125079
 31
0.0
 11
188.8299248482185
 21
15.55242795125079
 31
0.0
 11
188.6623579392495
 21
15.55242795125079
 31
0.0
 11
188.4755795375324
 21
15.55242795125079
 31
0.0
 11
188.2823973048992
 21
15.55242795125079
 31
0.0
 11
188.0956189031822
 21
15.55242795125079
 31
0.0
 11
187.9280519942131
 21
15.55242795125079
 31
0.0
 11
187.7925042398241
 21
15.55242795125079
 31
0.0
 11
187.7017833018473
 21
15.55242795125079
 31
0.0
 11
187.6686968421145
 21
15.55242795125079
 31
0.0
 11
187.6686968421145
 21
15.58001489785848
 31
0.0
 11
187.6686968421145
 21
15.64070618039539
 31
0.0
 11
187.6686968421145
 21
15.70139746293231
 31
0.0
 11
187.6686968421145
 21
15.72898440954
 31
0.0
 11
187.7014723087631
 21
15.72898440954
 31
0.0
 11
187.7913405237673
 21
15.72898440954
 31
0.0
 11
187.9256142097148
 21
15.72898440954
 31
0.0
 11
188.0916060891932
 21
15.72898440954
 31
0.0
 11
188.2766288847901
 21
15.72898440954
 31
0.0
 11
188.4679953190932
 21
15.72898440954
 31
0.0
 11
188.6530181146902
 21
15.72898440954
 31
0.0
 11
188.8190099941685
 21
15.72898440954
 31
0.0
 11
188.953283680116
 21
15.72898440954
 31
0.0
 11
189.0431518951202
 21
15.72898440954
 31
0.0
 11
189.0759273617688
 21
15.72898440954
 31
0.0
 11
189.0659183950103
 21
15.97947647544959
 31
0.0
 11
189.0599112510664
 21
16.23196614552529
 31
0.0
 11
189.086057587066
 21
16.2305692160812
 31
0.0
 11
189.148406542142
 21
16.2272380766376
 31
0.0
 11
189.22282303691
 21
16.2232622005275
 31
0.0
 11
189.2851719919859
 21
16.2199310610839
 31
0.0
 11
189.3113183279855
 21
16.21853413163981
 31
0.0
 11
189.298293111304
 21
16.19016528616081
 31
0.0
 11
189.2551649266405
 21
16.17581274276171
 31
0.0
 11
189.2574991961821
 21
15.95136670115109
 31
0.0
 11
189.2658452735903
 21
15.72898440954
 31
0.0
 11
189.3009063195165
 21
15.72898440954
 31
0.0
 11
189.3933399860495
 21
15.72898440954
 31
0.0
 11
189.5240220663201
 21
15.72898440954
 31
0.0
 11
189.6738283534596
 21
15.72898440954
 31
0.0
 11
189.8236346405991
 21
15.72898440954
 31
0.0
 11
189.9543167208697
 21
15.72898440954
 31
0.0
 11
190.0467503874027
 21
15.72898440954
 31
0.0
 11
190.0818114333289
 21
15.72898440954
 31
0.0
 11
190.0818114333289
 21
15.70139746293231
 31
0.0
 11
190.0818114333289
 21
15.64070618039539
 31
0.0
 11
190.0818114333289
 21
15.58001489785848
 31
0.0
 11
190.0818114333289
 21
15.55242795125079
 31
0.0
  0
SPLINE
  5
B5
102
{ACAD_REACTORS
330
D2
102
}
330
4B
100
AcDbEntity
  8
_U_30EC_U_30A4_U_30E4_U_30FC_1
  6
Continuous
 62
     2
100
AcDbSpline
210
0.0
220
0.0
230
1.0
 70
    11
 71
     3
 72
   118
 73
   114
 74
   112
 42
0.000000001
 43
0.0000000001
 44
0.00000001
 40
0.0
 40
0.0
 40
0.0
 40
0.0
 40
0.1054708162972919
 40
0.2466098270051476
 40
0.3965912874590843
 40
0.52855250697536
 40
0.6156245055641594
 40
0.6431434105796738
 40
0.7036850037985274
 40
0.7642265984503335
 40
0.7917455052353639
 40
0.9287404319989023
 40
1.106572819087919
 40
1.287544879680869
 40
1.317578308030386
 40
1.399928030857023
 40
1.522968204799799
 40
1.67507298659042
 40
1.844616533180499
 40
2.019973001638562
 40
2.189516548879874
 40
2.341621331585213
 40
2.464661506320347
 40
2.547011229646913
 40
2.577044658167877
 40
2.603797890892947
 40
2.662655002908663
 40
2.721512114949503
 40
2.748265347702654
 40
2.774215307344731
 40
2.845959313407066
 40
2.95433855658827
 40
3.090194227585455
 40
3.24436751710043
 40
3.407699615844196
 40
3.571031714539352
 40
3.725205003920038
 40
3.861060674729547
 40
3.969439917716246
 40
4.041183923628921
 40
4.067133883212916
 40
4.311886746012152
 40
4.547897258335535
 40
4.764747083044002
 40
4.952749679951793
 40
5.045772974195925
 40
5.13786201964501
 40
5.330543169793079
 40
5.553448265244078
 40
5.795083855888259
 40
6.0432934121773
 40
6.285761695541212
 40
6.313902908752696
 40
6.384255941793286
 40
6.475714884766874
 40
6.567173827758936
 40
6.637526860839714
 40
6.665668074074078
 40
6.692018920328052
 40
6.749990782071127
 40
6.807962643790499
 40
6.834313490017974
 40
6.856393084245252
 40
6.913335195649876
 40
6.991194817302568
 40
7.076026942283858
 40
7.153886563725377
 40
7.21082867484493
 40
7.232908268931294
 40
7.258199334923819
 40
7.324875781592476
 40
7.419142481925143
 40
7.527204308842097
 40
7.635266135230688
 40
7.729532834168688
 40
7.796209279293014
 40
7.821500344594964
 40
7.844652988851034
 40
7.899863140541758
 40
7.96575912805384
 40
8.020969279771096
 40
8.044121924046534
 40
8.069356610160552
 40
8.109134395441238
 40
8.132238100190953
 40
8.193147867786319
 40
8.279261678876498
 40
8.377977512673716
 40
8.476693347146508
 40
8.562807160411564
 40
8.623716930826353
 40
8.646820636853308
 40
8.671988793774121
 40
8.734909185827975
 40
8.81670569518869
 40
8.898502204815232
 40
8.961422597377664
 40
8.986590754550777
 40
9.012941600732933
 40
9.070913462380023
 40
9.12888532408152
 40
9.155236170324843
 40
9.180404327928885
 40
9.24332472194793
 40
9.325121234211666
 40
9.40691774663732
 40
9.469838141977776
 40
9.495006288270522
 40
9.517811184378658
 40
9.572192090486647
 40
9.63709833328086
 40
9.691479239515049
 40
9.714284125643083
 40
9.714284125643083
 40
9.714284125643083
 40
9.714284125643083
 10
185.2874469028654
 20
15.26889163187721
 30
0.0
 10
185.3090990569038
 20
15.24111869242813
 30
0.0
 10
185.3597257109474
 20
15.17618054561234
 30
0.0
 10
185.4349383202593
 20
15.068910603129
 30
0.0
 10
185.5248482274346
 20
14.95377438266626
 30
0.0
 10
185.5709169676673
 20
14.8535704574832
 30
0.0
 10
185.6655825294655
 20
14.78434006814945
 30
0.0
 10
185.6204439320412
 20
14.73771639678273
 30
0.0
 10
185.5947047785791
 20
14.69660308866042
 30
0.0
 10
185.5645196708012
 20
14.66065971727939
 30
0.0
 10
185.5193684730563
 20
14.58579782596094
 30
0.0
 10
185.4710504458561
 20
14.80782524253599
 30
0.0
 10
185.3968539713073
 20
14.84510677337707
 30
0.0
 10
185.2836047324608
 20
15.11610202130596
 30
0.0
 10
185.288513357817
 20
15.00095328446225
 30
0.0
 10
185.2868486556306
 20
14.92836675781624
 30
0.0
 10
185.2876830076715
 20
14.80625588483983
 30
0.0
 10
185.2873609540265
 20
14.65913800810457
 30
0.0
 10
185.2875076912457
 20
14.49307063956554
 30
0.0
 10
185.2872950092723
 20
14.32187554608599
 30
0.0
 10
185.2879497252034
 20
14.15552828635495
 30
0.0
 10
185.2859192461141
 20
14.0093517305569
 30
0.0
 10
185.2913460399931
 20
13.88471047474608
 30
0.0
 10
185.280493086871
 20
13.81718656540624
 30
0.0
 10
185.2956739155556
 20
13.75549061417019
 30
0.0
 10
185.2457895108134
 20
13.76727503896998
 30
0.0
 10
185.2017150342522
 20
13.75943822779966
 30
0.0
 10
185.1582371630201
 20
13.767604413727
 30
0.0
 10
185.1092346786489
 20
13.75538056738466
 30
0.0
 10
185.1218731234825
 20
13.80960667249311
 30
0.0
 10
185.113018296845
 20
13.86936918907555
 30
0.0
 10
185.1175058770314
 20
13.97922029044368
 30
0.0
 10
185.1157960135993
 20
14.11029975405677
 30
0.0
 10
185.1163550915986
 20
14.26198011444327
 30
0.0
 10
185.1161928768694
 20
14.42211074929953
 30
0.0
 10
185.1162269924676
 20
14.58236865674568
 30
0.0
 10
185.1162514960127
 20
14.73370247520441
 30
0.0
 10
185.1161453543226
 20
14.86582156338604
 30
0.0
 10
185.1164299141931
 20
14.97294802533196
 30
0.0
 10
185.1158675547569
 20
15.03808619579478
 30
0.0
 10
185.1180765083689
 20
15.1661895785868
 30
0.0
 10
185.0319435998602
 20
14.79097610391579
 30
0.0
 10
184.95551408185
 20
14.63918193123394
 30
0.0
 10
184.8660040767833
 20
14.47766206446308
 30
0.0
 10
184.7640413217326
 20
14.20471848820166
 30
0.0
 10
184.718797649104
 20
14.36717346596515
 30
0.0
 10
184.6102355941669
 20
14.45605432058114
 30
0.0
 10
184.7995791751753
 20
14.60549794961411
 30
0.0
 10
184.85653405457
 20
14.79749136974927
 30
0.0
 10
184.9717520993353
 20
15.02899622906756
 30
0.0
 10
184.9940151630133
 20
15.21797259759063
 30
0.0
 10
185.177190515214
 20
15.49454089325927
 30
0.0
 10
185.0538033597552
 20
15.48698978832091
 30
0.0
 10
184.9925684166834
 20
15.48856772366116
 30
0.0
 10
184.9081999617064
 20
15.48882592573669
 30
0.0
 10
184.8204235085966
 20
15.48544845751203
 30
0.0
 10
184.7656768696122
 20
15.49394814982016
 30
0.0
 10
184.7104703026025
 20
15.48048561049785
 30
0.0
 10
184.7222823035536
 20
15.52931442126761
 30
0.0
 10
184.7142496151794
 20
15.57269004896706
 30
0.0
 10
184.7228186104678
 20
15.6150943830957
 30
0.0
 10
184.7102943409157
 20
15.66267796552117
 30
0.0
 10
184.7555101538735
 20
15.65267212995106
 30
0.0
 10
184.8014815562724
 20
15.6589410517406
 30
0.0
 10
184.877722204771
 20
15.6559356140587
 30
0.0
 10
184.9561296131994
 20
15.65770448278539
 30
0.0
 10
185.0323992648933
 20
15.65464793981658
 30
0.0
 10
185.0783009459475
 20
15.66103971376175
 30
0.0
 10
185.1231733965401
 20
15.65093822978894
 30
0.0
 10
185.1105552275634
 20
15.70157201581896
 30
0.0
 10
185.1191936582707
 20
15.75501261882069
 30
0.0
 10
185.1152361595444
 20
15.84863255131681
 30
0.0
 10
185.1162325068335
 20
15.95112606688925
 30
0.0
 10
185.1171927413075
 20
16.05353270248166
 30
0.0
 10
185.1133211458005
 20
16.14735929609324
 30
0.0
 10
185.1217789814366
 20
16.20036542840358
 30
0.0
 10
185.1093075932835
 20
16.25211435651192
 30
0.0
 10
185.1542106389851
 20
16.23850747226763
 30
0.0
 10
185.1955083836771
 20
16.24100480320588
 30
0.0
 10
185.259534428105
 20
16.2364806057449
 30
0.0
 10
185.2986111148785
 20
16.22781003043307
 30
0.0
 10
185.3476543498741
 20
16.23515102070688
 30
0.0
 10
185.3225080030591
 20
16.19602896051757
 30
0.0
 10
185.2815901333725
 20
16.20563842455807
 30
0.0
 10
185.2910109616605
 20
16.15540148169779
 30
0.0
 10
185.2855647318747
 20
16.10385945639491
 30
0.0
 10
185.2881699601805
 20
16.0195970758452
 30
0.0
 10
185.2870102202156
 20
15.92559135583408
 30
0.0
 10
185.2883591064232
 20
15.83196865395524
 30
0.0
 10
185.284997010151
 20
15.74679517552222
 30
0.0
 10
185.292095991777
 20
15.69716856072042
 30
0.0
 10
185.2812569154547
 20
15.64993694969987
 30
0.0
 10
185.3304010225246
 20
15.66201674936849
 30
0.0
 10
185.3794877630148
 20
15.65447393363009
 30
0.0
 10
185.4573714280641
 20
15.6568607036143
 30
0.0
 10
185.5350365172897
 20
15.65899381905413
 30
0.0
 10
185.5845393931354
 20
15.65193391922452
 30
0.0
 10
185.6344594750639
 20
15.66360151936212
 30
0.0
 10
185.6223198516881
 20
15.61540235371391
 30
0.0
 10
185.6305838229143
 20
15.57249219801233
 30
0.0
 10
185.6223198650783
 20
15.52958201851382
 30
0.0
 10
185.6344594549854
 20
15.48138288754862
 30
0.0
 10
185.5845395158747
 20
15.49305034471507
 30
0.0
 10
185.5350350651203
 20
15.48599202435043
 30
0.0
 10
185.4573784382973
 20
15.488116652286
 30
0.0
 10
185.379464386576
 20
15.49053389365757
 30
0.0
 10
185.3304500352717
 20
15.48291848194483
 30
0.0
 10
185.2813246108944
 20
15.49507952557588
 30
0.0
 10
185.2915559988572
 20
15.45073013424155
 30
0.0
 10
185.2856677678054
 20
15.40925436202911
 30
0.0
 10
185.287878830557
 20
15.34915394315303
 30
0.0
 10
185.2874109346147
 20
15.3022578276289
 30
0.0
 10
185.2874386992914
 20
15.27650146418198
 30
0.0
 10
185.2874469028654
 20
15.26889163187721
 30
0.0
 11
185.2874469028654
 21
15.26889163187721
 31
0.0
 11
185.3516977534485
 21
15.18524999634258
 31
0.0
 11
185.4348258835499
 21
15.07118889748221
 31
0.0
 11
185.5216831568896
 21
14.94891767195724
 31
0.0
 11
185.5971214371872
 21
14.84064565642876
 31
0.0
 11
185.6459925881626
 21
14.76858218755791
 31
0.0
 11
185.6296821285093
 21
14.746417821244
 31
0.0
 11
185.593799117272
 21
14.6976562153534
 31
0.0
 11
185.5579161060347
 21
14.64889460946281
 31
0.0
 11
185.5416056463814
 21
14.6267302431489
 31
0.0
 11
185.4763067109446
 21
14.74716139023813
 31
0.0
 11
185.3848434243235
 21
14.89966983670204
 31
0.0
 11
185.2874469028654
 21
15.05219788193139
 31
0.0
 11
185.2874469028654
 21
15.0221644532825
 31
0.0
 11
185.2874469028654
 21
14.9398147295678
 31
0.0
 11
185.2874469028654
 21
14.81677455413525
 31
0.0
 11
185.2874469028654
 21
14.6646697703328
 31
0.0
 11
185.2874469028654
 21
14.49512622150842
 31
0.0
 11
185.2874469028654
 21
14.31976975101006
 31
0.0
 11
185.2874469028654
 21
14.15022620218568
 31
0.0
 11
185.2874469028654
 21
13.99812141838323
 31
0.0
 11
185.2874469028654
 21
13.87508124295068
 31
0.0
 11
185.2874469028654
 21
13.79273151923598
 31
0.0
 11
185.2874469028654
 21
13.76269809058709
 31
0.0
 11
185.260693670041
 21
13.76269809058709
 31
0.0
 11
185.2018365578272
 21
13.76269809058709
 31
0.0
 11
185.1429794456135
 21
13.76269809058709
 31
0.0
 11
185.1162262127891
 21
13.76269809058709
 31
0.0
 11
185.1162262127891
 21
13.78864805031247
 31
0.0
 11
185.1162262127891
 21
13.86039205661205
 31
0.0
 11
185.1162262127891
 21
13.968771300171
 31
0.0
 11
185.1162262127891
 21
14.10462697167446
 31
0.0
 11
185.1162262127891
 21
14.25880026180761
 31
0.0
 11
185.1162262127891
 21
14.42213236125559
 31
0.0
 11
185.1162262127891
 21
14.58546446070357
 31
0.0
 11
185.1162262127891
 21
14.73963775083672
 31
0.0
 11
185.1162262127891
 21
14.87549342234018
 31
0.0
 11
185.1162262127891
 21
14.98387266589913
 31
0.0
 11
185.1162262127891
 21
15.05561667219871
 31
0.0
 11
185.1162262127891
 21
15.08156663192409
 31
0.0
 11
185.0379865861721
 21
14.84965603302374
 31
0.0
 11
184.9497110789303
 21
14.63077616328678
 31
0.0
 11
184.8544106930045
 21
14.43598991333545
 31
0.0
 11
184.7550964303356
 21
14.276360173792
 31
0.0
 11
184.7109198342406
 21
14.35822446196601
 31
0.0
 11
184.658805738348
 21
14.43414885430809
 31
0.0
 11
184.7627302590299
 21
14.59640087926757
 31
0.0
 11
184.8629319864735
 21
14.79551465421782
 31
0.0
 11
184.9550446607902
 21
15.01890447916197
 31
0.0
 11
185.0347020220912
 21
15.25398465410319
 31
0.0
 11
185.097537810488
 21
15.48816947904462
 31
0.0
 11
185.0693965972142
 21
15.48816947904462
 31
0.0
 11
184.9990435640297
 21
15.48816947904462
 31
0.0
 11
184.9075846208898
 21
15.48816947904462
 31
0.0
 11
184.8161256777499
 21
15.48816947904462
 31
0.0
 11
184.7457726445654
 21
15.48816947904462
 31
0.0
 11
184.7176314312916
 21
15.48816947904462
 31
0.0
 11
184.7176314312916
 21
15.51452032539219
 31
0.0
 11
184.7176314312916
 21
15.57249218735686
 31
0.0
 11
184.7176314312916
 21
15.63046404932153
 31
0.0
 11
184.7176314312916
 21
15.6568148956691
 31
0.0
 11
184.739711025602
 21
15.6568148956691
 31
0.0
 11
184.7966531372444
 21
15.6568148956691
 31
0.0
 11
184.8745127592862
 21
15.6568148956691
 31
0.0
 11
184.9593448847945
 21
15.6568148956691
 31
0.0
 11
185.0372045068362
 21
15.6568148956691
 31
0.0
 11
185.0941466184787
 21
15.6568148956691
 31
0.0
 11
185.1162262127891
 21
15.6568148956691
 31
0.0
 11
185.1162262127891
 21
15.68210596174351
 31
0.0
 11
185.1162262127891
 21
15.74878240866696
 31
0.0
 11
185.1162262127891
 21
15.84304910948977
 31
0.0
 11
185.1162262127891
 21
15.95111093726226
 31
0.0
 11
185.1162262127891
 21
16.05917276503474
 31
0.0
 11
185.1162262127891
 21
16.15343946585755
 31
0.0
 11
185.1162262127891
 21
16.220115912781
 31
0.0
 11
185.1162262127891
 21
16.24540697885541
 31
0.0
 11
185.1393181988666
 21
16.24373213107805
 31
0.0
 11
185.1943837041285
 21
16.23973826330125
 31
0.0
 11
185.2601070491183
 21
16.23497138885797
 31
0.0
 11
185.3151725543802
 21
16.23097752108118
 31
0.0
 11
185.3382645404577
 21
16.22930267330381
 31
0.0
 11
185.3249012644362
 21
16.20789677921191
 31
0.0
 11
185.2874469028654
 21
16.1945011455347
 31
0.0
 11
185.2874469028654
 21
16.17139743948579
 31
0.0
 11
185.2874469028654
 21
16.1104876689932
 31
0.0
 11
185.2874469028654
 21
16.02437385553816
 31
0.0
 11
185.2874469028654
 21
15.9256580206019
 31
0.0
 11
185.2874469028654
 21
15.82694218566564
 31
0.0
 11
185.2874469028654
 21
15.7408283722106
 31
0.0
 11
185.2874469028654
 21
15.67991860171801
 31
0.0
 11
185.2874469028654
 21
15.6568148956691
 31
0.0
 11
185.312615060481
 21
15.6568148956691
 31
0.0
 11
185.3755354545199
 21
15.6568148956691
 31
0.0
 11
185.4573319667706
 21
15.6568148956691
 31
0.0
 11
185.5391284790213
 21
15.6568148956691
 31
0.0
 11
185.6020488730602
 21
15.6568148956691
 31
0.0
 11
185.6272170306758
 21
15.6568148956691
 31
0.0
 11
185.6272170306758
 21
15.63046404932153
 31
0.0
 11
185.6272170306758
 21
15.57249218735686
 31
0.0
 11
185.6272170306758
 21
15.5145203253922
 31
0.0
 11
185.6272170306758
 21
15.48816947904462
 31
0.0
 11
185.6020488730602
 21
15.48816947904462
 31
0.0
 11
185.5391284790213
 21
15.48816947904462
 31
0.0
 11
185.4573319667706
 21
15.48816947904462
 31
0.0
 11
185.37553545452
 21
15.48816947904462
 31
0.0
 11
185.312615060481
 21
15.48816947904462
 31
0.0
 11
185.2874469028654
 21
15.48816947904462
 31
0.0
 11
185.2874469028654
 21
15.46536458293921
 31
0.0
 11
185.2874469028654
 21
15.41098367684169
 31
0.0
 11
185.2874469028654
 21
15.34607743408014
 31
0.0
 11
185.2874469028654
 21
15.29169652798262
 31
0.0
 11
185.2874469028654
 21
15.26889163187721
 31
0.0
  0
SPLINE
  5
B6
102
{ACAD_REACTORS
330
D3
102
}
330
4B
100
AcDbEntity
  8
_U_30EC_U_30A4_U_30E4_U_30FC_1
  6
Continuous
 62
     2
100
AcDbSpline
210
0.0
220
0.0
230
1.0
 70
    11
 71
     3
 72
    47
 73
    43
 74
    41
 42
0.000000001
 43
0.0000000001
 44
0.00000001
 40
0.0
 40
0.0
 40
0.0
 40
0.0
 40
0.2207912809957373
 40
0.4459404186303472
 40
0.4902387190458599
 40
0.5327473892722453
 40
0.574226045122459
 40
0.6155432630560156
 40
0.656816406631563
 40
0.6982511618779935
 40
0.7407663929316218
 40
0.7851366743173753
 40
1.010288833836201
 40
1.231080507002067
 40
1.451765243652224
 40
1.676638205891502
 40
1.720461045359475
 40
1.83001814404334
 40
1.972442372352973
 40
2.114866600677346
 40
2.224423699394974
 40
2.268246538883214
 40
2.493628801207087
 40
2.715602830286485
 40
2.934211330706243
 40
3.149502369855203
 40
3.231387784850764
 40
3.318231873853799
 40
3.405143198197701
 40
3.486970301720109
 40
3.702258172493517
 40
3.920866283533754
 40
4.142839325931543
 40
4.368221903865048
 40
4.412044743359529
 40
4.521601842095545
 40
4.664026070452027
 40
4.806450298808739
 40
4.916007397546434
 40
4.959830237042758
 40
5.184703515846784
 40
5.405387250767088
 40
5.405387250767088
 40
5.405387250767088
 40
5.405387250767088
 10
182.6507427258644
 20
15.73406440953869
 30
0.0
 10
182.6568139420002
 20
15.79758482501207
 30
0.0
 10
182.6690762107243
 20
15.92587938689622
 30
0.0
 10
182.5604706879412
 20
16.20166220174082
 30
0.0
 10
182.6761985896605
 20
16.17188133432052
 30
0.0
 10
182.7171842509015
 20
16.16765556262814
 30
0.0
 10
182.7591205797518
 20
16.16310446389608
 30
0.0
 10
182.800419662571
 20
16.16201982929492
 30
0.0
 10
182.8417032115556
 20
16.16310338195228
 30
0.0
 10
182.8836148270647
 20
16.16766112711336
 30
0.0
 10
182.9245983549019
 20
16.17187430209729
 30
0.0
 10
183.0404922843487
 20
16.20177611317538
 30
0.0
 10
182.9295652727457
 20
15.92339806609886
 30
0.0
 10
182.9574856365268
 20
15.74283140824952
 30
0.0
 10
182.940426734697
 20
15.50961042346473
 30
0.0
 10
182.9414637282104
 20
15.3490662254315
 30
0.0
 10
182.9414099399405
 20
15.22284817558726
 30
0.0
 10
182.9414277372482
 20
15.12428963336246
 30
0.0
 10
182.9414188581081
 20
14.99280702442967
 30
0.0
 10
182.9414263928035
 20
14.86132844968654
 30
0.0
 10
182.9414129405129
 20
14.76276222694094
 30
0.0
 10
182.9414531717493
 20
14.63639735624155
 30
0.0
 10
182.9406746403817
 20
14.47482068822871
 30
0.0
 10
182.9565958319268
 20
14.24361821892914
 30
0.0
 10
182.9333468885408
 20
14.05874351972003
 30
0.0
 10
183.0360183444364
 20
13.78935602770058
 30
0.0
 10
182.8820238362835
 20
13.8266011268582
 30
0.0
 10
182.8004129802833
 20
13.82137994680531
 30
0.0
 10
182.7188192292583
 20
13.82660620378353
 30
0.0
 10
182.5648513666844
 20
13.78937069885387
 30
0.0
 10
182.6674183421916
 20
14.05875129862881
 30
0.0
 10
182.6442045316087
 20
14.24361585325414
 30
0.0
 10
182.6600444655139
 20
14.47482218565639
 30
0.0
 10
182.6593296313426
 20
14.63639712308505
 30
0.0
 10
182.6593664569907
 20
14.76276231210525
 30
0.0
 10
182.6593549000271
 20
14.86132756635986
 30
0.0
 10
182.6593575019213
 20
14.99281127417224
 30
0.0
 10
182.6593648531779
 20
15.12427548031205
 30
0.0
 10
182.6593442541351
 20
15.2228778627533
 30
0.0
 10
182.6594082192028
 20
15.34896149354432
 30
0.0
 10
182.658173394759
 20
15.51210091383773
 30
0.0
 10
182.6532040396744
 20
15.66054183777549
 30
0.0
 10
182.6507427258644
 20
15.73406440953869
 30
0.0
 11
182.6507427258644
 21
15.73406440953869
 31
0.0
 11
182.6417328200379
 21
15.95467178795576
 31
0.0
 11
182.6318769706147
 21
16.17960510387181
 31
0.0
 11
182.6756985840801
 21
16.17312391463728
 31
0.0
 11
182.7178400934216
 21
16.1675489233192
 31
0.0
 11
182.759137140979
 21
16.16367167505632
 31
0.0
 11
182.8004341885365
 21
16.16238072887612
 31
0.0
 11
182.8416871388731
 21
16.16367167505632
 31
0.0
 11
182.8829400892097
 21
16.1675489233192
 31
0.0
 11
182.9250882131343
 21
16.17312391463728
 31
0.0
 11
182.9689825870144
 21
16.17960510387181
 31
0.0
 11
182.9590577693891
 21
15.95467178795576
 31
0.0
 11
182.9500384208311
 21
15.73406440953869
 31
0.0
 11
182.9435638463436
 21
15.51347467001058
 31
0.0
 11
182.9414218238287
 21
15.28861190965012
 31
0.0
 11
182.9414218238287
 21
15.2447890701549
 31
0.0
 11
182.9414218238287
 21
15.13523197141687
 31
0.0
 11
182.9414218238287
 21
14.99280774305742
 31
0.0
 11
182.9414218238287
 21
14.85038351469796
 31
0.0
 11
182.9414218238287
 21
14.74082641595992
 31
0.0
 11
182.9414218238287
 21
14.69700357646471
 31
0.0
 11
182.9435638463436
 21
14.47163149318766
 31
0.0
 11
182.9500384208311
 21
14.2497519099098
 31
0.0
 11
182.9590577693891
 21
14.03132954885328
 31
0.0
 11
182.9689825870144
 21
13.81626739612929
 31
0.0
 11
182.887261616877
 21
13.82145433189187
 31
0.0
 11
182.8004341885365
 21
13.82315538223861
 31
0.0
 11
182.713539511934
 21
13.82145433189187
 31
0.0
 11
182.6318769706147
 21
13.81626739612929
 31
0.0
 11
182.6417328200379
 21
14.03132954885328
 31
0.0
 11
182.6507427258644
 21
14.2497519099098
 31
0.0
 11
182.6571833838798
 21
14.47163149318766
 31
0.0
 11
182.6593583588023
 21
14.69700357646471
 31
0.0
 11
182.6593583588023
 21
14.74082641595992
 31
0.0
 11
182.6593583588023
 21
14.85038351469797
 31
0.0
 11
182.6593583588023
 21
14.99280774305741
 31
0.0
 11
182.6593583588023
 21
15.13523197141686
 31
0.0
 11
182.6593583588023
 21
15.2447890701549
 31
0.0
 11
182.6593583588023
 21
15.28861190965012
 31
0.0
 11
182.6571833838798
 21
15.51347467001058
 31
0.0
 11
182.6507427258644
 21
15.73406440953869
 31
0.0
  0
SPLINE
  5
B7
102
{ACAD_REACTORS
330
D4
102
}
330
4B
100
AcDbEntity
  8
_U_30EC_U_30A4_U_30E4_U_30FC_1
  6
Continuous
 62
     2
100
AcDbSpline
210
0.0
220
0.0
230
1.0
 70
    11
 71
     3
 72
   110
 73
   106
 74
   104
 42
0.000000001
 43
0.0000000001
 44
0.00000001
 40
0.0
 40
0.0
 40
0.0
 40
0.0
 40
0.2203406257277737
 40
0.440780878283841
 40
0.5952494494615683
 40
0.748843165939342
 40
0.9023581831309389
 40
1.056801968670437
 40
1.210736449099994
 40
1.363041386539899
 40
1.515315729683158
 40
1.66937723914811
 40
1.721611652756632
 40
1.77319950294303
 40
1.824933793210048
 40
1.877110426488083
 40
1.982682281206822
 40
2.078781667087547
 40
2.17280964082241
 40
2.271937807379034
 40
2.378349933379399
 40
2.494131557736699
 40
2.626681683943749
 40
2.783145050796176
 40
2.890701232941022
 40
2.993130312454948
 40
3.099869730691911
 40
3.220237816691395
 40
3.352695482737671
 40
3.481732806390005
 40
3.593499473690474
 40
3.674323013331921
 40
3.817951711952841
 40
3.946167120793782
 40
4.06140505345358
 40
4.166480796003194
 40
4.262478775059258
 40
4.3507366735513
 40
4.433071991254157
 40
4.511216293814594
 40
4.564262454117916
 40
4.61847441557156
 40
4.670128488754187
 40
4.722296879126378
 40
4.819540945314247
 40
4.931194984128103
 40
5.049996040257691
 40
5.168643755415093
 40
5.283970811762419
 40
5.392260784910245
 40
5.486512254876319
 40
5.559178233949718
 40
5.591425852853369
 40
5.626215969637745
 40
5.667155838674298
 40
5.717449290214144
 40
5.738402360944759
 40
5.784499116553729
 40
5.830595872164704
 40
5.851548942897562
 40
5.873019280661671
 40
5.924217778408204
 40
5.985325662817573
 40
6.036524160567577
 40
6.057994498334102
 40
6.236847789607371
 40
6.381409928945576
 40
6.493190424178573
 40
6.574067534230426
 40
6.691018086205521
 40
6.814881554220523
 40
6.944307823240448
 40
7.071266716066015
 40
7.193488604461862
 40
7.309042773128087
 40
7.414007203170684
 40
7.505140441886469
 40
7.5311503605996
 40
7.559221645322201
 40
7.587202218920853
 40
7.61256915949907
 40
7.662550809480924
 40
7.702878875764055
 40
7.857328205230784
 40
8.010799568088402
 40
8.165256399657437
 40
8.322232698713805
 40
8.479564855016491
 40
8.635216230290695
 40
8.790882550925613
 40
8.948305154947178
 40
9.168271839032876
 40
9.387358980987111
 40
9.608047961033364
 40
9.832914234792604
 40
9.858338694962937
 40
9.92536681722994
 40
10.02013071422752
 40
10.12876249858989
 40
10.23739428295239
 40
10.3321581799518
 40
10.39918630222383
 40
10.42461076239772
 40
10.64992019336934
 40
10.87188524531176
 40
10.87188524531176
 40
10.87188524531176
 40
10.87188524531176
 10
179.9057788376618
 20
15.73923260398189
 30
0.0
 10
179.9092864933541
 20
15.80616462073803
 30
0.0
 10
179.9163033987663
 20
15.94005891915858
 30
0.0
 10
179.8198027599072
 20
16.22548554971473
 30
0.0
 10
180.0510134726108
 20
16.16284386190284
 30
0.0
 10
180.1919290057156
 20
16.17001554055983
 30
0.0
 10
180.3490417757588
 20
16.16235883078247
 30
0.0
 10
180.5025913427288
 20
16.16252752283046
 30
0.0
 10
180.6545104935081
 20
16.16182040535434
 30
0.0
 10
180.8142214813232
 20
16.17210158351631
 30
0.0
 10
180.9408972601117
 20
16.15496511080753
 30
0.0
 10
181.1370821122081
 20
16.22727260107148
 30
0.0
 10
181.1034395279078
 20
16.12640699080116
 30
0.0
 10
181.1052011317184
 20
16.07619253947669
 30
0.0
 10
181.1027342073459
 20
16.02712335586464
 30
0.0
 10
181.134707696601
 20
15.94063490846992
 30
0.0
 10
181.0010399903256
 20
15.98997438608338
 30
0.0
 10
180.9172208688057
 20
15.98430634314172
 30
0.0
 10
180.8173861139325
 20
15.994655167063
 30
0.0
 10
180.7186576720145
 20
16.00086450411085
 30
0.0
 10
180.612153277111
 20
16.00697763816782
 30
0.0
 10
180.4910511698059
 20
16.0158888348458
 30
0.0
 10
180.3703381502453
 20
16.00521605912389
 30
0.0
 10
180.1812553843437
 20
16.06468503080366
 30
0.0
 10
180.212902850531
 20
15.9055832007754
 30
0.0
 10
180.1995563316835
 20
15.80839128339903
 30
0.0
 10
180.1974958426449
 20
15.69634065110103
 30
0.0
 10
180.195818804467
 20
15.57699685629352
 30
0.0
 10
180.1973336794233
 20
15.45032592155109
 30
0.0
 10
180.1956582478668
 20
15.32301588016115
 30
0.0
 10
180.2058844271658
 20
15.22451566404463
 30
0.0
 10
180.1779006596582
 20
15.08388702625638
 30
0.0
 10
180.3508029999305
 20
15.13989551134095
 30
0.0
 10
180.4645020202771
 20
15.12719951478502
 30
0.0
 10
180.5840151672239
 20
15.13448377051251
 30
0.0
 10
180.6888491425071
 20
15.13878017056761
 30
0.0
 10
180.7843084898612
 20
15.14330568258974
 30
0.0
 10
180.8763823507033
 20
15.15149201146204
 30
0.0
 10
180.9476551782439
 20
15.14643850638108
 30
0.0
 10
181.0544931705684
 20
15.18536425031679
 30
0.0
 10
181.0226603598036
 20
15.10517122005882
 30
0.0
 10
181.0266164503929
 20
15.05562936846036
 30
0.0
 10
181.0234502392014
 20
15.00557478039821
 30
0.0
 10
181.0550791490582
 20
14.9212884761202
 30
0.0
 10
180.9210133677691
 20
14.97425365495158
 30
0.0
 10
180.8292322793199
 20
14.96540080890437
 30
0.0
 10
180.7079729189602
 20
14.9757004996516
 30
0.0
 10
180.5914113119772
 20
14.97748911767499
 30
0.0
 10
180.4783375745879
 20
14.97787017109696
 30
0.0
 10
180.3679246308471
 20
14.98415449472182
 30
0.0
 10
180.2898124067841
 20
14.97189133255363
 30
0.0
 10
180.1913625833644
 20
15.00453887616127
 30
0.0
 10
180.2012355173561
 20
14.94769748054208
 30
0.0
 10
180.1973923244401
 20
14.91392130557988
 30
0.0
 10
180.1966789884268
 20
14.87119604709412
 30
0.0
 10
180.1963369642975
 20
14.83401607262153
 30
0.0
 10
180.1963834255345
 20
14.79487237370769
 30
0.0
 10
180.1963649429927
 20
14.75716849497685
 30
0.0
 10
180.1963703431806
 20
14.719449552324
 30
0.0
 10
180.1963697214201
 20
14.68994324745148
 30
0.0
 10
180.1963698151545
 20
14.658735776993
 30
0.0
 10
180.196370428792
 20
14.61414424908084
 30
0.0
 10
180.1963671499337
 20
14.55963956508851
 30
0.0
 10
180.1963759623481
 20
14.51505540201449
 30
0.0
 10
180.1963359653417
 20
14.4311780858574
 30
0.0
 10
180.1976024270255
 20
14.31737520677678
 30
0.0
 10
180.195027411784
 20
14.16830395933708
 30
0.0
 10
180.206500938172
 20
14.06597203813903
 30
0.0
 10
180.1823506222263
 20
13.9333890388583
 30
0.0
 10
180.3332993946477
 20
13.97895732272018
 30
0.0
 10
180.4428436671555
 20
13.96427012162344
 30
0.0
 10
180.5733970473921
 20
13.96920435125061
 30
0.0
 10
180.6990312209514
 20
13.97257705323358
 30
0.0
 10
180.8188730625601
 20
13.97711497498779
 30
0.0
 10
180.9391362611426
 20
13.99048536182002
 30
0.0
 10
181.0222761663516
 20
13.98068712782594
 30
0.0
 10
181.1456080421073
 20
14.04126214623321
 30
0.0
 10
181.1244269203958
 20
13.98532460134019
 30
0.0
 10
181.1235950270118
 20
13.95939249372345
 30
0.0
 10
181.1218963707558
 20
13.93197256190937
 30
0.0
 10
181.1217974888828
 20
13.89738195206385
 30
0.0
 10
181.120365930133
 20
13.86050408220768
 30
0.0
 10
181.153280419219
 20
13.76846841021811
 30
0.0
 10
180.9551306988108
 20
13.84132015974833
 30
0.0
 10
180.8300548294891
 20
13.81825726508603
 30
0.0
 10
180.6673071295157
 20
13.82454021985785
 30
0.0
 10
180.5129366450001
 20
13.82260943909924
 30
0.0
 10
180.3566670436944
 20
13.82393762599267
 30
0.0
 10
180.1970544465282
 20
13.8205987248786
 30
0.0
 10
180.0540326342237
 20
13.83265795728244
 30
0.0
 10
179.8197144881628
 20
13.7695200197692
 30
0.0
 10
179.9173810751197
 20
14.05620527466318
 30
0.0
 10
179.9006868780059
 20
14.24988308142661
 30
0.0
 10
179.9146296709685
 20
14.47848242880296
 30
0.0
 10
179.9142987846631
 20
14.6338459395505
 30
0.0
 10
179.9143078119264
 20
14.7396633644413
 30
0.0
 10
179.9143055876316
 20
14.80205784124217
 30
0.0
 10
179.9143065551888
 20
14.89220425248329
 30
0.0
 10
179.9143065473261
 20
14.99621167157439
 30
0.0
 10
179.9143053861102
 20
15.10022131375298
 30
0.0
 10
179.9143090971502
 20
15.19036243688768
 30
0.0
 10
179.9143011051051
 20
15.25276803097215
 30
0.0
 10
179.914333427502
 20
15.35868835961121
 30
0.0
 10
179.9131440788318
 20
15.5162671654474
 30
0.0
 10
179.9082216489256
 20
15.66528219822065
 30
0.0
 10
179.9057788376618
 20
15.73923260398189
 30
0.0
 11
179.9057788376618
 21
15.73923260398189
 31
0.0
 11
179.896691822374
 21
15.95938578101017
 31
0.0
 11
179.8868249573133
 21
16.17960510387181
 31
0.0
 11
180.04115751414
 21
16.17312391463728
 31
0.0
 11
180.1946500189046
 21
16.1675489233192
 31
0.0
 11
180.3481160653366
 21
16.16367167505632
 31
0.0
 11
180.5025544554939
 21
16.16238072887612
 31
0.0
 11
180.6564835227474
 21
16.16367167505632
 31
0.0
 11
180.8087391004601
 21
16.1675489233192
 31
0.0
 11
180.9609113551074
 21
16.17312391463728
 31
0.0
 11
181.1148364762483
 21
16.17960510387181
 31
0.0
 11
181.1070811703123
 21
16.12794961777357
 31
0.0
 11
181.1044991623591
 21
16.07642642334201
 31
0.0
 11
181.1070811703123
 21
16.0247566056466
 31
0.0
 11
181.1148364762483
 21
15.97315954836779
 31
0.0
 11
181.0094874054411
 21
15.98001446156059
 31
0.0
 11
180.9136375700061
 21
15.9869355205866
 31
0.0
 11
180.8198593171903
 21
15.99378381919601
 31
0.0
 11
180.7209679915881
 21
16.0006321178054
 31
0.0
 11
180.6147532199924
 21
16.00710999974826
 31
0.0
 11
180.4991060528037
 21
16.01268829835792
 31
0.0
 11
180.3666126447258
 21
16.01656554662089
 31
0.0
 11
180.2101546018423
 21
16.01785649280112
 31
0.0
 11
180.2062663293721
 21
15.91037061609187
 31
0.0
 11
180.2015380048401
 21
15.80805072896462
 31
0.0
 11
180.1976607566749
 21
15.70138175329687
 31
0.0
 11
180.1963698105272
 21
15.58102059013251
 31
0.0
 11
180.1967799146835
 21
15.44856355891567
 31
0.0
 11
180.1980896021501
 21
15.31953288186449
 31
0.0
 11
180.1994074577049
 21
15.20777398432309
 31
0.0
 11
180.199819115366
 21
15.12695149302391
 31
0.0
 11
180.3434452935874
 21
15.12780256941252
 31
0.0
 11
180.4716343930757
 21
15.13039989580079
 31
0.0
 11
180.5868078221796
 21
15.13425509545253
 31
0.0
 11
180.691775631222
 21
15.13901649302079
 31
0.0
 11
180.7876346289421
 21
15.14418027774175
 31
0.0
 11
180.8757413374194
 21
15.14934406246269
 31
0.0
 11
180.9578881438497
 21
15.15491243919739
 31
0.0
 11
181.035769233557
 21
15.16132086801531
 31
0.0
 11
181.0280180445186
 21
15.10884407115342
 31
0.0
 11
181.0254328449317
 21
15.0546937847086
 31
0.0
 11
181.0280180445186
 21
15.00310444444366
 31
0.0
 11
181.035769233557
 21
14.95151510417881
 31
0.0
 11
180.9389813454013
 21
14.96092324653756
 31
0.0
 11
180.8275950722014
 21
14.9686512847301
 31
0.0
 11
180.7089261429372
 21
14.97425273438148
 31
0.0
 11
180.5903167449214
 21
14.9772678819501
 31
0.0
 11
180.4750025117521
 21
14.97898767361639
 31
0.0
 11
180.36672619507
 21
14.98070746528259
 31
0.0
 11
180.2724839317708
 21
14.98202486979617
 31
0.0
 11
180.199819115366
 21
14.9824360763933
 31
0.0
 11
180.1994074577049
 21
14.95019108508193
 31
0.0
 11
180.1980896021501
 21
14.91542593752121
 31
0.0
 11
180.1967799146835
 21
14.87450702260087
 31
0.0
 11
180.1963698105272
 21
14.8242152430995
 31
0.0
 11
180.1963698105272
 21
14.8032621723582
 31
0.0
 11
180.1963698105272
 21
14.75716541672734
 31
0.0
 11
180.1963698105272
 21
14.71106866109649
 31
0.0
 11
180.1963698105272
 21
14.69011559035519
 31
0.0
 11
180.1963698105272
 21
14.66864525258279
 31
0.0
 11
180.1963698105272
 21
14.61744675481783
 31
0.0
 11
180.1963698105272
 21
14.55633887038868
 31
0.0
 11
180.1963698105272
 21
14.50514037262372
 31
0.0
 11
180.1963698105272
 21
14.48367003485132
 31
0.0
 11
180.1967799146835
 21
14.30481721371548
 31
0.0
 11
180.1980896021501
 21
14.16026100715439
 31
0.0
 11
180.2002868589709
 21
14.04850210961289
 31
0.0
 11
180.2032586986985
 21
13.96767961831361
 31
0.0
 11
180.3202092517447
 21
13.96767961831361
 31
0.0
 11
180.4440727208747
 21
13.96767961831361
 31
0.0
 11
180.5734925526423
 21
13.96897056449387
 31
0.0
 11
180.7003922282244
 21
13.97284781275681
 31
0.0
 11
180.8224658067973
 21
13.97886708358869
 31
0.0
 11
180.9377587499463
 21
13.98663260442001
 31
0.0
 11
181.0421754573518
 21
13.99734161483401
 31
0.0
 11
181.1320599255448
 21
14.01237656274691
 31
0.0
 11
181.1264254031192
 21
13.98698427976715
 31
0.0
 11
181.1234433285424
 21
13.959071840538
 31
0.0
 11
181.12213398812
 21
13.93112191867001
 31
0.0
 11
181.1217235369194
 21
13.90575829888471
 31
0.0
 11
181.1243087365064
 21
13.85584355063327
 31
0.0
 11
181.1320599255448
 21
13.81626739612929
 31
0.0
 11
180.9776977178345
 21
13.82145433189187
 31
0.0
 11
180.8242357818766
 21
13.82315538223861
 31
0.0
 11
180.6697789496483
 21
13.82315538223861
 31
0.0
 11
180.5128026496768
 21
13.82315538223861
 31
0.0
 11
180.3554704921536
 21
13.82315538223861
 31
0.0
 11
180.199819115366
 21
13.82315538223861
 31
0.0
 11
180.0441620874241
 21
13.82145433189187
 31
0.0
 11
179.8868249573133
 21
13.81626739612929
 31
0.0
 11
179.896691822374
 21
14.03601267385213
 31
0.0
 11
179.9057788376618
 21
14.2549112849085
 31
0.0
 11
179.91217215184
 21
14.47550763902003
 31
0.0
 11
179.9143063455009
 21
14.70036378479719
 31
0.0
 11
179.9143063455009
 21
14.72578824496878
 31
0.0
 11
179.9143063455009
 21
14.79281636723935
 31
0.0
 11
179.9143063455009
 21
14.88758026424256
 31
0.0
 11
179.9143063455009
 21
14.99621204861209
 31
0.0
 11
179.9143063455009
 21
15.10484383298163
 31
0.0
 11
179.9143063455009
 21
15.19960772998484
 31
0.0
 11
179.9143063455009
 21
15.2666358522554
 31
0.0
 11
179.9143063455009
 21
15.292060312427
 31
0.0
 11
179.91217215184
 21
15.51735963528737
 31
0.0
 11
179.9057788376618
 21
15.73923260398189
 31
0.0
  0
SPLINE
  5
B8
102
{ACAD_REACTORS
330
D5
102
}
330
4B
100
AcDbEntity
  8
_U_30EC_U_30A4_U_30E4_U_30FC_1
  6
Continuous
 62
     2
100
AcDbSpline
210
0.0
220
0.0
230
1.0
 70
    11
 71
     3
 72
    95
 73
    91
 74
    89
 42
0.000000001
 43
0.0000000001
 44
0.00000001
 40
0.0
 40
0.0
 40
0.0
 40
0.0
 40
0.6550406656912842
 40
1.308087289032031
 40
1.420803739835871
 40
1.56613075977089
 40
1.757067341888545
 40
2.006513545026521
 40
2.087328263121614
 40
2.185328872295732
 40
2.29461245474848
 40
2.408936380534898
 40
2.526802767798646
 40
2.646360524615712
 40
2.762535723971682
 40
2.870057342870252
 40
2.966883448431775
 40
3.050803243518427
 40
3.115818222436708
 40
3.156030057150331
 40
3.213914225080261
 40
3.276689026450747
 40
3.34296032098141
 40
3.404230667150659
 40
3.453822809493452
 40
3.532499827188465
 40
3.634775188507245
 40
3.75490933300823
 40
3.889736761660755
 40
4.035769602175365
 40
4.187256681197724
 40
4.338733685676006
 40
4.488478734676202
 40
4.634708317831643
 40
4.7714931899214
 40
4.892686571561299
 40
5.199775528944532
 40
5.460353566929755
 40
5.667603142345591
 40
5.814722905404543
 40
5.828990806219841
 40
5.855488336304538
 40
5.86975623711887
 40
6.189796507762806
 40
6.531890469873055
 40
6.883053637017042
 40
7.230512024911583
 40
7.566966656764596
 40
7.885203559707488
 40
8.172887439719306
 40
8.418011594062778
 40
8.4439267211907
 40
8.510760470613187
 40
8.602145393795697
 40
8.701714041647135
 40
8.793098965075368
 40
8.85993271505794
 40
8.885847842603589
 40
9.242301256612794
 40
9.589275455016777
 40
9.921808543164158
 40
10.23479624298466
 40
10.29968150889174
 40
10.35323493887765
 40
10.40154625355141
 40
10.46482922477814
 40
10.55973900668394
 40
10.69239545985611
 40
10.84920353475663
 40
11.01626328594773
 40
11.18672024367432
 40
11.35372582577202
 40
11.50257442292418
 40
11.61866495023284
 40
11.71329869152868
 40
11.82511050573897
 40
11.94464880845707
 40
12.06929242642498
 40
12.19707290435167
 40
12.3256263286052
 40
12.45034565331269
 40
12.56646595170316
 40
12.67099007414623
 40
12.76077625936775
 40
12.82703233506684
 40
12.87429132785985
 40
12.89831990323325
 40
12.92234847860013
 40
13.5398476741032
 40
14.18294284359349
 40
14.18294284359349
 40
14.18294284359349
 40
14.18294284359349
 10
177.3067935648022
 20
14.70898038201722
 30
0.0
 10
177.1752019758551
 20
14.82265058603229
 30
0.0
 10
176.9124193802727
 20
15.04964496316151
 30
0.0
 10
176.3997393441024
 20
15.89214462956285
 30
0.0
 10
176.4106654595361
 20
15.53423377577021
 30
0.0
 10
176.4041226527993
 20
15.39267392272134
 30
0.0
 10
176.4028026631772
 20
15.19421305299283
 30
0.0
 10
176.4018117602539
 20
15.02150296045986
 30
0.0
 10
176.4024101751974
 20
14.87865373257582
 30
0.0
 10
176.4038994301882
 20
14.78265005413359
 30
0.0
 10
176.4055683588471
 20
14.67545503263141
 30
0.0
 10
176.407193495462
 20
14.56164211517584
 30
0.0
 10
176.4092429501684
 20
14.44441572604589
 30
0.0
 10
176.4123165501927
 20
14.3265641123297
 30
0.0
 10
176.4156339697043
 20
14.21228087320621
 30
0.0
 10
176.4193605340279
 20
14.10521401867276
 30
0.0
 10
176.4217338161425
 20
14.0100740876692
 30
0.0
 10
176.4278718888356
 20
13.92558557205693
 30
0.0
 10
176.4239784495946
 20
13.8692308729814
 30
0.0
 10
176.4455230443077
 20
13.79825022472356
 30
0.0
 10
176.3680940058617
 20
13.82902677604487
 30
0.0
 10
176.311635324019
 20
13.8201124251761
 30
0.0
 10
176.2540495896807
 20
13.82896218398277
 30
0.0
 10
176.1690163478472
 20
13.79738225225946
 30
0.0
 10
176.2009714146383
 20
13.88095155992189
 30
0.0
 10
176.1990705282539
 20
13.94882608968308
 30
0.0
 10
176.21079600473
 20
14.05233256764417
 30
0.0
 10
176.2164241053
 20
14.17002125616694
 30
0.0
 10
176.2237902178942
 20
14.30388609164425
 30
0.0
 10
176.232075970161
 20
14.44764152872636
 30
0.0
 10
176.2398851897427
 20
14.59714022843447
 30
0.0
 10
176.2457571222657
 20
14.74792549402079
 30
0.0
 10
176.2503667817969
 20
14.89699943878436
 30
0.0
 10
176.2542632117541
 20
15.04122913163023
 30
0.0
 10
176.2570715126564
 20
15.17583905213018
 30
0.0
 10
176.2576698755022
 20
15.36469614347357
 30
0.0
 10
176.261602386715
 20
15.58975494313155
 30
0.0
 10
176.2442175378497
 20
15.86367091125709
 30
0.0
 10
176.2850417342584
 20
16.02787112098598
 30
0.0
 10
176.1995153256002
 20
16.22749661465093
 30
0.0
 10
176.2660558907688
 20
16.22385458403975
 30
0.0
 10
176.283872427323
 20
16.22413447160851
 30
0.0
 10
176.4056801797505
 20
16.22632927398612
 30
0.0
 10
176.508077033546
 20
15.94675118721509
 30
0.0
 10
176.7580021509356
 20
15.74563008536003
 30
0.0
 10
176.987003533111
 20
15.4779261498791
 30
0.0
 10
177.2245151213109
 20
15.22646413862384
 30
0.0
 10
177.4486090740772
 20
14.98969974061352
 30
0.0
 10
177.675071628301
 20
14.73218692583086
 30
0.0
 10
177.8325687886514
 20
14.61649335056927
 30
0.0
 10
178.0472129612675
 20
14.27997152538798
 30
0.0
 10
178.0422645974619
 20
14.40464754091606
 30
0.0
 10
178.0433931602546
 20
14.46327691935739
 30
0.0
 10
178.0428877841517
 20
14.55043662371979
 30
0.0
 10
178.0430475158114
 20
14.64416143182874
 30
0.0
 10
178.0430054891318
 20
14.73018971297037
 30
0.0
 10
178.0430202040372
 20
14.79153891945497
 30
0.0
 10
178.0429706255986
 20
14.94135231520997
 30
0.0
 10
178.045881152281
 20
15.17989612510105
 30
0.0
 10
178.0259521041162
 20
15.54486509868704
 30
0.0
 10
178.0750433936246
 20
15.80799631993413
 30
0.0
 10
177.9177951509183
 20
16.21928904947756
 30
0.0
 10
178.0762112872422
 20
16.16398282551749
 30
0.0
 10
178.1311680478629
 20
16.16199686500181
 30
0.0
 10
178.182788776674
 20
16.16264778248255
 30
0.0
 10
178.2713198965366
 20
16.20369527738247
 30
0.0
 10
178.2204898303168
 20
16.05696326622987
 30
0.0
 10
178.2313389930285
 20
15.95019971954433
 30
0.0
 10
178.2166036994846
 20
15.79085705414111
 30
0.0
 10
178.2099976446203
 20
15.62853061652874
 30
0.0
 10
178.2014961399915
 20
15.45992521892395
 30
0.0
 10
178.1943227202198
 20
15.29814814703541
 30
0.0
 10
178.1889063215389
 20
15.15422331457932
 30
0.0
 10
178.1871713967648
 20
15.03437493466924
 30
0.0
 10
178.1875440672318
 20
14.92686101590514
 30
0.0
 10
178.1873656126263
 20
14.81820024645586
 30
0.0
 10
178.1877010863141
 20
14.69953570165531
 30
0.0
 10
178.1890040622185
 20
14.57555163512741
 30
0.0
 10
178.1908887351574
 20
14.44858294171105
 30
0.0
 10
178.1925004454852
 20
14.32153861551032
 30
0.0
 10
178.1941403137429
 20
14.19854884492178
 30
0.0
 10
178.1962570745752
 20
14.08300931383762
 30
0.0
 10
178.1963848422364
 20
13.98090903955839
 30
0.0
 10
178.2006514396555
 20
13.89009848838158
 30
0.0
 10
178.1908440085289
 20
13.83213621208785
 30
0.0
 10
178.211847477169
 20
13.76517130132028
 30
0.0
 10
178.1725639739896
 20
13.77291153966686
 30
0.0
 10
177.9595307117752
 20
13.75755254145197
 30
0.0
 10
177.7636297943183
 20
14.31403058094457
 30
0.0
 10
177.4611197631544
 20
14.57556035348507
 30
0.0
 10
177.3067935648022
 20
14.70898038201722
 30
0.0
 11
177.3067935648022
 21
14.70898038201722
 31
0.0
 11
176.859552933851
 21
15.18757635411979
 31
0.0
 11
176.4124049070643
 21
15.6635264928897
 31
0.0
 11
176.4089664262493
 21
15.55086249986235
 31
0.0
 11
176.4055610183501
 21
15.40557538184311
 31
0.0
 11
176.4029636920275
 21
15.2146564582797
 31
0.0
 11
176.4021126156603
 21
14.96521170139761
 31
0.0
 11
176.4025239230289
 21
14.88439802954284
 31
0.0
 11
176.4038420329817
 21
14.78640628477561
 31
0.0
 11
176.4055192267718
 21
14.67713557299738
 31
0.0
 11
176.4072367127519
 21
14.56282454872041
 31
0.0
 11
176.4094007838772
 21
14.44497802965267
 31
0.0
 11
176.4124049070643
 21
14.32545802100199
 31
0.0
 11
176.4158359733138
 21
14.20933349846156
 31
0.0
 11
176.4192928929998
 21
14.1018674655023
 31
0.0
 11
176.4227085253088
 21
14.00510162351262
 31
0.0
 11
176.4261896983792
 21
13.92125406276969
 31
0.0
 11
176.4296006184312
 21
13.8563286200776
 31
0.0
 11
176.4330776843148
 21
13.81626739612929
 31
0.0
 11
176.3754263821571
 21
13.82145433189187
 31
0.0
 11
176.3126746318308
 21
13.82315538223861
 31
0.0
 11
176.2464251717157
 21
13.82145433189187
 31
0.0
 11
176.1853747739675
 21
13.81626739612929
 31
0.0
 11
176.1926772737812
 21
13.8653189412559
 31
0.0
 11
176.2008793569054
 21
13.94356725720851
 31
0.0
 11
176.2090098822348
 21
14.04551893253029
 31
0.0
 11
176.2163406441397
 21
14.16542920159751
 31
0.0
 11
176.2236358280422
 21
14.30005912343891
 31
0.0
 11
176.2318444255596
 21
14.44586107652751
 31
0.0
 11
176.2395504149466
 21
14.59715203135076
 31
0.0
 11
176.2455763002093
 21
14.74850913200731
 31
0.0
 11
176.2503046247416
 21
14.89817951391436
 31
0.0
 11
176.2541928972119
 21
15.0443573958222
 31
0.0
 11
176.2567527408965
 21
15.18111831592701
 31
0.0
 11
176.2576324804574
 21
15.30230850686891
 31
0.0
 11
176.257192610677
 21
15.60939715262544
 31
0.0
 11
176.2559126888347
 21
15.86997204839369
 31
0.0
 11
176.2528658717893
 21
16.07719922716125
 31
0.0
 11
176.2473049112763
 21
16.22421385386059
 31
0.0
 11
176.2615728121469
 21
16.22421385386059
 31
0.0
 11
176.2880703423352
 21
16.22421385386059
 31
0.0
 11
176.3023382432058
 21
16.22421385386059
 31
0.0
 11
176.5194743650276
 21
15.98910179662774
 31
0.0
 11
176.7512744123079
 21
15.7375128123156
 31
0.0
 11
176.9894816018839
 21
15.47949555543569
 31
0.0
 11
177.2260074557522
 21
15.22497079855489
 31
0.0
 11
177.4555698717705
 21
14.9789975954914
 31
0.0
 11
177.6731797360104
 21
14.74678934034111
 31
0.0
 11
177.8713724913708
 21
14.53826680567101
 31
0.0
 11
178.0430143099086
 21
14.36326697932591
 31
0.0
 11
178.0430143099086
 21
14.38918210687045
 31
0.0
 11
178.0430143099086
 21
14.45601585685373
 31
0.0
 11
178.0430143099086
 21
14.54740078030027
 31
0.0
 11
178.0430143099086
 21
14.64696942823455
 31
0.0
 11
178.0430143099086
 21
14.73835435168109
 31
0.0
 11
178.0430143099086
 21
14.80518810166437
 31
0.0
 11
178.0430143099086
 21
14.83110322920891
 31
0.0
 11
178.0417233637609
 21
15.18755430550868
 31
0.0
 11
178.0378461155958
 21
15.53450684014419
 31
0.0
 11
178.0296197790002
 21
15.86693815950553
 31
0.0
 11
178.0154535467229
 21
16.17960510387181
 31
0.0
 11
178.0790351249619
 21
16.16666367158337
 31
0.0
 11
178.1324170159612
 21
16.16238072887612
 31
0.0
 11
178.1805381084833
 21
16.16666367158337
 31
0.0
 11
178.2424836798197
 21
16.17960510387181
 31
0.0
 11
178.2351216487575
 21
16.08498128445103
 31
0.0
 11
178.2269790968819
 21
15.95257496503962
 31
0.0
 11
178.2183705364004
 21
15.79600336785656
 31
0.0
 11
178.2097547223214
 21
15.62916593734269
 31
0.0
 11
178.2016187850288
 21
15.45890325509363
 31
0.0
 11
178.1942501393835
 21
15.292060312427
 31
0.0
 11
178.1891406931522
 21
15.14329943572809
 31
0.0
 11
178.1874503478904
 21
15.027221215271
 31
0.0
 11
178.1874503478904
 21
14.93258747397517
 31
0.0
 11
178.1874503478904
 21
14.82077565976709
 31
0.0
 11
178.1878461204497
 21
14.70123801222749
 31
0.0
 11
178.1890819450709
 21
14.5766005209392
 31
0.0
 11
178.1908392193317
 21
14.44883212687392
 31
0.0
 11
178.1925303477609
 21
14.32028982655879
 31
0.0
 11
178.1942876220214
 21
14.19558288214556
 31
0.0
 11
178.1959787504505
 21
14.07947489606352
 31
0.0
 11
178.1972884379172
 21
13.97495896727021
 31
0.0
 11
178.1976985420735
 21
13.88517371555651
 31
0.0
 11
178.1976985420735
 21
13.81891763918417
 31
0.0
 11
178.1976985420735
 21
13.7716586461404
 31
0.0
 11
178.1736699662976
 21
13.7716586461404
 31
0.0
 11
178.1496413905217
 21
13.7716586461404
 31
0.0
 11
177.7410729200422
 21
14.23466735262192
 31
0.0
 11
177.3067935648022
 21
14.70898038201722
 31
0.0
  0
SPLINE
  5
B9
102
{ACAD_REACTORS
330
D6
102
}
330
4B
100
AcDbEntity
  8
_U_30EC_U_30A4_U_30E4_U_30FC_1
  6
Continuous
 62
     2
100
AcDbSpline
210
0.0
220
0.0
230
1.0
 70
    11
 71
     3
 72
    25
 73
    21
 74
    19
 42
0.000000001
 43
0.0000000001
 44
0.00000001
 40
0.0
 40
0.0
 40
0.0
 40
0.0
 40
0.0911479969063683
 40
0.1858117896204947
 40
0.2804128399734199
 40
0.3715889190712798
 40
0.4679080494217563
 40
0.5642683809228369
 40
0.6605683222644697
 40
0.7569653015809391
 40
0.8561348172521842
 40
1.092615965104185
 40
1.374867658141761
 40
1.611348812011445
 40
1.710518328425101
 40
1.809403163726403
 40
2.045205463293923
 40
2.326646917621964
 40
2.56244921719043
 40
2.661334043833735
 40
2.661334043833735
 40
2.661334043833735
 40
2.661334043833735
 10
173.26837005672
 20
14.88614538197291
 30
0.0
 10
173.2987525917923
 20
14.88598079714554
 30
0.0
 10
173.3606895889112
 20
14.88564528689923
 30
0.0
 10
173.454135696033
 20
14.88269055452001
 30
0.0
 10
173.5475095236358
 20
14.87977752877154
 30
0.0
 10
173.6417760753475
 20
14.87894201643418
 30
0.0
 10
173.7354964790967
 20
14.87996644658048
 30
0.0
 10
173.8352040303205
 20
14.87916977470972
 30
0.0
 10
173.9188949546312
 20
14.88921410235219
 30
0.0
 10
174.0637996315044
 20
14.86234617674165
 30
0.0
 10
173.9396132444801
 20
15.03665530280047
 30
0.0
 10
173.8965867286282
 20
15.1965171100609
 30
0.0
 10
173.7808922142209
 20
15.4551845855021
 30
0.0
 10
173.7017565431258
 20
15.59231052861858
 30
0.0
 10
173.6431576621817
 20
15.80937033134072
 30
0.0
 10
173.5864803939439
 20
15.59266134213423
 30
0.0
 10
173.5052809900477
 20
15.45327012438236
 30
0.0
 10
173.4063701281489
 20
15.2040696937019
 30
0.0
 10
173.3253625094259
 20
15.01925830226073
 30
0.0
 10
173.2813683325839
 20
14.91650446856115
 30
0.0
 10
173.26837005672
 20
14.88614538197291
 30
0.0
 11
173.26837005672
 21
14.88614538197291
 31
0.0
 11
173.359513773782
 21
14.8852612326676
 31
0.0
 11
173.4541428297582
 21
14.882696979196
 31
0.0
 11
173.5487082179706
 21
14.8800996528078
 31
0.0
 11
173.6398803250195
 21
14.87924857641912
 31
0.0
 11
173.7361985777706
 21
14.87965978301622
 31
0.0
 11
173.8325499034376
 21
14.88097718752971
 31
0.0
 11
173.9288262638287
 21
14.88310818579312
 31
0.0
 11
174.0251753846343
 21
14.88614538197291
 31
0.0
 11
173.9854633323141
 21
14.97701642195019
 31
0.0
 11
173.8907653613968
 21
15.193708901896
 31
0.0
 11
173.7777387509471
 21
15.45234186183132
 31
0.0
 11
173.6830407800298
 21
15.66903434177713
 31
0.0
 11
173.6433287277096
 21
15.75990538175441
 31
0.0
 11
173.6043330259267
 21
15.66903434177713
 31
0.0
 11
173.5113432755213
 21
15.45234186183132
 31
0.0
 11
173.4003555089083
 21
15.193708901896
 31
0.0
 11
173.3073657585029
 21
14.97701642195019
 31
0.0
 11
173.26837005672
 21
14.88614538197291
 31
0.0
  0
SPLINE
  5
BA
102
{ACAD_REACTORS
330
D6
102
}
330
4B
100
AcDbEntity
  8
_U_30EC_U_30A4_U_30E4_U_30FC_1
  6
Continuous
 62
     2
100
AcDbSpline
210
0.0
220
0.0
230
1.0
 70
    11
 71
     3
 72
    57
 73
    53
 74
    51
 42
0.000000001
 43
0.0000000001
 44
0.00000001
 40
0.0
 40
0.0
 40
0.0
 40
0.0
 40
0.0471632082809233
 40
0.091486105463214
 40
0.1357762519702945
 40
0.1826527001610671
 40
0.2295203288572011
 40
0.2737751972219613
 40
0.3181310461542195
 40
0.3652607198398483
 40
0.4571007286314404
 40
0.5671851029165081
 40
0.6894623283868218
 40
0.8181758272545755
 40
0.951008722927367
 40
1.085852229674134
 40
1.21812616447535
 40
1.343545131142401
 40
1.454537202956817
 40
1.567187607530826
 40
1.680710966642416
 40
1.794226869736808
 40
1.900009184247523
 40
2.004085860447802
 40
2.108162674451774
 40
2.214000150155318
 40
2.496038577352174
 40
2.762350745479321
 40
2.997275353279478
 40
3.185110082137794
 40
3.246407890063936
 40
3.312607550212552
 40
3.378877742711567
 40
3.440140399651506
 40
4.100501696006544
 40
4.754913085563573
 40
5.411331693423949
 40
6.077890432568728
 40
6.110575292671006
 40
6.143260152775786
 40
6.367989363395179
 40
6.610525374951544
 40
6.863389136467324
 40
7.119380025547616
 40
7.376036605091119
 40
7.631164770966357
 40
7.876722425456459
 40
8.104953735856018
 40
8.312916685924353
 40
8.497730294941295
 40
8.651018984313882
 40
8.764738853624602
 40
8.764738853624602
 40
8.764738853624602
 40
8.764738853624602
 10
174.7922649500513
 20
13.81626739612929
 30
0.0
 10
174.7766616726931
 20
13.8182623107908
 30
0.0
 10
174.7463947960302
 20
13.82213201360302
 30
0.0
 10
174.7010994202252
 20
13.82341984967266
 30
0.0
 10
174.6559553129349
 20
13.8230868355405
 30
0.0
 10
174.60990171234
 20
13.82314658674222
 30
0.0
 10
174.5640496172097
 20
13.8232581365
 30
0.0
 10
174.5183711648165
 20
13.82277833456588
 30
0.0
 10
174.4750811541609
 20
13.82461109618725
 30
0.0
 10
174.4039947951513
 20
13.80049556814656
 30
0.0
 10
174.4057477261441
 20
13.92184693977252
 30
0.0
 10
174.358619637057
 20
14.00726239751234
 30
0.0
 10
174.3191478251761
 20
14.12486929345136
 30
0.0
 10
174.2706635532645
 20
14.24232752540437
 30
0.0
 10
174.2201017402523
 20
14.36405935761515
 30
0.0
 10
174.1718634610476
 20
14.49075967862465
 30
0.0
 10
174.1135232947594
 20
14.59933687784958
 30
0.0
 10
174.0980892667261
 20
14.75620657134414
 30
0.0
 10
173.9566586330636
 20
14.72373446548327
 30
0.0
 10
173.8508397414904
 20
14.7351288868218
 30
0.0
 10
173.7358569725222
 20
14.73392591514614
 30
0.0
 10
173.6253142252141
 20
14.73506945347407
 30
0.0
 10
173.5176583522783
 20
14.73418350037525
 30
0.0
 10
173.4121322529244
 20
14.73416602390519
 30
0.0
 10
173.3109192682012
 20
14.72714032472419
 30
0.0
 10
173.1266804827754
 20
14.75135859859871
 30
0.0
 10
173.1157393685411
 20
14.44741691121887
 30
0.0
 10
173.008769163475
 20
14.22353177253397
 30
0.0
 10
172.9098148604346
 20
14.03895314292498
 30
0.0
 10
172.9225090524007
 20
13.79530204804209
 30
0.0
 10
172.8050091716397
 20
13.82508046753199
 30
0.0
 10
172.7422055868311
 20
13.822580895096
 30
0.0
 10
172.67858720934
 20
13.82344075102808
 30
0.0
 10
172.3946014194072
 20
13.78098039941943
 30
0.0
 10
173.0251638499381
 20
14.50081952444783
 30
0.0
 10
173.1087645289072
 20
15.01276539435725
 30
0.0
 10
173.4929252789337
 20
15.53353743550044
 30
0.0
 10
173.4777208288567
 20
16.23519626253209
 30
0.0
 10
173.7239265722696
 20
16.22345633081254
 30
0.0
 10
173.8256346157561
 20
16.2322500445277
 30
0.0
 10
173.8249752035819
 20
15.98059650730352
 30
0.0
 10
173.9428317155828
 20
15.79818020733961
 30
0.0
 10
174.0315515260484
 20
15.55563740662864
 30
0.0
 10
174.1322292485261
 20
15.32340030530138
 30
0.0
 10
174.2311142712242
 20
15.08674644566907
 30
0.0
 10
174.3299676990671
 20
14.85461739170101
 30
0.0
 10
174.4256166390925
 20
14.63122222788783
 30
0.0
 10
174.5159904573272
 20
14.42272549049322
 30
0.0
 10
174.5989944568189
 20
14.23308448529318
 30
0.0
 10
174.6726088582799
 20
14.06663106068101
 30
0.0
 10
174.7342815895545
 20
13.92917699626098
 30
0.0
 10
174.7749458885604
 20
13.84999239430035
 30
0.0
 10
174.7922649500513
 20
13.81626739612929
 30
0.0
 11
174.7922649500513
 21
13.81626739612929
 31
0.0
 11
174.7453878317448
 21
13.82145433189187
 31
0.0
 11
174.7010975896125
 21
13.82315538223861
 31
0.0
 11
174.6568074431729
 21
13.82315538223861
 31
0.0
 11
174.6099309947159
 21
13.82315538223861
 31
0.0
 11
174.5630633657034
 21
13.82315538223861
 31
0.0
 11
174.5188084970409
 21
13.82315538223861
 31
0.0
 11
174.4744852776855
 21
13.82145433189187
 31
0.0
 11
174.4276419021443
 21
13.81626739612929
 31
0.0
 11
174.3992532136325
 21
13.90360966173246
 31
0.0
 11
174.3622721815898
 21
14.0072965627482
 31
0.0
 11
174.3188386236701
 21
14.12159987001128
 31
0.0
 11
174.2711055866936
 21
14.24113531268969
 31
0.0
 11
174.2208160133237
 21
14.36408057307565
 31
0.0
 11
174.1696467003931
 21
14.48883822929452
 31
0.0
 11
174.1197531801326
 21
14.61134141502777
 31
0.0
 11
174.0733119111841
 21
14.72784517367921
 31
0.0
 11
173.9623611907589
 21
14.7308746528451
 31
0.0
 11
173.8497309225089
 21
14.73300454867791
 31
0.0
 11
173.7362152069449
 21
14.73432195319139
 31
0.0
 11
173.62270004768
 21
14.73473315978851
 31
0.0
 11
173.5169185312816
 21
14.73432195319139
 31
0.0
 11
173.4128501919226
 21
14.73300454867791
 31
0.0
 11
173.3087951724045
 21
14.7308746528451
 31
0.0
 11
173.2030010615596
 21
14.72784517367921
 31
0.0
 11
173.0980914750139
 21
14.46604437513352
 31
0.0
 11
173.0034868690331
 21
14.21710232658461
 31
0.0
 11
172.9252231210298
 21
13.99559756969556
 31
0.0
 11
172.8693431224554
 21
13.81626739612929
 31
0.0
 11
172.8082651639442
 21
13.82145433189187
 31
0.0
 11
172.7420873618131
 21
13.82315538223861
 31
0.0
 11
172.6758390041282
 21
13.82145433189187
 31
0.0
 11
172.6147963233937
 21
13.81626739612929
 31
0.0
 11
172.889968495193
 21
14.41656508695142
 31
0.0
 11
173.158294573417
 21
15.01343642360772
 31
0.0
 11
173.4240277350404
 21
15.61366245644379
 31
0.0
 11
173.6914740737032
 21
16.22421385386059
 31
0.0
 11
173.7241589339805
 21
16.22421385386059
 31
0.0
 11
173.7568437942578
 21
16.22421385386059
 31
0.0
 11
173.8428300681057
 21
16.01658539037085
 31
0.0
 11
173.9357285813609
 21
15.79254614563521
 31
0.0
 11
174.0328714521463
 21
15.55908663180469
 31
0.0
 11
174.1317936458032
 21
15.32298128464151
 31
0.0
 11
174.2315341249927
 21
15.08649780379784
 31
0.0
 11
174.3313071129354
 21
14.85168781253711
 31
0.0
 11
174.4280608257449
 21
14.6259949219685
 31
0.0
 11
174.5188084970409
 21
14.41658052097921
 31
0.0
 11
174.6022150834546
 21
14.22607611130459
 31
0.0
 11
174.6770293263377
 21
14.05708232662471
 31
0.0
 11
174.7410729186603
 21
13.91781337700668
 31
0.0
 11
174.7922649500513
 21
13.81626739612929
 31
0.0
  0
SPLINE
  5
BB
102
{ACAD_REACTORS
330
D7
102
}
330
4B
100
AcDbEntity
  8
_U_30EC_U_30A4_U_30E4_U_30FC_1
  6
Continuous
 62
     2
100
AcDbSpline
210
0.0
220
0.0
230
1.0
 70
    11
 71
     3
 72
    99
 73
    95
 74
    93
 42
0.000000001
 43
0.0000000001
 44
0.00000001
 40
0.0
 40
0.0
 40
0.0
 40
0.0
 40
0.0796417172272375
 40
0.1621768542356287
 40
0.2486489160958206
 40
0.3404969668524681
 40
0.4381912511164731
 40
0.5434463660245056
 40
0.6518115192847389
 40
0.7530190937886894
 40
0.8492196919724787
 40
0.9419290312998307
 40
1.034249663569977
 40
1.129078600620161
 40
1.226697027573259
 40
1.327220425421726
 40
1.470572134938062
 40
1.595489863371263
 40
1.719934125348475
 40
1.850576620127475
 40
1.989059629987379
 40
2.134139054227042
 40
2.280698007207299
 40
2.424529739039524
 40
2.565929576985882
 40
2.708239260773603
 40
2.861717887443759
 40
3.045168540347398
 40
3.183798301138637
 40
3.31481396145552
 40
3.442083470447383
 40
3.569912708373143
 40
3.702177512509493
 40
3.84230755965962
 40
3.992872223245986
 40
4.156750662218317
 40
4.310981861107679
 40
4.445859909322659
 40
4.572393936131657
 40
4.701656719782044
 40
4.76827908600856
 40
4.835960697898493
 40
4.912788918729442
 40
5.006285208481654
 40
5.026909478751702
 40
5.04753374902121
 40
5.101808031471265
 40
5.16232516553858
 40
5.22691974599586
 40
5.294231806596813
 40
5.364544852554923
 40
5.438319055467931
 40
5.517877651324268
 40
5.607647714861581
 40
5.700449642544426
 40
5.788251142364151
 40
5.872714706039771
 40
5.955167292575243
 40
6.037192395190393
 40
6.120669181469078
 40
6.206848616686305
 40
6.296680855416787
 40
6.442558392872624
 40
6.568190371608254
 40
6.69290456736034
 40
6.824220446557085
 40
6.963121850329435
 40
7.107843738851241
 40
7.253431663907292
 40
7.395187468036659
 40
7.533140753237745
 40
7.670550457175235
 40
7.816236511769259
 40
7.987691657359195
 40
8.142277421969256
 40
8.293662615414977
 40
8.442962460879285
 40
8.591598316185287
 40
8.743678992361797
 40
8.903725323699154
 40
9.076307008890447
 40
9.26557860468056
 40
9.459203795360708
 40
9.617619810273412
 40
9.753609671361831
 40
9.874873300004056
 40
9.95452018497771
 40
10.02416413719233
 40
10.09769764405435
 40
10.18909955924966
 40
10.20974586420136
 40
10.23039218263381
 40
10.30057101881271
 40
10.37632012987546
 40
10.37632012987546
 40
10.37632012987546
 40
10.37632012987546
 10
170.146595483585
 20
14.1379566321599
 30
0.0
 10
170.1632217851219
 20
14.11720608845312
 30
0.0
 10
170.1970784206576
 20
14.07495111711904
 30
0.0
 10
170.2599822541036
 20
14.0202981139207
 30
0.0
 10
170.3332500940393
 20
13.97299025121058
 30
0.0
 10
170.4175969238636
 20
13.93527231437935
 30
0.0
 10
170.513224061546
 20
13.91040619731955
 30
0.0
 10
170.6171853775346
 20
13.90309559345934
 30
0.0
 10
170.7224020220405
 20
13.91142322794055
 30
0.0
 10
170.8206626371333
 20
13.94149179651523
 30
0.0
 10
170.9058986427547
 20
13.98848822971881
 30
0.0
 10
170.9779220206103
 20
14.04952991250852
 30
0.0
 10
171.0350917709094
 20
14.1241296957859
 30
0.0
 10
171.076786874744
 20
14.21002464660171
 30
0.0
 10
171.1026952846293
 20
14.30485850432211
 30
0.0
 10
171.1118037332654
 20
14.41854979038369
 30
0.0
 10
171.0986864796487
 20
14.54332587770782
 30
0.0
 10
171.0325330334414
 20
14.66014719171896
 30
0.0
 10
170.9369370919568
 20
14.74512539577374
 30
0.0
 10
170.8249681022369
 20
14.81416684459169
 30
0.0
 10
170.6993659583269
 20
14.87204142045892
 30
0.0
 10
170.5656691620855
 20
14.92373723284339
 30
0.0
 10
170.4313122818831
 20
14.97899092397179
 30
0.0
 10
170.3051983986876
 20
15.04939770641651
 30
0.0
 10
170.1926579987535
 20
15.13785540731248
 30
0.0
 10
170.0969963064458
 20
15.24981067868476
 30
0.0
 10
170.0334157151825
 20
15.39949910101382
 30
0.0
 10
170.0200706505016
 20
15.55932794385141
 30
0.0
 10
170.0320510987447
 20
15.71048405306843
 30
0.0
 10
170.071229892884
 20
15.8380924459154
 30
0.0
 10
170.135498775091
 20
15.95080874030852
 30
0.0
 10
170.2238204999741
 20
16.04648609268678
 30
0.0
 10
170.3338091207628
 20
16.12354214985753
 30
0.0
 10
170.4632284401265
 20
16.18151396936283
 30
0.0
 10
170.6111838967793
 20
16.21739177588819
 30
0.0
 10
170.7682069455485
 20
16.2274671905056
 30
0.0
 10
170.917494046643
 20
16.2186363776259
 30
0.0
 10
171.059625361417
 20
16.19074899340357
 30
0.0
 10
171.1595922609625
 20
16.1341331470114
 30
0.0
 10
171.3125074736184
 20
16.08674602105511
 30
0.0
 10
171.2455131717168
 20
16.00197553001187
 30
0.0
 10
171.2296479120268
 20
15.93438901873486
 30
0.0
 10
171.1978750531297
 20
15.86926092793191
 30
0.0
 10
171.215020220957
 20
15.76723453256954
 30
0.0
 10
171.1666427208231
 20
15.77493211681903
 30
0.0
 10
171.1315789440766
 20
15.7680677172481
 30
0.0
 10
171.1296697985718
 20
15.83263831158197
 30
0.0
 10
171.0985692931989
 20
15.87825639621395
 30
0.0
 10
171.0664551628456
 20
15.93561036628464
 30
0.0
 10
171.0208038475166
 20
15.98540462692551
 30
0.0
 10
170.9658508218386
 20
16.02994813718998
 30
0.0
 10
170.9010841173007
 20
16.06763988836548
 30
0.0
 10
170.8232377310596
 20
16.09283375791351
 30
0.0
 10
170.7355160553352
 20
16.09931230998111
 30
0.0
 10
170.6452903277806
 20
16.09235709285608
 30
0.0
 10
170.5594594694065
 20
16.06909190460927
 30
0.0
 10
170.4828343638596
 20
16.03131644107548
 30
0.0
 10
170.4165265636202
 20
15.98051641089564
 30
0.0
 10
170.3622560536963
 20
15.91731143407214
 30
0.0
 10
170.3224925345458
 20
15.8427645571037
 30
0.0
 10
170.2976775510589
 20
15.75917313997764
 30
0.0
 10
170.2892124262869
 20
15.65192948382285
 30
0.0
 10
170.3019697987104
 20
15.52965457267559
 30
0.0
 10
170.3681548409273
 20
15.41149724291211
 30
0.0
 10
170.4640977399832
 20
15.32606325709534
 30
0.0
 10
170.5757914963183
 20
15.25583362306724
 30
0.0
 10
170.7010863668703
 20
15.19659162305311
 30
0.0
 10
170.8349823941448
 20
15.1461670808613
 30
0.0
 10
170.968993033315
 20
15.09322516984384
 30
0.0
 10
171.0950885316915
 20
15.02750170625175
 30
0.0
 10
171.2076216638417
 20
14.94480352537324
 30
0.0
 10
171.3031370284233
 20
14.8399600631007
 30
0.0
 10
171.3672706486963
 20
14.69937117251572
 30
0.0
 10
171.3811103725278
 20
14.54065409451592
 30
0.0
 10
171.367395471223
 20
14.38153155217877
 30
0.0
 10
171.3244739153985
 20
14.23483828819211
 30
0.0
 10
171.2545906329065
 20
14.10119796587147
 30
0.0
 10
171.1574592213829
 20
13.98532387699291
 30
0.0
 10
171.0347806023657
 20
13.89089981770089
 30
0.0
 10
170.8874408413168
 20
13.82179270651982
 30
0.0
 10
170.7177132497125
 20
13.77953210858852
 30
0.0
 10
170.5317404979597
 20
13.76781736230406
 30
0.0
 10
170.3528955926183
 20
13.77809486683437
 30
0.0
 10
170.1881733753744
 20
13.81966573769157
 30
0.0
 10
170.0834410841057
 20
13.88797642883945
 30
0.0
 10
169.9350960790366
 20
13.93675219032106
 30
0.0
 10
169.9980378194728
 20
14.02976591290843
 30
0.0
 10
170.0072274430059
 20
14.1029653624828
 30
0.0
 10
170.0303711301232
 20
14.16936294501345
 30
0.0
 10
170.0034588335315
 20
14.26974809527585
 30
0.0
 10
170.0521338956339
 20
14.2623403351738
 30
0.0
 10
170.0916530580696
 20
14.26894063620896
 30
0.0
 10
170.0996204944703
 20
14.19078703218938
 30
0.0
 10
170.1305436967922
 20
14.15600927375855
 30
0.0
 10
170.146595483585
 20
14.1379566321599
 30
0.0
 11
170.146595483585
 21
14.1379566321599
 31
0.0
 11
170.1982038075863
 21
14.07729869814738
 31
0.0
 11
170.2601105501335
 21
14.0227129516332
 31
0.0
 11
170.3327764009803
 21
13.97583980928387
 31
0.0
 11
170.4166468655843
 21
13.9383990627654
 31
0.0
 11
170.511221073241
 21
13.91390636311879
 31
0.0
 11
170.6161603327165
 21
13.90575829888471
 31
0.0
 11
170.7240739497552
 21
13.91564048638223
 31
0.0
 11
170.8208419941616
 21
13.9452870488748
 31
0.0
 11
170.9050776083318
 21
13.99175118948819
 31
0.0
 11
170.9756144207686
 21
14.05191413218151
 31
0.0
 11
171.0319442109979
 21
14.1250581946632
 31
0.0
 11
171.0736690016003
 21
14.2102143404752
 31
0.0
 11
171.0994680808033
 21
14.30436190989614
 31
0.0
 11
171.1080824729447
 21
14.40451552098222
 31
0.0
 11
171.0878517703357
 21
14.54643250879401
 31
0.0
 11
171.0272522666731
 21
14.65566684036389
 31
0.0
 11
170.9364971286285
 21
14.74081306430098
 31
0.0
 11
170.826010188474
 21
14.81052746532521
 31
0.0
 11
170.7008523531254
 21
14.86979854169924
 31
0.0
 11
170.5662951950997
 21
14.9240425347412
 31
0.0
 11
170.4316884277006
 21
14.98201274306003
 31
0.0
 11
170.3065802017258
 21
15.05297399304232
 31
0.0
 11
170.196027609828
 21
15.14113315968693
 31
0.0
 11
170.1053381235265
 21
15.25080295132619
 31
0.0
 11
170.0447055469483
 21
15.39179720476319
 31
0.0
 11
170.0245079172553
 21
15.57413260402311
 31
0.0
 11
170.0374030471347
 21
15.71216131926639
 31
0.0
 11
170.076101665939
 21
15.83733128451291
 31
0.0
 11
170.1393141731506
 21
15.94779262129085
 31
0.0
 11
170.2257499954546
 21
16.04196885390621
 31
0.0
 11
170.3336492808963
 21
16.1184654077065
 31
0.0
 11
170.4613526283328
 21
16.1761567010949
 31
0.0
 11
170.6075393259922
 21
16.21220066809972
 31
0.0
 11
170.7709768565449
 21
16.22421385386059
 31
0.0
 11
170.924891843129
 21
16.21434269066863
 31
0.0
 11
171.0564887242607
 21
16.18477329831501
 31
0.0
 11
171.172563634494
 21
16.13439993895255
 31
0.0
 11
171.2800792741122
 21
16.06264163167882
 31
0.0
 11
171.2516994050444
 21
16.00236624106888
 31
0.0
 11
171.2284855254283
 21
15.9387901733765
 31
0.0
 11
171.2078381040801
 21
15.86478841992269
 31
0.0
 11
171.1871840681486
 21
15.77360197897329
 31
0.0
 11
171.1665597978414
 21
15.77360197897329
 31
0.0
 11
171.1459355275343
 21
15.77360197897329
 31
0.0
 11
171.1256706495791
 21
15.82395108486346
 31
0.0
 11
171.0994658759421
 21
15.87850045116932
 31
0.0
 11
171.0650468924451
 21
15.93316116296116
 31
0.0
 11
171.0203554612936
 21
15.98349593725411
 31
0.0
 11
170.965733335951
 21
16.0277717532153
 31
0.0
 11
170.9016722004326
 21
16.06436142334499
 31
0.0
 11
170.825968296114
 21
16.08882545979726
 31
0.0
 11
170.7365722046449
 21
16.09701100667022
 31
0.0
 11
170.6440937174207
 21
16.08926973931104
 31
0.0
 11
170.5594072091645
 21
16.0660900344557
 31
0.0
 11
170.483702448884
 21
16.02863495634009
 31
0.0
 11
170.4183754766517
 21
15.97832774281099
 31
0.0
 11
170.3650487887664
 21
15.91600293379878
 31
0.0
 11
170.3254809233901
 21
15.84249947895611
 31
0.0
 11
170.3009523754711
 21
15.75988443557395
 31
0.0
 11
170.2927954104108
 21
15.6704232984435
 31
0.0
 11
170.3130095765618
 21
15.5259530814657
 31
0.0
 11
170.373625616682
 21
15.41591177072939
 31
0.0
 11
170.4643479320758
 21
15.33033670130636
 31
0.0
 11
170.5748676948813
 21
15.25941954854631
 31
0.0
 11
170.700008993772
 21
15.19914305550583
 31
0.0
 11
170.8345826882554
 21
15.1459044791302
 31
0.0
 11
170.9691729191968
 21
15.09039489581075
 31
0.0
 11
171.0942976816297
 21
15.02377281249412
 31
0.0
 11
171.2048009079771
 21
14.9411886371675
 31
0.0
 11
171.2955397598288
 21
14.8380000347627
 31
0.0
 11
171.3561557999489
 21
14.70552315979584
 31
0.0
 11
171.3763699660998
 21
14.53526378483841
 31
0.0
 11
171.3621839747998
 21
14.38133030397411
 31
0.0
 11
171.3196087009193
 21
14.23605531269101
 31
0.0
 11
171.2499752884264
 21
14.10398854189069
 31
0.0
 11
171.1544992078713
 21
13.9900721877525
 31
0.0
 11
171.0341060772624
 21
13.89715272597018
 31
0.0
 11
170.8896160201846
 21
13.82832357668181
 31
0.0
 11
170.7223519532714
 21
13.78581275203967
 31
0.0
 11
170.5336103348226
 21
13.7716586461404
 31
0.0
 11
170.3405031726388
 21
13.78581275203967
 31
0.0
 11
170.1878975900912
 21
13.82832357668181
 31
0.0
 11
170.0661897942203
 21
13.88899033013892
 31
0.0
 11
169.9660261826363
 21
13.95734322942741
 31
0.0
 11
169.9922320587038
 21
14.03255545163078
 31
0.0
 11
170.0090121537617
 21
14.10014767383609
 31
0.0
 11
170.0206196447851
 21
14.1727592623596
 31
0.0
 11
170.0313606254138
 21
14.26352788212861
 31
0.0
 11
170.0520069443315
 21
14.26352788212861
 31
0.0
 11
170.0726532632492
 21
14.26352788212861
 31
0.0
 11
170.104891639163
 21
14.20119204881083
 31
0.0
 11
170.146595483585
 21
14.1379566321599
 31
0.0
  0
LWPOLYLINE
  5
BC
102
{ACAD_REACTORS
330
C9
102
}
330
4B
100
AcDbEntity
  8
_U_30EC_U_30A4_U_30E4_U_30FC_1
  6
Continuous
 62
     2
100
AcDbPolyline
 90
        5
 70
     1
 43
0.0
 10
192.4578138032673
 20
15.39722336795632
 10
192.4578138032673
 20
15.2287543402206
 10
191.1602971697031
 20
15.2287543402206
 10
191.1602971697031
 20
15.39722336795632
 10
192.4578138032673
 20
15.39722336795632
  0
MTEXT
  5
BE
330
4B
100
AcDbEntity
  8
1
 62
     2
100
AcDbMText
 10
32.49999999999999
 20
282.0000000000003
 30
0.0
 40
5.0
 41
0.0
 71
     5
 72
     1
  1
図番
  7
CONVERTER_11
 73
     1
 44
0.45454545454545
  0
MTEXT
  5
BF
330
4B
100
AcDbEntity
  8
1
 62
     2
100
AcDbMText
 10
28.99999999999999
 20
34.0
 30
0.0
 40
3.5
 41
0.0
 71
     5
 72
     1
  1
備考
  7
CONVERTER_11
 73
     1
 44
0.45454545454545
  0
MTEXT
  5
C0
330
4B
100
AcDbEntity
  8
1
 62
     2
100
AcDbMText
 10
28.99999999999999
 20
22.75
 30
0.0
 40
3.5
 41
0.0
 71
     5
 72
     1
  1
品名
  7
CONVERTER_11
 73
     1
 44
0.72727272727273
  0
MTEXT
  5
C1
330
4B
100
AcDbEntity
  8
1
 62
     2
100
AcDbMText
 10
28.99999999999999
 20
14.25
 30
0.0
 40
3.5
 41
0.0
 71
     5
 72
     1
  1
品番
  7
CONVERTER_11
 73
     1
 44
0.72727272727273
  0
MTEXT
  5
C2
330
4B
100
AcDbEntity
  8
1
 62
     2
100
AcDbMText
 10
101.5000000000001
 20
25.0
 30
0.0
 40
3.0
 41
0.0
 71
     5
 72
     1
  1
承認
  7
CONVERTER_11
 73
     1
 44
0.59090909090909
  0
MTEXT
  5
C3
330
4B
100
AcDbEntity
  8
1
 62
     2
100
AcDbMText
 10
175.0000000000001
 20
23.5
 30
0.0
 40
3.5
 41
0.0
 71
     5
 72
     1
  1
第三角法
  7
CONVERTER_11
 73
     1
 44
0.54545454545455
  0
MTEXT
  5
C4
330
4B
100
AcDbEntity
  8
1
 62
     2
100
AcDbMText
 10
118.5000000000001
 20
25.0
 30
0.0
 40
3.0
 41
0.0
 71
     5
 72
     1
  1
検図
  7
CONVERTER_11
 73
     1
 44
0.59090909090909
  0
MTEXT
  5
C5
330
4B
100
AcDbEntity
  8
1
 62
     2
100
AcDbMText
 10
152.5000000000001
 20
25.0
 30
0.0
 40
3.0
 41
0.0
 71
     5
 72
     1
  1
設計
  7
CONVERTER_11
 73
     1
 44
0.59090909090909
  0
MTEXT
  5
C6
330
4B
100
AcDbEntity
  8
1
 62
     2
100
AcDbMText
 10
135.5000000000001
 20
25.0
 30
0.0
 40
3.0
 41
0.0
 71
     5
 72
     1
  1
製図
  7
CONVERTER_11
 73
     1
 44
0.59090909090909
  0
MTEXT
  5
C7
330
4B
100
AcDbEntity
  8
1
 62
     2
100
AcDbMText
 10
89.50000000000006
 20
24.0
 30
0.0
 40
3.5
 41
0.0
 71
     5
 72
     1
  1
尺度
  7
CONVERTER_11
 73
     1
 44
0.54545454545455
  0
MTEXT
  5
C8
330
4B
100
AcDbEntity
  8
1
 62
   250
100
AcDbMText
 10
24.99999999999999
 20
5.0
 30
0.0
 40
3.5
 41
0.0
 71
     4
 72
     1
  1
備考欄の文字列 原点位置=4
  7
CONVERTER_11
 73
     1
 44
0.54545454545455
  0
HATCH
  5
C9
330
4B
100
AcDbEntity
  8
1
  6
Continuous
 62
     2
100
AcDbHatch
 10
0.0
 20
0.0
 30
0.0
210
0.0
220
0.0
230
1.0
  2
CUSTOM0
 70
     0
 71
     1
 91
        1
 92
        1
 93
        4
 72
     1
 10
192.4578138032673
 20
15.39722336795632
 11
192.4578138032673
 21
15.2287543402206
 72
     1
 10
192.4578138032673
 20
15.2287543402206
 11
191.1602971697031
 21
15.2287543402206
 72
     1
 10
191.1602971697031
 20
15.2287543402206
 11
191.1602971697031
 21
15.39722336795632
 72
     1
 10
191.1602971697031
 20
15.39722336795632
 11
192.4578138032673
 21
15.39722336795632
 97
        1
330
BC
 75
     1
 76
     2
 52
45.0
 41
0.1
 77
     0
 78
     1
 53
45.0
 43
0.0
 44
0.0
 45
-0.282842712474619
 46
0.0
 79
     0
 98
        1
 10
0.0
 20
0.0
  0
HATCH
  5
CA
330
4B
100
AcDbEntity
  8
1
  6
Continuous
 62
     2
100
AcDbHatch
 10
0.0
 20
0.0
 30
0.0
210
0.0
220
0.0
230
1.0
  2
CUSTOM1
 70
     0
 71
     1
 91
        1
 92
        1
 93
        3
 72
     4
 94
        3
 73
     0
 74
     0
 95
       24
 96
       20
 40
0.0
 40
0.0
 40
0.0
 40
0.0
 40
0.2211075008753365
 40
0.4273218586245928
 40
0.508017467923927
 40
0.5914835907870206
 40
0.8143265690192786
 40
1.054651302686586
 40
1.295452694023157
 40
1.518109231328774
 40
1.540864321905388
 40
1.595126460622645
 40
1.659890947895956
 40
1.71415308518731
 40
1.736908174961609
 40
1.764951100735315
 40
1.8015622912209
 40
1.953914424543608
 40
2.126104167379626
 40
2.126104167379626
 40
2.126104167379626
 40
2.126104167379626
 10
185.9375369556888
 20
15.5898929511302
 10
185.9112579081811
 20
15.53097628234377
 10
185.8604698894426
 20
15.41711139679255
 10
185.8131784839112
 20
15.14441958233111
 10
185.7043482802617
 20
15.24445482575456
 10
185.5514800279638
 20
15.27118593367333
 10
185.7686155181198
 20
15.48518135017634
 10
185.7838483674381
 20
15.70332117782488
 10
185.8906889492
 20
15.88451579066426
 10
185.8305380947079
 20
16.16913226311398
 10
185.9334317395402
 20
16.14114089222448
 10
185.977993346815
 20
16.13243251602299
 10
186.0380842395396
 20
16.12139654183355
 10
186.0756619587439
 20
16.10767523055561
 10
186.1252466928605
 20
16.10756076160226
 10
186.0930158919325
 20
16.07306592398623
 10
186.0171802221881
 20
16.0840410453797
 10
186.0429447159694
 20
15.89858969582451
 10
186.005589676385
 20
15.80702313549592
 10
185.9857704961609
 20
15.75844135397711
 72
     4
 94
        3
 73
     0
 74
     0
 95
       70
 96
       66
 40
0.0
 40
0.0
 40
0.0
 40
0.0
 40
0.0241731073021188
 40
0.0846058988987013
 40
0.1631685280352715
 40
0.2417311571788903
 40
0.3021639488291614
 40
0.3263370654894688
 40
0.3533118254248028
 40
0.4228783438921259
 40
0.5179999095312514
 40
0.6216398239465178
 40
0.7167613891498782
 40
0.786327906964894
 40
0.8133026791760877
 40
0.8372943998771001
 40
0.8945054261372204
 40
0.962789554196227
 40
1.020000580349038
 40
1.043992300975165
 40
1.071934345522925
 40
1.113121768772912
 40
1.14522519933223
 40
1.22548377541275
 40
1.329819923771441
 40
1.43415607199431
 40
1.514414647795715
 40
1.546518078208318
 40
1.578974764260091
 40
1.662678849314086
 40
1.777131373668307
 40
1.901833377474697
 40
2.016285900500487
 40
2.099989982527855
 40
2.132446666570213
 40
2.158782354485951
 40
2.21672086790777
 40
2.274659381334224
 40
2.300995069256174
 40
2.333451754066146
 40
2.417155836543826
 40
2.531608358985266
 40
2.656310362283761
 40
2.770762886388893
 40
2.854466971340059
 40
2.886923657363865
 40
2.913597976833295
 40
2.982389642875089
 40
3.076451716946944
 40
3.178937260458546
 40
3.272999334739937
 40
3.341791001059152
 40
3.36846532066346
 40
3.396976080738709
 40
3.472140811845946
 40
3.578408190308635
 40
3.7002268924561
 40
3.822045594634345
 40
3.928312973256481
 40
4.003477705314878
 40
4.031988456866944
 40
4.058324144797745
 40
4.116262658236912
 40
4.174201171400719
 40
4.200536849608654
 40
4.200536849608654
 40
4.200536849608654
 40
4.200536849608654
 10
185.9857704961609
 20
15.75844135397711
 10
185.9938259544679
 20
15.75844359811693
 10
186.0220200663241
 20
15.75845146032804
 10
186.0765534803672
 20
15.75830754828377
 10
186.1482891808603
 20
15.75909120499904
 10
186.2236240137062
 20
15.75627570463817
 10
186.2713052366438
 20
15.76298403400963
 10
186.3195071245615
 20
15.75197563692438
 10
186.3062571799873
 20
15.80546402997039
 10
186.3151093964537
 20
15.86049583543097
 10
186.3108698036285
 20
15.95419908726114
 10
186.3133483481279
 20
16.04959482218539
 10
186.3090938706059
 20
16.14356821983392
 10
186.3179818665846
 20
16.19795062438018
 10
186.3046977409944
 20
16.25233997691466
 10
186.3514119277108
 20
16.23842216335363
 10
186.3943254545736
 20
16.24103877374047
 10
186.4605443456684
 20
16.23648422450756
 10
186.5013342271798
 20
16.22778162134162
 10
186.5525145690819
 20
16.23531799890195
 10
186.52537204872
 20
16.19349970223286
 10
186.4803096055707
 20
16.20284992072593
 10
186.4942065045051
 20
16.13841207371836
 10
186.4858414431654
 20
16.07378219627399
 10
186.4903632178398
 20
15.97529141193889
 10
186.4854741311167
 20
15.87595932842574
 10
186.4950258992081
 20
15.81293115552973
 10
186.47997614552
 20
15.74964011499795
 10
186.5449159457208
 20
15.76515072944275
 10
186.6116246399497
 20
15.75499387697818
 10
186.7241435470827
 20
15.75988800099373
 10
186.8390235448954
 20
15.7569120473279
 10
186.9519871999747
 20
15.76221664184996
 10
187.0176267597677
 20
15.75107306472095
 10
187.0816276691053
 20
15.76744532319863
 10
187.0703142889189
 20
15.71761689905279
 10
187.0775339871509
 20
15.67416715212124
 10
187.0703142611269
 20
15.63071745587444
 10
187.0816277175994
 20
15.58088895196874
 10
187.0176263598971
 20
15.59726166091359
 10
186.9519921240459
 20
15.58611271661585
 10
186.838997431733
 20
15.59144857206851
 10
186.7242456548644
 20
15.58834345663819
 10
186.611318368686
 20
15.59364894682585
 10
186.5455220903584
 20
15.58257300019591
 10
186.4816097975358
 20
15.59887597847614
 10
186.4936015165126
 20
15.54423524395739
 10
186.4862104613005
 20
15.4885429504784
 10
186.4892684841983
 20
15.39649689140569
 10
186.4893422785683
 20
15.30179109873102
 10
186.4860313578359
 20
15.20952782902267
 10
186.4939505989904
 20
15.15435768736141
 10
186.4815076611617
 20
15.10058169100138
 10
186.5389116551632
 20
15.11453768862784
 10
186.5994708140383
 20
15.10511457884229
 10
186.7048680855082
 20
15.10942885928708
 10
186.8204294070623
 20
15.10835504612034
 10
186.9359688877797
 20
15.10725965900997
 10
187.0414181130843
 20
15.11162525770636
 10
187.1018680471805
 20
15.10209426030673
 10
187.1592837739111
 20
15.11617289606383
 10
187.147777387671
 20
15.06707153265684
 10
187.153756678175
 20
15.02564658018651
 10
187.1520311050803
 20
14.97651677966697
 10
187.1521500122972
 20
14.94854428447609
 10
187.1521871691834
 20
14.93980288195951
 72
     4
 94
        3
 73
     0
 74
     0
 95
       62
 96
       58
 40
0.0
 40
0.0
 40
0.0
 40
0.0
 40
0.0598250028308769
 40
0.2024846486897616
 40
0.3727558389220746
 40
0.515415484793607
 40
0.5752404975785339
 40
0.9332326775486943
 40
1.290451762839436
 40
1.602077253145789
 40
1.699931634112049
 40
1.799359756424971
 40
2.270120149657023
 40
2.804661928461452
 40
2.882342287383165
 40
3.076543185719021
 40
3.329004354835488
 40
3.58146552456832
 40
3.775666424543606
 40
3.853346784558228
 40
3.899120679595002
 40
3.984129341792028
 40
4.029903236817406
 40
4.105797496059566
 40
4.29553314415254
 40
4.542189486611798
 40
4.788845828875765
 40
4.978581476410161
 40
5.054475735244409
 40
5.621734664339436
 40
6.130867242037435
 40
6.225249780948677
 40
6.3189130397273
 40
6.663579954558868
 40
7.047498900224696
 40
7.435230791575631
 40
7.498943906668043
 40
7.650875181210036
 40
7.832212509001547
 40
7.984143783696933
 40
8.04785689890306
 40
8.09155463273257
 40
8.172707566964238
 40
8.216405300767965
 40
8.289021782160821
 40
8.462184160757138
 40
8.668861838005304
 40
8.84202421526381
 40
8.914640695475006
 40
8.989881580861201
 40
9.15541152882709
 40
9.320941477743853
 40
9.396182352487095
 40
9.454709011143613
 40
9.583467660170605
 40
9.712226309012827
 40
9.770752957989309
 40
9.770752957989309
 40
9.770752957989309
 40
9.770752957989309
 10
187.1521871691834
 20
14.93980288195951
 10
187.1322348171624
 20
14.93980875568672
 10
187.0647037716466
 20
14.93982863806158
 10
186.9410612161789
 20
14.93949362520326
 10
186.7863180150057
 20
14.94107673750513
 10
186.669734948248
 20
14.93686078860496
 10
186.4550942634242
 20
14.95215205331628
 10
186.8518948407228
 20
14.59198721286191
 10
186.8945656069269
 20
14.37510503397169
 10
187.318916214661
 20
14.19325062511453
 10
187.1439821496074
 20
14.0898519656807
 10
187.0194523925084
 20
13.8783152321273
 10
186.7666277235944
 20
14.34806081001561
 10
186.4797602893625
 20
14.99511516984519
 10
186.490633592666
 20
14.68782672154693
 10
186.4882892777959
 20
14.52288616971777
 10
186.4861096126411
 20
14.28879670711691
 10
186.4980774396346
 20
14.04498072421781
 10
186.4687984740631
 20
13.89855796860981
 10
186.5114522625469
 20
13.75113490174534
 10
186.4239814005639
 20
13.76685797306217
 10
186.3768527606743
 20
13.76694303543452
 10
186.2898973207712
 20
13.75109425482906
 10
186.3313474021722
 20
13.8952777142276
 10
186.3029875004284
 20
14.03855052698454
 10
186.3145973775299
 20
14.27674947365266
 10
186.312417564827
 20
14.50517235240348
 10
186.3103111127993
 20
14.66705729375998
 10
186.3208035438321
 20
14.98153709333756
 10
186.0128963252894
 20
14.2922947087244
 10
185.7055258267455
 20
13.81476750243042
 10
185.5851367066275
 20
14.03741112637428
 10
185.4074607910723
 20
14.15011034955564
 10
185.8853326362894
 20
14.32548143465468
 10
185.9353959057207
 20
14.56091929252034
 10
186.3583799621716
 20
14.95322989344608
 10
186.1276754273541
 20
14.93655307029067
 10
186.004968585934
 20
14.94269518948772
 10
185.8325483095662
 20
14.93312822699574
 10
185.7213224694449
 20
14.95448818489667
 10
185.6025779627448
 20
14.92136265357421
 10
185.6183169706686
 20
15.00203900606886
 10
185.6178550933762
 20
15.04645414290856
 10
185.6027881889931
 20
15.12967081778534
 10
185.7372380935443
 20
15.09062651983887
 10
185.8619755545746
 20
15.11739729328424
 10
186.0628755237279
 20
15.10063949044055
 10
186.1921540949353
 20
15.12204225913006
 10
186.3328419928293
 20
15.08868778853423
 10
186.2980927452615
 20
15.22651875785069
 10
186.3222185666712
 20
15.34963257349482
 10
186.2967086182391
 20
15.47024055670333
 10
186.3333251146684
 20
15.60539865141491
 10
186.2211417027768
 20
15.58094545781887
 10
186.1280356457135
 20
15.59307749842019
 10
186.0191547579819
 20
15.58957630069991
 10
185.9569697640963
 20
15.58981755951599
 10
185.9375369557245
 20
15.58989295124141
 97
        3
330
AD
330
AB
330
AC
 75
     1
 76
     2
 52
45.0
 41
0.1
 77
     0
 78
     1
 53
45.0
 43
0.0
 44
0.0
 45
-0.282842712474619
 46
0.0
 79
     0
 98
        1
 10
0.0
 20
0.0
  0
HATCH
  5
CB
330
4B
100
AcDbEntity
  8
1
  6
Continuous
 62
     2
100
AcDbHatch
 10
0.0
 20
0.0
 30
0.0
210
0.0
220
0.0
230
1.0
  2
CUSTOM2
 70
     0
 71
     1
 91
        1
 92
        1
 93
        1
 72
     4
 94
        3
 73
     0
 74
     0
 95
      124
 96
      120
 40
0.0
 40
0.0
 40
0.0
 40
0.0
 40
0.0278187229624226
 40
0.1011590162383985
 40
0.2048470170589954
 40
0.3237088716558677
 40
0.4425707262521431
 40
0.5462587270698694
 40
0.6195990203311229
 40
0.6474177522577808
 40
0.6750060736114389
 40
0.7357003855241959
 40
0.7963946998053693
 40
0.823983024557102
 40
0.8540933811102114
 40
0.9373396629408794
 40
1.063094687343132
 40
1.22073126863797
 40
1.399622220914644
 40
1.589140358637629
 40
1.778658496423738
 40
1.957549448940377
 40
2.115186030872999
 40
2.240941056914303
 40
2.324187341760372
 40
2.354297700109222
 40
2.38188602467173
 40
2.442580338710321
 40
2.50327465275035
 40
2.530862977314457
 40
2.56098394927841
 40
2.640393784452756
 40
2.752662861758979
 40
2.881361560117967
 40
3.010060258455014
 40
3.122329335705218
 40
3.201739170817775
 40
3.231860142753164
 40
3.264298024030219
 40
3.352343701778085
 40
3.482095226868604
 40
3.63965065017286
 40
3.811108022565308
 40
3.98256539492781
 40
4.140120818152384
 40
4.269872343141091
 40
4.357918020802148
 40
4.390355902043775
 40
4.423256253992345
 40
4.508104530072923
 40
4.624121560636691
 40
4.750528176031476
 40
4.866545206601951
 40
4.951393482691965
 40
4.984293834645366
 40
5.011450833242278
 40
5.071196230152057
 40
5.130941627057127
 40
5.15809862564879
 40
5.190998977601452
 40
5.275847253689334
 40
5.391864284256825
 40
5.518270899648399
 40
5.634287930209466
 40
5.71913620628814
 40
5.752036558236056
 40
5.782130946283083
 40
5.86278390622926
 40
5.979550131775134
 40
6.117984316640544
 40
6.263641154588094
 40
6.402075339414307
 40
6.518841564908111
 40
6.599494524815696
 40
6.629588912848933
 40
6.65440302822651
 40
6.713575149488249
 40
6.784199939329567
 40
6.843372060493612
 40
6.868186175802858
 40
6.896246243201923
 40
6.939586233758259
 40
6.967846564564887
 40
7.043584251089825
 40
7.153234334451678
 40
7.283231855734426
 40
7.420011856035456
 40
7.550009376579803
 40
7.659659458835204
 40
7.735397144417194
 40
7.763657474851366
 40
7.796409728011023
 40
7.880876065096297
 40
7.996370852465683
 40
8.122208446418577
 40
8.237703224799171
 40
8.322169562010894
 40
8.354921815205879
 40
8.382078813307656
 40
8.441824209206956
 40
8.501569605240098
 40
8.528726603485675
 40
8.561478856695695
 40
8.645945193877745
 40
8.761439980865285
 40
8.887277580764428
 40
9.002772362000949
 40
9.08723869666114
 40
9.119990949235623
 40
9.15242883061332
 40
9.240474508638533
 40
9.37022603414948
 40
9.527781457984357
 40
9.69923883098134
 40
9.870696203978524
 40
10.02825162781394
 40
10.15800315332555
 40
10.2460488313511
 40
10.27848670378512
 40
10.27848670378512
 40
10.27848670378512
 40
10.27848670378512
 10
195.3821827564384
 20
14.01410517385762
 10
195.3914554737524
 20
14.01410498511279
 10
195.4251744536861
 20
14.01410430876719
 10
195.4934706812466
 20
14.01411807243309
 10
195.592014171158
 20
14.0140322421955
 10
195.7062066464812
 20
14.01441755612255
 10
195.8185894417071
 20
14.0130083589755
 10
195.9214376600119
 20
14.01719117422248
 10
195.9806839874849
 20
14.00823089251988
 10
196.0371265937032
 20
14.02164434526065
 10
196.0246255586954
 20
13.97087198613365
 10
196.0329549635703
 20
13.92589320939071
 10
196.024817084112
 20
13.88056752990493
 10
196.0370529214457
 20
13.8293193240847
 10
195.9747773490333
 20
13.8444795536528
 10
195.9060513026868
 20
13.83359750710747
 10
195.7782756749591
 20
13.83911304747976
 10
195.6262984511644
 20
13.83700851253703
 10
195.4502695972523
 20
13.83771002588477
 10
195.2644431934287
 20
13.83745237531295
 10
195.0786167437176
 20
13.83771005144607
 10
194.9025880142169
 20
13.83700841847735
 10
194.7506104154195
 20
13.83911332229993
 10
194.6228357664555
 20
13.83359680767644
 10
194.5541077836582
 20
13.84448077125946
 10
194.4918349042883
 20
13.82931786684213
 10
194.5040616290019
 20
13.88057510805176
 10
194.4960004462598
 20
13.9258247327243
 10
194.5040675809893
 20
13.97106357955328
 10
194.4918238487084
 20
14.02234176909963
 10
194.5525017120699
 20
14.0074957736314
 10
194.6162810745737
 20
14.0175644817074
 10
194.7277314353503
 20
14.01294644212005
 10
194.8497533443824
 20
14.01413328905474
 10
194.9719538137824
 20
14.01515863900639
 10
195.0829794287392
 20
14.01092475623406
 10
195.1476517413959
 20
14.02018584521744
 10
195.2091162810502
 20
14.00604423049686
 10
195.1930065601337
 20
14.07235527884521
 10
195.2042980327359
 20
14.1444779012198
 10
195.1987400822561
 20
14.2751376088829
 10
195.2008035061691
 20
14.42607323708244
 10
195.2000167127296
 20
14.59335873107889
 10
195.2007845215628
 20
14.76061110332305
 10
195.198803878563
 20
14.91163289269916
 10
195.2041306156621
 20
15.04206069552996
 10
195.1933101388425
 20
15.114654426059
 10
195.2090326429876
 20
15.18150469436799
 10
195.1432708132491
 20
15.16580512490825
 10
195.0756367830764
 20
15.17609243083997
 10
194.9615885293809
 20
15.17113786847122
 10
194.8451242674903
 20
15.17414128030476
 10
194.7306554121476
 20
15.16880303143389
 10
194.6640324657812
 20
15.18001268074826
 10
194.5990769715184
 20
15.16349132665012
 10
194.6107989758707
 20
15.2147372047706
 10
194.603283018912
 20
15.25950333784091
 10
194.6107989878834
 20
15.3042694489796
 10
194.5990769505346
 20
15.35551536129739
 10
194.6640326339199
 20
15.33899381766813
 10
194.730653333982
 20
15.35020571373943
 10
194.8451352858064
 20
15.34485436710663
 10
194.9615454436962
 20
15.34791188771116
 10
195.0757660174642
 20
15.34278499010707
 10
195.1430150439227
 20
15.35345733355597
 10
195.2083325941439
 20
15.33742082669076
 10
195.1941391448553
 20
15.39949685750052
 10
195.2036059462996
 20
15.46586761628762
 10
195.1990269004085
 20
15.58239972741966
 10
195.2007696555949
 20
15.71426685022376
 10
195.1997551495392
 20
15.85615960150274
 10
195.2017191344373
 20
15.98769050702581
 10
195.1964668553852
 20
16.10524577283005
 10
195.2073408763474
 20
16.16947789001586
 10
195.1919536641855
 20
16.2310880254505
 10
195.2407591537801
 20
16.21702407382113
 10
195.2853995564726
 20
16.21954742075317
 10
195.3538643946742
 20
16.21512797401712
 10
195.3959106169103
 20
16.20613025544037
 10
195.4487544758774
 20
16.21411714866512
 10
195.4207035002015
 20
16.17113917611682
 10
195.3749142248594
 20
16.1825955204383
 10
195.3869539073266
 20
16.12173520005135
 10
195.3796086070642
 20
16.0576929946877
 10
195.3831195826162
 20
15.94909368863908
 10
195.3819806760175
 20
15.82494319144751
 10
195.3819174780263
 20
15.69189719829876
 10
195.3832872966869
 20
15.56797381249554
 10
195.3791638801314
 20
15.45868337849337
 10
195.3877763103564
 20
15.39608580094168
 10
195.3746757454402
 20
15.33740133296364
 10
195.4393884328199
 20
15.35362113810901
 10
195.5060405953157
 20
15.34270260383311
 10
195.6198779541103
 20
15.34793740173754
 10
195.7357259122097
 20
15.34485547516912
 10
195.8496924263281
 20
15.35018259812511
 10
195.91603410181
 20
15.33904208166541
 10
195.9807188525481
 20
15.35546979593176
 10
195.9689820772723
 20
15.3042592521005
 10
195.9765168063041
 20
15.25950334121
 10
195.9689820992258
 20
15.21474739010028
 10
195.9807188140737
 20
15.16353690871041
 10
195.9160344075253
 20
15.17996427794221
 10
195.8496886430826
 20
15.16882784447271
 10
195.7357459487013
 20
15.17413115893121
 10
195.6197995623055
 20
15.17114764593545
 10
195.5062756882124
 20
15.17606892268394
 10
195.4389231318804
 20
15.1658508751352
 10
195.3734285122496
 20
15.18145996138817
 10
195.3891713619217
 20
15.11463851827412
 10
195.3783275998215
 20
15.0420705781588
 10
195.3836581629792
 20
14.91162247614418
 10
195.3817136151856
 20
14.76064558185228
 10
195.3823133683215
 20
14.59322243934161
 10
195.3821506559606
 20
14.42656176118374
 10
195.3821895488135
 20
14.2736014292164
 10
195.3821816413101
 20
14.1484917898571
 10
195.3821828382745
 20
14.06507890991425
 10
195.382182771621
 20
14.02491778281981
 10
195.3821827564384
 20
14.01410517385762
 97
        1
330
AE
 75
     1
 76
     2
 52
45.0
 41
0.1
 77
     0
 78
     1
 53
45.0
 43
0.0
 44
0.0
 45
-0.282842712474619
 46
0.0
 79
     0
 98
        1
 10
0.0
 20
0.0
  0
HATCH
  5
CC
330
4B
100
AcDbEntity
  8
1
  6
Continuous
 62
     2
100
AcDbHatch
 10
0.0
 20
0.0
 30
0.0
210
0.0
220
0.0
230
1.0
  2
CUSTOM3
 70
     0
 71
     1
 91
        1
 92
        1
 93
        1
 72
     4
 94
        3
 73
     0
 74
     0
 95
      131
 96
      127
 40
0.0
 40
0.0
 40
0.0
 40
0.0
 40
0.019557702982603
 40
0.0426490537461317
 40
0.2863607575856462
 40
0.5344948436189635
 40
0.7842238845573755
 40
0.873731578946785
 40
0.9803832810313335
 40
1.092842274517105
 40
1.199761146656871
 40
1.289788768186589
 40
1.351573580786278
 40
1.370727117561502
 40
1.416400936017895
 40
1.470914848356032
 40
1.516588666791787
 40
1.535742203552865
 40
1.63421659229325
 40
1.760283341175076
 40
1.897966686682173
 40
2.031216387368887
 40
2.049689751137883
 40
2.101115601646821
 40
2.179502577739942
 40
2.278859318314062
 40
2.393194462258723
 40
2.516516648383843
 40
2.642834515405976
 40
2.766156701983485
 40
2.880491846754603
 40
2.979848588358649
 40
3.05823556544383
 40
3.109661416668986
 40
3.128134780704163
 40
3.14678374238648
 40
3.191254343315369
 40
3.244332157316028
 40
3.28880275822596
 40
3.307451719895231
 40
3.327717853844843
 40
3.383747753580207
 40
3.468388665924601
 40
3.574487837698912
 40
3.694892515729021
 40
3.822449946852165
 40
3.95000737792056
 40
4.070412055800654
 40
4.176511227368215
 40
4.261152139501663
 40
4.317182039076858
 40
4.337448172964779
 40
4.620011002696391
 40
4.885096638397585
 40
4.945373043518454
 40
5.014107710488791
 40
5.070481727652141
 40
5.319246955636606
 40
5.584812164506055
 40
5.859000912056894
 40
6.133746937542057
 40
6.401732212968856
 40
6.420736683995447
 40
6.472845717451069
 40
6.550702743894025
 40
6.646951193874234
 40
6.754234497930501
 40
6.865196086587279
 40
6.972479390357709
 40
7.068727839771871
 40
7.146584865450851
 40
7.198693898189081
 40
7.217698368905221
 40
7.234950401630702
 40
7.276089864269744
 40
7.325191803515853
 40
7.366331266090238
 40
7.38358329876959
 40
7.402779163491967
 40
7.453386443254399
 40
7.5249346664454
 40
7.60695336140574
 40
7.688972056428891
 40
7.760520279784142
 40
7.811127559734384
 40
7.830323424546005
 40
7.847844055299635
 40
7.894799345666669
 40
7.96277939274435
 40
8.04337429356039
 40
8.128174145149291
 40
8.208769044817082
 40
8.276749090376779
 40
8.323704379669337
 40
8.341225010056068
 40
8.358497614800216
 40
8.401679126686393
 40
8.457815092185422
 40
8.513951057727827
 40
8.557132569707726
 40
8.574405174504797
 40
8.602340668616128
 40
8.64345566053959
 40
8.663225271966258
 40
8.715345156563892
 40
8.789031889628216
 40
8.87350204551993
 40
8.95797219432354
 40
9.03165892556742
 40
9.083778811234097
 40
9.103548423002557
 40
9.119550083123123
 40
9.160817522379396
 40
9.21724442910979
 40
9.278724491644276
 40
9.335151398295032
 40
9.376418837357328
 40
9.392420497300115
 40
9.401196302734299
 40
9.417494229383705
 40
9.426270027748968
 40
9.440875075476997
 40
9.47570249699817
 40
9.517270709865326
 40
9.552098131993487
 40
9.566703169883692
 40
9.566703169883692
 40
9.566703169883692
 40
9.566703169883692
 10
194.6170254148479
 20
15.67015871511029
 10
194.6134345093371
 20
15.66453690702162
 10
194.6056039123625
 20
15.65227754419115
 10
194.5129968974547
 20
15.61601916040978
 10
194.4887622233248
 20
15.4014844421271
 10
194.3858709845937
 20
15.2219728450971
 10
194.1220492364304
 20
15.03615573798147
 10
194.2845471569179
 20
14.95959336566085
 10
194.3607225760837
 20
14.89856693195444
 10
194.4492171072758
 20
14.83515804544764
 10
194.5389930233109
 20
14.77525634219562
 10
194.5883817636046
 20
14.72102154849209
 10
194.674570815738
 20
14.69286240541831
 10
194.6411260674228
 20
14.65713309652809
 10
194.621467116631
 20
14.62550387991902
 10
194.5919888217881
 20
14.5847587279607
 10
194.5688989446032
 20
14.55504663489641
 10
194.5380205968356
 20
14.50211422668492
 10
194.4729193365739
 20
14.62740334938896
 10
194.3796000122415
 20
14.68213900233937
 10
194.2950636285138
 20
14.73916423939338
 10
194.1722498125744
 20
14.89675287427522
 10
194.1764450847302
 20
14.82035806766838
 10
194.1751478652678
 20
14.77361280161297
 10
194.1758126448078
 20
14.69584785812603
 10
194.1755549986958
 20
14.59902068324423
 10
194.1756431239922
 20
14.4865027907881
 10
194.1756077302282
 20
14.36524085945699
 10
194.175651175828
 20
14.2408689785896
 10
194.1755199942406
 20
14.11967683631335
 10
194.1759477562047
 20
14.00691148919741
 10
194.1746678202312
 20
13.91082913768742
 10
194.1779759851042
 20
13.83113826468697
 10
194.1715197740088
 20
13.78815175788782
 10
194.1806208705556
 20
13.74955432372039
 10
194.1447910339936
 20
13.75810887724068
 10
194.1115223815252
 20
13.75342519985443
 10
194.0604562576041
 20
13.75351298759782
 10
194.0269723972813
 20
13.75794430283818
 10
193.9907585408754
 20
13.74960793842506
 10
194.0009782568665
 20
13.79145277179281
 10
193.9936487887773
 20
13.83778560820171
 10
193.9973633136103
 20
13.92374831106012
 10
193.9959480554896
 20
14.02605142704847
 10
193.9964105554638
 20
14.1445322393151
 10
193.9962773686231
 20
14.26957683153355
 10
193.9963015910045
 20
14.39475828107049
 10
193.9963354925551
 20
14.51286645379058
 10
193.9962060293132
 20
14.61628748709516
 10
193.996550754908
 20
14.69932036153667
 10
193.995869827869
 20
14.75143368521244
 10
193.9994586600621
 20
14.87912907821359
 10
193.7826171386436
 20
14.58048716819627
 10
193.6021354921953
 20
14.35263981511516
 10
193.5490322295611
 20
14.49373443289814
 10
193.5200429133149
 20
14.54325767560942
 10
193.4196648062823
 20
14.64641779790116
 10
193.7405127723262
 20
14.72695035023777
 10
193.8689897005429
 20
14.91066283036436
 10
194.0906454325359
 20
15.11931995771763
 10
194.1770224894068
 20
15.29339211228346
 10
194.4549394229073
 20
15.56967051342519
 10
194.3346247839283
 20
15.56534559551119
 10
194.2863197351348
 20
15.5661485620256
 10
194.2102377454903
 20
15.5657458214659
 10
194.116701000975
 20
15.56590275611615
 10
194.0117594788556
 20
15.5658250257623
 10
193.9033887738717
 20
15.5659546437856
 10
193.7981454235897
 20
15.56554393490698
 10
193.7056237819411
 20
15.56682073671597
 10
193.6268130800708
 20
15.56340766534856
 10
193.5839674565378
 20
15.57023350036325
 10
193.5449499586516
 20
15.5606506420113
 10
193.5526365271863
 20
15.59420779565548
 10
193.5485464404313
 20
15.62523550322239
 10
193.5485531368814
 20
15.67236529270906
 10
193.5526239724911
 20
15.70340941646784
 10
193.5449495574583
 20
15.73701861635907
 10
193.5834819405494
 20
15.72748410420877
 10
193.624122801448
 20
15.73397435498077
 10
193.6951471850463
 20
15.7310015065026
 10
193.7729318149633
 20
15.73174761399163
 10
193.8507292246474
 20
15.73247814044531
 10
193.9217232089907
 20
15.72954235514166
 10
193.962427979182
 20
15.73595468772958
 10
194.0009853489909
 20
15.7265052417601
 10
193.9927342754928
 20
15.7626469215879
 10
193.9982346669358
 20
15.80129837613232
 10
193.9955754206163
 20
15.86913528561843
 10
193.9965815471533
 20
15.94591641538744
 10
193.9960178018319
 20
16.02849393582759
 10
193.9970714526592
 20
16.1051732922988
 10
193.994267586313
 20
16.17331990776701
 10
194.0000702721303
 20
16.21132399809348
 10
193.9915654551159
 20
16.24758448077647
 10
194.0255610233124
 20
16.23755723771853
 10
194.0594575683099
 20
16.24073266813706
 10
194.1126669060345
 20
16.2350896564061
 10
194.1660768574482
 20
16.23434774436426
 10
194.1995914649489
 20
16.22819223482979
 10
194.2388086183038
 20
16.23346029773595
 10
194.2120263698492
 20
16.1925338079349
 10
194.1708111001724
 20
16.20371204538105
 10
194.1782641540874
 20
16.15867056192122
 10
194.1742227952186
 20
16.11412278028143
 10
194.176171404964
 20
16.04223572621703
 10
194.175236484976
 20
15.96168630588772
 10
194.176510719003
 20
15.88173995404998
 10
194.1732043793865
 20
15.80841837083187
 10
194.1802106179962
 20
15.76688643002573
 10
194.1701440380126
 20
15.72752418568118
 10
194.2029814803923
 20
15.73468063430987
 10
194.2364577296481
 20
15.73027243137949
 10
194.2915053476019
 20
15.73217943347903
 10
194.3489502595316
 20
15.73185366407294
 10
194.4023026248311
 20
15.73106308733088
 10
194.4398540896639
 20
15.73313959118079
 10
194.4623172523238
 20
15.73022338167116
 10
194.4751678073731
 20
15.73572552644058
 10
194.4858255685889
 20
15.73801118197792
 10
194.4986635650143
 20
15.74494972588047
 10
194.5145991033071
 20
15.7285304631367
 10
194.5410623920891
 20
15.71709122319446
 10
194.5726805253757
 20
15.6964468783519
 10
194.5987255892151
 20
15.68116869628295
 10
194.6128517723973
 20
15.67266976323185
 10
194.6170254148479
 20
15.67015871511029
 97
        1
330
AF
 75
     1
 76
     2
 52
45.0
 41
0.1
 77
     0
 78
     1
 53
45.0
 43
0.0
 44
0.0
 45
-0.282842712474619
 46
0.0
 79
     0
 98
        1
 10
0.0
 20
0.0
  0
HATCH
  5
CD
330
4B
100
AcDbEntity
  8
1
  6
Continuous
 62
     2
100
AcDbHatch
 10
0.0
 20
0.0
 30
0.0
210
0.0
220
0.0
230
1.0
  2
CUSTOM4
 70
     0
 71
     1
 91
        1
 92
        1
 93
        1
 72
     4
 94
        3
 73
     0
 74
     0
 95
       91
 96
       87
 40
0.0
 40
0.0
 40
0.0
 40
0.0
 40
0.0267532254356826
 40
0.0856103386464511
 40
0.1444674521997296
 40
0.1712206856619314
 40
0.2039416005643336
 40
0.2955601971653283
 40
0.4362601844618001
 40
0.6162252844508334
 40
0.8256392189705781
 40
1.054685709844576
 40
1.29354847889364
 40
1.53241124793844
 40
1.761457738799705
 40
1.970871673298673
 40
2.150836773256869
 40
2.29153676049573
 40
2.383155356836865
 40
2.415876284101485
 40
2.442629517488141
 40
2.501486630949299
 40
2.560343744424475
 40
2.58709697782676
 40
2.617068194441187
 40
2.699247336756328
 40
2.822032643466669
 40
2.973822353258199
 40
3.143014704823641
 40
3.31800793688022
 40
3.487200288187082
 40
3.638989997548562
 40
3.761775303795118
 40
3.843954445753424
 40
3.87392566223012
 40
3.890812773500866
 40
3.907699884772056
 40
3.937960767857669
 40
3.980983618142731
 40
4.199085915228906
 40
4.43944433923771
 40
4.677588241261327
 40
5.050698317838213
 40
5.448212454763599
 40
5.855291218045124
 40
6.138575438885807
 40
6.417434507584627
 40
6.444551104394312
 40
6.504207617363614
 40
6.56386413031494
 40
6.590980727104534
 40
6.848609460381949
 40
7.10961199066893
 40
7.352910904446585
 40
7.5578302207059
 40
7.587518925913822
 40
7.652834077376253
 40
7.718149228846202
 40
7.747837934062511
 40
7.854880190301492
 40
7.976511257404035
 40
8.36948789659278
 40
8.757514959224102
 40
9.126072419331564
 40
9.460639380392683
 40
9.746695593036508
 40
9.777569943119245
 40
9.807050320932305
 40
9.830377336129434
 40
9.8860032954365
 40
9.952395569430404
 40
10.00802152870675
 40
10.03134854388267
 40
10.21356951009641
 40
10.42203479292932
 40
10.66154556731122
 40
10.91693789564361
 40
11.15832906556621
 40
11.18982674596679
 40
11.27286608520466
 40
11.39026653033414
 40
11.5248475284095
 40
11.65942852648515
 40
11.77682897161556
 40
11.85986831085753
 40
11.89136598230501
 40
11.89136598230501
 40
11.89136598230501
 40
11.89136598230501
 10
190.7027885008195
 20
14.70699600701769
 10
190.7028237765287
 20
14.71587847311982
 10
190.7029366710794
 20
14.74430237047345
 10
190.7012984568489
 20
14.79409639169804
 10
190.706975029291
 20
14.83657564478157
 10
190.6956928731705
 20
14.88730154856852
 10
190.7632296979031
 20
14.87012900740114
 10
190.83880292107
 20
14.88290227166002
 10
190.9828357056
 20
14.87629729457386
 10
191.1569419185426
 20
14.87888462206471
 10
191.3639599611002
 20
14.87800591955557
 10
191.5894688172376
 20
14.87828207920032
 10
191.8251162293406
 20
14.87818339658668
 10
192.0607640531347
 20
14.87828184412772
 10
192.2862717580626
 20
14.87800678190793
 10
192.4932934632804
 20
14.8788818627074
 10
192.6673888915288
 20
14.87630522678452
 10
192.8114492071985
 20
14.88288290449218
 10
192.8869691915293
 20
14.87016243405609
 10
192.9545776037029
 20
14.88726400191691
 10
192.9430840140676
 20
14.83674785802943
 10
192.9505104581733
 20
14.79253252226502
 10
192.9428838927986
 20
14.74867966503609
 10
192.9546489459425
 20
14.69878374479325
 10
192.8930788491983
 20
14.71393227712508
 10
192.8256791738671
 20
14.7031066535067
 10
192.7013004056221
 20
14.70852031626234
 10
192.555442823657
 20
14.70649205390782
 10
192.3893576440086
 20
14.70715777578384
 10
192.2188412621724
 20
14.70689643521239
 10
192.0519790855388
 20
14.70721553391091
 10
191.9087346827105
 20
14.7063530259076
 10
191.7773313869832
 20
14.70863300482983
 10
191.7239859134656
 20
14.70407704374202
 10
191.6485188456911
 20
14.70999914992871
 10
191.6769075779232
 20
14.70094169343355
 10
191.7033652409542
 20
14.6972591226894
 10
191.6633522907702
 20
14.66654271968273
 10
191.5713663691868
 20
14.67667591174643
 10
191.5439396207069
 20
14.43032502247783
 10
191.4478793967234
 20
14.27499558764375
 10
191.1917277964473
 20
13.94525417931568
 10
191.7627537732762
 20
14.0843002221045
 10
192.0173656320517
 20
14.08291779973365
 10
192.6279647048616
 20
13.99790569242084
 10
192.3340698578083
 20
14.29685417558201
 10
192.0133304286516
 20
14.44330856901777
 10
192.1313543360434
 20
14.50025540818286
 10
192.172471646626
 20
14.52420099873347
 10
192.215681239441
 20
14.5459975881123
 10
192.3174574094452
 20
14.60928721253905
 10
192.4328867625247
 20
14.35147151408778
 10
192.6329591642278
 20
14.21616041113681
 10
192.7269077387227
 20
14.03792795138883
 10
192.9558829746393
 20
13.87997821027051
 10
192.8596031846708
 20
13.82915972576301
 10
192.8167959763779
 20
13.79881292523053
 10
192.7718243528779
 20
13.77466130281456
 10
192.7121720925213
 20
13.72552146747562
 10
192.6789731061325
 20
13.85997475673608
 10
192.5582013350796
 20
14.01594265286578
 10
192.1970976005979
 20
13.88569928059555
 10
191.8385061955541
 20
13.9022469440948
 10
191.4570920450079
 20
13.89331229351867
 10
191.1703455282893
 20
13.82882671672398
 10
190.859205559971
 20
13.94230668192846
 10
190.8268737818788
 20
13.83122259927767
 10
190.7896178253317
 20
13.81196313850018
 10
190.7865737632754
 20
13.858747840873
 10
190.7679892860607
 20
13.89806853919137
 10
190.7512436616778
 20
13.95765983478234
 10
190.7383730915753
 20
14.00201969871284
 10
190.7042327806429
 20
14.09106331120201
 10
190.9482714457754
 20
14.02181042943768
 10
191.1441394486672
 20
14.00030369057741
 10
191.2395426381277
 20
14.28226484478463
 10
191.2945135769596
 20
14.44363045421124
 10
191.5159619357157
 20
14.71391177589737
 10
191.3849239381217
 20
14.70548446853731
 10
191.3110026555855
 20
14.70779008496967
 10
191.1977459876244
 20
14.70671378321654
 10
191.0694251807484
 20
14.70707639076507
 10
190.9404252030415
 20
14.70697724466082
 10
190.8287840946291
 20
14.70699932712569
 10
190.7514663970024
 20
14.70699579189666
 10
190.713287653201
 20
14.70699595845078
 10
190.7027885008195
 20
14.70699600701769
 97
        1
330
B0
 75
     1
 76
     2
 52
45.0
 41
0.1
 77
     0
 78
     1
 53
45.0
 43
0.0
 44
0.0
 45
-0.282842712474619
 46
0.0
 79
     0
 98
        1
 10
0.0
 20
0.0
  0
HATCH
  5
CE
330
4B
100
AcDbEntity
  8
1
  6
Continuous
 62
     2
100
AcDbHatch
 10
0.0
 20
0.0
 30
0.0
210
0.0
220
0.0
230
1.0
  2
CUSTOM5
 70
     0
 71
     1
 91
        1
 92
        1
 93
        1
 72
     4
 94
        3
 73
     0
 74
     0
 95
       35
 96
       31
 40
0.0
 40
0.0
 40
0.0
 40
0.0
 40
0.0335231036620122
 40
0.071321857171199
 40
0.4278866681487474
 40
0.8116865841964391
 40
1.198190238000088
 40
1.561379546812646
 40
1.659983174621897
 40
1.75931557380707
 40
2.132719617231007
 40
2.525233363588769
 40
2.910815397779674
 40
3.265244364303281
 40
3.592606723581967
 40
3.964386154603922
 40
4.359942131737769
 40
4.758154118639318
 40
4.843846538699923
 40
4.936650065543246
 40
5.25661660253732
 40
5.581707404416045
 40
5.899719158308177
 40
6.198363494280785
 40
6.46630104661588
 40
6.493895311537145
 40
6.559697020196938
 40
6.638234543442429
 40
6.704036252154155
 40
6.731630508422933
 40
6.731630508422933
 40
6.731630508422933
 40
6.731630508422933
 10
191.9736010568668
 20
16.23463843719131
 10
191.9676006097788
 20
16.2248069054232
 10
191.9548344099156
 20
16.20388988579794
 10
191.7949362006553
 20
16.1712712653271
 10
192.2322025842337
 20
15.88206680336695
 10
192.4345394828261
 20
15.68041138358442
 10
192.6819564267973
 20
15.43749387603277
 10
193.1831513624604
 20
15.3604766275779
 10
193.012556219897
 20
15.21876939174653
 10
192.9383299463203
 20
15.01710366209101
 10
192.6131432248188
 20
15.36956287174722
 10
192.3277741670665
 20
15.53175212559563
 10
192.0337604077658
 20
15.73687130053048
 10
191.8084452691134
 20
16.2182748859546
 10
191.5993085055522
 20
15.75343046609225
 10
191.3207873674835
 20
15.54350952252915
 10
191.037138317721
 20
15.37424456359985
 10
190.7078639527832
 20
15.00142360907945
 10
190.6277012318224
 20
15.19708014459003
 10
190.4759724909745
 20
15.32491104190603
 10
190.9083395826794
 20
15.40454031765938
 10
191.0962565329765
 20
15.60026634915477
 10
191.3468477420503
 20
15.81632996916755
 10
191.5714350470162
 20
15.9819099230006
 10
191.6259775409712
 20
16.26133964636833
 10
191.7494661029012
 20
16.24737950408083
 10
191.8060273344521
 20
16.2452126886765
 10
191.8761870984944
 20
16.24046859881359
 10
191.9333414022105
 20
16.2370942935054
 10
191.9644190320837
 20
16.23519854711116
 10
191.9736010568668
 20
16.23463843719131
 97
        1
330
B1
 75
     1
 76
     2
 52
45.0
 41
0.1
 77
     0
 78
     1
 53
45.0
 43
0.0
 44
0.0
 45
-0.282842712474619
 46
0.0
 79
     0
 98
        1
 10
0.0
 20
0.0
  0
HATCH
  5
CF
330
4B
100
AcDbEntity
  8
1
  6
Continuous
 62
     2
100
AcDbHatch
 10
0.0
 20
0.0
 30
0.0
210
0.0
220
0.0
230
1.0
  2
CUSTOM6
 70
     0
 71
     1
 91
        1
 92
        1
 93
        1
 72
     4
 94
        3
 73
     0
 74
     0
 95
       15
 96
       11
 40
0.0
 40
0.0
 40
0.0
 40
0.0
 40
0.2785535985096468
 40
0.5215624748199095
 40
0.6076917376040633
 40
0.6938210001741257
 40
0.9405019146455259
 40
1.221691403489039
 40
1.300471877080919
 40
1.379252341684645
 40
1.379252341684645
 40
1.379252341684645
 40
1.379252341684645
 10
189.5681493630999
 20
16.22930267330381
 10
189.6296017794178
 20
16.17691646592716
 10
189.7446649974113
 20
16.07882876798224
 10
190.0397348497244
 20
15.92889785897219
 10
189.9025147631857
 20
15.84343227515012
 10
189.8041227843778
 20
15.71085785201555
 10
189.7130033590649
 20
16.01616985781412
 10
189.3636839480657
 20
16.07967869465372
 10
189.511925837657
 20
16.17896509880877
 10
189.5494081874237
 20
16.21252348402382
 10
189.5681493630999
 20
16.22930267330381
 97
        1
330
B2
 75
     1
 76
     2
 52
45.0
 41
0.1
 77
     0
 78
     1
 53
45.0
 43
0.0
 44
0.0
 45
-0.282842712474619
 46
0.0
 79
     0
 98
        1
 10
0.0
 20
0.0
  0
HATCH
  5
D0
330
4B
100
AcDbEntity
  8
1
  6
Continuous
 62
     2
100
AcDbHatch
 10
0.0
 20
0.0
 30
0.0
210
0.0
220
0.0
230
1.0
  2
CUSTOM7
 70
     0
 71
     1
 91
        1
 92
        1
 93
        1
 72
     4
 94
        3
 73
     0
 74
     0
 95
       75
 96
       71
 40
0.0
 40
0.0
 40
0.0
 40
0.0
 40
0.0342546099129655
 40
0.124562241443224
 40
0.2522385480897252
 40
0.3985991922940271
 40
0.5449598364980288
 40
0.6726361431438177
 40
0.7629437746736178
 40
0.7971983935297173
 40
1.101723623449564
 40
1.40859124403657
 40
1.433332471690271
 40
1.487763172450057
 40
1.542193873081879
 40
1.566935100592421
 40
1.923523931821681
 40
2.271755704953508
 40
2.590579755100748
 40
2.858943305581036
 40
2.889120339309014
 40
2.918305855190959
 40
2.941366645531075
 40
2.996357760972951
 40
3.061992318140478
 40
3.116983433626658
 40
3.140044223997331
 40
3.411273122936286
 40
3.732441619740837
 40
3.761068217532535
 40
3.837787499630091
 40
3.94885869912573
 40
4.080541049104099
 40
4.219093782625476
 40
4.350776132722023
 40
4.461847332405352
 40
4.538566614678084
 40
4.567193212544328
 40
4.594907573998587
 40
4.666381453557126
 40
4.764111044010708
 40
4.870592538125511
 40
4.968322128641933
 40
5.03979600828659
 40
5.067510369784049
 40
5.094263603185262
 40
5.153120716667894
 40
5.211977830150339
 40
5.238731063551342
 40
5.27229053513858
 40
5.363380529444441
 40
5.497618415781119
 40
5.660621563453361
 40
5.838007341749062
 40
6.015393119910414
 40
6.178396267038039
 40
6.312634151841991
 40
6.40372414305898
 40
6.437283612672076
 40
6.46403684626069
 40
6.522893960004303
 40
6.581751071483566
 40
6.608504301590511
 40
6.637253941280658
 40
6.71139774890251
 40
6.812778057283122
 40
6.923237199248899
 40
7.024617507623542
 40
7.098761315207195
 40
7.127510946007146
 40
7.127510946007146
 40
7.127510946007146
 40
7.127510946007146
 10
188.4418622390564
 20
14.95849128473262
 10
188.4418622819707
 20
14.94707313408718
 10
188.4418624481129
 20
14.90555257842628
 10
188.4418593081787
 20
14.82146922003771
 10
188.44187882798
 20
14.70004497322329
 10
188.4417912187737
 20
14.5598049404745
 10
188.442111623523
 20
14.42006556794579
 10
188.4411605909741
 20
14.29745038894933
 10
188.4431978595967
 20
14.21587074438048
 10
188.4349433178745
 20
14.06271267077705
 10
188.74307979409
 20
14.22560236054714
 10
189.0350645173738
 20
14.39482938688005
 10
189.0408354448707
 20
14.2597323578191
 10
189.0455471719891
 20
14.21617221160444
 10
189.0482535411918
 20
14.17211249350546
 10
189.0672545672959
 20
14.02272590363136
 10
188.6583942247302
 20
14.08681172241261
 10
188.3793710348833
 20
13.97296341411018
 10
188.1018081587166
 20
13.87364095811145
 10
187.8099837184401
 20
13.91630687596355
 10
187.7869144678658
 20
13.81321679744545
 10
187.7537474383333
 20
13.78691091244476
 10
187.7480653962738
 20
13.83455309036308
 10
187.7284214559045
 20
13.87180336115073
 10
187.7095089485624
 20
13.93007387847566
 10
187.6942849867706
 20
13.97385201007804
 10
187.6477246372937
 20
14.08759421046312
 10
187.9890897312449
 20
14.05576301120051
 10
188.2679649367386
 20
14.02161435106484
 10
188.2617753034906
 20
14.16913976479653
 10
188.2630935452772
 20
14.24013150908833
 10
188.2624831689947
 20
14.34719767958661
 10
188.2625871570723
 20
14.47398529785998
 10
188.2629987964055
 20
14.60849243496049
 10
188.2613907841967
 20
14.73395549951183
 10
188.2659902567925
 20
14.84505246719116
 10
188.2564186502209
 20
14.90761886800687
 10
188.270400178369
 20
14.96595388294999
 10
188.2147384386703
 20
14.95289710582236
 10
188.1575655197821
 20
14.96136307749497
 10
188.0616048925646
 20
14.95729976080634
 10
187.9633767522821
 20
14.95970889852473
 10
187.8672582457559
 20
14.95551600613385
 10
187.8104648525812
 20
14.96429346441161
 10
187.7550356873384
 20
14.95094936850119
 10
187.7670679427917
 20
15.00036910959254
 10
187.7592003173938
 20
15.04393988030393
 10
187.7666295563828
 20
15.08830469118522
 10
187.7551930564144
 20
15.13902297763988
 10
187.8232102370132
 20
15.1216246075774
 10
187.8968496879747
 20
15.13417450237186
 10
188.0325064058211
 20
15.12799677011094
 10
188.1884909024525
 20
15.13029203093081
 10
188.3615926358143
 20
15.12940968262527
 10
188.5346942964181
 20
15.13029207142405
 10
188.6906789811216
 20
15.12799662955547
 10
188.8263351889797
 20
15.13417486262428
 10
188.8999756705652
 20
15.12162394218332
 10
188.9679914174724
 20
15.1390237301214
 10
188.9565590885922
 20
15.08830130414552
 10
188.9639539458298
 20
15.04397060811106
 10
188.956203991227
 20
15.00028307550193
 10
188.9681203741877
 20
14.95063590098475
 10
188.9108170223616
 20
14.96461411338423
 10
188.8520145789772
 20
14.95539755673252
 10
188.7525293633199
 20
14.95952268164927
 10
188.649428009835
 20
14.95822760025886
 10
188.5537846354573
 20
14.95854077077638
 10
188.4857467971617
 20
14.95848776697143
 10
188.4514462213443
 20
14.95849051871654
 10
188.4418622390564
 20
14.95849128473262
 97
        1
330
B3
 75
     1
 76
     2
 52
45.0
 41
0.1
 77
     0
 78
     1
 53
45.0
 43
0.0
 44
0.0
 45
-0.282842712474619
 46
0.0
 79
     0
 98
        1
 10
0.0
 20
0.0
  0
HATCH
  5
D1
330
4B
100
AcDbEntity
  8
1
  6
Continuous
 62
     2
100
AcDbHatch
 10
0.0
 20
0.0
 30
0.0
210
0.0
220
0.0
230
1.0
  2
CUSTOM8
 70
     0
 71
     1
 91
        1
 92
        1
 93
        1
 72
     4
 94
        3
 73
     0
 74
     0
 95
       91
 96
       87
 40
0.0
 40
0.0
 40
0.0
 40
0.0
 40
0.0345987051695718
 40
0.1258134969461369
 40
0.2547723404888987
 40
0.4026032099154125
 40
0.5504340793416704
 40
0.679392922883608
 40
0.7706077146571035
 40
0.8052064287780925
 40
1.124852390615282
 40
1.42740223630888
 40
1.706356627453533
 40
1.955541417875219
 40
2.169485938566374
 40
2.344350786664821
 40
2.480568411561976
 40
2.590440557428999
 40
2.649189927151153
 40
2.74932064330639
 40
2.912632739880092
 40
3.1477456560003
 40
3.244827496385087
 40
3.338490056946675
 40
3.583815413207091
 40
3.761423943238426
 40
3.886956104362582
 40
3.98585545188674
 40
4.091766255337541
 40
4.250186473811762
 40
4.422734315084428
 40
4.628285684838538
 40
4.872093227758377
 40
5.152549652145483
 40
5.464967135837459
 40
5.803201477852369
 40
6.160362988813836
 40
6.193449448275891
 40
6.284170385501546
 40
6.419718138764416
 40
6.587285046385666
 40
6.77406344672358
 40
6.967245678113563
 40
7.154024078817549
 40
7.321590987025934
 40
7.457138740890293
 40
7.547859678556029
 40
7.580946138182589
 40
7.608533084714643
 40
7.669224367077621
 40
7.729915649429842
 40
7.757502595949895
 40
7.790278062553349
 40
7.880146277430847
 40
8.014419963180309
 40
8.18041184239781
 40
8.365434637679279
 40
8.55680107162258
 40
8.741823866830693
 40
8.907815745916203
 40
9.042089431507357
 40
9.131957646249482
 40
9.164733112797059
 40
9.415425063139965
 40
9.667986180958401
 40
9.69416980746254
 40
9.75660768604747
 40
9.831130315322277
 40
9.893568193899684
 40
9.9197518203985
 40
9.950967964690342
 40
9.996421631210433
 40
10.22087981037437
 40
10.44341866197525
 40
10.47847970788837
 40
10.57091337438738
 40
10.70159545461212
 40
10.85140174170343
 40
11.0012080288046
 40
11.13189010907366
 40
11.22432377582993
 40
11.2593848093894
 40
11.28697175596128
 40
11.34766303835903
 40
11.40835432042053
 40
11.43594125892088
 40
11.43594125892088
 40
11.43594125892088
 40
11.43594125892088
 10
190.0818114333289
 20
15.55242795125079
 10
190.0702785844941
 20
15.55242790287917
 10
190.0283409444998
 20
15.55242773704166
 10
189.9434129719026
 20
15.55243125800911
 10
189.8207688553128
 20
15.5524092643588
 10
189.6791206916993
 20
15.55250801177056
 10
189.537975369849
 20
15.55214686232423
 10
189.4141351317904
 20
15.55321883609091
 10
189.3317217825382
 20
15.5509224909127
 10
189.1727791229692
 20
15.56048569373422
 10
189.3503402353376
 20
15.19785394311372
 10
189.3379739205452
 20
14.95243127723115
 10
189.4064519473866
 20
14.66862501324836
 10
189.4693024320969
 20
14.43250999939034
 10
189.5452253431729
 20
14.23326740396129
 10
189.6303189577016
 20
14.07745347451371
 10
189.7244607592935
 20
13.9765785778139
 10
189.8282648207728
 20
13.92465852638961
 10
189.9125872030774
 20
13.97606484379616
 10
189.9351322179452
 20
14.09144544037511
 10
189.9745730975371
 20
14.21885149702378
 10
189.9202919734944
 20
14.53622328086755
 10
190.0451218072473
 20
14.38982180140903
 10
190.2019291513604
 20
14.35795300331174
 10
190.0947720007055
 20
14.12421357767631
 10
190.0808711209868
 20
13.9597277658366
 10
190.0234709467225
 20
13.83130869122488
 10
189.9335020145009
 20
13.76018802352833
 10
189.8095274657878
 20
13.74432324142258
 10
189.6634273196861
 20
13.77993797554177
 10
189.5243894320284
 20
13.90000570500281
 10
189.4102003962144
 20
14.07435682550324
 10
189.3146141301485
 20
14.29946603111244
 10
189.2318652572626
 20
14.56388246006446
 10
189.1807179256411
 20
14.88187933098546
 10
189.0770189207338
 20
15.15543728488914
 10
189.2042841208521
 20
15.56005818612869
 10
189.0357890623019
 20
15.5511236784968
 10
188.9511995787077
 20
15.55315961418365
 10
188.8189876387627
 20
15.55213937388408
 10
188.6560505094104
 20
15.55253230318431
 10
188.4733759170532
 20
15.5523569631337
 10
188.2847057373383
 20
15.5526010530747
 10
188.1014469020189
 20
15.55185657906239
 10
187.9404746832718
 20
15.55416360522427
 10
187.8029808335276
 20
15.54799804883665
 10
187.728959037231
 20
15.56032838458212
 10
187.6613215186857
 20
15.54329323723558
 10
187.6732373719269
 20
15.59524438447529
 10
187.6655677285694
 20
15.64071424966531
 10
187.6732592225115
 20
15.68614453703707
 10
187.6613141797762
 20
15.73802395984572
 10
187.7283588305867
 20
15.72119143490266
 10
187.8017375665676
 20
15.73335409092673
 10
187.9379128305272
 20
15.7272723107496
 10
188.0973811801512
 20
15.7295483431506
 10
188.2789173085836
 20
15.72881233998964
 10
188.4658034862179
 20
15.72905954196136
 10
188.6468012316836
 20
15.72886400799256
 10
188.8080802578878
 20
15.72932234714841
 10
188.9393882124887
 20
15.72812673751208
 10
189.0225051322596
 20
15.73051347319744
 10
189.1556236547815
 20
15.72230605725467
 10
189.0645893502658
 20
15.97752868952655
 10
188.978963307442
 20
16.24164358328243
 10
189.0990589003456
 20
16.22904442969164
 10
189.1514264948544
 20
16.22694235763075
 10
189.2214497569716
 20
16.22535399889657
 10
189.2671922337817
 20
16.21602567538114
 10
189.3220812646933
 20
16.22545966915428
 10
189.2963574785681
 20
16.17733028655173
 10
189.1825397571452
 20
16.18266829744184
 10
189.3159346621136
 20
15.95449174576776
 10
189.1943658735471
 20
15.72156856595925
 10
189.3223188769413
 20
15.73087258884441
 10
189.4049048406461
 20
15.72801001754682
 10
189.5307214850824
 20
15.72923437412305
 10
189.6741469838057
 20
15.72932431888966
 10
189.8157420951728
 20
15.72746163183855
 10
189.9459127249967
 20
15.73333075937165
 10
190.0193452286191
 20
15.72070340823206
 10
190.0891112922096
 20
15.73877563110414
 10
190.0775772605396
 20
15.68612850546328
 10
190.0833184346682
 20
15.64221317686549
 10
190.081661577091
 20
15.5908998267655
 10
190.081775756167
 20
15.56158792021636
 10
190.0818114333289
 20
15.55242795125079
 97
        1
330
B4
 75
     1
 76
     2
 52
45.0
 41
0.1
 77
     0
 78
     1
 53
45.0
 43
0.0
 44
0.0
 45
-0.282842712474619
 46
0.0
 79
     0
 98
        1
 10
0.0
 20
0.0
  0
HATCH
  5
D2
330
4B
100
AcDbEntity
  8
1
  6
Continuous
 62
     2
100
AcDbHatch
 10
0.0
 20
0.0
 30
0.0
210
0.0
220
0.0
230
1.0
  2
CUSTOM9
 70
     0
 71
     1
 91
        1
 92
        1
 93
        1
 72
     4
 94
        3
 73
     0
 74
     0
 95
      118
 96
      114
 40
0.0
 40
0.0
 40
0.0
 40
0.0
 40
0.1054708162972919
 40
0.2466098270051476
 40
0.3965912874590843
 40
0.52855250697536
 40
0.6156245055641594
 40
0.6431434105796738
 40
0.7036850037985274
 40
0.7642265984503335
 40
0.7917455052353639
 40
0.9287404319989023
 40
1.106572819087919
 40
1.287544879680869
 40
1.317578308030386
 40
1.399928030857023
 40
1.522968204799799
 40
1.67507298659042
 40
1.844616533180499
 40
2.019973001638562
 40
2.189516548879874
 40
2.341621331585213
 40
2.464661506320347
 40
2.547011229646913
 40
2.577044658167877
 40
2.603797890892947
 40
2.662655002908663
 40
2.721512114949503
 40
2.748265347702654
 40
2.774215307344731
 40
2.845959313407066
 40
2.95433855658827
 40
3.090194227585455
 40
3.24436751710043
 40
3.407699615844196
 40
3.571031714539352
 40
3.725205003920038
 40
3.861060674729547
 40
3.969439917716246
 40
4.041183923628921
 40
4.067133883212916
 40
4.311886746012152
 40
4.547897258335535
 40
4.764747083044002
 40
4.952749679951793
 40
5.045772974195925
 40
5.13786201964501
 40
5.330543169793079
 40
5.553448265244078
 40
5.795083855888259
 40
6.0432934121773
 40
6.285761695541212
 40
6.313902908752696
 40
6.384255941793286
 40
6.475714884766874
 40
6.567173827758936
 40
6.637526860839714
 40
6.665668074074078
 40
6.692018920328052
 40
6.749990782071127
 40
6.807962643790499
 40
6.834313490017974
 40
6.856393084245252
 40
6.913335195649876
 40
6.991194817302568
 40
7.076026942283858
 40
7.153886563725377
 40
7.21082867484493
 40
7.232908268931294
 40
7.258199334923819
 40
7.324875781592476
 40
7.419142481925143
 40
7.527204308842097
 40
7.635266135230688
 40
7.729532834168688
 40
7.796209279293014
 40
7.821500344594964
 40
7.844652988851034
 40
7.899863140541758
 40
7.96575912805384
 40
8.020969279771096
 40
8.044121924046534
 40
8.069356610160552
 40
8.109134395441238
 40
8.132238100190953
 40
8.193147867786319
 40
8.279261678876498
 40
8.377977512673716
 40
8.476693347146508
 40
8.562807160411564
 40
8.623716930826353
 40
8.646820636853308
 40
8.671988793774121
 40
8.734909185827975
 40
8.81670569518869
 40
8.898502204815232
 40
8.961422597377664
 40
8.986590754550777
 40
9.012941600732933
 40
9.070913462380023
 40
9.12888532408152
 40
9.155236170324843
 40
9.180404327928885
 40
9.24332472194793
 40
9.325121234211666
 40
9.40691774663732
 40
9.469838141977776
 40
9.495006288270522
 40
9.517811184378658
 40
9.572192090486647
 40
9.63709833328086
 40
9.691479239515049
 40
9.714284125643083
 40
9.714284125643083
 40
9.714284125643083
 40
9.714284125643083
 10
185.2874469028654
 20
15.26889163187721
 10
185.3090990569038
 20
15.24111869242813
 10
185.3597257109474
 20
15.17618054561234
 10
185.4349383202593
 20
15.068910603129
 10
185.5248482274346
 20
14.95377438266626
 10
185.5709169676673
 20
14.8535704574832
 10
185.6655825294655
 20
14.78434006814945
 10
185.6204439320412
 20
14.73771639678273
 10
185.5947047785791
 20
14.69660308866042
 10
185.5645196708012
 20
14.66065971727939
 10
185.5193684730563
 20
14.58579782596094
 10
185.4710504458561
 20
14.80782524253599
 10
185.3968539713073
 20
14.84510677337707
 10
185.2836047324608
 20
15.11610202130596
 10
185.288513357817
 20
15.00095328446225
 10
185.2868486556306
 20
14.92836675781624
 10
185.2876830076715
 20
14.80625588483983
 10
185.2873609540265
 20
14.65913800810457
 10
185.2875076912457
 20
14.49307063956554
 10
185.2872950092723
 20
14.32187554608599
 10
185.2879497252034
 20
14.15552828635495
 10
185.2859192461141
 20
14.0093517305569
 10
185.2913460399931
 20
13.88471047474608
 10
185.280493086871
 20
13.81718656540624
 10
185.2956739155556
 20
13.75549061417019
 10
185.2457895108134
 20
13.76727503896998
 10
185.2017150342522
 20
13.75943822779966
 10
185.1582371630201
 20
13.767604413727
 10
185.1092346786489
 20
13.75538056738466
 10
185.1218731234825
 20
13.80960667249311
 10
185.113018296845
 20
13.86936918907555
 10
185.1175058770314
 20
13.97922029044368
 10
185.1157960135993
 20
14.11029975405677
 10
185.1163550915986
 20
14.26198011444327
 10
185.1161928768694
 20
14.42211074929953
 10
185.1162269924676
 20
14.58236865674568
 10
185.1162514960127
 20
14.73370247520441
 10
185.1161453543226
 20
14.86582156338604
 10
185.1164299141931
 20
14.97294802533196
 10
185.1158675547569
 20
15.03808619579478
 10
185.1180765083689
 20
15.1661895785868
 10
185.0319435998602
 20
14.79097610391579
 10
184.95551408185
 20
14.63918193123394
 10
184.8660040767833
 20
14.47766206446308
 10
184.7640413217326
 20
14.20471848820166
 10
184.718797649104
 20
14.36717346596515
 10
184.6102355941669
 20
14.45605432058114
 10
184.7995791751753
 20
14.60549794961411
 10
184.85653405457
 20
14.79749136974927
 10
184.9717520993353
 20
15.02899622906756
 10
184.9940151630133
 20
15.21797259759063
 10
185.177190515214
 20
15.49454089325927
 10
185.0538033597552
 20
15.48698978832091
 10
184.9925684166834
 20
15.48856772366116
 10
184.9081999617064
 20
15.48882592573669
 10
184.8204235085966
 20
15.48544845751203
 10
184.7656768696122
 20
15.49394814982016
 10
184.7104703026025
 20
15.48048561049785
 10
184.7222823035536
 20
15.52931442126761
 10
184.7142496151794
 20
15.57269004896706
 10
184.7228186104678
 20
15.6150943830957
 10
184.7102943409157
 20
15.66267796552117
 10
184.7555101538735
 20
15.65267212995106
 10
184.8014815562724
 20
15.6589410517406
 10
184.877722204771
 20
15.6559356140587
 10
184.9561296131994
 20
15.65770448278539
 10
185.0323992648933
 20
15.65464793981658
 10
185.0783009459475
 20
15.66103971376175
 10
185.1231733965401
 20
15.65093822978894
 10
185.1105552275634
 20
15.70157201581896
 10
185.1191936582707
 20
15.75501261882069
 10
185.1152361595444
 20
15.84863255131681
 10
185.1162325068335
 20
15.95112606688925
 10
185.1171927413075
 20
16.05353270248166
 10
185.1133211458005
 20
16.14735929609324
 10
185.1217789814366
 20
16.20036542840358
 10
185.1093075932835
 20
16.25211435651192
 10
185.1542106389851
 20
16.23850747226763
 10
185.1955083836771
 20
16.24100480320588
 10
185.259534428105
 20
16.2364806057449
 10
185.2986111148785
 20
16.22781003043307
 10
185.3476543498741
 20
16.23515102070688
 10
185.3225080030591
 20
16.19602896051757
 10
185.2815901333725
 20
16.20563842455807
 10
185.2910109616605
 20
16.15540148169779
 10
185.2855647318747
 20
16.10385945639491
 10
185.2881699601805
 20
16.0195970758452
 10
185.2870102202156
 20
15.92559135583408
 10
185.2883591064232
 20
15.83196865395524
 10
185.284997010151
 20
15.74679517552222
 10
185.292095991777
 20
15.69716856072042
 10
185.2812569154547
 20
15.64993694969987
 10
185.3304010225246
 20
15.66201674936849
 10
185.3794877630148
 20
15.65447393363009
 10
185.4573714280641
 20
15.6568607036143
 10
185.5350365172897
 20
15.65899381905413
 10
185.5845393931354
 20
15.65193391922452
 10
185.6344594750639
 20
15.66360151936212
 10
185.6223198516881
 20
15.61540235371391
 10
185.6305838229143
 20
15.57249219801233
 10
185.6223198650783
 20
15.52958201851382
 10
185.6344594549854
 20
15.48138288754862
 10
185.5845395158747
 20
15.49305034471507
 10
185.5350350651203
 20
15.48599202435043
 10
185.4573784382973
 20
15.488116652286
 10
185.379464386576
 20
15.49053389365757
 10
185.3304500352717
 20
15.48291848194483
 10
185.2813246108944
 20
15.49507952557588
 10
185.2915559988572
 20
15.45073013424155
 10
185.2856677678054
 20
15.40925436202911
 10
185.287878830557
 20
15.34915394315303
 10
185.2874109346147
 20
15.3022578276289
 10
185.2874386992914
 20
15.27650146418198
 10
185.2874469028654
 20
15.26889163187721
 97
        1
330
B5
 75
     1
 76
     2
 52
45.0
 41
0.1
 77
     0
 78
     1
 53
45.0
 43
0.0
 44
0.0
 45
-0.282842712474619
 46
0.0
 79
     0
 98
        1
 10
0.0
 20
0.0
  0
HATCH
  5
D3
330
4B
100
AcDbEntity
  8
1
  6
Continuous
 62
     2
100
AcDbHatch
 10
0.0
 20
0.0
 30
0.0
210
0.0
220
0.0
230
1.0
  2
CUSTOM10
 70
     0
 71
     1
 91
        1
 92
        1
 93
        1
 72
     4
 94
        3
 73
     0
 74
     0
 95
       47
 96
       43
 40
0.0
 40
0.0
 40
0.0
 40
0.0
 40
0.2207912809957373
 40
0.4459404186303472
 40
0.4902387190458599
 40
0.5327473892722453
 40
0.574226045122459
 40
0.6155432630560156
 40
0.656816406631563
 40
0.6982511618779935
 40
0.7407663929316218
 40
0.7851366743173753
 40
1.010288833836201
 40
1.231080507002067
 40
1.451765243652224
 40
1.676638205891502
 40
1.720461045359475
 40
1.83001814404334
 40
1.972442372352973
 40
2.114866600677346
 40
2.224423699394974
 40
2.268246538883214
 40
2.493628801207087
 40
2.715602830286485
 40
2.934211330706243
 40
3.149502369855203
 40
3.231387784850764
 40
3.318231873853799
 40
3.405143198197701
 40
3.486970301720109
 40
3.702258172493517
 40
3.920866283533754
 40
4.142839325931543
 40
4.368221903865048
 40
4.412044743359529
 40
4.521601842095545
 40
4.664026070452027
 40
4.806450298808739
 40
4.916007397546434
 40
4.959830237042758
 40
5.184703515846784
 40
5.405387250767088
 40
5.405387250767088
 40
5.405387250767088
 40
5.405387250767088
 10
182.6507427258644
 20
15.73406440953869
 10
182.6568139420002
 20
15.79758482501207
 10
182.6690762107243
 20
15.92587938689622
 10
182.5604706879412
 20
16.20166220174082
 10
182.6761985896605
 20
16.17188133432052
 10
182.7171842509015
 20
16.16765556262814
 10
182.7591205797518
 20
16.16310446389608
 10
182.800419662571
 20
16.16201982929492
 10
182.8417032115556
 20
16.16310338195228
 10
182.8836148270647
 20
16.16766112711336
 10
182.9245983549019
 20
16.17187430209729
 10
183.0404922843487
 20
16.20177611317538
 10
182.9295652727457
 20
15.92339806609886
 10
182.9574856365268
 20
15.74283140824952
 10
182.940426734697
 20
15.50961042346473
 10
182.9414637282104
 20
15.3490662254315
 10
182.9414099399405
 20
15.22284817558726
 10
182.9414277372482
 20
15.12428963336246
 10
182.9414188581081
 20
14.99280702442967
 10
182.9414263928035
 20
14.86132844968654
 10
182.9414129405129
 20
14.76276222694094
 10
182.9414531717493
 20
14.63639735624155
 10
182.9406746403817
 20
14.47482068822871
 10
182.9565958319268
 20
14.24361821892914
 10
182.9333468885408
 20
14.05874351972003
 10
183.0360183444364
 20
13.78935602770058
 10
182.8820238362835
 20
13.8266011268582
 10
182.8004129802833
 20
13.82137994680531
 10
182.7188192292583
 20
13.82660620378353
 10
182.5648513666844
 20
13.78937069885387
 10
182.6674183421916
 20
14.05875129862881
 10
182.6442045316087
 20
14.24361585325414
 10
182.6600444655139
 20
14.47482218565639
 10
182.6593296313426
 20
14.63639712308505
 10
182.6593664569907
 20
14.76276231210525
 10
182.6593549000271
 20
14.86132756635986
 10
182.6593575019213
 20
14.99281127417224
 10
182.6593648531779
 20
15.12427548031205
 10
182.6593442541351
 20
15.2228778627533
 10
182.6594082192028
 20
15.34896149354432
 10
182.658173394759
 20
15.51210091383773
 10
182.6532040396744
 20
15.66054183777549
 10
182.6507427258644
 20
15.73406440953869
 97
        1
330
B6
 75
     1
 76
     2
 52
45.0
 41
0.1
 77
     0
 78
     1
 53
45.0
 43
0.0
 44
0.0
 45
-0.282842712474619
 46
0.0
 79
     0
 98
        1
 10
0.0
 20
0.0
  0
HATCH
  5
D4
330
4B
100
AcDbEntity
  8
1
  6
Continuous
 62
     2
100
AcDbHatch
 10
0.0
 20
0.0
 30
0.0
210
0.0
220
0.0
230
1.0
  2
CUSTOM11
 70
     0
 71
     1
 91
        1
 92
        1
 93
        1
 72
     4
 94
        3
 73
     0
 74
     0
 95
      110
 96
      106
 40
0.0
 40
0.0
 40
0.0
 40
0.0
 40
0.2203406257277737
 40
0.440780878283841
 40
0.5952494494615683
 40
0.748843165939342
 40
0.9023581831309389
 40
1.056801968670437
 40
1.210736449099994
 40
1.363041386539899
 40
1.515315729683158
 40
1.66937723914811
 40
1.721611652756632
 40
1.77319950294303
 40
1.824933793210048
 40
1.877110426488083
 40
1.982682281206822
 40
2.078781667087547
 40
2.17280964082241
 40
2.271937807379034
 40
2.378349933379399
 40
2.494131557736699
 40
2.626681683943749
 40
2.783145050796176
 40
2.890701232941022
 40
2.993130312454948
 40
3.099869730691911
 40
3.220237816691395
 40
3.352695482737671
 40
3.481732806390005
 40
3.593499473690474
 40
3.674323013331921
 40
3.817951711952841
 40
3.946167120793782
 40
4.06140505345358
 40
4.166480796003194
 40
4.262478775059258
 40
4.3507366735513
 40
4.433071991254157
 40
4.511216293814594
 40
4.564262454117916
 40
4.61847441557156
 40
4.670128488754187
 40
4.722296879126378
 40
4.819540945314247
 40
4.931194984128103
 40
5.049996040257691
 40
5.168643755415093
 40
5.283970811762419
 40
5.392260784910245
 40
5.486512254876319
 40
5.559178233949718
 40
5.591425852853369
 40
5.626215969637745
 40
5.667155838674298
 40
5.717449290214144
 40
5.738402360944759
 40
5.784499116553729
 40
5.830595872164704
 40
5.851548942897562
 40
5.873019280661671
 40
5.924217778408204
 40
5.985325662817573
 40
6.036524160567577
 40
6.057994498334102
 40
6.236847789607371
 40
6.381409928945576
 40
6.493190424178573
 40
6.574067534230426
 40
6.691018086205521
 40
6.814881554220523
 40
6.944307823240448
 40
7.071266716066015
 40
7.193488604461862
 40
7.309042773128087
 40
7.414007203170684
 40
7.505140441886469
 40
7.5311503605996
 40
7.559221645322201
 40
7.587202218920853
 40
7.61256915949907
 40
7.662550809480924
 40
7.702878875764055
 40
7.857328205230784
 40
8.010799568088402
 40
8.165256399657437
 40
8.322232698713805
 40
8.479564855016491
 40
8.635216230290695
 40
8.790882550925613
 40
8.948305154947178
 40
9.168271839032876
 40
9.387358980987111
 40
9.608047961033364
 40
9.832914234792604
 40
9.858338694962937
 40
9.92536681722994
 40
10.02013071422752
 40
10.12876249858989
 40
10.23739428295239
 40
10.3321581799518
 40
10.39918630222383
 40
10.42461076239772
 40
10.64992019336934
 40
10.87188524531176
 40
10.87188524531176
 40
10.87188524531176
 40
10.87188524531176
 10
179.9057788376618
 20
15.73923260398189
 10
179.9092864933541
 20
15.80616462073803
 10
179.9163033987663
 20
15.94005891915858
 10
179.8198027599072
 20
16.22548554971473
 10
180.0510134726108
 20
16.16284386190284
 10
180.1919290057156
 20
16.17001554055983
 10
180.3490417757588
 20
16.16235883078247
 10
180.5025913427288
 20
16.16252752283046
 10
180.6545104935081
 20
16.16182040535434
 10
180.8142214813232
 20
16.17210158351631
 10
180.9408972601117
 20
16.15496511080753
 10
181.1370821122081
 20
16.22727260107148
 10
181.1034395279078
 20
16.12640699080116
 10
181.1052011317184
 20
16.07619253947669
 10
181.1027342073459
 20
16.02712335586464
 10
181.134707696601
 20
15.94063490846992
 10
181.0010399903256
 20
15.98997438608338
 10
180.9172208688057
 20
15.98430634314172
 10
180.8173861139325
 20
15.994655167063
 10
180.7186576720145
 20
16.00086450411085
 10
180.612153277111
 20
16.00697763816782
 10
180.4910511698059
 20
16.0158888348458
 10
180.3703381502453
 20
16.00521605912389
 10
180.1812553843437
 20
16.06468503080366
 10
180.212902850531
 20
15.9055832007754
 10
180.1995563316835
 20
15.80839128339903
 10
180.1974958426449
 20
15.69634065110103
 10
180.195818804467
 20
15.57699685629352
 10
180.1973336794233
 20
15.45032592155109
 10
180.1956582478668
 20
15.32301588016115
 10
180.2058844271658
 20
15.22451566404463
 10
180.1779006596582
 20
15.08388702625638
 10
180.3508029999305
 20
15.13989551134095
 10
180.4645020202771
 20
15.12719951478502
 10
180.5840151672239
 20
15.13448377051251
 10
180.6888491425071
 20
15.13878017056761
 10
180.7843084898612
 20
15.14330568258974
 10
180.8763823507033
 20
15.15149201146204
 10
180.9476551782439
 20
15.14643850638108
 10
181.0544931705684
 20
15.18536425031679
 10
181.0226603598036
 20
15.10517122005882
 10
181.0266164503929
 20
15.05562936846036
 10
181.0234502392014
 20
15.00557478039821
 10
181.0550791490582
 20
14.9212884761202
 10
180.9210133677691
 20
14.97425365495158
 10
180.8292322793199
 20
14.96540080890437
 10
180.7079729189602
 20
14.9757004996516
 10
180.5914113119772
 20
14.97748911767499
 10
180.4783375745879
 20
14.97787017109696
 10
180.3679246308471
 20
14.98415449472182
 10
180.2898124067841
 20
14.97189133255363
 10
180.1913625833644
 20
15.00453887616127
 10
180.2012355173561
 20
14.94769748054208
 10
180.1973923244401
 20
14.91392130557988
 10
180.1966789884268
 20
14.87119604709412
 10
180.1963369642975
 20
14.83401607262153
 10
180.1963834255345
 20
14.79487237370769
 10
180.1963649429927
 20
14.75716849497685
 10
180.1963703431806
 20
14.719449552324
 10
180.1963697214201
 20
14.68994324745148
 10
180.1963698151545
 20
14.658735776993
 10
180.196370428792
 20
14.61414424908084
 10
180.1963671499337
 20
14.55963956508851
 10
180.1963759623481
 20
14.51505540201449
 10
180.1963359653417
 20
14.4311780858574
 10
180.1976024270255
 20
14.31737520677678
 10
180.195027411784
 20
14.16830395933708
 10
180.206500938172
 20
14.06597203813903
 10
180.1823506222263
 20
13.9333890388583
 10
180.3332993946477
 20
13.97895732272018
 10
180.4428436671555
 20
13.96427012162344
 10
180.5733970473921
 20
13.96920435125061
 10
180.6990312209514
 20
13.97257705323358
 10
180.8188730625601
 20
13.97711497498779
 10
180.9391362611426
 20
13.99048536182002
 10
181.0222761663516
 20
13.98068712782594
 10
181.1456080421073
 20
14.04126214623321
 10
181.1244269203958
 20
13.98532460134019
 10
181.1235950270118
 20
13.95939249372345
 10
181.1218963707558
 20
13.93197256190937
 10
181.1217974888828
 20
13.89738195206385
 10
181.120365930133
 20
13.86050408220768
 10
181.153280419219
 20
13.76846841021811
 10
180.9551306988108
 20
13.84132015974833
 10
180.8300548294891
 20
13.81825726508603
 10
180.6673071295157
 20
13.82454021985785
 10
180.5129366450001
 20
13.82260943909924
 10
180.3566670436944
 20
13.82393762599267
 10
180.1970544465282
 20
13.8205987248786
 10
180.0540326342237
 20
13.83265795728244
 10
179.8197144881628
 20
13.7695200197692
 10
179.9173810751197
 20
14.05620527466318
 10
179.9006868780059
 20
14.24988308142661
 10
179.9146296709685
 20
14.47848242880296
 10
179.9142987846631
 20
14.6338459395505
 10
179.9143078119264
 20
14.7396633644413
 10
179.9143055876316
 20
14.80205784124217
 10
179.9143065551888
 20
14.89220425248329
 10
179.9143065473261
 20
14.99621167157439
 10
179.9143053861102
 20
15.10022131375298
 10
179.9143090971502
 20
15.19036243688768
 10
179.9143011051051
 20
15.25276803097215
 10
179.914333427502
 20
15.35868835961121
 10
179.9131440788318
 20
15.5162671654474
 10
179.9082216489256
 20
15.66528219822065
 10
179.9057788376618
 20
15.73923260398189
 97
        1
330
B7
 75
     1
 76
     2
 52
45.0
 41
0.1
 77
     0
 78
     1
 53
45.0
 43
0.0
 44
0.0
 45
-0.282842712474619
 46
0.0
 79
     0
 98
        1
 10
0.0
 20
0.0
  0
HATCH
  5
D5
330
4B
100
AcDbEntity
  8
1
  6
Continuous
 62
     2
100
AcDbHatch
 10
0.0
 20
0.0
 30
0.0
210
0.0
220
0.0
230
1.0
  2
CUSTOM12
 70
     0
 71
     1
 91
        1
 92
        1
 93
        1
 72
     4
 94
        3
 73
     0
 74
     0
 95
       95
 96
       91
 40
0.0
 40
0.0
 40
0.0
 40
0.0
 40
0.6550406656912842
 40
1.308087289032031
 40
1.420803739835871
 40
1.56613075977089
 40
1.757067341888545
 40
2.006513545026521
 40
2.087328263121614
 40
2.185328872295732
 40
2.29461245474848
 40
2.408936380534898
 40
2.526802767798646
 40
2.646360524615712
 40
2.762535723971682
 40
2.870057342870252
 40
2.966883448431775
 40
3.050803243518427
 40
3.115818222436708
 40
3.156030057150331
 40
3.213914225080261
 40
3.276689026450747
 40
3.34296032098141
 40
3.404230667150659
 40
3.453822809493452
 40
3.532499827188465
 40
3.634775188507245
 40
3.75490933300823
 40
3.889736761660755
 40
4.035769602175365
 40
4.187256681197724
 40
4.338733685676006
 40
4.488478734676202
 40
4.634708317831643
 40
4.7714931899214
 40
4.892686571561299
 40
5.199775528944532
 40
5.460353566929755
 40
5.667603142345591
 40
5.814722905404543
 40
5.828990806219841
 40
5.855488336304538
 40
5.86975623711887
 40
6.189796507762806
 40
6.531890469873055
 40
6.883053637017042
 40
7.230512024911583
 40
7.566966656764596
 40
7.885203559707488
 40
8.172887439719306
 40
8.418011594062778
 40
8.4439267211907
 40
8.510760470613187
 40
8.602145393795697
 40
8.701714041647135
 40
8.793098965075368
 40
8.85993271505794
 40
8.885847842603589
 40
9.242301256612794
 40
9.589275455016777
 40
9.921808543164158
 40
10.23479624298466
 40
10.29968150889174
 40
10.35323493887765
 40
10.40154625355141
 40
10.46482922477814
 40
10.55973900668394
 40
10.69239545985611
 40
10.84920353475663
 40
11.01626328594773
 40
11.18672024367432
 40
11.35372582577202
 40
11.50257442292418
 40
11.61866495023284
 40
11.71329869152868
 40
11.82511050573897
 40
11.94464880845707
 40
12.06929242642498
 40
12.19707290435167
 40
12.3256263286052
 40
12.45034565331269
 40
12.56646595170316
 40
12.67099007414623
 40
12.76077625936775
 40
12.82703233506684
 40
12.87429132785985
 40
12.89831990323325
 40
12.92234847860013
 40
13.5398476741032
 40
14.18294284359349
 40
14.18294284359349
 40
14.18294284359349
 40
14.18294284359349
 10
177.3067935648022
 20
14.70898038201722
 10
177.1752019758551
 20
14.82265058603229
 10
176.9124193802727
 20
15.04964496316151
 10
176.3997393441024
 20
15.89214462956285
 10
176.4106654595361
 20
15.53423377577021
 10
176.4041226527993
 20
15.39267392272134
 10
176.4028026631772
 20
15.19421305299283
 10
176.4018117602539
 20
15.02150296045986
 10
176.4024101751974
 20
14.87865373257582
 10
176.4038994301882
 20
14.78265005413359
 10
176.4055683588471
 20
14.67545503263141
 10
176.407193495462
 20
14.56164211517584
 10
176.4092429501684
 20
14.44441572604589
 10
176.4123165501927
 20
14.3265641123297
 10
176.4156339697043
 20
14.21228087320621
 10
176.4193605340279
 20
14.10521401867276
 10
176.4217338161425
 20
14.0100740876692
 10
176.4278718888356
 20
13.92558557205693
 10
176.4239784495946
 20
13.8692308729814
 10
176.4455230443077
 20
13.79825022472356
 10
176.3680940058617
 20
13.82902677604487
 10
176.311635324019
 20
13.8201124251761
 10
176.2540495896807
 20
13.82896218398277
 10
176.1690163478472
 20
13.79738225225946
 10
176.2009714146383
 20
13.88095155992189
 10
176.1990705282539
 20
13.94882608968308
 10
176.21079600473
 20
14.05233256764417
 10
176.2164241053
 20
14.17002125616694
 10
176.2237902178942
 20
14.30388609164425
 10
176.232075970161
 20
14.44764152872636
 10
176.2398851897427
 20
14.59714022843447
 10
176.2457571222657
 20
14.74792549402079
 10
176.2503667817969
 20
14.89699943878436
 10
176.2542632117541
 20
15.04122913163023
 10
176.2570715126564
 20
15.17583905213018
 10
176.2576698755022
 20
15.36469614347357
 10
176.261602386715
 20
15.58975494313155
 10
176.2442175378497
 20
15.86367091125709
 10
176.2850417342584
 20
16.02787112098598
 10
176.1995153256002
 20
16.22749661465093
 10
176.2660558907688
 20
16.22385458403975
 10
176.283872427323
 20
16.22413447160851
 10
176.4056801797505
 20
16.22632927398612
 10
176.508077033546
 20
15.94675118721509
 10
176.7580021509356
 20
15.74563008536003
 10
176.987003533111
 20
15.4779261498791
 10
177.2245151213109
 20
15.22646413862384
 10
177.4486090740772
 20
14.98969974061352
 10
177.675071628301
 20
14.73218692583086
 10
177.8325687886514
 20
14.61649335056927
 10
178.0472129612675
 20
14.27997152538798
 10
178.0422645974619
 20
14.40464754091606
 10
178.0433931602546
 20
14.46327691935739
 10
178.0428877841517
 20
14.55043662371979
 10
178.0430475158114
 20
14.64416143182874
 10
178.0430054891318
 20
14.73018971297037
 10
178.0430202040372
 20
14.79153891945497
 10
178.0429706255986
 20
14.94135231520997
 10
178.045881152281
 20
15.17989612510105
 10
178.0259521041162
 20
15.54486509868704
 10
178.0750433936246
 20
15.80799631993413
 10
177.9177951509183
 20
16.21928904947756
 10
178.0762112872422
 20
16.16398282551749
 10
178.1311680478629
 20
16.16199686500181
 10
178.182788776674
 20
16.16264778248255
 10
178.2713198965366
 20
16.20369527738247
 10
178.2204898303168
 20
16.05696326622987
 10
178.2313389930285
 20
15.95019971954433
 10
178.2166036994846
 20
15.79085705414111
 10
178.2099976446203
 20
15.62853061652874
 10
178.2014961399915
 20
15.45992521892395
 10
178.1943227202198
 20
15.29814814703541
 10
178.1889063215389
 20
15.15422331457932
 10
178.1871713967648
 20
15.03437493466924
 10
178.1875440672318
 20
14.92686101590514
 10
178.1873656126263
 20
14.81820024645586
 10
178.1877010863141
 20
14.69953570165531
 10
178.1890040622185
 20
14.57555163512741
 10
178.1908887351574
 20
14.44858294171105
 10
178.1925004454852
 20
14.32153861551032
 10
178.1941403137429
 20
14.19854884492178
 10
178.1962570745752
 20
14.08300931383762
 10
178.1963848422364
 20
13.98090903955839
 10
178.2006514396555
 20
13.89009848838158
 10
178.1908440085289
 20
13.83213621208785
 10
178.211847477169
 20
13.76517130132028
 10
178.1725639739896
 20
13.77291153966686
 10
177.9595307117752
 20
13.75755254145197
 10
177.7636297943183
 20
14.31403058094457
 10
177.4611197631544
 20
14.57556035348507
 10
177.3067935648022
 20
14.70898038201722
 97
        1
330
B8
 75
     1
 76
     2
 52
45.0
 41
0.1
 77
     0
 78
     1
 53
45.0
 43
0.0
 44
0.0
 45
-0.282842712474619
 46
0.0
 79
     0
 98
        1
 10
0.0
 20
0.0
  0
HATCH
  5
D6
330
4B
100
AcDbEntity
  8
1
  6
Continuous
 62
     2
100
AcDbHatch
 10
0.0
 20
0.0
 30
0.0
210
0.0
220
0.0
230
1.0
  2
CUSTOM13
 70
     0
 71
     1
 91
        2
 92
        1
 93
        1
 72
     4
 94
        3
 73
     0
 74
     0
 95
       57
 96
       53
 40
0.0
 40
0.0
 40
0.0
 40
0.0
 40
0.0471632082809233
 40
0.091486105463214
 40
0.1357762519702945
 40
0.1826527001610671
 40
0.2295203288572011
 40
0.2737751972219613
 40
0.3181310461542195
 40
0.3652607198398483
 40
0.4571007286314404
 40
0.5671851029165081
 40
0.6894623283868218
 40
0.8181758272545755
 40
0.951008722927367
 40
1.085852229674134
 40
1.21812616447535
 40
1.343545131142401
 40
1.454537202956817
 40
1.567187607530826
 40
1.680710966642416
 40
1.794226869736808
 40
1.900009184247523
 40
2.004085860447802
 40
2.108162674451774
 40
2.214000150155318
 40
2.496038577352174
 40
2.762350745479321
 40
2.997275353279478
 40
3.185110082137794
 40
3.246407890063936
 40
3.312607550212552
 40
3.378877742711567
 40
3.440140399651506
 40
4.100501696006544
 40
4.754913085563573
 40
5.411331693423949
 40
6.077890432568728
 40
6.110575292671006
 40
6.143260152775786
 40
6.367989363395179
 40
6.610525374951544
 40
6.863389136467324
 40
7.119380025547616
 40
7.376036605091119
 40
7.631164770966357
 40
7.876722425456459
 40
8.104953735856018
 40
8.312916685924353
 40
8.497730294941295
 40
8.651018984313882
 40
8.764738853624602
 40
8.764738853624602
 40
8.764738853624602
 40
8.764738853624602
 10
174.7922649500513
 20
13.81626739612929
 10
174.7766616726931
 20
13.8182623107908
 10
174.7463947960302
 20
13.82213201360302
 10
174.7010994202252
 20
13.82341984967266
 10
174.6559553129349
 20
13.8230868355405
 10
174.60990171234
 20
13.82314658674222
 10
174.5640496172097
 20
13.8232581365
 10
174.5183711648165
 20
13.82277833456588
 10
174.4750811541609
 20
13.82461109618725
 10
174.4039947951513
 20
13.80049556814656
 10
174.4057477261441
 20
13.92184693977252
 10
174.358619637057
 20
14.00726239751234
 10
174.3191478251761
 20
14.12486929345136
 10
174.2706635532645
 20
14.24232752540437
 10
174.2201017402523
 20
14.36405935761515
 10
174.1718634610476
 20
14.49075967862465
 10
174.1135232947594
 20
14.59933687784958
 10
174.0980892667261
 20
14.75620657134414
 10
173.9566586330636
 20
14.72373446548327
 10
173.8508397414904
 20
14.7351288868218
 10
173.7358569725222
 20
14.73392591514614
 10
173.6253142252141
 20
14.73506945347407
 10
173.5176583522783
 20
14.73418350037525
 10
173.4121322529244
 20
14.73416602390519
 10
173.3109192682012
 20
14.72714032472419
 10
173.1266804827754
 20
14.75135859859871
 10
173.1157393685411
 20
14.44741691121887
 10
173.008769163475
 20
14.22353177253397
 10
172.9098148604346
 20
14.03895314292498
 10
172.9225090524007
 20
13.79530204804209
 10
172.8050091716397
 20
13.82508046753199
 10
172.7422055868311
 20
13.822580895096
 10
172.67858720934
 20
13.82344075102808
 10
172.3946014194072
 20
13.78098039941943
 10
173.0251638499381
 20
14.50081952444783
 10
173.1087645289072
 20
15.01276539435725
 10
173.4929252789337
 20
15.53353743550044
 10
173.4777208288567
 20
16.23519626253209
 10
173.7239265722696
 20
16.22345633081254
 10
173.8256346157561
 20
16.2322500445277
 10
173.8249752035819
 20
15.98059650730352
 10
173.9428317155828
 20
15.79818020733961
 10
174.0315515260484
 20
15.55563740662864
 10
174.1322292485261
 20
15.32340030530138
 10
174.2311142712242
 20
15.08674644566907
 10
174.3299676990671
 20
14.85461739170101
 10
174.4256166390925
 20
14.63122222788783
 10
174.5159904573272
 20
14.42272549049322
 10
174.5989944568189
 20
14.23308448529318
 10
174.6726088582799
 20
14.06663106068101
 10
174.7342815895545
 20
13.92917699626098
 10
174.7749458885604
 20
13.84999239430035
 10
174.7922649500513
 20
13.81626739612929
 97
        1
330
BA
 92
       16
 93
        1
 72
     4
 94
        3
 73
     0
 74
     0
 95
       25
 96
       21
 40
0.0
 40
0.0
 40
0.0
 40
0.0
 40
0.0911479969063683
 40
0.1858117896204947
 40
0.2804128399734199
 40
0.3715889190712798
 40
0.4679080494217563
 40
0.5642683809228369
 40
0.6605683222644697
 40
0.7569653015809391
 40
0.8561348172521842
 40
1.092615965104185
 40
1.374867658141761
 40
1.611348812011445
 40
1.710518328425101
 40
1.809403163726403
 40
2.045205463293923
 40
2.326646917621964
 40
2.56244921719043
 40
2.661334043833735
 40
2.661334043833735
 40
2.661334043833735
 40
2.661334043833735
 10
173.26837005672
 20
14.88614538197291
 10
173.2987525917923
 20
14.88598079714554
 10
173.3606895889112
 20
14.88564528689923
 10
173.454135696033
 20
14.88269055452001
 10
173.5475095236358
 20
14.87977752877154
 10
173.6417760753475
 20
14.87894201643418
 10
173.7354964790967
 20
14.87996644658048
 10
173.8352040303205
 20
14.87916977470972
 10
173.9188949546312
 20
14.88921410235219
 10
174.0637996315044
 20
14.86234617674165
 10
173.9396132444801
 20
15.03665530280047
 10
173.8965867286282
 20
15.1965171100609
 10
173.7808922142209
 20
15.4551845855021
 10
173.7017565431258
 20
15.59231052861858
 10
173.6431576621817
 20
15.80937033134072
 10
173.5864803939439
 20
15.59266134213423
 10
173.5052809900477
 20
15.45327012438236
 10
173.4063701281489
 20
15.2040696937019
 10
173.3253625094259
 20
15.01925830226073
 10
173.2813683325839
 20
14.91650446856115
 10
173.26837005672
 20
14.88614538197291
 97
        1
330
B9
 75
     1
 76
     2
 52
45.0
 41
0.1
 77
     0
 78
     1
 53
45.0
 43
0.0
 44
0.0
 45
-0.282842712474619
 46
0.0
 79
     0
 98
        1
 10
0.0
 20
0.0
  0
HATCH
  5
D7
330
4B
100
AcDbEntity
  8
1
  6
Continuous
 62
     2
100
AcDbHatch
 10
0.0
 20
0.0
 30
0.0
210
0.0
220
0.0
230
1.0
  2
CUSTOM14
 70
     0
 71
     1
 91
        1
 92
        1
 93
        1
 72
     4
 94
        3
 73
     0
 74
     0
 95
       99
 96
       95
 40
0.0
 40
0.0
 40
0.0
 40
0.0
 40
0.0796417172272375
 40
0.1621768542356287
 40
0.2486489160958206
 40
0.3404969668524681
 40
0.4381912511164731
 40
0.5434463660245056
 40
0.6518115192847389
 40
0.7530190937886894
 40
0.8492196919724787
 40
0.9419290312998307
 40
1.034249663569977
 40
1.129078600620161
 40
1.226697027573259
 40
1.327220425421726
 40
1.470572134938062
 40
1.595489863371263
 40
1.719934125348475
 40
1.850576620127475
 40
1.989059629987379
 40
2.134139054227042
 40
2.280698007207299
 40
2.424529739039524
 40
2.565929576985882
 40
2.708239260773603
 40
2.861717887443759
 40
3.045168540347398
 40
3.183798301138637
 40
3.31481396145552
 40
3.442083470447383
 40
3.569912708373143
 40
3.702177512509493
 40
3.84230755965962
 40
3.992872223245986
 40
4.156750662218317
 40
4.310981861107679
 40
4.445859909322659
 40
4.572393936131657
 40
4.701656719782044
 40
4.76827908600856
 40
4.835960697898493
 40
4.912788918729442
 40
5.006285208481654
 40
5.026909478751702
 40
5.04753374902121
 40
5.101808031471265
 40
5.16232516553858
 40
5.22691974599586
 40
5.294231806596813
 40
5.364544852554923
 40
5.438319055467931
 40
5.517877651324268
 40
5.607647714861581
 40
5.700449642544426
 40
5.788251142364151
 40
5.872714706039771
 40
5.955167292575243
 40
6.037192395190393
 40
6.120669181469078
 40
6.206848616686305
 40
6.296680855416787
 40
6.442558392872624
 40
6.568190371608254
 40
6.69290456736034
 40
6.824220446557085
 40
6.963121850329435
 40
7.107843738851241
 40
7.253431663907292
 40
7.395187468036659
 40
7.533140753237745
 40
7.670550457175235
 40
7.816236511769259
 40
7.987691657359195
 40
8.142277421969256
 40
8.293662615414977
 40
8.442962460879285
 40
8.591598316185287
 40
8.743678992361797
 40
8.903725323699154
 40
9.076307008890447
 40
9.26557860468056
 40
9.459203795360708
 40
9.617619810273412
 40
9.753609671361831
 40
9.874873300004056
 40
9.95452018497771
 40
10.02416413719233
 40
10.09769764405435
 40
10.18909955924966
 40
10.20974586420136
 40
10.23039218263381
 40
10.30057101881271
 40
10.37632012987546
 40
10.37632012987546
 40
10.37632012987546
 40
10.37632012987546
 10
170.146595483585
 20
14.1379566321599
 10
170.1632217851219
 20
14.11720608845312
 10
170.1970784206576
 20
14.07495111711904
 10
170.2599822541036
 20
14.0202981139207
 10
170.3332500940393
 20
13.97299025121058
 10
170.4175969238636
 20
13.93527231437935
 10
170.513224061546
 20
13.91040619731955
 10
170.6171853775346
 20
13.90309559345934
 10
170.7224020220405
 20
13.91142322794055
 10
170.8206626371333
 20
13.94149179651523
 10
170.9058986427547
 20
13.98848822971881
 10
170.9779220206103
 20
14.04952991250852
 10
171.0350917709094
 20
14.1241296957859
 10
171.076786874744
 20
14.21002464660171
 10
171.1026952846293
 20
14.30485850432211
 10
171.1118037332654
 20
14.41854979038369
 10
171.0986864796487
 20
14.54332587770782
 10
171.0325330334414
 20
14.66014719171896
 10
170.9369370919568
 20
14.74512539577374
 10
170.8249681022369
 20
14.81416684459169
 10
170.6993659583269
 20
14.87204142045892
 10
170.5656691620855
 20
14.92373723284339
 10
170.4313122818831
 20
14.97899092397179
 10
170.3051983986876
 20
15.04939770641651
 10
170.1926579987535
 20
15.13785540731248
 10
170.0969963064458
 20
15.24981067868476
 10
170.0334157151825
 20
15.39949910101382
 10
170.0200706505016
 20
15.55932794385141
 10
170.0320510987447
 20
15.71048405306843
 10
170.071229892884
 20
15.8380924459154
 10
170.135498775091
 20
15.95080874030852
 10
170.2238204999741
 20
16.04648609268678
 10
170.3338091207628
 20
16.12354214985753
 10
170.4632284401265
 20
16.18151396936283
 10
170.6111838967793
 20
16.21739177588819
 10
170.7682069455485
 20
16.2274671905056
 10
170.917494046643
 20
16.2186363776259
 10
171.059625361417
 20
16.19074899340357
 10
171.1595922609625
 20
16.1341331470114
 10
171.3125074736184
 20
16.08674602105511
 10
171.2455131717168
 20
16.00197553001187
 10
171.2296479120268
 20
15.93438901873486
 10
171.1978750531297
 20
15.86926092793191
 10
171.215020220957
 20
15.76723453256954
 10
171.1666427208231
 20
15.77493211681903
 10
171.1315789440766
 20
15.7680677172481
 10
171.1296697985718
 20
15.83263831158197
 10
171.0985692931989
 20
15.87825639621395
 10
171.0664551628456
 20
15.93561036628464
 10
171.0208038475166
 20
15.98540462692551
 10
170.9658508218386
 20
16.02994813718998
 10
170.9010841173007
 20
16.06763988836548
 10
170.8232377310596
 20
16.09283375791351
 10
170.7355160553352
 20
16.09931230998111
 10
170.6452903277806
 20
16.09235709285608
 10
170.5594594694065
 20
16.06909190460927
 10
170.4828343638596
 20
16.03131644107548
 10
170.4165265636202
 20
15.98051641089564
 10
170.3622560536963
 20
15.91731143407214
 10
170.3224925345458
 20
15.8427645571037
 10
170.2976775510589
 20
15.75917313997764
 10
170.2892124262869
 20
15.65192948382285
 10
170.3019697987104
 20
15.52965457267559
 10
170.3681548409273
 20
15.41149724291211
 10
170.4640977399832
 20
15.32606325709534
 10
170.5757914963183
 20
15.25583362306724
 10
170.7010863668703
 20
15.19659162305311
 10
170.8349823941448
 20
15.1461670808613
 10
170.968993033315
 20
15.09322516984384
 10
171.0950885316915
 20
15.02750170625175
 10
171.2076216638417
 20
14.94480352537324
 10
171.3031370284233
 20
14.8399600631007
 10
171.3672706486963
 20
14.69937117251572
 10
171.3811103725278
 20
14.54065409451592
 10
171.367395471223
 20
14.38153155217877
 10
171.3244739153985
 20
14.23483828819211
 10
171.2545906329065
 20
14.10119796587147
 10
171.1574592213829
 20
13.98532387699291
 10
171.0347806023657
 20
13.89089981770089
 10
170.8874408413168
 20
13.82179270651982
 10
170.7177132497125
 20
13.77953210858852
 10
170.5317404979597
 20
13.76781736230406
 10
170.3528955926183
 20
13.77809486683437
 10
170.1881733753744
 20
13.81966573769157
 10
170.0834410841057
 20
13.88797642883945
 10
169.9350960790366
 20
13.93675219032106
 10
169.9980378194728
 20
14.02976591290843
 10
170.0072274430059
 20
14.1029653624828
 10
170.0303711301232
 20
14.16936294501345
 10
170.0034588335315
 20
14.26974809527585
 10
170.0521338956339
 20
14.2623403351738
 10
170.0916530580696
 20
14.26894063620896
 10
170.0996204944703
 20
14.19078703218938
 10
170.1305436967922
 20
14.15600927375855
 10
170.146595483585
 20
14.1379566321599
 97
        1
330
BB
 75
     1
 76
     2
 52
45.0
 41
0.1
 77
     0
 78
     1
 53
45.0
 43
0.0
 44
0.0
 45
-0.282842712474619
 46
0.0
 79
     0
 98
        1
 10
0.0
 20
0.0
  0
ENDBLK
  5
4D
330
4B
100
AcDbEntity
  8
0
100
AcDbBlockEnd
  0
BLOCK
  5
50
330
4E
100
AcDbEntity
  8
0
100
AcDbBlockBegin
  2
開示A4枠
 70
     0
 10
0.0
 20
0.0
 30
0.0
  3
開示A4枠
  1

  0
INSERT
  5
4F
330
4E
100
AcDbEntity
  8
1
100
AcDbBlockReference
  2
開示A4
 10
0.0
 20
0.0
 30
0.0
  0
ENDBLK
  5
51
330
4E
100
AcDbEntity
  8
0
100
AcDbBlockEnd
  0
BLOCK
  5
53
330
52
100
AcDbEntity
  8
0
100
AcDbBlockBegin
  2
body
 70
     0
 10
52.89014127144244
 20
101.847497477296
 30
0.0
  3
body
  1

  0
POINT
  5
D8
330
52
100
AcDbEntity
  8
0
 62
     7
100
AcDbPoint
 10
76.89014127144245
 20
101.847497477296
 30
0.0
  0
POINT
  5
D9
330
52
100
AcDbEntity
  8
0
 62
     7
100
AcDbPoint
 10
76.89014127144245
 20
101.847497477296
 30
0.0
  0
POINT
  5
DA
330
52
100
AcDbEntity
  8
0
 62
     7
100
AcDbPoint
 10
162.8901412714425
 20
101.847497477296
 30
0.0
  0
POINT
  5
DB
330
52
100
AcDbEntity
  8
0
 62
     7
100
AcDbPoint
 10
162.8901412714425
 20
101.847497477296
 30
0.0
  0
POINT
  5
DC
330
52
100
AcDbEntity
  8
0
 62
     7
100
AcDbPoint
 10
52.89014127144244
 20
197.582625929022
 30
0.0
  0
POINT
  5
DD
330
52
100
AcDbEntity
  8
0
 62
     7
100
AcDbPoint
 10
100.8901412714425
 20
197.582625929022
 30
0.0
  0
LINE
  5
DE
330
52
100
AcDbEntity
  8
LAY-1
  6
Continuous
 62
     7
100
AcDbLine
 10
88.03688967624245
 20
128.847497477296
 30
0.0
 11
96.39014127144245
 21
128.847497477296
 31
0.0
  0
LINE
  5
DF
330
52
100
AcDbEntity
  8
1
  6
Continuous
 62
     2
100
AcDbLine
 10
65.74339286664244
 20
133.847497477296
 30
0.0
 11
88.03688967624245
 21
128.847497477296
 31
0.0
  0
LINE
  5
E0
330
52
100
AcDbEntity
  8
LAY-1
  6
Continuous
 62
     7
100
AcDbLine
 10
65.74339286664244
 20
128.847497477296
 30
0.0
 11
76.89014127144245
 21
128.847497477296
 31
0.0
  0
LINE
  5
E1
330
52
100
AcDbEntity
  8
1
  6
Continuous
 62
     2
100
AcDbLine
 10
88.03688967624245
 20
133.847497477296
 30
0.0
 11
65.74339286664244
 21
128.847497477296
 31
0.0
  0
LINE
  5
E2
330
52
100
AcDbEntity
  8
1
  6
Continuous
 62
     7
100
AcDbLine
 10
148.8901412714425
 20
102.847497477296
 30
0.0
 11
176.8901412714425
 21
102.847497477296
 31
0.0
  0
LINE
  5
E3
330
52
100
AcDbEntity
  8
1
  6
Continuous
 62
     7
100
AcDbLine
 10
62.89014127144244
 20
102.847497477296
 30
0.0
 11
90.89014127144245
 21
102.847497477296
 31
0.0
  0
LINE
  5
E4
330
52
100
AcDbEntity
  8
LAY-1
  6
Continuous
 62
     7
100
AcDbLine
 10
57.39014127144244
 20
128.847497477296
 30
0.0
 11
57.39014127144244
 21
133.847497477296
 31
0.0
  0
LINE
  5
E5
330
52
100
AcDbEntity
  8
LAY-1
  6
Continuous
 62
     7
100
AcDbLine
 10
65.74339286664244
 20
128.847497477296
 30
0.0
 11
65.74339286664244
 21
133.847497477296
 31
0.0
  0
LINE
  5
E6
330
52
100
AcDbEntity
  8
LAY-1
  6
Continuous
 62
     7
100
AcDbLine
 10
96.39014127144245
 20
133.847497477296
 30
0.0
 11
96.39014127144245
 21
128.847497477296
 31
0.0
  0
LINE
  5
E7
330
52
100
AcDbEntity
  8
LAY-1
  6
Continuous
 62
     7
100
AcDbLine
 10
88.03688967624245
 20
133.847497477296
 30
0.0
 11
88.03688967624245
 21
128.847497477296
 31
0.0
  0
LINE
  5
E8
330
52
100
AcDbEntity
  8
1
  6
Continuous
 62
     7
100
AcDbLine
 10
90.89014127144245
 20
119.347497477296
 30
0.0
 11
90.89014127144245
 21
102.847497477296
 31
0.0
  0
LINE
  5
E9
330
52
100
AcDbEntity
  8
LAY-1
  6
Continuous
 62
     7
100
AcDbLine
 10
62.89014127144244
 20
102.847497477296
 30
0.0
 11
63.89014127144244
 21
101.847497477296
 31
0.0
  0
LINE
  5
EA
330
52
100
AcDbEntity
  8
LAY-1
  6
Continuous
 62
     7
100
AcDbLine
 10
62.89014127144244
 20
119.347497477296
 30
0.0
 11
62.89014127144244
 21
102.847497477296
 31
0.0
  0
LINE
  5
EB
330
52
100
AcDbEntity
  8
LAY-1
  6
Continuous
 62
     7
100
AcDbLine
 10
57.39014127144244
 20
128.847497477296
 30
0.0
 11
65.74339286664244
 21
128.847497477296
 31
0.0
  0
LINE
  5
EC
330
52
100
AcDbEntity
  8
LAY-1
  6
Continuous
 62
     7
100
AcDbLine
 10
62.89014127144244
 20
127.847497477296
 30
0.0
 11
62.89014127144244
 21
119.347497477296
 31
0.0
  0
LINE
  5
ED
330
52
100
AcDbEntity
  8
LAY-1
  6
Continuous
 62
     7
100
AcDbLine
 10
62.89014127144244
 20
127.847497477296
 30
0.0
 11
62.89014127144244
 21
119.347497477296
 31
0.0
  0
LINE
  5
EE
330
52
100
AcDbEntity
  8
LAY-1
  6
Continuous
 62
     7
100
AcDbLine
 10
57.39014127144244
 20
130.347497477296
 30
0.0
 11
57.39014127144244
 21
131.347497477296
 31
0.0
  0
LINE
  5
EF
330
52
100
AcDbEntity
  8
LAY-1
  6
Continuous
 62
     7
100
AcDbLine
 10
76.89014127144245
 20
128.847497477296
 30
0.0
 11
68.03014127144243
 21
128.847497477296
 31
0.0
  0
LINE
  5
F0
330
52
100
AcDbEntity
  8
LAY-1
  6
Continuous
 62
     7
100
AcDbLine
 10
63.89014127144244
 20
101.847497477296
 30
0.0
 11
89.89014127144245
 21
101.847497477296
 31
0.0
  0
LINE
  5
F1
330
52
100
AcDbEntity
  8
LAY-1
  6
Continuous
 62
     7
100
AcDbLine
 10
89.89014127144245
 20
101.847497477296
 30
0.0
 11
90.89014127144245
 21
102.847497477296
 31
0.0
  0
LINE
  5
F2
330
52
100
AcDbEntity
  8
LAY-1
  6
Continuous
 62
     7
100
AcDbLine
 10
76.89014127144245
 20
128.847497477296
 30
0.0
 11
88.03688967624245
 21
128.847497477296
 31
0.0
  0
LINE
  5
F3
330
52
100
AcDbEntity
  8
LAY-1
  6
Continuous
 62
     7
100
AcDbLine
 10
90.89014127144245
 20
119.347497477296
 30
0.0
 11
90.89014127144245
 21
127.847497477296
 31
0.0
  0
LINE
  5
F4
330
52
100
AcDbEntity
  8
LAY-1
  6
Continuous
 62
     7
100
AcDbLine
 10
90.89014127144245
 20
119.347497477296
 30
0.0
 11
90.89014127144245
 21
127.847497477296
 31
0.0
  0
LINE
  5
F5
330
52
100
AcDbEntity
  8
LAY-1
  6
Continuous
 62
     7
100
AcDbLine
 10
96.39014127144245
 20
132.347497477296
 30
0.0
 11
96.39014127144245
 21
131.347497477296
 31
0.0
  0
LINE
  5
F6
330
52
100
AcDbEntity
  8
LAY-1
  6
Continuous
 62
     7
100
AcDbLine
 10
85.75014127144246
 20
128.847497477296
 30
0.0
 11
76.89014127144245
 21
128.847497477296
 31
0.0
  0
LINE
  5
F7
330
52
100
AcDbEntity
  8
LAY-1
  6
Continuous
 62
     7
100
AcDbLine
 10
178.8901412714452
 20
133.847497477296
 30
0.0
 11
178.8901412714452
 21
128.847497477296
 31
0.0
  0
LINE
  5
F8
330
52
100
AcDbEntity
  8
LAY-1
  6
Continuous
 62
     7
100
AcDbLine
 10
146.8901412714396
 20
128.847497477296
 30
0.0
 11
146.8901412714396
 21
133.847497477296
 31
0.0
  0
LINE
  5
F9
330
52
100
AcDbEntity
  8
1
  6
Continuous
 62
     7
100
AcDbLine
 10
176.8901412714425
 20
119.347497477296
 30
0.0
 11
176.8901412714425
 21
102.847497477296
 31
0.0
  0
LINE
  5
FA
330
52
100
AcDbEntity
  8
LAY-1
  6
Continuous
 62
     7
100
AcDbLine
 10
148.8901412714425
 20
102.847497477296
 30
0.0
 11
149.8901412714425
 21
101.847497477296
 31
0.0
  0
LINE
  5
FB
330
52
100
AcDbEntity
  8
LAY-1
  6
Continuous
 62
     7
100
AcDbLine
 10
148.8901412714425
 20
119.347497477296
 30
0.0
 11
148.8901412714425
 21
102.847497477296
 31
0.0
  0
LINE
  5
FC
330
52
100
AcDbEntity
  8
LAY-1
  6
Continuous
 62
     7
100
AcDbLine
 10
146.8901412714396
 20
128.847497477296
 30
0.0
 11
162.8901412714425
 21
128.847497477296
 31
0.0
  0
LINE
  5
FD
330
52
100
AcDbEntity
  8
LAY-1
  6
Continuous
 62
     7
100
AcDbLine
 10
148.8901412714425
 20
127.847497477296
 30
0.0
 11
148.8901412714425
 21
119.347497477296
 31
0.0
  0
LINE
  5
FE
330
52
100
AcDbEntity
  8
LAY-1
  6
Continuous
 62
     7
100
AcDbLine
 10
148.8901412714425
 20
127.847497477296
 30
0.0
 11
148.8901412714425
 21
119.347497477296
 31
0.0
  0
LINE
  5
FF
330
52
100
AcDbEntity
  8
LAY-1
  6
Continuous
 62
     7
100
AcDbLine
 10
146.8901412714396
 20
130.347497477296
 30
0.0
 11
146.8901412714396
 21
131.347497477296
 31
0.0
  0
LINE
  5
100
330
52
100
AcDbEntity
  8
LAY-1
  6
Continuous
 62
     7
100
AcDbLine
 10
162.8901412714425
 20
128.847497477296
 30
0.0
 11
154.0301412714424
 21
128.847497477296
 31
0.0
  0
LINE
  5
101
330
52
100
AcDbEntity
  8
LAY-1
  6
Continuous
 62
     7
100
AcDbLine
 10
149.8901412714425
 20
101.847497477296
 30
0.0
 11
175.8901412714425
 21
101.847497477296
 31
0.0
  0
LINE
  5
102
330
52
100
AcDbEntity
  8
LAY-1
  6
Continuous
 62
     7
100
AcDbLine
 10
175.8901412714425
 20
101.847497477296
 30
0.0
 11
176.8901412714425
 21
102.847497477296
 31
0.0
  0
LINE
  5
103
330
52
100
AcDbEntity
  8
LAY-1
  6
Continuous
 62
     7
100
AcDbLine
 10
162.8901412714425
 20
128.847497477296
 30
0.0
 11
178.8901412714452
 21
128.847497477296
 31
0.0
  0
LINE
  5
104
330
52
100
AcDbEntity
  8
LAY-1
  6
Continuous
 62
     7
100
AcDbLine
 10
176.8901412714425
 20
119.347497477296
 30
0.0
 11
176.8901412714425
 21
127.847497477296
 31
0.0
  0
LINE
  5
105
330
52
100
AcDbEntity
  8
LAY-1
  6
Continuous
 62
     7
100
AcDbLine
 10
176.8901412714425
 20
119.347497477296
 30
0.0
 11
176.8901412714425
 21
127.847497477296
 31
0.0
  0
LINE
  5
106
330
52
100
AcDbEntity
  8
LAY-1
  6
Continuous
 62
     7
100
AcDbLine
 10
178.8901412714452
 20
132.347497477296
 30
0.0
 11
178.8901412714452
 21
131.347497477296
 31
0.0
  0
LINE
  5
107
330
52
100
AcDbEntity
  8
LAY-1
  6
Continuous
 62
     7
100
AcDbLine
 10
171.7501412714425
 20
128.847497477296
 30
0.0
 11
162.8901412714425
 21
128.847497477296
 31
0.0
  0
ARC
  5
108
330
52
100
AcDbEntity
  8
LAY-1
  6
Continuous
 62
     7
100
AcDbCircle
 10
61.89014127144244
 20
127.847497477296
 30
0.0
 40
1.0
100
AcDbArc
 50
0.0
 51
90.0
  0
ARC
  5
109
330
52
100
AcDbEntity
  8
LAY-1
  6
Continuous
 62
     7
100
AcDbCircle
 10
91.89014127144245
 20
127.847497477296
 30
0.0
 40
1.0
100
AcDbArc
 50
90.0
 51
180.0
  0
ARC
  5
10A
330
52
100
AcDbEntity
  8
LAY-1
  6
Continuous
 62
     7
100
AcDbCircle
 10
147.8901412714425
 20
127.847497477296
 30
0.0
 40
1.0
100
AcDbArc
 50
0.0
 51
90.0
  0
ARC
  5
10B
330
52
100
AcDbEntity
  8
LAY-1
  6
Continuous
 62
     7
100
AcDbCircle
 10
177.8901412714425
 20
127.847497477296
 30
0.0
 40
1.0
100
AcDbArc
 50
90.0
 51
180.0
  0
CIRCLE
  5
10C
330
52
100
AcDbEntity
  8
1
  6
Continuous
 62
     2
100
AcDbCircle
 10
76.89014127144245
 20
197.582625929022
 30
0.0
 40
9.319999999999993
  0
CIRCLE
  5
10D
330
52
100
AcDbEntity
  8
1
  6
Continuous
 62
     7
100
AcDbCircle
 10
76.89014127144245
 20
197.582625929022
 30
0.0
 40
10.47999999999999
  0
CIRCLE
  5
10E
330
52
100
AcDbEntity
  8
LAY-1
  6
Continuous
 62
     7
100
AcDbCircle
 10
76.89014127144245
 20
197.582625929022
 30
0.0
 40
12.05850000000001
  0
ENDBLK
  5
54
330
52
100
AcDbEntity
  8
0
100
AcDbBlockEnd
  0
BLOCK
  5
56
330
55
100
AcDbEntity
  8
0
100
AcDbBlockBegin
  2
nut
 70
     0
 10
53.89014127144244
 20
134.847497477296
 30
0.0
  3
nut
  1

  0
LINE
  5
10F
330
55
100
AcDbEntity
  8
LAY-1
  6
Continuous
 62
     7
100
AcDbLine
 10
185.8901412714425
 20
134.847497477296
 30
0.0
 11
185.8901412714425
 21
138.847497477296
 31
0.0
  0
LINE
  5
110
330
55
100
AcDbEntity
  8
LAY-1
  6
Continuous
 62
     7
100
AcDbLine
 10
185.8901412714425
 20
138.847497477296
 30
0.0
 11
139.8901412714425
 21
138.847497477296
 31
0.0
  0
LINE
  5
111
330
55
100
AcDbEntity
  8
LAY-1
  6
Continuous
 62
     7
100
AcDbLine
 10
139.8901412714425
 20
138.847497477296
 30
0.0
 11
139.8901412714425
 21
134.847497477296
 31
0.0
  0
LINE
  5
112
330
55
100
AcDbEntity
  8
LAY-1
  6
Continuous
 62
     7
100
AcDbLine
 10
99.89014127144245
 20
134.847497477296
 30
0.0
 11
99.89014127144245
 21
138.847497477296
 31
0.0
  0
LINE
  5
113
330
55
100
AcDbEntity
  8
LAY-1
  6
Continuous
 62
     7
100
AcDbLine
 10
99.89014127144245
 20
138.847497477296
 30
0.0
 11
53.89014127144244
 21
138.847497477296
 31
0.0
  0
LINE
  5
114
330
55
100
AcDbEntity
  8
LAY-1
  6
Continuous
 62
     7
100
AcDbLine
 10
53.89014127144244
 20
138.847497477296
 30
0.0
 11
53.89014127144244
 21
134.847497477296
 31
0.0
  0
LINE
  5
115
330
55
100
AcDbEntity
  8
LAY-1
  6
DASH_CENTER
 62
     2
100
AcDbLine
 10
57.79014127144244
 20
193.882625929022
 30
0.0
 11
57.79014127144244
 21
202.382625929022
 31
0.0
  0
LINE
  5
116
330
55
100
AcDbEntity
  8
LAY-1
  6
DASH_CENTER
 62
     2
100
AcDbLine
 10
95.99014127144244
 20
201.682625929022
 30
0.0
 11
95.99014127144244
 21
193.682625929022
 31
0.0
  0
CIRCLE
  5
117
330
55
100
AcDbEntity
  8
1
  6
Continuous
 62
     2
100
AcDbCircle
 10
76.89014127144245
 20
197.582625929022
 30
0.0
 40
13.0
  0
CIRCLE
  5
118
330
55
100
AcDbEntity
  8
1
  6
Continuous
 62
     7
100
AcDbCircle
 10
76.89014127144245
 20
197.582625929022
 30
0.0
 40
13.99999999999989
  0
CIRCLE
  5
119
330
55
100
AcDbEntity
  8
1
  6
Continuous
 62
     7
100
AcDbCircle
 10
76.89014127144245
 20
197.582625929022
 30
0.0
 40
23.00000000000011
  0
CIRCLE
  5
11A
330
55
100
AcDbEntity
  8
LAY-1
  6
Continuous
 62
     7
100
AcDbCircle
 10
57.79014127144244
 20
197.582625929022
 30
0.0
 40
2.5
  0
CIRCLE
  5
11B
330
55
100
AcDbEntity
  8
LAY-1
  6
Continuous
 62
     7
100
AcDbCircle
 10
95.99014127144244
 20
197.582625929022
 30
0.0
 40
2.5
  0
ENDBLK
  5
57
330
55
100
AcDbEntity
  8
0
100
AcDbBlockEnd
  0
BLOCK
  5
148
330
141
100
AcDbEntity
  8
0
100
AcDbBlockBegin
  2
*D5
 70
     1
 10
0.0
 20
0.0
 30
0.0
  3
*D5
  1

  0
LINE
  5
142
330
141
100
AcDbEntity
  8
1
  6
Continuous
 62
     2
100
AcDbLine
 10
57.79014127144244
 20
233.427966132666
 30
0.0
 11
95.99014127144244
 21
233.427966132666
 31
0.0
  0
LINE
  5
143
330
141
100
AcDbEntity
  8
1
  6
Continuous
 62
     2
100
AcDbLine
 10
95.99014127144244
 20
201.682625929022
 30
0.0
 11
95.99014127144244
 21
234.427966132666
 31
0.0
  0
LINE
  5
144
330
141
100
AcDbEntity
  8
1
  6
Continuous
 62
     2
100
AcDbLine
 10
57.79014127144244
 20
202.382625929022
 30
0.0
 11
57.79014127144244
 21
234.427966132666
 31
0.0
  0
SOLID
  5
145
330
141
100
AcDbEntity
  8
1
 62
     2
100
AcDbTrace
 10
61.29014127144244
 20
233.8887498742219
 30
0.0
 11
61.29014127144244
 21
232.9671823911101
 31
0.0
 12
57.79014127144244
 22
233.427966132666
 32
0.0
 13
57.79014127144244
 23
233.427966132666
 33
0.0
  0
SOLID
  5
146
330
141
100
AcDbEntity
  8
1
 62
     2
100
AcDbTrace
 10
92.49014127144244
 20
232.9671823911101
 30
0.0
 11
92.49014127144244
 21
233.8887498742219
 31
0.0
 12
95.99014127144244
 22
233.427966132666
 32
0.0
 13
95.99014127144244
 23
233.427966132666
 33
0.0
  0
MTEXT
  5
147
330
141
100
AcDbEntity
  8
1
 62
     7
100
AcDbMText
 10
74.05549787944045
 20
234.427966132666
 30
0.0
 40
3.5
 41
0.0
 71
     7
 72
     1
  1
38
  7
CONVERTER_12
 11
0.9999999999970619
 21
2.424068405545306E-6
 31
0.0
 73
     1
 44
0.60024009603842
  0
ENDBLK
  5
149
330
141
100
AcDbEntity
  8
0
100
AcDbBlockEnd
  0
BLOCK
  5
153
330
14C
100
AcDbEntity
  8
0
100
AcDbBlockBegin
  2
*D6
 70
     1
 10
0.0
 20
0.0
 30
0.0
  3
*D6
  1

  0
LINE
  5
14D
330
14C
100
AcDbEntity
  8
1
  6
Continuous
 62
     2
100
AcDbLine
 10
62.89014127144246
 20
92.847497477296
 30
0.0
 11
90.89014127144246
 21
92.847497477296
 31
0.0
  0
LINE
  5
14E
330
14C
100
AcDbEntity
  8
1
  6
Continuous
 62
     2
100
AcDbLine
 10
90.89014127144246
 20
102.847497477296
 30
0.0
 11
90.89014127144246
 21
91.847497477296
 31
0.0
  0
LINE
  5
14F
330
14C
100
AcDbEntity
  8
1
  6
Continuous
 62
     2
100
AcDbLine
 10
62.89014127144246
 20
102.847497477296
 30
0.0
 11
62.89014127144246
 21
91.847497477296
 31
0.0
  0
SOLID
  5
150
330
14C
100
AcDbEntity
  8
1
 62
     2
100
AcDbTrace
 10
66.39014127144246
 20
93.30828121885189
 30
0.0
 11
66.39014127144246
 21
92.38671373574012
 31
0.0
 12
62.89014127144246
 22
92.847497477296
 32
0.0
 13
62.89014127144246
 23
92.847497477296
 33
0.0
  0
SOLID
  5
151
330
14C
100
AcDbEntity
  8
1
 62
     2
100
AcDbTrace
 10
87.39014127144246
 20
92.38671373574012
 30
0.0
 11
87.39014127144246
 21
93.30828121885189
 31
0.0
 12
90.89014127144246
 22
92.847497477296
 32
0.0
 13
90.89014127144246
 23
92.847497477296
 33
0.0
  0
MTEXT
  5
152
330
14C
100
AcDbEntity
  8
1
 62
     7
100
AcDbMText
 10
73.36462873735249
 20
93.84749052021968
 30
0.0
 40
3.5
 41
0.0
 71
     7
 72
     1
  1
\C7;{\Fgdt;n}\C7;28
  7
CONVERTER_12
 11
0.9999999999970619
 21
2.424068405545306E-6
 31
0.0
 73
     1
 44
0.60024009603842
  0
ENDBLK
  5
154
330
14C
100
AcDbEntity
  8
0
100
AcDbBlockEnd
  0
BLOCK
  5
15E
330
157
100
AcDbEntity
  8
0
100
AcDbBlockBegin
  2
*D7
 70
     1
 10
0.0
 20
0.0
 30
0.0
  3
*D7
  1

  0
LINE
  5
158
330
157
100
AcDbEntity
  8
1
  6
Continuous
 62
     2
100
AcDbLine
 10
57.39014127144243
 20
84.847497477296
 30
0.0
 11
96.39014127144245
 21
84.847497477296
 31
0.0
  0
LINE
  5
159
330
157
100
AcDbEntity
  8
1
  6
Continuous
 62
     2
100
AcDbLine
 10
96.39014127144245
 20
128.847497477296
 30
0.0
 11
96.39014127144245
 21
83.847497477296
 31
0.0
  0
LINE
  5
15A
330
157
100
AcDbEntity
  8
1
  6
Continuous
 62
     2
100
AcDbLine
 10
57.39014127144243
 20
128.847497477296
 30
0.0
 11
57.39014127144243
 21
83.847497477296
 31
0.0
  0
SOLID
  5
15B
330
157
100
AcDbEntity
  8
1
 62
     2
100
AcDbTrace
 10
60.89014127144243
 20
85.30828121885189
 30
0.0
 11
60.89014127144243
 21
84.38671373574012
 31
0.0
 12
57.39014127144243
 22
84.847497477296
 32
0.0
 13
57.39014127144243
 23
84.847497477296
 33
0.0
  0
SOLID
  5
15C
330
157
100
AcDbEntity
  8
1
 62
     2
100
AcDbTrace
 10
92.89014127144245
 20
84.38671373574012
 30
0.0
 11
92.89014127144245
 21
85.30828121885189
 31
0.0
 12
96.39014127144245
 22
84.847497477296
 32
0.0
 13
96.39014127144245
 23
84.847497477296
 33
0.0
  0
MTEXT
  5
15D
330
157
100
AcDbEntity
  8
1
 62
     7
100
AcDbMText
 10
73.24819740429547
 20
85.84749052021968
 30
0.0
 40
3.5
 41
0.0
 71
     7
 72
     1
  1
\C7;{\Fgdt;n}\C7;39
  7
CONVERTER_12
 11
0.9999999999970619
 21
2.424068405545306E-6
 31
0.0
 73
     1
 44
0.60024009603842
  0
ENDBLK
  5
15F
330
157
100
AcDbEntity
  8
0
100
AcDbBlockEnd
  0
BLOCK
  5
169
330
162
100
AcDbEntity
  8
0
100
AcDbBlockBegin
  2
*D8
 70
     1
 10
0.0
 20
0.0
 30
0.0
  3
*D8
  1

  0
LINE
  5
163
330
162
100
AcDbEntity
  8
1
  6
Continuous
 62
     2
100
AcDbLine
 10
139.8901412714424
 20
149.847497477296
 30
0.0
 11
185.8901412714424
 21
149.847497477296
 31
0.0
  0
LINE
  5
164
330
162
100
AcDbEntity
  8
1
  6
Continuous
 62
     2
100
AcDbLine
 10
185.8901412714424
 20
138.847497477296
 30
0.0
 11
185.8901412714424
 21
150.847497477296
 31
0.0
  0
LINE
  5
165
330
162
100
AcDbEntity
  8
1
  6
Continuous
 62
     2
100
AcDbLine
 10
139.8901412714424
 20
138.847497477296
 30
0.0
 11
139.8901412714424
 21
150.847497477296
 31
0.0
  0
SOLID
  5
166
330
162
100
AcDbEntity
  8
1
 62
     2
100
AcDbTrace
 10
143.3901412714424
 20
150.3082812188519
 30
0.0
 11
143.3901412714424
 21
149.3867137357401
 31
0.0
 12
139.8901412714424
 22
149.847497477296
 32
0.0
 13
139.8901412714424
 23
149.847497477296
 33
0.0
  0
SOLID
  5
167
330
162
100
AcDbEntity
  8
1
 62
     2
100
AcDbTrace
 10
182.3901412714424
 20
149.3867137357401
 30
0.0
 11
182.3901412714424
 21
150.3082812188519
 31
0.0
 12
185.8901412714424
 22
149.847497477296
 32
0.0
 13
185.8901412714424
 23
149.847497477296
 33
0.0
  0
MTEXT
  5
168
330
162
100
AcDbEntity
  8
1
 62
     7
100
AcDbMText
 10
159.8805486054688
 20
150.8474905202197
 30
0.0
 40
3.5
 41
0.0
 71
     7
 72
     1
  1
\C7;{\Fgdt;n}\C7;46
  7
CONVERTER_12
 11
0.9999999999970619
 21
2.424068405545306E-6
 31
0.0
 73
     1
 44
0.60024009603842
  0
ENDBLK
  5
16A
330
162
100
AcDbEntity
  8
0
100
AcDbBlockEnd
  0
BLOCK
  5
174
330
16D
100
AcDbEntity
  8
0
100
AcDbBlockBegin
  2
*D9
 70
     1
 10
0.0
 20
0.0
 30
0.0
  3
*D9
  1

  0
LINE
  5
16E
330
16D
100
AcDbEntity
  8
1
  6
Continuous
 62
     2
100
AcDbLine
 10
32.39014127144245
 20
138.847497477296
 30
0.0
 11
32.39014127144245
 21
101.847497477296
 31
0.0
  0
LINE
  5
16F
330
16D
100
AcDbEntity
  8
1
  6
Continuous
 62
     2
100
AcDbLine
 10
63.89014127144245
 20
101.847497477296
 30
0.0
 11
31.39014127144245
 21
101.847497477296
 31
0.0
  0
LINE
  5
170
330
16D
100
AcDbEntity
  8
1
  6
Continuous
 62
     2
100
AcDbLine
 10
53.89014127144244
 20
138.847497477296
 30
0.0
 11
31.39014127144245
 21
138.847497477296
 31
0.0
  0
SOLID
  5
171
330
16D
100
AcDbEntity
  8
1
 62
     2
100
AcDbTrace
 10
32.85092501299833
 20
135.347497477296
 30
0.0
 11
31.92935752988656
 21
135.347497477296
 31
0.0
 12
32.39014127144245
 22
138.847497477296
 32
0.0
 13
32.39014127144245
 23
138.847497477296
 33
0.0
  0
SOLID
  5
172
330
16D
100
AcDbEntity
  8
1
 62
     2
100
AcDbTrace
 10
31.92935752988656
 20
105.347497477296
 30
0.0
 11
32.85092501299833
 21
105.347497477296
 31
0.0
 12
32.39014127144245
 22
101.847497477296
 32
0.0
 13
32.39014127144245
 23
101.847497477296
 33
0.0
  0
MTEXT
  5
173
330
16D
100
AcDbEntity
  8
1
 62
     7
100
AcDbMText
 10
31.39014127144245
 20
118.317330622423
 30
0.0
 40
3.5
 41
0.0
 71
     7
 72
     1
  1
37
  7
CONVERTER_12
 11
0.0
 21
1.0
 31
0.0
 73
     1
 44
0.60024009603842
  0
ENDBLK
  5
175
330
16D
100
AcDbEntity
  8
0
100
AcDbBlockEnd
  0
BLOCK
  5
17F
330
178
100
AcDbEntity
  8
0
100
AcDbBlockBegin
  2
*D10
 70
     1
 10
0.0
 20
0.0
 30
0.0
  3
*D10
  1

  0
LINE
  5
179
330
178
100
AcDbEntity
  8
1
  6
Continuous
 62
     2
100
AcDbLine
 10
40.39014127144244
 20
138.847497477296
 30
0.0
 11
40.39014127144244
 21
128.847497477296
 31
0.0
  0
LINE
  5
17A
330
178
100
AcDbEntity
  8
1
  6
Continuous
 62
     2
100
AcDbLine
 10
57.39014127144244
 20
128.847497477296
 30
0.0
 11
39.39014127144244
 21
128.847497477296
 31
0.0
  0
LINE
  5
17B
330
178
100
AcDbEntity
  8
1
  6
Continuous
 62
     2
100
AcDbLine
 10
53.89014127144244
 20
138.847497477296
 30
0.0
 11
39.39014127144244
 21
138.847497477296
 31
0.0
  0
SOLID
  5
17C
330
178
100
AcDbEntity
  8
1
 62
     2
100
AcDbTrace
 10
40.85092501299832
 20
135.347497477296
 30
0.0
 11
39.92935752988655
 21
135.347497477296
 31
0.0
 12
40.39014127144244
 22
138.847497477296
 32
0.0
 13
40.39014127144244
 23
138.847497477296
 33
0.0
  0
SOLID
  5
17D
330
178
100
AcDbEntity
  8
1
 62
     2
100
AcDbTrace
 10
39.92935752988655
 20
132.347497477296
 30
0.0
 11
40.85092501299832
 21
132.347497477296
 31
0.0
 12
40.39014127144244
 22
128.847497477296
 32
0.0
 13
40.39014127144244
 23
128.847497477296
 33
0.0
  0
MTEXT
  5
17E
330
178
100
AcDbEntity
  8
1
 62
     7
100
AcDbMText
 10
39.39014127144244
 20
131.722796337573
 30
0.0
 40
3.5
 41
0.0
 71
     7
 72
     1
  1
10
  7
CONVERTER_12
 11
0.0
 21
1.0
 31
0.0
 73
     1
 44
0.60024009603842
  0
ENDBLK
  5
180
330
178
100
AcDbEntity
  8
0
100
AcDbBlockEnd
  0
BLOCK
  5
18A
330
183
100
AcDbEntity
  8
0
100
AcDbBlockBegin
  2
*D11
 70
     1
 10
0.0
 20
0.0
 30
0.0
  3
*D11
  1

  0
LINE
  5
184
330
183
100
AcDbEntity
  8
1
  6
Continuous
 62
     2
100
AcDbLine
 10
146.8901412714397
 20
92.847497477296
 30
0.0
 11
178.8901412714452
 21
92.847497477296
 31
0.0
  0
LINE
  5
185
330
183
100
AcDbEntity
  8
1
  6
Continuous
 62
     2
100
AcDbLine
 10
178.8901412714452
 20
128.847497477296
 30
0.0
 11
178.8901412714452
 21
91.847497477296
 31
0.0
  0
LINE
  5
186
330
183
100
AcDbEntity
  8
1
  6
Continuous
 62
     2
100
AcDbLine
 10
146.8901412714397
 20
128.847497477296
 30
0.0
 11
146.8901412714397
 21
91.847497477296
 31
0.0
  0
SOLID
  5
187
330
183
100
AcDbEntity
  8
1
 62
     2
100
AcDbTrace
 10
150.3901412714397
 20
93.30828121885189
 30
0.0
 11
150.3901412714397
 21
92.38671373574012
 31
0.0
 12
146.8901412714397
 22
92.847497477296
 32
0.0
 13
146.8901412714397
 23
92.847497477296
 33
0.0
  0
SOLID
  5
188
330
183
100
AcDbEntity
  8
1
 62
     2
100
AcDbTrace
 10
175.3901412714452
 20
92.38671373574012
 30
0.0
 11
175.3901412714452
 21
93.30828121885189
 31
0.0
 12
178.8901412714452
 22
92.847497477296
 32
0.0
 13
178.8901412714452
 23
92.847497477296
 33
0.0
  0
MTEXT
  5
189
330
183
100
AcDbEntity
  8
1
 62
     7
100
AcDbMText
 10
160.4865467563265
 20
93.847497477296
 30
0.0
 40
3.5
 41
0.0
 71
     7
 72
     1
  1
32
  7
CONVERTER_12
 11
0.9999999999970619
 21
2.424068405545306E-6
 31
0.0
 73
     1
 44
0.60024009603842
  0
ENDBLK
  5
18B
330
183
100
AcDbEntity
  8
0
100
AcDbBlockEnd
  0
BLOCK
  5
193
330
18E
100
AcDbEntity
  8
0
100
AcDbBlockBegin
  2
*D12
 70
     1
 10
0.0
 20
0.0
 30
0.0
  3
*D12
  1

  0
LINE
  5
18F
330
18E
100
AcDbEntity
  8
1
  6
Continuous
 62
     2
100
AcDbLine
 10
90.78919454357336
 20
191.8369620740904
 30
0.0
 11
108.2771223734844
 21
211.156474479698
 31
0.0
  0
SOLID
  5
190
330
18E
100
AcDbEntity
  8
1
 62
     2
100
AcDbTrace
 10
99.67506667510918
 20
202.3401091319239
 30
0.0
 11
100.3582946722183
 21
201.721654501498
 31
0.0
 12
97.667866022368
 22
199.4360658822257
 32
0.0
 13
97.667866022368
 23
199.4360658822257
 33
0.0
  0
SOLID
  5
191
330
18E
100
AcDbEntity
  8
1
 62
     2
100
AcDbTrace
 10
92.30521586777579
 20
192.82514272612
 30
0.0
 11
91.62198787066667
 21
193.4435973565459
 31
0.0
 12
94.31241652051696
 22
195.7291859758182
 32
0.0
 13
94.31241652051696
 23
195.7291859758182
 33
0.0
  0
MTEXT
  5
192
330
18E
100
AcDbEntity
  8
1
 62
     7
100
AcDbMText
 10
104.2004295873629
 20
208.1429257530992
 30
0.0
 40
3.5
 41
0.0
 71
     7
 72
     1
  1
\C7;{\Fgdt;n}\C7;5
  7
CONVERTER_12
 11
0.6710899003702097
 21
0.7413759812814967
 31
0.0
 73
     1
 44
0.60024009603842
  0
ENDBLK
  5
194
330
18E
100
AcDbEntity
  8
0
100
AcDbBlockEnd
  0
BLOCK
  5
19B
330
196
100
AcDbEntity
  8
0
100
AcDbBlockBegin
  2
*D13
 70
     1
 10
0.0
 20
0.0
 30
0.0
  3
*D13
  1

  0
LINE
  5
197
330
196
100
AcDbEntity
  8
1
  6
Continuous
 62
     2
100
AcDbLine
 10
99.08073180736017
 20
218.8697157176061
 30
0.0
 11
47.78808108746033
 21
169.6654703595708
 31
0.0
  0
SOLID
  5
198
330
196
100
AcDbEntity
  8
1
 62
     2
100
AcDbTrace
 10
56.28141344503611
 20
177.1744741500492
 30
0.0
 11
55.64344629839417
 21
177.8395189197711
 31
0.0
 12
58.48818814409604
 22
179.9299173238546
 32
0.0
 13
58.48818814409604
 23
179.9299173238546
 33
0.0
  0
SOLID
  5
199
330
196
100
AcDbEntity
  8
1
 62
     2
100
AcDbTrace
 10
97.49886909784874
 20
217.9907777079948
 30
0.0
 11
98.13683624449068
 21
217.3257329382728
 31
0.0
 12
95.29209439878883
 22
215.2353345341893
 32
0.0
 13
95.29209439878883
 23
215.2353345341893
 33
0.0
  0
MTEXT
  5
19A
330
196
100
AcDbEntity
  8
1
 62
     7
100
AcDbMText
 10
48.05560614840948
 20
171.30782548005
 30
0.0
 40
3.5
 41
0.0
 71
     7
 72
     1
  1
\C7;{\Fgdt;n}\C7;51
  7
CONVERTER_12
 11
0.7216452206802497
 21
0.69226308255558
 31
0.0
 73
     1
 44
0.60024009603842
  0
ENDBLK
  5
19C
330
196
100
AcDbEntity
  8
0
100
AcDbBlockEnd
  0
ENDSEC
  0
SECTION
  2
ENTITIES
  0
INSERT
  5
58
330
1F
100
AcDbEntity
  8
0
100
AcDbBlockReference
  2
開示A4枠
 10
0.0
 20
0.0
 30
0.0
  0
INSERT
  5
59
330
1F
100
AcDbEntity
  8
1
100
AcDbBlockReference
  2
body
 10
52.89014127144244
 20
101.847497477296
 30
0.0
  0
INSERT
  5
5A
330
1F
100
AcDbEntity
  8
1
100
AcDbBlockReference
  2
nut
 10
53.89014127144244
 20
134.847497477296
 30
0.0
  0
LINE
  5
11C
330
1F
100
AcDbEntity
  8
LAY-1
  6
DASH_CENTER
 62
     2
100
AcDbLine
 10
162.8901412714425
 20
99.847497477296
 30
0.0
 11
162.8901412714425
 21
141.847497477296
 31
0.0
  0
LINE
  5
11D
330
1F
100
AcDbEntity
  8
LAY-124
  6
Continuous
 62
     7
100
AcDbLine
 10
188.3901412714425
 20
133.847497477296
 30
0.0
 11
188.3901412714425
 21
134.847497477296
 31
0.0
  0
LINE
  5
11E
330
1F
100
AcDbEntity
  8
LAY-3
  6
Continuous
 62
     7
100
AcDbLine
 10
188.3901412714425
 20
134.847497477296
 30
0.0
 11
162.8901412714425
 21
134.847497477296
 31
0.0
  0
LINE
  5
11F
330
1F
100
AcDbEntity
  8
LAY-1
  6
Continuous
 62
     7
100
AcDbLine
 10
162.8901412714425
 20
133.847497477296
 30
0.0
 11
188.3901412714425
 21
133.847497477296
 31
0.0
  0
LINE
  5
120
330
1F
100
AcDbEntity
  8
LAY-124
  6
Continuous
 62
     7
100
AcDbLine
 10
137.3901412714425
 20
134.847497477296
 30
0.0
 11
137.3901412714425
 21
133.847497477296
 31
0.0
  0
LINE
  5
121
330
1F
100
AcDbEntity
  8
LAY-3
  6
Continuous
 62
     7
100
AcDbLine
 10
162.8901412714425
 20
134.847497477296
 30
0.0
 11
137.3901412714425
 21
134.847497477296
 31
0.0
  0
LINE
  5
122
330
1F
100
AcDbEntity
  8
LAY-1
  6
Continuous
 62
     7
100
AcDbLine
 10
137.3901412714425
 20
133.847497477296
 30
0.0
 11
162.8901412714425
 21
133.847497477296
 31
0.0
  0
LINE
  5
123
330
1F
100
AcDbEntity
  8
LAY-124
  6
Continuous
 62
     7
100
AcDbLine
 10
102.3901412714425
 20
133.847497477296
 30
0.0
 11
102.3901412714425
 21
134.847497477296
 31
0.0
  0
LINE
  5
124
330
1F
100
AcDbEntity
  8
LAY-3
  6
Continuous
 62
     7
100
AcDbLine
 10
102.3901412714425
 20
134.847497477296
 30
0.0
 11
76.89014127144245
 21
134.847497477296
 31
0.0
  0
LINE
  5
125
330
1F
100
AcDbEntity
  8
LAY-1
  6
Continuous
 62
     7
100
AcDbLine
 10
76.89014127144245
 20
133.847497477296
 30
0.0
 11
102.3901412714425
 21
133.847497477296
 31
0.0
  0
LINE
  5
126
330
1F
100
AcDbEntity
  8
LAY-124
  6
Continuous
 62
     7
100
AcDbLine
 10
51.39014127144244
 20
134.847497477296
 30
0.0
 11
51.39014127144244
 21
133.847497477296
 31
0.0
  0
LINE
  5
127
330
1F
100
AcDbEntity
  8
LAY-124
  6
DASH_CENTER
 62
     2
100
AcDbLine
 10
76.89014127144245
 20
226.082625929022
 30
0.0
 11
76.89014127144245
 21
169.282625929022
 31
0.0
  0
LINE
  5
128
330
1F
100
AcDbEntity
  8
LAY-124
  6
DASH_CENTER
 62
     2
100
AcDbLine
 10
48.39014127144244
 20
197.582625929022
 30
0.0
 11
105.3901412714426
 21
197.582625929022
 31
0.0
  0
LINE
  5
129
330
1F
100
AcDbEntity
  8
LAY-3
  6
Continuous
 62
     7
100
AcDbLine
 10
76.89014127144245
 20
134.847497477296
 30
0.0
 11
51.39014127144244
 21
134.847497477296
 31
0.0
  0
LINE
  5
12A
330
1F
100
AcDbEntity
  8
LAY-1
  6
DASH_CENTER
 62
     2
100
AcDbLine
 10
192.3901412714425
 20
51.04749747729599
 30
0.0
 11
192.3901412714425
 21
50.947497477296
 31
0.0
  0
LINE
  5
12B
330
1F
100
AcDbEntity
  8
LAY-1
  6
Continuous
 62
     7
100
AcDbLine
 10
51.39014127144244
 20
133.847497477296
 30
0.0
 11
76.89014127144245
 21
133.847497477296
 31
0.0
  0
LINE
  5
12C
330
1F
100
AcDbEntity
  8
LAY-1
  6
DASH_CENTER
 62
     2
100
AcDbLine
 10
76.89014127144245
 20
99.847497477296
 30
0.0
 11
76.89014127144245
 21
141.847497477296
 31
0.0
  0
CIRCLE
  5
12D
330
1F
100
AcDbEntity
  8
1
  6
Continuous
 62
     7
100
AcDbCircle
 10
76.89014127144245
 20
197.582625929022
 30
0.0
 40
25.5
  0
SOLID
  5
12E
330
1F
100
AcDbEntity
  8
1
 62
     2
100
AcDbTrace
 10
88.35919169728068
 20
99.04680043482841
 30
0.0
 11
87.5610908456042
 21
98.58601669327253
 31
0.0
 12
86.21014127144244
 22
101.847497477296
 32
0.0
 13
86.21014127144244
 23
101.847497477296
 33
0.0
  0
LEADER
  5
12F
330
1F
100
AcDbEntity
  8
1
  6
Continuous
 62
     2
100
AcDbLeader
  3
Standard
 71
     0
 76
     3
 10
86.21014127144244
 20
101.847497477296
 30
0.0
 10
91.98364396333875
 20
91.847497477296
 30
0.0
 10
114.1716041316979
 20
91.847497477296
 30
0.0
  0
SOLID
  5
130
330
1F
100
AcDbEntity
  8
1
 62
     2
100
AcDbTrace
 10
87.56109084560418
 20
142.1089782613195
 30
0.0
 11
88.35919169728066
 21
141.6481945197636
 31
0.0
 12
86.21014127144244
 22
138.847497477296
 32
0.0
 13
86.21014127144244
 23
138.847497477296
 33
0.0
  0
LEADER
  5
131
330
1F
100
AcDbEntity
  8
1
  6
Continuous
 62
     2
100
AcDbLeader
  3
Standard
 71
     0
 76
     3
 10
86.21014127144244
 20
138.847497477296
 30
0.0
 10
94.16464938118565
 20
152.6251096725899
 30
0.0
 10
108.3526095495448
 20
152.6251096725899
 30
0.0
  0
MTEXT
  5
133
330
1F
100
AcDbEntity
  8
1
 62
     7
100
AcDbMText
 10
157.5000000000001
 20
12.5
 30
0.0
 40
2.5
 41
0.0
 71
     5
 72
     1
  1
10
  7
CONVERTER_12
 73
     1
 44
0.7202881152461
  0
MTEXT
  5
134
330
1F
100
AcDbEntity
  8
1
 62
     7
100
AcDbMText
 10
151.7500000000001
 20
12.5
 30
0.0
 40
2.5
 41
0.0
 71
     5
 72
     1
  1
03
  7
CONVERTER_12
 73
     1
 44
0.7202881152461
  0
MTEXT
  5
135
330
1F
100
AcDbEntity
  8
1
 62
     7
100
AcDbMText
 10
140.5000000000001
 20
12.5
 30
0.0
 40
2.5
 41
0.0
 71
     5
 72
     1
  1
10
  7
CONVERTER_12
 73
     1
 44
0.7202881152461
  0
MTEXT
  5
136
330
1F
100
AcDbEntity
  8
1
 62
     7
100
AcDbMText
 10
134.7500000000001
 20
12.5
 30
0.0
 40
2.5
 41
0.0
 71
     5
 72
     1
  1
03
  7
CONVERTER_12
 73
     1
 44
0.7202881152461
  0
MTEXT
  5
137
330
1F
100
AcDbEntity
  8
1
 62
     7
100
AcDbMText
 10
123.5000000000001
 20
12.5
 30
0.0
 40
2.5
 41
0.0
 71
     5
 72
     1
  1
10
  7
CONVERTER_12
 73
     1
 44
0.7202881152461
  0
MTEXT
  5
138
330
1F
100
AcDbEntity
  8
1
 62
     7
100
AcDbMText
 10
117.7500000000001
 20
12.5
 30
0.0
 40
2.5
 41
0.0
 71
     5
 72
     1
  1
03
  7
CONVERTER_12
 73
     1
 44
0.7202881152461
  0
MTEXT
  5
139
330
1F
100
AcDbEntity
  8
1
 62
     7
100
AcDbMText
 10
100.7500000000001
 20
12.5
 30
0.0
 40
2.5
 41
0.0
 71
     5
 72
     1
  1
03
  7
CONVERTER_12
 73
     1
 44
0.7202881152461
  0
MTEXT
  5
13A
330
1F
100
AcDbEntity
  8
1
 62
     7
100
AcDbMText
 10
106.5000000000001
 20
12.5
 30
0.0
 40
2.5
 41
0.0
 71
     5
 72
     1
  1
10
  7
CONVERTER_12
 73
     1
 44
0.7202881152461
  0
MTEXT
  5
13B
330
1F
100
AcDbEntity
  8
1
 62
     7
100
AcDbMText
 10
106.982405689879
 20
95.31256056330702
 30
0.0
 40
3.0
 41
0.0
 71
     5
 72
     1
  1
Rc1/2
  7
CONVERTER_12
 73
     1
 44
0.7202881152461
  0
MTEXT
  5
13C
330
1F
100
AcDbEntity
  8
1
 62
     7
100
AcDbMText
 10
101.1634111077258
 20
155.6600465865789
 30
0.0
 40
3.0
 41
0.0
 71
     5
 72
     1
  1
Rp1/2
  7
CONVERTER_12
 73
     1
 44
0.7202881152461
  0
MTEXT
  5
13D
330
1F
100
AcDbEntity
  8
1
 62
     7
100
AcDbMText
 10
85.25000000000006
 20
17.0
 30
0.0
 40
3.5
 41
0.0
 71
     5
 72
     1
  1
1
  7
CONVERTER_12
 73
     1
 44
0.7202881152461
  0
MTEXT
  5
13E
330
1F
100
AcDbEntity
  8
1
 62
     7
100
AcDbMText
 10
57.00000000000004
 20
22.75
 30
0.0
 40
3.5
 41
0.0
 71
     5
 72
     1
  1
ユニット取出し金具
  7
CONVERTER_11
 73
     1
 44
0.54545454545455
  0
MTEXT
  5
13F
330
1F
100
AcDbEntity
  8
1
 62
     7
100
AcDbMText
 10
57.00000000000004
 20
14.25
 30
0.0
 40
3.5
 41
0.0
 71
     5
 72
     1
  1
T2220-13
  7
CONVERTER_12
 73
     1
 44
0.7202881152461
  0
MTEXT
  5
140
330
1F
100
AcDbEntity
  8
1
 62
     7
100
AcDbMText
 10
93.75000000000006
 20
17.0
 30
0.0
 40
3.5
 41
0.0
 71
     5
 72
     1
  1
1
  7
CONVERTER_12
 73
     1
 44
0.7202881152461
  0
DIMENSION
  5
14B
330
1F
100
AcDbEntity
  8
1
100
AcDbDimension
  2
*D5
 10
57.79014127144244
 20
233.427966132666
 30
0.0
 11
76.68049787944045
 21
236.177966132666
 31
0.0
 70
    32
  1
38
 71
     5
 42
-1.0
 53
0.00013888888889
  3
ME10_DIM_10
100
AcDbAlignedDimension
 13
95.99014127144244
 23
201.682625929022
 33
0.0
 14
57.79014127144244
 24
202.382625929022
 34
0.0
100
AcDbRotatedDimension
  0
DIMENSION
  5
156
330
1F
100
AcDbEntity
  8
1
100
AcDbDimension
  2
*D6
 10
62.89014127144246
 20
92.847497477296
 30
0.0
 11
76.75962873734406
 21
95.597497477296
 31
0.0
 70
    32
  1
<>
 71
     5
 42
-1.0
 53
0.00013888888889
  3
ME10_DIM_11
100
AcDbAlignedDimension
 13
90.89014127144245
 23
102.847497477296
 33
0.0
 14
62.89014127144244
 24
102.847497477296
 34
0.0
100
AcDbRotatedDimension
  0
DIMENSION
  5
161
330
1F
100
AcDbEntity
  8
1
100
AcDbDimension
  2
*D7
 10
57.39014127144243
 20
84.847497477296
 30
0.0
 11
76.64319740428704
 21
87.597497477296
 31
0.0
 70
    32
  1
<>
 71
     5
 42
-1.0
 53
0.00013888888889
  3
ME10_DIM_12
100
AcDbAlignedDimension
 13
96.39014127144245
 23
128.847497477296
 33
0.0
 14
57.39014127144244
 24
128.847497477296
 34
0.0
100
AcDbRotatedDimension
  0
DIMENSION
  5
16C
330
1F
100
AcDbEntity
  8
1
100
AcDbDimension
  2
*D8
 10
139.8901412714424
 20
149.847497477296
 30
0.0
 11
163.2755486054604
 21
152.597497477296
 31
0.0
 70
    32
  1
<>
 71
     5
 42
-1.0
 53
0.00013888888889
  3
ME10_DIM_13
100
AcDbAlignedDimension
 13
185.8901412714425
 23
138.847497477296
 33
0.0
 14
139.8901412714425
 24
138.847497477296
 34
0.0
100
AcDbRotatedDimension
  0
DIMENSION
  5
177
330
1F
100
AcDbEntity
  8
1
100
AcDbDimension
  2
*D9
 10
32.39014127144245
 20
138.847497477296
 30
0.0
 11
29.64014127144245
 21
120.942330622423
 31
0.0
 70
    32
  1
<>
 71
     5
 42
-1.0
 53
90.0
  3
ME10_DIM_14
100
AcDbAlignedDimension
 13
63.89014127144244
 23
101.847497477296
 33
0.0
 14
53.89014127144244
 24
138.847497477296
 34
0.0
 50
90.0
100
AcDbRotatedDimension
  0
DIMENSION
  5
182
330
1F
100
AcDbEntity
  8
1
100
AcDbDimension
  2
*D10
 10
40.39014127144244
 20
138.847497477296
 30
0.0
 11
37.64014127144244
 21
133.822796337573
 31
0.0
 70
    32
  1
<>
 71
     5
 42
-1.0
 53
90.0
  3
ME10_DIM_15
100
AcDbAlignedDimension
 13
57.39014127144244
 23
128.847497477296
 33
0.0
 14
53.89014127144244
 24
138.847497477296
 34
0.0
 50
90.0
100
AcDbRotatedDimension
  0
DIMENSION
  5
18D
330
1F
100
AcDbEntity
  8
1
100
AcDbDimension
  2
*D11
 10
146.8901412714397
 20
92.847497477296
 30
0.0
 11
163.1115467563265
 21
95.597497477296
 31
0.0
 70
    32
  1
<>
 71
     5
 42
-1.0
 53
0.00013888888889
  3
ME10_DIM_16
100
AcDbAlignedDimension
 13
178.8901412714452
 23
128.847497477296
 33
0.0
 14
146.8901412714396
 24
128.847497477296
 34
0.0
100
AcDbRotatedDimension
  0
INSERT
  5
195
330
1F
100
AcDbEntity
  8
1
100
AcDbBlockReference
  2
*D12
 10
0.0
 20
0.0
 30
0.0
  0
INSERT
  5
19D
330
1F
100
AcDbEntity
  8
1
100
AcDbBlockReference
  2
*D13
 10
0.0
 20
0.0
 30
0.0
  0
ENDSEC
  0
SECTION
  2
OBJECTS
  0
DICTIONARY
  5
C
330
0
100
AcDbDictionary
281
     1
  3
ACAD_GROUP
350
D
  3
ACAD_LAYOUT
350
1A
  3
ACAD_MATERIAL
350
3B
  3
ACAD_MLEADERSTYLE
350
1A0
  3
ACAD_MLINESTYLE
350
17
  3
ACAD_PLOTSETTINGS
350
19
  3
ACAD_PLOTSTYLENAME
350
E
  3
ACAD_VISUALSTYLE
350
2A
  3
AcDbVariableDictionary
350
19E
  0
DICTIONARY
  5
D
102
{ACAD_REACTORS
330
C
102
}
330
C
100
AcDbDictionary
281
     1
  0
DICTIONARY
  5
1A
102
{ACAD_REACTORS
330
C
102
}
330
C
100
AcDbDictionary
281
     1
  3
Layout1
350
1E
  3
Layout2
350
26
  3
Model
350
22
  0
DICTIONARY
  5
3B
102
{ACAD_REACTORS
330
C
102
}
330
C
100
AcDbDictionary
281
     1
  3
ByBlock
350
3D
  3
ByLayer
350
3C
  3
Global
350
3E
  0
DICTIONARY
  5
1A0
102
{ACAD_REACTORS
330
C
102
}
330
C
100
AcDbDictionary
281
     1
  0
DICTIONARY
  5
17
102
{ACAD_REACTORS
330
C
102
}
330
C
100
AcDbDictionary
281
     1
  3
Standard
350
18
  0
DICTIONARY
  5
19
102
{ACAD_REACTORS
330
C
102
}
330
C
100
AcDbDictionary
281
     1
  0
ACDBDICTIONARYWDFLT
  5
E
102
{ACAD_REACTORS
330
C
102
}
330
C
100
AcDbDictionary
281
     1
  3
Normal
350
F
100
AcDbDictionaryWithDefault
340
F
  0
DICTIONARY
  5
2A
102
{ACAD_REACTORS
330
C
102
}
330
C
100
AcDbDictionary
281
     1
  3
2dWireframe
350
2F
  3
3D Hidden
350
31
  3
3dWireframe
350
30
  3
Basic
350
32
  3
Brighten
350
36
  3
ColorChange
350
3A
  3
Conceptual
350
34
  3
Dim
350
35
  3
Facepattern
350
39
  3
Flat
350
2B
  3
FlatWithEdges
350
2C
  3
Gouraud
350
2D
  3
GouraudWithEdges
350
2E
  3
Linepattern
350
38
  3
Realistic
350
33
  3
Thicken
350
37
  0
DICTIONARY
  5
19E
102
{ACAD_REACTORS
330
C
102
}
330
C
100
AcDbDictionary
281
     1
  3
DIMASSOC
350
1A1
  3
HIDETEXT
350
1A2
  0
LAYOUT
  5
1E
102
{ACAD_REACTORS
330
1A
102
}
330
1A
100
AcDbPlotSettings
  1

  2
none_device
  4

  6

 40
0.0
 41
0.0
 42
0.0
 43
0.0
 44
0.0
 45
0.0
 46
0.0
 47
0.0
 48
0.0
 49
0.0
140
0.0
141
0.0
142
1.0
143
1.0
 70
   688
 72
     0
 73
     0
 74
     5
  7

 75
    16
147
1.0
148
0.0
149
0.0
100
AcDbLayout
  1
Layout1
 70
     1
 71
     1
 10
0.0
 20
0.0
 11
12.0
 21
9.0
 12
0.0
 22
0.0
 32
0.0
 14
1.00000000000000E+20
 24
1.00000000000000E+20
 34
1.00000000000000E+20
 15
-1.00000000000000E+20
 25
-1.00000000000000E+20
 35
-1.00000000000000E+20
146
0.0
 13
0.0
 23
0.0
 33
0.0
 16
1.0
 26
0.0
 36
0.0
 17
0.0
 27
1.0
 37
0.0
 76
     0
330
1B
  0
LAYOUT
  5
26
102
{ACAD_REACTORS
330
1A
102
}
330
1A
100
AcDbPlotSettings
  1

  2
none_device
  4

  6

 40
0.0
 41
0.0
 42
0.0
 43
0.0
 44
0.0
 45
0.0
 46
0.0
 47
0.0
 48
0.0
 49
0.0
140
0.0
141
0.0
142
1.0
143
1.0
 70
   688
 72
     0
 73
     0
 74
     5
  7

 75
    16
147
1.0
148
0.0
149
0.0
100
AcDbLayout
  1
Layout2
 70
     1
 71
     2
 10
0.0
 20
0.0
 11
0.0
 21
0.0
 12
0.0
 22
0.0
 32
0.0
 14
0.0
 24
0.0
 34
0.0
 15
0.0
 25
0.0
 35
0.0
146
0.0
 13
0.0
 23
0.0
 33
0.0
 16
1.0
 26
0.0
 36
0.0
 17
0.0
 27
1.0
 37
0.0
 76
     0
330
23
  0
LAYOUT
  5
22
102
{ACAD_REACTORS
330
1A
102
}
330
1A
100
AcDbPlotSettings
  1

  2
none_device
  4

  6

 40
0.0
 41
0.0
 42
0.0
 43
0.0
 44
0.0
 45
0.0
 46
0.0
 47
0.0
 48
0.0
 49
0.0
140
0.0
141
0.0
142
1.0
143
1.0
 70
  1712
 72
     0
 73
     0
 74
     0
  7

 75
     0
147
1.0
148
0.0
149
0.0
100
AcDbLayout
  1
Model
 70
     1
 71
     0
 10
0.0
 20
0.0
 11
12.0
 21
9.0
 12
0.0
 22
0.0
 32
0.0
 14
0.0
 24
0.0
 34
0.0
 15
210.0
 25
297.0
 35
0.0
146
0.0
 13
0.0
 23
0.0
 33
0.0
 16
1.0
 26
0.0
 36
0.0
 17
0.0
 27
1.0
 37
0.0
 76
     0
330
1F
331
29
  0
MATERIAL
  5
3D
102
{ACAD_REACTORS
330
3B
102
}
102
{ACAD_XDICTIONARY
360
1C5
102
}
330
3B
100
AcDbMaterial
  1
ByBlock
  0
MATERIAL
  5
3C
102
{ACAD_REACTORS
330
3B
102
}
102
{ACAD_XDICTIONARY
360
1C3
102
}
330
3B
100
AcDbMaterial
  1
ByLayer
  0
MATERIAL
  5
3E
102
{ACAD_REACTORS
330
3B
102
}
102
{ACAD_XDICTIONARY
360
1C7
102
}
330
3B
100
AcDbMaterial
  1
Global
  0
MLINESTYLE
  5
18
102
{ACAD_REACTORS
330
17
102
}
330
17
100
AcDbMlineStyle
  2
Standard
 70
     0
  3

 62
   256
 51
90.0
 52
90.0
 71
     2
 49
0.5
 62
   256
  6
BYLAYER
 49
-0.5
 62
   256
  6
BYLAYER
  0
ACDBPLACEHOLDER
  5
F
102
{ACAD_REACTORS
330
E
102
}
330
E
  0
VISUALSTYLE
  5
2F
102
{ACAD_REACTORS
330
2A
102
}
102
{ACAD_XDICTIONARY
360
1AB
102
}
330
2A
100
AcDbVisualStyle
  2
2dWireframe
 70
     4
 71
     0
 72
     2
 73
     0
 90
        0
 40
-0.6
 41
-30.0
 62
     5
 63
     7
 74
     1
 91
        4
 64
     7
 65
   257
 75
     1
175
     1
 42
1.0
 92
        0
 66
   257
 43
1.0
 76
     1
 77
     6
 78
     2
 67
     7
 79
     5
170
     0
171
     0
290
     0
174
     0
 93
        1
 44
0.0
173
     0
291
     0
 45
0.0
1001
ACAD
1000
AcDbSavedByObjectVersion
1070
     0
  0
VISUALSTYLE
  5
31
102
{ACAD_REACTORS
330
2A
102
}
102
{ACAD_XDICTIONARY
360
1AF
102
}
330
2A
100
AcDbVisualStyle
  2
3D Hidden
 70
     6
 71
     1
 72
     2
 73
     2
 90
        0
 40
-0.6
 41
-30.0
 62
     5
 63
     7
 74
     2
 91
        2
 64
     7
 65
   257
 75
     2
175
     1
 42
40.0
 92
        0
 66
   257
 43
1.0
 76
     1
 77
     6
 78
     2
 67
     7
 79
     3
170
     0
171
     0
290
     0
174
     0
 93
        1
 44
0.0
173
     0
291
     0
 45
0.0
1001
ACAD
1000
AcDbSavedByObjectVersion
1070
     0
  0
VISUALSTYLE
  5
30
102
{ACAD_REACTORS
330
2A
102
}
102
{ACAD_XDICTIONARY
360
1AD
102
}
330
2A
100
AcDbVisualStyle
  2
3dWireframe
 70
     5
 71
     0
 72
     2
 73
     0
 90
        0
 40
-0.6
 41
-30.0
 62
     5
 63
     7
 74
     1
 91
        4
 64
     7
 65
   257
 75
     1
175
     1
 42
1.0
 92
        0
 66
   257
 43
1.0
 76
     1
 77
     6
 78
     2
 67
     7
 79
     5
170
     0
171
     0
290
     0
174
     0
 93
        1
 44
0.0
173
     0
291
     0
 45
0.0
1001
ACAD
1000
AcDbSavedByObjectVersion
1070
     0
  0
VISUALSTYLE
  5
32
102
{ACAD_REACTORS
330
2A
102
}
102
{ACAD_XDICTIONARY
360
1B1
102
}
330
2A
100
AcDbVisualStyle
  2
Basic
 70
     7
 71
     1
 72
     0
 73
     1
 90
        0
 40
-0.6
 41
-30.0
 62
     5
 63
     7
 74
     0
 91
        4
 64
     7
 65
   257
 75
     1
175
     1
 42
1.0
 92
        8
 66
     7
 43
1.0
 76
     1
 77
     6
 78
     2
 67
     7
 79
     5
170
     0
171
     0
290
     0
174
     0
 93
        1
 44
0.0
173
     0
291
     1
 45
0.0
1001
ACAD
1000
AcDbSavedByObjectVersion
1070
     0
  0
VISUALSTYLE
  5
36
102
{ACAD_REACTORS
330
2A
102
}
102
{ACAD_XDICTIONARY
360
1B9
102
}
330
2A
100
AcDbVisualStyle
  2
Brighten
 70
    12
 71
     2
 72
     2
 73
     0
 90
        0
 40
-0.6
 41
-30.0
 62
     5
 63
     7
 74
     1
 91
        4
 64
     7
 65
   257
 75
     1
175
     1
 42
1.0
 92
        8
 66
     7
 43
1.0
 76
     1
 77
     6
 78
     2
 67
     7
 79
     5
170
     0
171
     0
290
     0
174
     0
 93
        1
 44
50.0
173
     0
291
     1
 45
0.0
1001
ACAD
1000
AcDbSavedByObjectVersion
1070
     0
  0
VISUALSTYLE
  5
3A
102
{ACAD_REACTORS
330
2A
102
}
102
{ACAD_XDICTIONARY
360
1C1
102
}
330
2A
100
AcDbVisualStyle
  2
ColorChange
 70
    16
 71
     2
 72
     2
 73
     3
 90
        0
 40
-0.6
 41
-30.0
 62
     5
 63
     8
 74
     1
 91
        4
 64
     7
 65
   257
 75
     1
175
     1
 42
1.0
 92
        8
 66
     8
 43
1.0
 76
     1
 77
     6
 78
     2
 67
     7
 79
     5
170
     0
171
     0
290
     0
174
     0
 93
        1
 44
0.0
173
     0
291
     1
 45
0.0
1001
ACAD
1000
AcDbSavedByObjectVersion
1070
     0
  0
VISUALSTYLE
  5
34
102
{ACAD_REACTORS
330
2A
102
}
102
{ACAD_XDICTIONARY
360
1B5
102
}
330
2A
100
AcDbVisualStyle
  2
Conceptual
 70
     9
 71
     3
 72
     2
 73
     0
 90
        0
 40
-0.6
 41
-30.0
 62
     5
 63
     7
 74
     2
 91
        2
 64
     7
 65
   257
 75
     1
175
     1
 42
40.0
 92
        8
 66
     7
 43
1.0
 76
     1
 77
     6
 78
     2
 67
     7
 79
     3
170
     0
171
     0
290
     0
174
     0
 93
        1
 44
0.0
173
     0
291
     0
 45
0.0
1001
ACAD
1000
AcDbSavedByObjectVersion
1070
     0
  0
VISUALSTYLE
  5
35
102
{ACAD_REACTORS
330
2A
102
}
102
{ACAD_XDICTIONARY
360
1B7
102
}
330
2A
100
AcDbVisualStyle
  2
Dim
 70
    11
 71
     2
 72
     2
 73
     0
 90
        0
 40
-0.6
 41
-30.0
 62
     5
 63
     7
 74
     1
 91
        4
 64
     7
 65
   257
 75
     1
175
     1
 42
1.0
 92
        8
 66
     7
 43
1.0
 76
     1
 77
     6
 78
     2
 67
     7
 79
     5
170
     0
171
     0
290
     0
174
     0
 93
        1
 44
-50.0
173
     0
291
     1
 45
0.0
1001
ACAD
1000
AcDbSavedByObjectVersion
1070
     0
  0
VISUALSTYLE
  5
39
102
{ACAD_REACTORS
330
2A
102
}
102
{ACAD_XDICTIONARY
360
1BF
102
}
330
2A
100
AcDbVisualStyle
  2
Facepattern
 70
    15
 71
     2
 72
     2
 73
     0
 90
        0
 40
-0.6
 41
-30.0
 62
     5
 63
     7
 74
     1
 91
        4
 64
     7
 65
   257
 75
     1
175
     1
 42
1.0
 92
        8
 66
     7
 43
1.0
 76
     1
 77
     6
 78
     2
 67
     7
 79
     5
170
     0
171
     0
290
     0
174
     0
 93
        1
 44
0.0
173
     0
291
     1
 45
0.0
1001
ACAD
1000
AcDbSavedByObjectVersion
1070
     0
  0
VISUALSTYLE
  5
2B
102
{ACAD_REACTORS
330
2A
102
}
102
{ACAD_XDICTIONARY
360
1A3
102
}
330
2A
100
AcDbVisualStyle
  2
Flat
 70
     0
 71
     2
 72
     1
 73
     1
 90
        2
 40
-0.6
 41
30.0
 62
     5
 63
     7
 74
     0
 91
        4
 64
     7
 65
   257
 75
     1
175
     1
 42
1.0
 92
        8
 66
     7
 43
1.0
 76
     1
 77
     6
 78
     2
 67
     7
 79
     5
170
     0
171
     0
290
     0
174
     0
 93
       13
 44
0.0
173
     0
291
     1
 45
0.0
1001
ACAD
1000
AcDbSavedByObjectVersion
1070
     0
  0
VISUALSTYLE
  5
2C
102
{ACAD_REACTORS
330
2A
102
}
102
{ACAD_XDICTIONARY
360
1A5
102
}
330
2A
100
AcDbVisualStyle
  2
FlatWithEdges
 70
     1
 71
     2
 72
     1
 73
     1
 90
        2
 40
-0.6
 41
30.0
 62
     5
 63
     7
 74
     1
 91
        4
 64
     7
 65
   257
 75
     1
175
     1
 42
1.0
 92
        0
 66
   257
 43
1.0
 76
     1
 77
     6
 78
     2
 67
     7
 79
     5
170
     0
171
     0
290
     0
174
     0
 93
       13
 44
0.0
173
     0
291
     1
 45
0.0
1001
ACAD
1000
AcDbSavedByObjectVersion
1070
     0
  0
VISUALSTYLE
  5
2D
102
{ACAD_REACTORS
330
2A
102
}
102
{ACAD_XDICTIONARY
360
1A7
102
}
330
2A
100
AcDbVisualStyle
  2
Gouraud
 70
     2
 71
     2
 72
     2
 73
     1
 90
        2
 40
-0.6
 41
30.0
 62
     5
 63
     7
 74
     0
 91
        4
 64
     7
 65
   257
 75
     1
175
     1
 42
1.0
 92
        0
 66
     7
 43
1.0
 76
     1
 77
     6
 78
     2
 67
     7
 79
     5
170
     0
171
     0
290
     0
174
     0
 93
       13
 44
0.0
173
     0
291
     1
 45
0.0
1001
ACAD
1000
AcDbSavedByObjectVersion
1070
     0
  0
VISUALSTYLE
  5
2E
102
{ACAD_REACTORS
330
2A
102
}
102
{ACAD_XDICTIONARY
360
1A9
102
}
330
2A
100
AcDbVisualStyle
  2
GouraudWithEdges
 70
     3
 71
     2
 72
     2
 73
     1
 90
        2
 40
-0.6
 41
30.0
 62
     5
 63
     7
 74
     1
 91
        4
 64
     7
 65
   257
 75
     1
175
     1
 42
1.0
 92
        0
 66
   257
 43
1.0
 76
     1
 77
     6
 78
     2
 67
     7
 79
     5
170
     0
171
     0
290
     0
174
     0
 93
       13
 44
0.0
173
     0
291
     1
 45
0.0
1001
ACAD
1000
AcDbSavedByObjectVersion
1070
     0
  0
VISUALSTYLE
  5
38
102
{ACAD_REACTORS
330
2A
102
}
102
{ACAD_XDICTIONARY
360
1BD
102
}
330
2A
100
AcDbVisualStyle
  2
Linepattern
 70
    14
 71
     2
 72
     2
 73
     0
 90
        0
 40
-0.6
 41
-30.0
 62
     5
 63
     7
 74
     1
 91
        4
 64
     7
 65
   257
 75
     7
175
     7
 42
1.0
 92
        8
 66
     7
 43
1.0
 76
     1
 77
     6
 78
     2
 67
     7
 79
     5
170
     0
171
     0
290
     0
174
     0
 93
        1
 44
0.0
173
     0
291
     1
 45
0.0
1001
ACAD
1000
AcDbSavedByObjectVersion
1070
     0
  0
VISUALSTYLE
  5
33
102
{ACAD_REACTORS
330
2A
102
}
102
{ACAD_XDICTIONARY
360
1B3
102
}
330
2A
100
AcDbVisualStyle
  2
Realistic
 70
     8
 71
     2
 72
     2
 73
     0
 90
        0
 40
-0.6
 41
-30.0
 62
     5
 63
     7
 74
     1
 91
        0
 64
     7
 65
   257
 75
     1
175
     1
 42
1.0
 92
        8
 66
     8
 43
1.0
 76
     1
 77
     6
 78
     2
 67
     7
 79
     5
170
     0
171
     0
290
     0
174
     0
 93
       13
 44
0.0
173
     0
291
     0
 45
0.0
1001
ACAD
1000
AcDbSavedByObjectVersion
1070
     0
  0
VISUALSTYLE
  5
37
102
{ACAD_REACTORS
330
2A
102
}
102
{ACAD_XDICTIONARY
360
1BB
102
}
330
2A
100
AcDbVisualStyle
  2
Thicken
 70
    13
 71
     2
 72
     2
 73
     0
 90
        0
 40
-0.6
 41
-30.0
 62
     5
 63
     7
 74
     1
 91
        4
 64
     7
 65
   257
 75
     1
175
     1
 42
1.0
 92
       12
 66
     7
 43
1.0
 76
     1
 77
     6
 78
     2
 67
     7
 79
     5
170
     0
171
     0
290
     0
174
     0
 93
        1
 44
0.0
173
     0
291
     1
 45
0.0
1001
ACAD
1000
AcDbSavedByObjectVersion
1070
     0
  0
DICTIONARYVAR
  5
1A1
102
{ACAD_REACTORS
330
19E
102
}
330
19E
100
DictionaryVariables
280
     0
  1
2
  0
DICTIONARYVAR
  5
1A2
102
{ACAD_REACTORS
330
19E
102
}
330
19E
100
DictionaryVariables
280
     0
  1
1
  0
DICTIONARY
  5
1C5
330
3D
100
AcDbDictionary
280
     1
281
     1
  3
ACAD_XREC_ROUNDTRIP
360
1C6
  0
DICTIONARY
  5
1C3
330
3C
100
AcDbDictionary
280
     1
281
     1
  3
ACAD_XREC_ROUNDTRIP
360
1C4
  0
DICTIONARY
  5
1C7
330
3E
100
AcDbDictionary
280
     1
281
     1
  3
ACAD_XREC_ROUNDTRIP
360
1C8
  0
DICTIONARY
  5
1AB
330
2F
100
AcDbDictionary
280
     1
281
     1
  3
ACAD_XREC_ROUNDTRIP
360
1AC
  0
DICTIONARY
  5
1AF
330
31
100
AcDbDictionary
280
     1
281
     1
  3
ACAD_XREC_ROUNDTRIP
360
1B0
  0
DICTIONARY
  5
1AD
330
30
100
AcDbDictionary
280
     1
281
     1
  3
ACAD_XREC_ROUNDTRIP
360
1AE
  0
DICTIONARY
  5
1B1
330
32
100
AcDbDictionary
280
     1
281
     1
  3
ACAD_XREC_ROUNDTRIP
360
1B2
  0
DICTIONARY
  5
1B9
330
36
100
AcDbDictionary
280
     1
281
     1
  3
ACAD_XREC_ROUNDTRIP
360
1BA
  0
DICTIONARY
  5
1C1
330
3A
100
AcDbDictionary
280
     1
281
     1
  3
ACAD_XREC_ROUNDTRIP
360
1C2
  0
DICTIONARY
  5
1B5
330
34
100
AcDbDictionary
280
     1
281
     1
  3
ACAD_XREC_ROUNDTRIP
360
1B6
  0
DICTIONARY
  5
1B7
330
35
100
AcDbDictionary
280
     1
281
     1
  3
ACAD_XREC_ROUNDTRIP
360
1B8
  0
DICTIONARY
  5
1BF
330
39
100
AcDbDictionary
280
     1
281
     1
  3
ACAD_XREC_ROUNDTRIP
360
1C0
  0
DICTIONARY
  5
1A3
330
2B
100
AcDbDictionary
280
     1
281
     1
  3
ACAD_XREC_ROUNDTRIP
360
1A4
  0
DICTIONARY
  5
1A5
330
2C
100
AcDbDictionary
280
     1
281
     1
  3
ACAD_XREC_ROUNDTRIP
360
1A6
  0
DICTIONARY
  5
1A7
330
2D
100
AcDbDictionary
280
     1
281
     1
  3
ACAD_XREC_ROUNDTRIP
360
1A8
  0
DICTIONARY
  5
1A9
330
2E
100
AcDbDictionary
280
     1
281
     1
  3
ACAD_XREC_ROUNDTRIP
360
1AA
  0
DICTIONARY
  5
1BD
330
38
100
AcDbDictionary
280
     1
281
     1
  3
ACAD_XREC_ROUNDTRIP
360
1BE
  0
DICTIONARY
  5
1B3
330
33
100
AcDbDictionary
280
     1
281
     1
  3
ACAD_XREC_ROUNDTRIP
360
1B4
  0
DICTIONARY
  5
1BB
330
37
100
AcDbDictionary
280
     1
281
     1
  3
ACAD_XREC_ROUNDTRIP
360
1BC
  0
XRECORD
  5
1C6
102
{ACAD_REACTORS
330
1C5
102
}
330
1C5
100
AcDbXrecord
280
     1
102
MATERIAL
148
0.0
149
0.0
149
0.0
 93
        0
 94
      127
282
     0
 72
     1
 77
     1
171
     1
175
     1
179
     1
273
     0
  0
XRECORD
  5
1C4
102
{ACAD_REACTORS
330
1C3
102
}
330
1C3
100
AcDbXrecord
280
     1
102
MATERIAL
148
0.0
149
0.0
149
0.0
 93
        0
 94
      127
282
     0
 72
     1
 77
     1
171
     1
175
     1
179
     1
273
     0
  0
XRECORD
  5
1C8
102
{ACAD_REACTORS
330
1C7
102
}
330
1C7
100
AcDbXrecord
280
     1
102
MATERIAL
148
0.0
149
0.0
149
0.0
 93
        0
 94
      127
282
     0
 72
     1
 77
     1
171
     1
175
     1
179
     1
273
     0
  0
XRECORD
  5
1AC
102
{ACAD_REACTORS
330
1AB
102
}
330
1AB
100
AcDbXrecord
280
     1
102
RTVSPropertyOp0
 70
     1
102
RTVSPropertyOp1
 70
     1
102
RTVSPropertyOp2
 70
     1
102
RTVSPropertyOp3
 70
     1
102
RTVSPropertyOp4
 70
     1
102
RTVSPropertyOp5
 70
     1
102
RTVSPropertyOp6
 70
     1
102
RTVSPropertyOp7
 70
     1
102
RTVSPropertyOp8
 70
     1
102
RTVSPropertyOp9
 70
     1
102
RTVSPropertyOp10
 70
     1
102
RTVSPropertyOp11
 70
     1
102
RTVSPropertyOp12
 70
     1
102
RTVSPropertyOp13
 70
     1
102
RTVSPropertyOp14
 70
     1
102
RTVSPropertyOp15
 70
     1
102
RTVSPropertyOp16
 70
     1
102
RTVSPropertyOp17
 70
     1
102
RTVSPropertyOp18
 70
     1
102
RTVSPropertyOp19
 70
     1
102
RTVSPropertyOp20
 70
     1
102
RTVSPropertyOp21
 70
     1
102
RTVSPropertyOp22
 70
     1
102
RTVSPropertyOp23
 70
     1
102
RTVSPropertyOp24
 70
     1
102
RTVSPropertyOp25
 70
     1
102
RTVSPropertyOp26
 70
     1
102
RTVSPropertyOp27
 70
     1
102
RTVSPropertyOp28
 70
     1
102
RTVSPropertyOp29
 70
     1
102
RTVSPropertyOp30
 70
     1
102
RTVSPropertyOp31
 70
     1
102
RTVSPropertyOp32
 70
     1
  0
XRECORD
  5
1B0
102
{ACAD_REACTORS
330
1AF
102
}
330
1AF
100
AcDbXrecord
280
     1
102
RTVSPropertyOp0
 70
     1
102
RTVSPropertyOp1
 70
     1
102
RTVSPropertyOp2
 70
     1
102
RTVSPropertyOp3
 70
     1
102
RTVSPropertyOp4
 70
     1
102
RTVSPropertyOp5
 70
     1
102
RTVSPropertyOp6
 70
     1
102
RTVSPropertyOp7
 70
     1
102
RTVSPropertyOp8
 70
     1
102
RTVSPropertyOp9
 70
     1
102
RTVSPropertyOp10
 70
     1
102
RTVSPropertyOp11
 70
     1
102
RTVSPropertyOp12
 70
     1
102
RTVSPropertyOp13
 70
     1
102
RTVSPropertyOp14
 70
     1
102
RTVSPropertyOp15
 70
     1
102
RTVSPropertyOp16
 70
     1
102
RTVSPropertyOp17
 70
     1
102
RTVSPropertyOp18
 70
     1
102
RTVSPropertyOp19
 70
     1
102
RTVSPropertyOp20
 70
     1
102
RTVSPropertyOp21
 70
     1
102
RTVSPropertyOp22
 70
     1
102
RTVSPropertyOp23
 70
     1
102
RTVSPropertyOp24
 70
     1
102
RTVSPropertyOp25
 70
     1
102
RTVSPropertyOp26
 70
     1
102
RTVSPropertyOp27
 70
     1
102
RTVSPropertyOp28
 70
     1
102
RTVSPropertyOp29
 70
     1
102
RTVSPropertyOp30
 70
     1
102
RTVSPropertyOp31
 70
     1
102
RTVSPropertyOp32
 70
     1
  0
XRECORD
  5
1AE
102
{ACAD_REACTORS
330
1AD
102
}
330
1AD
100
AcDbXrecord
280
     1
102
RTVSPropertyOp0
 70
     1
102
RTVSPropertyOp1
 70
     1
102
RTVSPropertyOp2
 70
     1
102
RTVSPropertyOp3
 70
     1
102
RTVSPropertyOp4
 70
     1
102
RTVSPropertyOp5
 70
     1
102
RTVSPropertyOp6
 70
     1
102
RTVSPropertyOp7
 70
     1
102
RTVSPropertyOp8
 70
     1
102
RTVSPropertyOp9
 70
     1
102
RTVSPropertyOp10
 70
     1
102
RTVSPropertyOp11
 70
     1
102
RTVSPropertyOp12
 70
     1
102
RTVSPropertyOp13
 70
     1
102
RTVSPropertyOp14
 70
     1
102
RTVSPropertyOp15
 70
     1
102
RTVSPropertyOp16
 70
     1
102
RTVSPropertyOp17
 70
     1
102
RTVSPropertyOp18
 70
     1
102
RTVSPropertyOp19
 70
     1
102
RTVSPropertyOp20
 70
     1
102
RTVSPropertyOp21
 70
     1
102
RTVSPropertyOp22
 70
     1
102
RTVSPropertyOp23
 70
     1
102
RTVSPropertyOp24
 70
     1
102
RTVSPropertyOp25
 70
     1
102
RTVSPropertyOp26
 70
     1
102
RTVSPropertyOp27
 70
     1
102
RTVSPropertyOp28
 70
     1
102
RTVSPropertyOp29
 70
     1
102
RTVSPropertyOp30
 70
     1
102
RTVSPropertyOp31
 70
     1
102
RTVSPropertyOp32
 70
     1
  0
XRECORD
  5
1B2
102
{ACAD_REACTORS
330
1B1
102
}
330
1B1
100
AcDbXrecord
280
     1
102
RTVSPropertyOp0
 70
     1
102
RTVSPropertyOp1
 70
     1
102
RTVSPropertyOp2
 70
     1
102
RTVSPropertyOp3
 70
     1
102
RTVSPropertyOp4
 70
     1
102
RTVSPropertyOp5
 70
     1
102
RTVSPropertyOp6
 70
     1
102
RTVSPropertyOp7
 70
     1
102
RTVSPropertyOp8
 70
     1
102
RTVSPropertyOp9
 70
     1
102
RTVSPropertyOp10
 70
     1
102
RTVSPropertyOp11
 70
     1
102
RTVSPropertyOp12
 70
     1
102
RTVSPropertyOp13
 70
     1
102
RTVSPropertyOp14
 70
     1
102
RTVSPropertyOp15
 70
     1
102
RTVSPropertyOp16
 70
     1
102
RTVSPropertyOp17
 70
     1
102
RTVSPropertyOp18
 70
     1
102
RTVSPropertyOp19
 70
     1
102
RTVSPropertyOp20
 70
     1
102
RTVSPropertyOp21
 70
     1
102
RTVSPropertyOp22
 70
     1
102
RTVSPropertyOp23
 70
     1
102
RTVSPropertyOp24
 70
     1
102
RTVSPropertyOp25
 70
     1
102
RTVSPropertyOp26
 70
     1
102
RTVSPropertyOp27
 70
     1
102
RTVSPropertyOp28
 70
     1
102
RTVSPropertyOp29
 70
     1
102
RTVSPropertyOp30
 70
     1
102
RTVSPropertyOp31
 70
     1
102
RTVSPropertyOp32
 70
     1
  0
XRECORD
  5
1BA
102
{ACAD_REACTORS
330
1B9
102
}
330
1B9
100
AcDbXrecord
280
     1
102
RTVSPropertyOp0
 70
     1
102
RTVSPropertyOp1
 70
     1
102
RTVSPropertyOp2
 70
     1
102
RTVSPropertyOp3
 70
     1
102
RTVSPropertyOp4
 70
     1
102
RTVSPropertyOp5
 70
     1
102
RTVSPropertyOp6
 70
     1
102
RTVSPropertyOp7
 70
     1
102
RTVSPropertyOp8
 70
     1
102
RTVSPropertyOp9
 70
     1
102
RTVSPropertyOp10
 70
     1
102
RTVSPropertyOp11
 70
     1
102
RTVSPropertyOp12
 70
     1
102
RTVSPropertyOp13
 70
     1
102
RTVSPropertyOp14
 70
     1
102
RTVSPropertyOp15
 70
     1
102
RTVSPropertyOp16
 70
     1
102
RTVSPropertyOp17
 70
     1
102
RTVSPropertyOp18
 70
     1
102
RTVSPropertyOp19
 70
     1
102
RTVSPropertyOp20
 70
     1
102
RTVSPropertyOp21
 70
     1
102
RTVSPropertyOp22
 70
     1
102
RTVSPropertyOp23
 70
     1
102
RTVSPropertyOp24
 70
     1
102
RTVSPropertyOp25
 70
     1
102
RTVSPropertyOp26
 70
     1
102
RTVSPropertyOp27
 70
     1
102
RTVSPropertyOp28
 70
     1
102
RTVSPropertyOp29
 70
     1
102
RTVSPropertyOp30
 70
     1
102
RTVSPropertyOp31
 70
     1
102
RTVSPropertyOp32
 70
     1
  0
XRECORD
  5
1C2
102
{ACAD_REACTORS
330
1C1
102
}
330
1C1
100
AcDbXrecord
280
     1
102
RTVSPropertyOp0
 70
     1
102
RTVSPropertyOp1
 70
     1
102
RTVSPropertyOp2
 70
     1
102
RTVSPropertyOp3
 70
     1
102
RTVSPropertyOp4
 70
     1
102
RTVSPropertyOp5
 70
     1
102
RTVSPropertyOp6
 70
     1
102
RTVSPropertyOp7
 70
     1
102
RTVSPropertyOp8
 70
     1
102
RTVSPropertyOp9
 70
     1
102
RTVSPropertyOp10
 70
     1
102
RTVSPropertyOp11
 70
     1
102
RTVSPropertyOp12
 70
     1
102
RTVSPropertyOp13
 70
     1
102
RTVSPropertyOp14
 70
     1
102
RTVSPropertyOp15
 70
     1
102
RTVSPropertyOp16
 70
     1
102
RTVSPropertyOp17
 70
     1
102
RTVSPropertyOp18
 70
     1
102
RTVSPropertyOp19
 70
     1
102
RTVSPropertyOp20
 70
     1
102
RTVSPropertyOp21
 70
     1
102
RTVSPropertyOp22
 70
     1
102
RTVSPropertyOp23
 70
     1
102
RTVSPropertyOp24
 70
     1
102
RTVSPropertyOp25
 70
     1
102
RTVSPropertyOp26
 70
     1
102
RTVSPropertyOp27
 70
     1
102
RTVSPropertyOp28
 70
     1
102
RTVSPropertyOp29
 70
     1
102
RTVSPropertyOp30
 70
     1
102
RTVSPropertyOp31
 70
     1
102
RTVSPropertyOp32
 70
     1
  0
XRECORD
  5
1B6
102
{ACAD_REACTORS
330
1B5
102
}
330
1B5
100
AcDbXrecord
280
     1
102
RTVSPropertyOp0
 70
     1
102
RTVSPropertyOp1
 70
     1
102
RTVSPropertyOp2
 70
     1
102
RTVSPropertyOp3
 70
     1
102
RTVSPropertyOp4
 70
     1
102
RTVSPropertyOp5
 70
     1
102
RTVSPropertyOp6
 70
     1
102
RTVSPropertyOp7
 70
     1
102
RTVSPropertyOp8
 70
     1
102
RTVSPropertyOp9
 70
     1
102
RTVSPropertyOp10
 70
     1
102
RTVSPropertyOp11
 70
     1
102
RTVSPropertyOp12
 70
     1
102
RTVSPropertyOp13
 70
     1
102
RTVSPropertyOp14
 70
     1
102
RTVSPropertyOp15
 70
     1
102
RTVSPropertyOp16
 70
     1
102
RTVSPropertyOp17
 70
     1
102
RTVSPropertyOp18
 70
     1
102
RTVSPropertyOp19
 70
     1
102
RTVSPropertyOp20
 70
     1
102
RTVSPropertyOp21
 70
     1
102
RTVSPropertyOp22
 70
     1
102
RTVSPropertyOp23
 70
     1
102
RTVSPropertyOp24
 70
     1
102
RTVSPropertyOp25
 70
     1
102
RTVSPropertyOp26
 70
     1
102
RTVSPropertyOp27
 70
     1
102
RTVSPropertyOp28
 70
     1
102
RTVSPropertyOp29
 70
     1
102
RTVSPropertyOp30
 70
     1
102
RTVSPropertyOp31
 70
     1
102
RTVSPropertyOp32
 70
     1
  0
XRECORD
  5
1B8
102
{ACAD_REACTORS
330
1B7
102
}
330
1B7
100
AcDbXrecord
280
     1
102
RTVSPropertyOp0
 70
     1
102
RTVSPropertyOp1
 70
     1
102
RTVSPropertyOp2
 70
     1
102
RTVSPropertyOp3
 70
     1
102
RTVSPropertyOp4
 70
     1
102
RTVSPropertyOp5
 70
     1
102
RTVSPropertyOp6
 70
     1
102
RTVSPropertyOp7
 70
     1
102
RTVSPropertyOp8
 70
     1
102
RTVSPropertyOp9
 70
     1
102
RTVSPropertyOp10
 70
     1
102
RTVSPropertyOp11
 70
     1
102
RTVSPropertyOp12
 70
     1
102
RTVSPropertyOp13
 70
     1
102
RTVSPropertyOp14
 70
     1
102
RTVSPropertyOp15
 70
     1
102
RTVSPropertyOp16
 70
     1
102
RTVSPropertyOp17
 70
     1
102
RTVSPropertyOp18
 70
     1
102
RTVSPropertyOp19
 70
     1
102
RTVSPropertyOp20
 70
     1
102
RTVSPropertyOp21
 70
     1
102
RTVSPropertyOp22
 70
     1
102
RTVSPropertyOp23
 70
     1
102
RTVSPropertyOp24
 70
     1
102
RTVSPropertyOp25
 70
     1
102
RTVSPropertyOp26
 70
     1
102
RTVSPropertyOp27
 70
     1
102
RTVSPropertyOp28
 70
     1
102
RTVSPropertyOp29
 70
     1
102
RTVSPropertyOp30
 70
     1
102
RTVSPropertyOp31
 70
     1
102
RTVSPropertyOp32
 70
     1
  0
XRECORD
  5
1C0
102
{ACAD_REACTORS
330
1BF
102
}
330
1BF
100
AcDbXrecord
280
     1
102
RTVSPropertyOp0
 70
     1
102
RTVSPropertyOp1
 70
     1
102
RTVSPropertyOp2
 70
     1
102
RTVSPropertyOp3
 70
     1
102
RTVSPropertyOp4
 70
     1
102
RTVSPropertyOp5
 70
     1
102
RTVSPropertyOp6
 70
     1
102
RTVSPropertyOp7
 70
     1
102
RTVSPropertyOp8
 70
     1
102
RTVSPropertyOp9
 70
     1
102
RTVSPropertyOp10
 70
     1
102
RTVSPropertyOp11
 70
     1
102
RTVSPropertyOp12
 70
     1
102
RTVSPropertyOp13
 70
     1
102
RTVSPropertyOp14
 70
     1
102
RTVSPropertyOp15
 70
     1
102
RTVSPropertyOp16
 70
     1
102
RTVSPropertyOp17
 70
     1
102
RTVSPropertyOp18
 70
     1
102
RTVSPropertyOp19
 70
     1
102
RTVSPropertyOp20
 70
     1
102
RTVSPropertyOp21
 70
     1
102
RTVSPropertyOp22
 70
     1
102
RTVSPropertyOp23
 70
     1
102
RTVSPropertyOp24
 70
     1
102
RTVSPropertyOp25
 70
     1
102
RTVSPropertyOp26
 70
     1
102
RTVSPropertyOp27
 70
     1
102
RTVSPropertyOp28
 70
     1
102
RTVSPropertyOp29
 70
     1
102
RTVSPropertyOp30
 70
     1
102
RTVSPropertyOp31
 70
     1
102
RTVSPropertyOp32
 70
     1
  0
XRECORD
  5
1A4
102
{ACAD_REACTORS
330
1A3
102
}
330
1A3
100
AcDbXrecord
280
     1
102
RTVSPropertyOp0
 70
     1
102
RTVSPropertyOp1
 70
     1
102
RTVSPropertyOp2
 70
     1
102
RTVSPropertyOp3
 70
     1
102
RTVSPropertyOp4
 70
     1
102
RTVSPropertyOp5
 70
     1
102
RTVSPropertyOp6
 70
     1
102
RTVSPropertyOp7
 70
     1
102
RTVSPropertyOp8
 70
     1
102
RTVSPropertyOp9
 70
     1
102
RTVSPropertyOp10
 70
     1
102
RTVSPropertyOp11
 70
     1
102
RTVSPropertyOp12
 70
     1
102
RTVSPropertyOp13
 70
     1
102
RTVSPropertyOp14
 70
     1
102
RTVSPropertyOp15
 70
     1
102
RTVSPropertyOp16
 70
     1
102
RTVSPropertyOp17
 70
     1
102
RTVSPropertyOp18
 70
     1
102
RTVSPropertyOp19
 70
     1
102
RTVSPropertyOp20
 70
     1
102
RTVSPropertyOp21
 70
     1
102
RTVSPropertyOp22
 70
     1
102
RTVSPropertyOp23
 70
     1
102
RTVSPropertyOp24
 70
     1
102
RTVSPropertyOp25
 70
     1
102
RTVSPropertyOp26
 70
     1
102
RTVSPropertyOp27
 70
     1
102
RTVSPropertyOp28
 70
     1
102
RTVSPropertyOp29
 70
     1
102
RTVSPropertyOp30
 70
     1
102
RTVSPropertyOp31
 70
     1
102
RTVSPropertyOp32
 70
     1
  0
XRECORD
  5
1A6
102
{ACAD_REACTORS
330
1A5
102
}
330
1A5
100
AcDbXrecord
280
     1
102
RTVSPropertyOp0
 70
     1
102
RTVSPropertyOp1
 70
     1
102
RTVSPropertyOp2
 70
     1
102
RTVSPropertyOp3
 70
     1
102
RTVSPropertyOp4
 70
     1
102
RTVSPropertyOp5
 70
     1
102
RTVSPropertyOp6
 70
     1
102
RTVSPropertyOp7
 70
     1
102
RTVSPropertyOp8
 70
     1
102
RTVSPropertyOp9
 70
     1
102
RTVSPropertyOp10
 70
     1
102
RTVSPropertyOp11
 70
     1
102
RTVSPropertyOp12
 70
     1
102
RTVSPropertyOp13
 70
     1
102
RTVSPropertyOp14
 70
     1
102
RTVSPropertyOp15
 70
     1
102
RTVSPropertyOp16
 70
     1
102
RTVSPropertyOp17
 70
     1
102
RTVSPropertyOp18
 70
     1
102
RTVSPropertyOp19
 70
     1
102
RTVSPropertyOp20
 70
     1
102
RTVSPropertyOp21
 70
     1
102
RTVSPropertyOp22
 70
     1
102
RTVSPropertyOp23
 70
     1
102
RTVSPropertyOp24
 70
     1
102
RTVSPropertyOp25
 70
     1
102
RTVSPropertyOp26
 70
     1
102
RTVSPropertyOp27
 70
     1
102
RTVSPropertyOp28
 70
     1
102
RTVSPropertyOp29
 70
     1
102
RTVSPropertyOp30
 70
     1
102
RTVSPropertyOp31
 70
     1
102
RTVSPropertyOp32
 70
     1
  0
XRECORD
  5
1A8
102
{ACAD_REACTORS
330
1A7
102
}
330
1A7
100
AcDbXrecord
280
     1
102
RTVSPropertyOp0
 70
     1
102
RTVSPropertyOp1
 70
     1
102
RTVSPropertyOp2
 70
     1
102
RTVSPropertyOp3
 70
     1
102
RTVSPropertyOp4
 70
     1
102
RTVSPropertyOp5
 70
     1
102
RTVSPropertyOp6
 70
     1
102
RTVSPropertyOp7
 70
     1
102
RTVSPropertyOp8
 70
     1
102
RTVSPropertyOp9
 70
     1
102
RTVSPropertyOp10
 70
     1
102
RTVSPropertyOp11
 70
     1
102
RTVSPropertyOp12
 70
     1
102
RTVSPropertyOp13
 70
     1
102
RTVSPropertyOp14
 70
     1
102
RTVSPropertyOp15
 70
     1
102
RTVSPropertyOp16
 70
     1
102
RTVSPropertyOp17
 70
     1
102
RTVSPropertyOp18
 70
     1
102
RTVSPropertyOp19
 70
     1
102
RTVSPropertyOp20
 70
     1
102
RTVSPropertyOp21
 70
     1
102
RTVSPropertyOp22
 70
     1
102
RTVSPropertyOp23
 70
     1
102
RTVSPropertyOp24
 70
     1
102
RTVSPropertyOp25
 70
     1
102
RTVSPropertyOp26
 70
     1
102
RTVSPropertyOp27
 70
     1
102
RTVSPropertyOp28
 70
     1
102
RTVSPropertyOp29
 70
     1
102
RTVSPropertyOp30
 70
     1
102
RTVSPropertyOp31
 70
     1
102
RTVSPropertyOp32
 70
     1
  0
XRECORD
  5
1AA
102
{ACAD_REACTORS
330
1A9
102
}
330
1A9
100
AcDbXrecord
280
     1
102
RTVSPropertyOp0
 70
     1
102
RTVSPropertyOp1
 70
     1
102
RTVSPropertyOp2
 70
     1
102
RTVSPropertyOp3
 70
     1
102
RTVSPropertyOp4
 70
     1
102
RTVSPropertyOp5
 70
     1
102
RTVSPropertyOp6
 70
     1
102
RTVSPropertyOp7
 70
     1
102
RTVSPropertyOp8
 70
     1
102
RTVSPropertyOp9
 70
     1
102
RTVSPropertyOp10
 70
     1
102
RTVSPropertyOp11
 70
     1
102
RTVSPropertyOp12
 70
     1
102
RTVSPropertyOp13
 70
     1
102
RTVSPropertyOp14
 70
     1
102
RTVSPropertyOp15
 70
     1
102
RTVSPropertyOp16
 70
     1
102
RTVSPropertyOp17
 70
     1
102
RTVSPropertyOp18
 70
     1
102
RTVSPropertyOp19
 70
     1
102
RTVSPropertyOp20
 70
     1
102
RTVSPropertyOp21
 70
     1
102
RTVSPropertyOp22
 70
     1
102
RTVSPropertyOp23
 70
     1
102
RTVSPropertyOp24
 70
     1
102
RTVSPropertyOp25
 70
     1
102
RTVSPropertyOp26
 70
     1
102
RTVSPropertyOp27
 70
     1
102
RTVSPropertyOp28
 70
     1
102
RTVSPropertyOp29
 70
     1
102
RTVSPropertyOp30
 70
     1
102
RTVSPropertyOp31
 70
     1
102
RTVSPropertyOp32
 70
     1
  0
XRECORD
  5
1BE
102
{ACAD_REACTORS
330
1BD
102
}
330
1BD
100
AcDbXrecord
280
     1
102
RTVSPropertyOp0
 70
     1
102
RTVSPropertyOp1
 70
     1
102
RTVSPropertyOp2
 70
     1
102
RTVSPropertyOp3
 70
     1
102
RTVSPropertyOp4
 70
     1
102
RTVSPropertyOp5
 70
     1
102
RTVSPropertyOp6
 70
     1
102
RTVSPropertyOp7
 70
     1
102
RTVSPropertyOp8
 70
     1
102
RTVSPropertyOp9
 70
     1
102
RTVSPropertyOp10
 70
     1
102
RTVSPropertyOp11
 70
     1
102
RTVSPropertyOp12
 70
     1
102
RTVSPropertyOp13
 70
     1
102
RTVSPropertyOp14
 70
     1
102
RTVSPropertyOp15
 70
     1
102
RTVSPropertyOp16
 70
     1
102
RTVSPropertyOp17
 70
     1
102
RTVSPropertyOp18
 70
     1
102
RTVSPropertyOp19
 70
     1
102
RTVSPropertyOp20
 70
     1
102
RTVSPropertyOp21
 70
     1
102
RTVSPropertyOp22
 70
     1
102
RTVSPropertyOp23
 70
     1
102
RTVSPropertyOp24
 70
     1
102
RTVSPropertyOp25
 70
     1
102
RTVSPropertyOp26
 70
     1
102
RTVSPropertyOp27
 70
     1
102
RTVSPropertyOp28
 70
     1
102
RTVSPropertyOp29
 70
     1
102
RTVSPropertyOp30
 70
     1
102
RTVSPropertyOp31
 70
     1
102
RTVSPropertyOp32
 70
     1
  0
XRECORD
  5
1B4
102
{ACAD_REACTORS
330
1B3
102
}
330
1B3
100
AcDbXrecord
280
     1
102
RTVSPropertyOp0
 70
     1
102
RTVSPropertyOp1
 70
     1
102
RTVSPropertyOp2
 70
     1
102
RTVSPropertyOp3
 70
     1
102
RTVSPropertyOp4
 70
     1
102
RTVSPropertyOp5
 70
     1
102
RTVSPropertyOp6
 70
     1
102
RTVSPropertyOp7
 70
     1
102
RTVSPropertyOp8
 70
     1
102
RTVSPropertyOp9
 70
     1
102
RTVSPropertyOp10
 70
     1
102
RTVSPropertyOp11
 70
     1
102
RTVSPropertyOp12
 70
     1
102
RTVSPropertyOp13
 70
     1
102
RTVSPropertyOp14
 70
     1
102
RTVSPropertyOp15
 70
     1
102
RTVSPropertyOp16
 70
     1
102
RTVSPropertyOp17
 70
     1
102
RTVSPropertyOp18
 70
     1
102
RTVSPropertyOp19
 70
     1
102
RTVSPropertyOp20
 70
     1
102
RTVSPropertyOp21
 70
     1
102
RTVSPropertyOp22
 70
     1
102
RTVSPropertyOp23
 70
     1
102
RTVSPropertyOp24
 70
     1
102
RTVSPropertyOp25
 70
     1
102
RTVSPropertyOp26
 70
     1
102
RTVSPropertyOp27
 70
     1
102
RTVSPropertyOp28
 70
     1
102
RTVSPropertyOp29
 70
     1
102
RTVSPropertyOp30
 70
     1
102
RTVSPropertyOp31
 70
     1
102
RTVSPropertyOp32
 70
     1
  0
XRECORD
  5
1BC
102
{ACAD_REACTORS
330
1BB
102
}
330
1BB
100
AcDbXrecord
280
     1
102
RTVSPropertyOp0
 70
     1
102
RTVSPropertyOp1
 70
     1
102
RTVSPropertyOp2
 70
     1
102
RTVSPropertyOp3
 70
     1
102
RTVSPropertyOp4
 70
     1
102
RTVSPropertyOp5
 70
     1
102
RTVSPropertyOp6
 70
     1
102
RTVSPropertyOp7
 70
     1
102
RTVSPropertyOp8
 70
     1
102
RTVSPropertyOp9
 70
     1
102
RTVSPropertyOp10
 70
     1
102
RTVSPropertyOp11
 70
     1
102
RTVSPropertyOp12
 70
     1
102
RTVSPropertyOp13
 70
     1
102
RTVSPropertyOp14
 70
     1
102
RTVSPropertyOp15
 70
     1
102
RTVSPropertyOp16
 70
     1
102
RTVSPropertyOp17
 70
     1
102
RTVSPropertyOp18
 70
     1
102
RTVSPropertyOp19
 70
     1
102
RTVSPropertyOp20
 70
     1
102
RTVSPropertyOp21
 70
     1
102
RTVSPropertyOp22
 70
     1
102
RTVSPropertyOp23
 70
     1
102
RTVSPropertyOp24
 70
     1
102
RTVSPropertyOp25
 70
     1
102
RTVSPropertyOp26
 70
     1
102
RTVSPropertyOp27
 70
     1
102
RTVSPropertyOp28
 70
     1
102
RTVSPropertyOp29
 70
     1
102
RTVSPropertyOp30
 70
     1
102
RTVSPropertyOp31
 70
     1
102
RTVSPropertyOp32
 70
     1
  0
ENDSEC
  0
EOF
