  0
SECTION
  2
HEADER
  9
$ACADVER
  1
AC1015
  9
$ACADMAINTVER
 70
     6
  9
$DWGCODEPAGE
  3
ANSI_932
  9
$INSBASE
 10
0.0
 20
0.0
 30
0.0
  9
$EXTMIN
 10
0.0
 20
0.0
 30
0.0
  9
$EXTMAX
 10
209.9999999999999
 20
297.0
 30
0.0
  9
$LIMMIN
 10
0.0
 20
0.0
  9
$LIMMAX
 10
12.0
 20
9.0
  9
$ORTHOMODE
 70
     0
  9
$REGENMODE
 70
     1
  9
$FILLMODE
 70
     1
  9
$QTEXTMODE
 70
     0
  9
$MIRRTEXT
 70
     1
  9
$LTSCALE
 40
1.0
  9
$ATTMODE
 70
     1
  9
$TEXTSIZE
 40
0.2
  9
$TRACEWID
 40
0.05
  9
$TEXTSTYLE
  7
Standard
  9
$CLAYER
  8
0
  9
$CELTYPE
  6
ByLayer
  9
$CECOLOR
 62
   256
  9
$CELTSCALE
 40
1.0
  9
$DISPSILH
 70
     0
  9
$DIMSCALE
 40
1.0
  9
$DIMASZ
 40
0.18
  9
$DIMEXO
 40
0.0625
  9
$DIMDLI
 40
0.38
  9
$DIMRND
 40
0.0
  9
$DIMDLE
 40
0.0
  9
$DIMEXE
 40
0.18
  9
$DIMTP
 40
0.0
  9
$DIMTM
 40
0.0
  9
$DIMTXT
 40
0.18
  9
$DIMCEN
 40
0.09
  9
$DIMTSZ
 40
0.0
  9
$DIMTOL
 70
     0
  9
$DIMLIM
 70
     0
  9
$DIMTIH
 70
     1
  9
$DIMTOH
 70
     1
  9
$DIMSE1
 70
     0
  9
$DIMSE2
 70
     0
  9
$DIMTAD
 70
     0
  9
$DIMZIN
 70
     0
  9
$DIMBLK
  1

  9
$DIMASO
 70
     1
  9
$DIMSHO
 70
     1
  9
$DIMPOST
  1

  9
$DIMAPOST
  1

  9
$DIMALT
 70
     0
  9
$DIMALTD
 70
     2
  9
$DIMALTF
 40
25.4
  9
$DIMLFAC
 40
1.0
  9
$DIMTOFL
 70
     0
  9
$DIMTVP
 40
0.0
  9
$DIMTIX
 70
     0
  9
$DIMSOXD
 70
     0
  9
$DIMSAH
 70
     0
  9
$DIMBLK1
  1

  9
$DIMBLK2
  1

  9
$DIMSTYLE
  2
Standard
  9
$DIMCLRD
 70
     0
  9
$DIMCLRE
 70
     0
  9
$DIMCLRT
 70
     0
  9
$DIMTFAC
 40
1.0
  9
$DIMGAP
 40
0.09
  9
$DIMJUST
 70
     0
  9
$DIMSD1
 70
     0
  9
$DIMSD2
 70
     0
  9
$DIMTOLJ
 70
     1
  9
$DIMTZIN
 70
     0
  9
$DIMALTZ
 70
     0
  9
$DIMALTTZ
 70
     0
  9
$DIMUPT
 70
     0
  9
$DIMDEC
 70
     4
  9
$DIMTDEC
 70
     4
  9
$DIMALTU
 70
     2
  9
$DIMALTTD
 70
     2
  9
$DIMTXSTY
  7
Standard
  9
$DIMAUNIT
 70
     0
  9
$DIMADEC
 70
     0
  9
$DIMALTRND
 40
0.0
  9
$DIMAZIN
 70
     0
  9
$DIMDSEP
 70
    46
  9
$DIMATFIT
 70
     3
  9
$DIMFRAC
 70
     0
  9
$DIMLDRBLK
  1

  9
$DIMLUNIT
 70
     2
  9
$DIMLWD
 70
    -2
  9
$DIMLWE
 70
    -2
  9
$DIMTMOVE
 70
     0
  9
$LUNITS
 70
     2
  9
$LUPREC
 70
     4
  9
$SKETCHINC
 40
0.1
  9
$FILLETRAD
 40
0.5
  9
$AUNITS
 70
     0
  9
$AUPREC
 70
     0
  9
$MENU
  1
.
  9
$ELEVATION
 40
0.0
  9
$PELEVATION
 40
0.0
  9
$THICKNESS
 40
0.0
  9
$LIMCHECK
 70
     0
  9
$CHAMFERA
 40
0.5
  9
$CHAMFERB
 40
0.5
  9
$CHAMFERC
 40
1.0
  9
$CHAMFERD
 40
0.0
  9
$SKPOLY
 70
     0
  9
$TDCREATE
 40
2460356.578374063
  9
$TDUCREATE
 40
2460356.203374063
  9
$TDUPDATE
 40
2460356.57837515
  9
$TDUUPDATE
 40
2460356.20337515
  9
$TDINDWG
 40
0.0000000116
  9
$TDUSRTIMER
 40
0.0000000116
  9
$USRTIMER
 70
     1
  9
$ANGBASE
 50
0.0
  9
$ANGDIR
 70
     0
  9
$PDMODE
 70
     0
  9
$PDSIZE
 40
0.0
  9
$PLINEWID
 40
0.0
  9
$SPLFRAME
 70
     0
  9
$SPLINETYPE
 70
     6
  9
$SPLINESEGS
 70
     8
  9
$HANDSEED
  5
170
  9
$SURFTAB1
 70
     6
  9
$SURFTAB2
 70
     6
  9
$SURFTYPE
 70
     6
  9
$SURFU
 70
     6
  9
$SURFV
 70
     6
  9
$UCSBASE
  2

  9
$UCSNAME
  2

  9
$UCSORG
 10
0.0
 20
0.0
 30
0.0
  9
$UCSXDIR
 10
1.0
 20
0.0
 30
0.0
  9
$UCSYDIR
 10
0.0
 20
1.0
 30
0.0
  9
$UCSORTHOREF
  2

  9
$UCSORTHOVIEW
 70
     0
  9
$UCSORGTOP
 10
0.0
 20
0.0
 30
0.0
  9
$UCSORGBOTTOM
 10
0.0
 20
0.0
 30
0.0
  9
$UCSORGLEFT
 10
0.0
 20
0.0
 30
0.0
  9
$UCSORGRIGHT
 10
0.0
 20
0.0
 30
0.0
  9
$UCSORGFRONT
 10
0.0
 20
0.0
 30
0.0
  9
$UCSORGBACK
 10
0.0
 20
0.0
 30
0.0
  9
$PUCSBASE
  2

  9
$PUCSNAME
  2

  9
$PUCSORG
 10
0.0
 20
0.0
 30
0.0
  9
$PUCSXDIR
 10
1.0
 20
0.0
 30
0.0
  9
$PUCSYDIR
 10
0.0
 20
1.0
 30
0.0
  9
$PUCSORTHOREF
  2

  9
$PUCSORTHOVIEW
 70
     0
  9
$PUCSORGTOP
 10
0.0
 20
0.0
 30
0.0
  9
$PUCSORGBOTTOM
 10
0.0
 20
0.0
 30
0.0
  9
$PUCSORGLEFT
 10
0.0
 20
0.0
 30
0.0
  9
$PUCSORGRIGHT
 10
0.0
 20
0.0
 30
0.0
  9
$PUCSORGFRONT
 10
0.0
 20
0.0
 30
0.0
  9
$PUCSORGBACK
 10
0.0
 20
0.0
 30
0.0
  9
$USERI1
 70
     0
  9
$USERI2
 70
     0
  9
$USERI3
 70
     0
  9
$USERI4
 70
     0
  9
$USERI5
 70
     0
  9
$USERR1
 40
18.1
  9
$USERR2
 40
0.0
  9
$USERR3
 40
0.0
  9
$USERR4
 40
0.0
  9
$USERR5
 40
0.0
  9
$WORLDVIEW
 70
     1
  9
$SHADEDGE
 70
     3
  9
$SHADEDIF
 70
    70
  9
$TILEMODE
 70
     1
  9
$MAXACTVP
 70
    64
  9
$PINSBASE
 10
0.0
 20
0.0
 30
0.0
  9
$PLIMCHECK
 70
     0
  9
$PEXTMIN
 10
1.00000000000000E+20
 20
1.00000000000000E+20
 30
1.00000000000000E+20
  9
$PEXTMAX
 10
-1.00000000000000E+20
 20
-1.00000000000000E+20
 30
-1.00000000000000E+20
  9
$PLIMMIN
 10
0.0
 20
0.0
  9
$PLIMMAX
 10
12.0
 20
9.0
  9
$UNITMODE
 70
     0
  9
$VISRETAIN
 70
     1
  9
$PLINEGEN
 70
     0
  9
$PSLTSCALE
 70
     1
  9
$TREEDEPTH
 70
  3020
  9
$CMLSTYLE
  2
Standard
  9
$CMLJUST
 70
     0
  9
$CMLSCALE
 40
1.0
  9
$PROXYGRAPHICS
 70
     1
  9
$MEASUREMENT
 70
     1
  9
$CELWEIGHT
370
    -1
  9
$ENDCAPS
280
     0
  9
$JOINSTYLE
280
     0
  9
$LWDISPLAY
290
     0
  9
$INSUNITS
 70
     4
  9
$HYPERLINKBASE
  1

  9
$STYLESHEET
  1

  9
$XEDIT
290
     1
  9
$CEPSNTYPE
380
     0
  9
$PSTYLEMODE
290
     1
  9
$FINGERPRINTGUID
  2
{B68C6118-7328-4E28-92A9-396156E5DD60}
  9
$VERSIONGUID
  2
{FAEB1C32-E019-11D5-929B-00C0DF256EC4}
  9
$EXTNAMES
290
     1
  9
$PSVPSCALE
 40
0.0
  9
$OLESTARTUP
290
     0
  0
ENDSEC
  0
SECTION
  2
CLASSES
  0
CLASS
  1
ACDBDICTIONARYWDFLT
  2
AcDbDictionaryWithDefault
  3
ObjectDBX Classes
 90
        0
280
     0
281
     0
  0
CLASS
  1
VISUALSTYLE
  2
AcDbVisualStyle
  3
ObjectDBX Classes
 90
     4095
280
     0
281
     0
  0
CLASS
  1
MATERIAL
  2
AcDbMaterial
  3
ObjectDBX Classes
 90
     1153
280
     0
281
     0
  0
CLASS
  1
DICTIONARYVAR
  2
AcDbDictionaryVar
  3
ObjectDBX Classes
 90
        0
280
     0
281
     0
  0
CLASS
  1
ACDBPLACEHOLDER
  2
AcDbPlaceHolder
  3
ObjectDBX Classes
 90
        0
280
     0
281
     0
  0
CLASS
  1
LAYOUT
  2
AcDbLayout
  3
ObjectDBX Classes
 90
        0
280
     0
281
     0
  0
ENDSEC
  0
SECTION
  2
TABLES
  0
TABLE
  2
VPORT
  5
8
330
0
100
AcDbSymbolTable
 70
     1
  0
VPORT
  5
29
330
8
100
AcDbSymbolTableRecord
100
AcDbViewportTableRecord
  2
*Active
 70
     0
 10
0.0
 20
0.0
 11
1.0
 21
1.0
 12
104.9999999999999
 22
148.5
 13
0.0
 23
0.0
 14
0.5
 24
0.5
 15
0.5
 25
0.5
 16
0.0
 26
0.0
 36
1.0
 17
0.0
 27
0.0
 37
0.0
 40
326.7
 41
1.60267857142857
 42
50.0
 43
0.0
 44
0.0
 50
0.0
 51
0.0
 71
     0
 72
   100
 73
     1
 74
     3
 75
     0
 76
     0
 77
     0
 78
     0
281
     0
 65
     1
110
0.0
120
0.0
130
0.0
111
1.0
121
0.0
131
0.0
112
0.0
122
1.0
132
0.0
 79
     0
146
0.0
  0
ENDTAB
  0
TABLE
  2
LTYPE
  5
5
330
0
100
AcDbSymbolTable
 70
     8
  0
LTYPE
  5
14
330
5
100
AcDbSymbolTableRecord
100
AcDbLinetypeTableRecord
  2
ByBlock
 70
     0
  3

 72
    65
 73
     0
 40
0.0
  0
LTYPE
  5
15
330
5
100
AcDbSymbolTableRecord
100
AcDbLinetypeTableRecord
  2
ByLayer
 70
     0
  3

 72
    65
 73
     0
 40
0.0
  0
LTYPE
  5
16
330
5
100
AcDbSymbolTableRecord
100
AcDbLinetypeTableRecord
  2
Continuous
 70
     0
  3
Solid line
 72
    65
 73
     0
 40
0.0
  0
LTYPE
  5
3F
330
5
100
AcDbSymbolTableRecord
100
AcDbLinetypeTableRecord
  2
DASHED
 70
     0
  3
Dashed
 72
    65
 73
     2
 40
15.0
 49
7.0
 74
     0
 49
-8.0
 74
     0
  0
LTYPE
  5
40
330
5
100
AcDbSymbolTableRecord
100
AcDbLinetypeTableRecord
  2
DOTTED
 70
     0
  3
Dotted
 72
    65
 73
     2
 40
1.0
 49
0.0
 74
     0
 49
-1.0
 74
     0
  0
LTYPE
  5
41
330
5
100
AcDbSymbolTableRecord
100
AcDbLinetypeTableRecord
  2
DOT_CENTER
 70
     0
  3
Dot_Center
 72
    65
 73
     4
 40
14.0
 49
12.0
 74
     0
 49
-1.0
 74
     0
 49
0.0
 74
     0
 49
-1.0
 74
     0
  0
LTYPE
  5
42
330
5
100
AcDbSymbolTableRecord
100
AcDbLinetypeTableRecord
  2
LONG_DASHED
 70
     0
  3
Long_Dashed
 72
    65
 73
     2
 40
15.0
 49
10.0
 74
     0
 49
-5.0
 74
     0
  0
LTYPE
  5
43
330
5
100
AcDbSymbolTableRecord
100
AcDbLinetypeTableRecord
  2
DASH_CENTER
 70
     0
  3
Dash_Center
 72
    65
 73
     4
 40
14.0
 49
11.0
 74
     0
 49
-1.0
 74
     0
 49
1.0
 74
     0
 49
-1.0
 74
     0
  0
LTYPE
  5
44
330
5
100
AcDbSymbolTableRecord
100
AcDbLinetypeTableRecord
  2
PHANTOM
 70
     0
  3
Phantom
 72
    65
 73
     6
 40
13.0
 49
10.0
 74
     0
 49
-1.0
 74
     0
 49
0.0
 74
     0
 49
-1.0
 74
     0
 49
0.0
 74
     0
 49
-1.0
 74
     0
  0
LTYPE
  5
45
330
5
100
AcDbSymbolTableRecord
100
AcDbLinetypeTableRecord
  2
CENTER_DASH_DASH
 70
     0
  3
Center_Dash_Dash
 72
    65
 73
     6
 40
14.0
 49
9.0
 74
     0
 49
-1.0
 74
     0
 49
1.0
 74
     0
 49
-1.0
 74
     0
 49
1.0
 74
     0
 49
-1.0
 74
     0
  0
ENDTAB
  0
TABLE
  2
LAYER
  5
2
330
0
100
AcDbSymbolTable
 70
     3
  0
LAYER
  5
10
330
2
100
AcDbSymbolTableRecord
100
AcDbLayerTableRecord
  2
0
 70
     0
 62
     7
  6
Continuous
370
    -3
390
F
  0
LAYER
  5
46
330
2
100
AcDbSymbolTableRecord
100
AcDbLayerTableRecord
  2
1
 70
     0
 62
     7
  6
Continuous
370
    -3
390
F
  0
LAYER
  5
47
330
2
100
AcDbSymbolTableRecord
100
AcDbLayerTableRecord
  2
_U_30EC_U_30A4_U_30E4_U_30FC_1
 70
     0
 62
     7
  6
Continuous
370
    -3
390
F
  0
ENDTAB
  0
TABLE
  2
STYLE
  5
3
330
0
100
AcDbSymbolTable
 70
     3
  0
STYLE
  5
11
330
3
100
AcDbSymbolTableRecord
100
AcDbTextStyleTableRecord
  2
Standard
 70
     0
 40
0.0
 41
1.0
 50
0.0
 71
     0
 42
0.2
  3
txt
  4

  0
STYLE
  5
B6
330
3
100
AcDbSymbolTableRecord
100
AcDbTextStyleTableRecord
  2
CONVERTER_11
 70
     0
 40
0.0
 41
0.89
 50
0.0
 71
     0
 42
0.2
  3
MS Mincho.ttf
  4

1001
ACAD
1000
MS Mincho
1071
    32785
  0
STYLE
  5
10A
330
3
100
AcDbSymbolTableRecord
100
AcDbTextStyleTableRecord
  2
CONVERTER_12
 70
     0
 40
0.0
 41
0.9
 50
0.0
 71
     0
 42
0.2
  3
txt.shx
  4

  0
ENDTAB
  0
TABLE
  2
VIEW
  5
6
330
0
100
AcDbSymbolTable
 70
     0
  0
ENDTAB
  0
TABLE
  2
UCS
  5
7
330
0
100
AcDbSymbolTable
 70
     0
  0
ENDTAB
  0
TABLE
  2
APPID
  5
9
330
0
100
AcDbSymbolTable
 70
     1
  0
APPID
  5
12
330
9
100
AcDbSymbolTableRecord
100
AcDbRegAppTableRecord
  2
ACAD
 70
     0
  0
ENDTAB
  0
TABLE
  2
DIMSTYLE
  5
A
330
0
100
AcDbSymbolTable
 70
     5
100
AcDbDimStyleTable
  0
DIMSTYLE
105
27
330
A
100
AcDbSymbolTableRecord
100
AcDbDimStyleTableRecord
  2
Standard
 70
     0
178
     0
340
11
  0
DIMSTYLE
105
122
102
{ACAD_REACTORS
330
123
102
}
330
A
100
AcDbSymbolTableRecord
100
AcDbDimStyleTableRecord
  2
ME10_DIM_10
 70
     0
 41
3.5
 42
0.0
 44
1.0
 73
     0
 74
     0
 77
     1
 78
     8
140
3.5
147
1.0
172
     1
173
     1
174
     1
175
     1
176
     2
177
     2
271
     2
178
     7
271
     2
340
10A
  0
DIMSTYLE
105
12D
102
{ACAD_REACTORS
330
12E
102
}
330
A
100
AcDbSymbolTableRecord
100
AcDbDimStyleTableRecord
  2
ME10_DIM_11
 70
     0
 41
3.5
 42
0.0
 44
1.0
 73
     0
 74
     0
 77
     1
 78
     8
140
3.5
147
1.0
172
     1
173
     1
174
     1
175
     1
176
     2
177
     2
271
     2
178
     7
271
     2
340
10A
  0
DIMSTYLE
105
138
102
{ACAD_REACTORS
330
139
102
}
330
A
100
AcDbSymbolTableRecord
100
AcDbDimStyleTableRecord
  2
ME10_DIM_12
 70
     0
 41
3.5
 42
0.0
 44
1.0
 73
     0
 74
     0
 77
     1
 78
     8
140
3.5
147
1.0
172
     1
173
     1
174
     1
175
     1
176
     2
177
     2
271
     2
178
     7
271
     2
340
10A
  0
DIMSTYLE
105
143
102
{ACAD_REACTORS
330
144
102
}
330
A
100
AcDbSymbolTableRecord
100
AcDbDimStyleTableRecord
  2
ME10_DIM_13
 70
     0
 41
3.5
 42
0.0
 44
1.0
 73
     0
 74
     0
 77
     1
 78
     8
140
3.5
147
1.0
172
     1
173
     1
174
     1
175
     1
176
     2
177
     2
271
     2
178
     7
271
     2
340
10A
  0
ENDTAB
  0
TABLE
  2
BLOCK_RECORD
  5
1
330
0
100
AcDbSymbolTable
 70
     8
  0
BLOCK_RECORD
  5
1F
330
1
100
AcDbSymbolTableRecord
100
AcDbBlockTableRecord
  2
*Model_Space
340
22
  0
BLOCK_RECORD
  5
1B
330
1
100
AcDbSymbolTableRecord
100
AcDbBlockTableRecord
  2
*Paper_Space
340
1E
  0
BLOCK_RECORD
  5
23
330
1
100
AcDbSymbolTableRecord
100
AcDbBlockTableRecord
  2
*Paper_Space0
340
26
  0
BLOCK_RECORD
  5
48
330
1
100
AcDbSymbolTableRecord
100
AcDbBlockTableRecord
  2
開示A4
340
0
102
{BLKREFS
331
4C
102
}
  0
BLOCK_RECORD
  5
4B
330
1
100
AcDbSymbolTableRecord
100
AcDbBlockTableRecord
  2
開示A4枠
340
0
102
{BLKREFS
331
52
102
}
  0
BLOCK_RECORD
  5
4F
330
1
100
AcDbSymbolTableRecord
100
AcDbBlockTableRecord
  2
T24
340
0
102
{BLKREFS
331
53
102
}
  0
BLOCK_RECORD
  5
119
330
1
100
AcDbSymbolTableRecord
100
AcDbBlockTableRecord
  2
*D4
340
0
  0
BLOCK_RECORD
  5
124
330
1
100
AcDbSymbolTableRecord
100
AcDbBlockTableRecord
  2
*D5
340
0
  0
BLOCK_RECORD
  5
12F
330
1
100
AcDbSymbolTableRecord
100
AcDbBlockTableRecord
  2
*D6
340
0
  0
BLOCK_RECORD
  5
13A
330
1
100
AcDbSymbolTableRecord
100
AcDbBlockTableRecord
  2
*D7
340
0
  0
ENDTAB
  0
ENDSEC
  0
SECTION
  2
BLOCKS
  0
BLOCK
  5
20
330
1F
100
AcDbEntity
  8
0
100
AcDbBlockBegin
  2
*Model_Space
 70
     0
 10
0.0
 20
0.0
 30
0.0
  3
*Model_Space
  1

  0
ENDBLK
  5
21
330
1F
100
AcDbEntity
  8
0
100
AcDbBlockEnd
  0
BLOCK
  5
1C
330
1B
100
AcDbEntity
 67
     1
  8
0
100
AcDbBlockBegin
  2
*Paper_Space
 70
     0
 10
0.0
 20
0.0
 30
0.0
  3
*Paper_Space
  1

  0
ENDBLK
  5
1D
330
1B
100
AcDbEntity
 67
     1
  8
0
100
AcDbBlockEnd
  0
BLOCK
  5
24
330
23
100
AcDbEntity
  8
0
100
AcDbBlockBegin
  2
*Paper_Space0
 70
     0
 10
0.0
 20
0.0
 30
0.0
  3
*Paper_Space0
  1

  0
ENDBLK
  5
25
330
23
100
AcDbEntity
  8
0
100
AcDbBlockEnd
  0
BLOCK
  5
49
330
48
100
AcDbEntity
  8
0
100
AcDbBlockBegin
  2
開示A4
 70
     0
 10
0.0
 20
0.0
 30
0.0
  3
開示A4
  1

  0
POINT
  5
54
330
48
100
AcDbEntity
  8
1
 62
     4
100
AcDbPoint
 10
34.0
 20
34.0
 30
0.0
  0
POINT
  5
55
330
48
100
AcDbEntity
  8
1
 62
     4
100
AcDbPoint
 10
57.00000000000001
 20
12.25
 30
0.0
  0
POINT
  5
56
330
48
100
AcDbEntity
  8
1
 62
     4
100
AcDbPoint
 10
57.00000000000001
 20
20.75000000000001
 30
0.0
  0
POINT
  5
57
330
48
100
AcDbEntity
  8
1
 62
     4
100
AcDbPoint
 10
57.00000000000001
 20
24.75000000000001
 30
0.0
  0
POINT
  5
58
330
48
100
AcDbEntity
  8
1
 62
     4
100
AcDbPoint
 10
57.00000000000001
 20
16.25
 30
0.0
  0
POINT
  5
59
330
48
100
AcDbEntity
  8
1
 62
     4
100
AcDbPoint
 10
157.5
 20
19.00000000000001
 30
0.0
  0
POINT
  5
5A
330
48
100
AcDbEntity
  8
1
 62
     4
100
AcDbPoint
 10
47.50000000000001
 20
282.0000000000003
 30
0.0
  0
POINT
  5
5B
330
48
100
AcDbEntity
  8
1
 62
     4
100
AcDbPoint
 10
57.00000000000001
 20
22.75000000000001
 30
0.0
  0
POINT
  5
5C
330
48
100
AcDbEntity
  8
1
 62
     4
100
AcDbPoint
 10
57.00000000000001
 20
14.25
 30
0.0
  0
POINT
  5
5D
330
48
100
AcDbEntity
  8
1
 62
     4
100
AcDbPoint
 10
157.5
 20
12.5
 30
0.0
  0
POINT
  5
5E
330
48
100
AcDbEntity
  8
1
 62
     4
100
AcDbPoint
 10
163.25
 20
12.5
 30
0.0
  0
POINT
  5
5F
330
48
100
AcDbEntity
  8
1
 62
     4
100
AcDbPoint
 10
151.75
 20
12.5
 30
0.0
  0
POINT
  5
60
330
48
100
AcDbEntity
  8
1
 62
     4
100
AcDbPoint
 10
134.75
 20
12.5
 30
0.0
  0
POINT
  5
61
330
48
100
AcDbEntity
  8
1
 62
     4
100
AcDbPoint
 10
146.25
 20
12.5
 30
0.0
  0
POINT
  5
62
330
48
100
AcDbEntity
  8
1
 62
     4
100
AcDbPoint
 10
140.5
 20
12.5
 30
0.0
  0
POINT
  5
63
330
48
100
AcDbEntity
  8
1
 62
     4
100
AcDbPoint
 10
140.5
 20
19.00000000000001
 30
0.0
  0
POINT
  5
64
330
48
100
AcDbEntity
  8
1
 62
     4
100
AcDbPoint
 10
117.75
 20
12.5
 30
0.0
  0
POINT
  5
65
330
48
100
AcDbEntity
  8
1
 62
     4
100
AcDbPoint
 10
129.25
 20
12.5
 30
0.0
  0
POINT
  5
66
330
48
100
AcDbEntity
  8
1
 62
     4
100
AcDbPoint
 10
123.5
 20
12.5
 30
0.0
  0
POINT
  5
67
330
48
100
AcDbEntity
  8
1
 62
     4
100
AcDbPoint
 10
123.5
 20
19.00000000000001
 30
0.0
  0
POINT
  5
68
330
48
100
AcDbEntity
  8
1
 62
     4
100
AcDbPoint
 10
100.75
 20
12.5
 30
0.0
  0
POINT
  5
69
330
48
100
AcDbEntity
  8
1
 62
     4
100
AcDbPoint
 10
112.25
 20
12.5
 30
0.0
  0
POINT
  5
6A
330
48
100
AcDbEntity
  8
1
 62
     4
100
AcDbPoint
 10
106.5
 20
12.5
 30
0.0
  0
POINT
  5
6B
330
48
100
AcDbEntity
  8
1
 62
     4
100
AcDbPoint
 10
106.5
 20
19.00000000000001
 30
0.0
  0
POINT
  5
6C
330
48
100
AcDbEntity
  8
1
 62
     4
100
AcDbPoint
 10
85.25
 20
17.0
 30
0.0
  0
POINT
  5
6D
330
48
100
AcDbEntity
  8
1
 62
     4
100
AcDbPoint
 10
93.75
 20
17.0
 30
0.0
  0
POINT
  5
6E
330
48
100
AcDbEntity
  8
1
 62
     4
100
AcDbPoint
 10
182.9999999999999
 20
15.0
 30
0.0
  0
LINE
  5
6F
330
48
100
AcDbEntity
  8
1
  6
Continuous
 62
     2
100
AcDbLine
 10
81.0
 20
27.00000000000001
 30
0.0
 11
81.0
 21
10.0
 31
0.0
  0
LINE
  5
70
330
48
100
AcDbEntity
  8
1
  6
DOT_CENTER
 62
     2
100
AcDbLine
 10
186.9999999999999
 20
26.50000000000001
 30
0.0
 11
186.9999999999999
 21
20.50000000000001
 31
0.0
  0
LINE
  5
71
330
48
100
AcDbEntity
  8
1
  6
DOT_CENTER
 62
     2
100
AcDbLine
 10
183.9999999999999
 20
23.50000000000001
 30
0.0
 11
196.9999999999999
 21
23.50000000000001
 31
0.0
  0
LINE
  5
72
330
48
100
AcDbEntity
  8
1
  6
Continuous
 62
     7
100
AcDbLine
 10
195.9999999999999
 20
21.50000000000001
 30
0.0
 11
190.9999999999999
 21
22.30000000000001
 31
0.0
  0
LINE
  5
73
330
48
100
AcDbEntity
  8
1
  6
Continuous
 62
     7
100
AcDbLine
 10
195.9999999999999
 20
25.50000000000001
 30
0.0
 11
195.9999999999999
 21
21.50000000000001
 31
0.0
  0
LINE
  5
74
330
48
100
AcDbEntity
  8
1
  6
Continuous
 62
     7
100
AcDbLine
 10
190.9999999999999
 20
24.70000000000001
 30
0.0
 11
195.9999999999999
 21
25.50000000000001
 31
0.0
  0
LINE
  5
75
330
48
100
AcDbEntity
  8
1
  6
Continuous
 62
     7
100
AcDbLine
 10
190.9999999999999
 20
24.70000000000001
 30
0.0
 11
190.9999999999999
 21
22.30000000000001
 31
0.0
  0
LINE
  5
76
330
48
100
AcDbEntity
  8
1
  6
Continuous
 62
     2
100
AcDbLine
 10
33.0
 20
27.0
 30
0.0
 11
33.0
 21
10.0
 31
0.0
  0
LINE
  5
77
330
48
100
AcDbEntity
  8
1
  6
Continuous
 62
     2
100
AcDbLine
 10
25.0
 20
18.50000000000001
 30
0.0
 11
81.0
 21
18.50000000000001
 31
0.0
  0
LINE
  5
78
330
48
100
AcDbEntity
  8
1
  6
Continuous
 62
     7
100
AcDbLine
 10
199.9999999999999
 20
287.0000000000003
 30
0.0
 11
105.0
 21
287.0000000000003
 31
0.0
  0
LINE
  5
79
330
48
100
AcDbEntity
  8
1
  6
Continuous
 62
     7
100
AcDbLine
 10
199.9999999999999
 20
10.0
 30
0.0
 11
199.9999999999999
 21
148.5
 31
0.0
  0
LINE
  5
7A
330
48
100
AcDbEntity
  8
1
  6
Continuous
 62
     7
100
AcDbLine
 10
25.0
 20
10.0
 30
0.0
 11
105.0
 21
10.0
 31
0.0
  0
LINE
  5
7B
330
48
100
AcDbEntity
  8
1
  6
PHANTOM
 62
     4
100
AcDbLine
 10
0.0
 20
297.0
 30
0.0
 11
0.0
 21
0.0
 31
0.0
  0
LINE
  5
7C
330
48
100
AcDbEntity
  8
1
  6
PHANTOM
 62
     4
100
AcDbLine
 10
209.9999999999999
 20
297.0
 30
0.0
 11
0.0
 21
297.0
 31
0.0
  0
LINE
  5
7D
330
48
100
AcDbEntity
  8
1
  6
PHANTOM
 62
     4
100
AcDbLine
 10
209.9999999999999
 20
0.0
 30
0.0
 11
209.9999999999999
 21
297.0
 31
0.0
  0
LINE
  5
7E
330
48
100
AcDbEntity
  8
1
  6
PHANTOM
 62
     4
100
AcDbLine
 10
0.0
 20
0.0
 30
0.0
 11
209.9999999999999
 21
0.0
 31
0.0
  0
LINE
  5
7F
330
48
100
AcDbEntity
  8
1
  6
Continuous
 62
     7
100
AcDbLine
 10
25.0
 20
41.0
 30
0.0
 11
199.9999999999999
 21
41.0
 31
0.0
  0
LINE
  5
80
330
48
100
AcDbEntity
  8
1
  6
Continuous
 62
     7
100
AcDbLine
 10
199.9999999999999
 20
27.00000000000001
 30
0.0
 11
25.0
 21
27.00000000000001
 31
0.0
  0
LINE
  5
81
330
48
100
AcDbEntity
  8
1
  6
Continuous
 62
     2
100
AcDbLine
 10
33.0
 20
41.0
 30
0.0
 11
33.0
 21
27.0
 31
0.0
  0
LINE
  5
82
330
48
100
AcDbEntity
  8
1
  6
Continuous
 62
     2
100
AcDbLine
 10
55.00000000000001
 20
287.0000000000003
 30
0.0
 11
55.00000000000001
 21
277.0000000000003
 31
0.0
  0
LINE
  5
83
330
48
100
AcDbEntity
  8
1
  6
Continuous
 62
     2
100
AcDbLine
 10
40.00000000000001
 20
287.0000000000003
 30
0.0
 11
40.00000000000001
 21
277.0000000000003
 31
0.0
  0
LINE
  5
84
330
48
100
AcDbEntity
  8
1
  6
Continuous
 62
     7
100
AcDbLine
 10
25.0
 20
10.0
 30
0.0
 11
25.0
 21
148.5
 31
0.0
  0
LINE
  5
85
330
48
100
AcDbEntity
  8
1
  6
Continuous
 62
     2
100
AcDbLine
 10
55.00000000000001
 20
277.0000000000003
 30
0.0
 11
25.0
 21
277.0000000000003
 31
0.0
  0
LINE
  5
86
330
48
100
AcDbEntity
  8
1
  6
Continuous
 62
     2
100
AcDbLine
 10
166.0
 20
27.00000000000001
 30
0.0
 11
166.0
 21
10.0
 31
0.0
  0
LINE
  5
87
330
48
100
AcDbEntity
  8
1
  6
Continuous
 62
     2
100
AcDbLine
 10
132.0
 20
27.00000000000001
 30
0.0
 11
132.0
 21
10.0
 31
0.0
  0
LINE
  5
88
330
48
100
AcDbEntity
  8
1
  6
Continuous
 62
     2
100
AcDbLine
 10
149.0
 20
27.00000000000001
 30
0.0
 11
149.0
 21
10.0
 31
0.0
  0
LINE
  5
89
330
48
100
AcDbEntity
  8
1
  6
Continuous
 62
     2
100
AcDbLine
 10
115.0
 20
27.00000000000001
 30
0.0
 11
115.0
 21
10.0
 31
0.0
  0
LINE
  5
8A
330
48
100
AcDbEntity
  8
1
  6
Continuous
 62
     2
100
AcDbLine
 10
98.0
 20
27.00000000000001
 30
0.0
 11
98.0
 21
10.0
 31
0.0
  0
LINE
  5
8B
330
48
100
AcDbEntity
  8
1
  6
Continuous
 62
     2
100
AcDbLine
 10
166.0
 20
20.00000000000001
 30
0.0
 11
199.9999999999999
 21
20.00000000000001
 31
0.0
  0
LINE
  5
8C
330
48
100
AcDbEntity
  8
1
  6
Continuous
 62
     2
100
AcDbLine
 10
105.0
 20
287.0000000000003
 30
0.0
 11
105.0
 21
292.0000000000003
 31
0.0
  0
LINE
  5
8D
330
48
100
AcDbEntity
  8
1
  6
Continuous
 62
     7
100
AcDbLine
 10
105.0
 20
287.0000000000003
 30
0.0
 11
25.0
 21
287.0000000000003
 31
0.0
  0
LINE
  5
8E
330
48
100
AcDbEntity
  8
1
  6
Continuous
 62
     2
100
AcDbLine
 10
25.0
 20
148.5
 30
0.0
 11
20.0
 21
148.5
 31
0.0
  0
LINE
  5
8F
330
48
100
AcDbEntity
  8
1
  6
Continuous
 62
     7
100
AcDbLine
 10
25.0
 20
148.5
 30
0.0
 11
25.0
 21
287.0000000000003
 31
0.0
  0
LINE
  5
90
330
48
100
AcDbEntity
  8
1
  6
Continuous
 62
     2
100
AcDbLine
 10
199.9999999999999
 20
148.5
 30
0.0
 11
204.9999999999999
 21
148.5
 31
0.0
  0
LINE
  5
91
330
48
100
AcDbEntity
  8
1
  6
Continuous
 62
     7
100
AcDbLine
 10
199.9999999999999
 20
148.5
 30
0.0
 11
199.9999999999999
 21
287.0000000000003
 31
0.0
  0
LINE
  5
92
330
48
100
AcDbEntity
  8
1
  6
Continuous
 62
     2
100
AcDbLine
 10
105.0
 20
10.0
 30
0.0
 11
105.0
 21
5.0
 31
0.0
  0
LINE
  5
93
330
48
100
AcDbEntity
  8
1
  6
Continuous
 62
     7
100
AcDbLine
 10
105.0
 20
10.0
 30
0.0
 11
199.9999999999999
 21
10.0
 31
0.0
  0
CIRCLE
  5
98
330
48
100
AcDbEntity
  8
1
  6
DOT_CENTER
 62
     7
100
AcDbCircle
 10
89.5
 20
18.0
 30
0.0
 40
0.1000000000000227
  0
CIRCLE
  5
99
330
48
100
AcDbEntity
  8
1
  6
DOT_CENTER
 62
     7
100
AcDbCircle
 10
89.5
 20
16.0
 30
0.0
 40
0.1000000000000227
  0
CIRCLE
  5
9A
330
48
100
AcDbEntity
  8
1
  6
Continuous
 62
     7
100
AcDbCircle
 10
186.9999999999999
 20
23.50000000000001
 30
0.0
 40
2.0
  0
CIRCLE
  5
9B
330
48
100
AcDbEntity
  8
1
  6
Continuous
 62
     7
100
AcDbCircle
 10
186.9999999999999
 20
23.50000000000001
 30
0.0
 40
1.200000000000301
  0
CIRCLE
  5
9C
330
48
100
AcDbEntity
  8
1
  6
Continuous
 62
     7
100
AcDbCircle
 10
154.5
 20
12.5
 30
0.0
 40
0.3000000000000966
  0
CIRCLE
  5
9D
330
48
100
AcDbEntity
  8
1
  6
Continuous
 62
     7
100
AcDbCircle
 10
160.5
 20
12.5
 30
0.0
 40
0.3000000000000966
  0
CIRCLE
  5
9E
330
48
100
AcDbEntity
  8
1
  6
Continuous
 62
     7
100
AcDbCircle
 10
143.5
 20
12.5
 30
0.0
 40
0.3000000000000114
  0
CIRCLE
  5
9F
330
48
100
AcDbEntity
  8
1
  6
Continuous
 62
     7
100
AcDbCircle
 10
137.5
 20
12.5
 30
0.0
 40
0.3000000000000114
  0
CIRCLE
  5
A0
330
48
100
AcDbEntity
  8
1
  6
Continuous
 62
     7
100
AcDbCircle
 10
126.5
 20
12.5
 30
0.0
 40
0.2999999999999972
  0
CIRCLE
  5
A1
330
48
100
AcDbEntity
  8
1
  6
Continuous
 62
     7
100
AcDbCircle
 10
120.5
 20
12.5
 30
0.0
 40
0.2999999999999972
  0
CIRCLE
  5
A2
330
48
100
AcDbEntity
  8
1
  6
Continuous
 62
     7
100
AcDbCircle
 10
109.5
 20
12.5
 30
0.0
 40
0.2999999999999972
  0
CIRCLE
  5
A3
330
48
100
AcDbEntity
  8
1
  6
Continuous
 62
     7
100
AcDbCircle
 10
103.5
 20
12.5
 30
0.0
 40
0.2999999999999972
  0
SPLINE
  5
A4
102
{ACAD_REACTORS
330
C2
102
}
330
48
100
AcDbEntity
  8
_U_30EC_U_30A4_U_30E4_U_30FC_1
  6
Continuous
 62
     2
100
AcDbSpline
210
0.0
220
0.0
230
1.0
 70
    11
 71
     3
 72
    99
 73
    95
 74
    93
 42
0.000000001
 43
0.0000000001
 44
0.00000001
 40
0.0
 40
0.0
 40
0.0
 40
0.0
 40
0.0796417172272494
 40
0.1621768542356667
 40
0.2486489160958101
 40
0.3404969668525304
 40
0.4381912511165336
 40
0.5434463660245634
 40
0.6518115192847388
 40
0.7530190937886663
 40
0.8492196919724959
 40
0.9419290312998035
 40
1.034249663570026
 40
1.129078600620208
 40
1.226697027573258
 40
1.327220425421726
 40
1.470572134938048
 40
1.595489863371262
 40
1.719934125348396
 40
1.850576620127363
 40
1.989059629987307
 40
2.134139054226976
 40
2.28069800720724
 40
2.424529739039462
 40
2.565929576985876
 40
2.708239260773531
 40
2.861717887443679
 40
3.045168540347395
 40
3.183798301138637
 40
3.314813961455483
 40
3.442083470447344
 40
3.569912708373062
 40
3.702177512509417
 40
3.84230755965961
 40
3.992872223246012
 40
4.156750662218315
 40
4.310981861107536
 40
4.445859909322664
 40
4.572393936131604
 40
4.701656719782051
 40
4.768279086008554
 40
4.835960697898494
 40
4.912788918729421
 40
5.006285208481647
 40
5.026909478751695
 40
5.047533749021203
 40
5.101808031471281
 40
5.162325165538602
 40
5.226919745995881
 40
5.294231806596813
 40
5.364544852554941
 40
5.43831905546801
 40
5.517877651324292
 40
5.60764771486166
 40
5.700449642544478
 40
5.788251142364154
 40
5.872714706039811
 40
5.955167292575377
 40
6.037192395190431
 40
6.120669181469138
 40
6.20684861668639
 40
6.296680855416803
 40
6.442558392872628
 40
6.568190371608324
 40
6.692904567360366
 40
6.824220446557124
 40
6.96312185032936
 40
7.107843738851142
 40
7.253431663907285
 40
7.395187468036756
 40
7.533140753237766
 40
7.670550457175235
 40
7.816236511769252
 40
7.987691657359216
 40
8.142277421969249
 40
8.293662615415016
 40
8.442962460879277
 40
8.591598316185278
 40
8.74367899236179
 40
8.903725323699199
 40
9.076307008890518
 40
9.2655786046806
 40
9.459203795360775
 40
9.617619810273561
 40
9.753609671361895
 40
9.87487330000402
 40
9.954520184977708
 40
10.02416413719238
 40
10.09769764405436
 40
10.18909955924964
 40
10.20974586420131
 40
10.2303921826338
 40
10.30057101881263
 40
10.37632012987541
 40
10.37632012987541
 40
10.37632012987541
 40
10.37632012987541
 10
170.1465954835851
 20
14.13795663215994
 30
0.0
 10
170.1632217851219
 20
14.11720608845312
 30
0.0
 10
170.1970784206578
 20
14.07495111711898
 30
0.0
 10
170.2599822541036
 20
14.02029811392076
 30
0.0
 10
170.3332500940394
 20
13.97299025121048
 30
0.0
 10
170.4175969238636
 20
13.93527231437936
 30
0.0
 10
170.513224061546
 20
13.9104061973195
 30
0.0
 10
170.6171853775347
 20
13.90309559345938
 30
0.0
 10
170.7224020220405
 20
13.91142322794053
 30
0.0
 10
170.8206626371333
 20
13.94149179651528
 30
0.0
 10
170.9058986427548
 20
13.98848822971875
 30
0.0
 10
170.9779220206103
 20
14.04952991250857
 30
0.0
 10
171.0350917709096
 20
14.12412969578585
 30
0.0
 10
171.076786874744
 20
14.21002464660171
 30
0.0
 10
171.1026952846293
 20
14.30485850432211
 30
0.0
 10
171.1118037332654
 20
14.41854979038367
 30
0.0
 10
171.0986864796487
 20
14.54332587770779
 30
0.0
 10
171.0325330334414
 20
14.6601471917189
 30
0.0
 10
170.936937091957
 20
14.74512539577372
 30
0.0
 10
170.8249681022369
 20
14.81416684459163
 30
0.0
 10
170.699365958327
 20
14.8720414204589
 30
0.0
 10
170.5656691620857
 20
14.92373723284338
 30
0.0
 10
170.431312281883
 20
14.97899092397179
 30
0.0
 10
170.3051983986878
 20
15.04939770641653
 30
0.0
 10
170.1926579987535
 20
15.13785540731246
 30
0.0
 10
170.0969963064459
 20
15.24981067868477
 30
0.0
 10
170.0334157151825
 20
15.3994991010138
 30
0.0
 10
170.0200706505016
 20
15.55932794385143
 30
0.0
 10
170.0320510987448
 20
15.71048405306845
 30
0.0
 10
170.0712298928841
 20
15.83809244591539
 30
0.0
 10
170.135498775091
 20
15.95080874030847
 30
0.0
 10
170.2238204999742
 20
16.04648609268681
 30
0.0
 10
170.3338091207628
 20
16.12354214985756
 30
0.0
 10
170.4632284401266
 20
16.18151396936278
 30
0.0
 10
170.6111838967794
 20
16.21739177588822
 30
0.0
 10
170.7682069455487
 20
16.22746719050563
 30
0.0
 10
170.917494046643
 20
16.21863637762588
 30
0.0
 10
171.059625361417
 20
16.19074899340356
 30
0.0
 10
171.1595922609626
 20
16.13413314701135
 30
0.0
 10
171.3125074736186
 20
16.08674602105507
 30
0.0
 10
171.2455131717169
 20
16.00197553001185
 30
0.0
 10
171.229647912027
 20
15.93438901873482
 30
0.0
 10
171.1978750531297
 20
15.86926092793189
 30
0.0
 10
171.2150202209571
 20
15.76723453256952
 30
0.0
 10
171.1666427208232
 20
15.774932116819
 30
0.0
 10
171.1315789440766
 20
15.76806771724807
 30
0.0
 10
171.1296697985719
 20
15.83263831158198
 30
0.0
 10
171.0985692931988
 20
15.87825639621389
 30
0.0
 10
171.0664551628457
 20
15.93561036628461
 30
0.0
 10
171.0208038475168
 20
15.98540462692555
 30
0.0
 10
170.9658508218386
 20
16.02994813718998
 30
0.0
 10
170.9010841173008
 20
16.06763988836547
 30
0.0
 10
170.8232377310597
 20
16.09283375791355
 30
0.0
 10
170.7355160553352
 20
16.0993123099811
 30
0.0
 10
170.6452903277807
 20
16.09235709285608
 30
0.0
 10
170.5594594694065
 20
16.06909190460919
 30
0.0
 10
170.4828343638596
 20
16.03131644107544
 30
0.0
 10
170.4165265636201
 20
15.98051641089576
 30
0.0
 10
170.3622560536964
 20
15.91731143407207
 30
0.0
 10
170.3224925345459
 20
15.84276455710365
 30
0.0
 10
170.2976775510588
 20
15.75917313997763
 30
0.0
 10
170.2892124262871
 20
15.65192948382285
 30
0.0
 10
170.3019697987104
 20
15.52965457267557
 30
0.0
 10
170.3681548409274
 20
15.41149724291214
 30
0.0
 10
170.4640977399832
 20
15.32606325709526
 30
0.0
 10
170.5757914963183
 20
15.25583362306721
 30
0.0
 10
170.7010863668702
 20
15.19659162305303
 30
0.0
 10
170.8349823941448
 20
15.14616708086133
 30
0.0
 10
170.968993033315
 20
15.0932251698438
 30
0.0
 10
171.0950885316915
 20
15.02750170625179
 30
0.0
 10
171.2076216638417
 20
14.9448035253732
 30
0.0
 10
171.3031370284233
 20
14.83996006310073
 30
0.0
 10
171.3672706486962
 20
14.69937117251569
 30
0.0
 10
171.3811103725278
 20
14.54065409451592
 30
0.0
 10
171.367395471223
 20
14.38153155217875
 30
0.0
 10
171.3244739153984
 20
14.2348382881921
 30
0.0
 10
171.2545906329065
 20
14.10119796587144
 30
0.0
 10
171.157459221383
 20
13.98532387699286
 30
0.0
 10
171.0347806023657
 20
13.89089981770089
 30
0.0
 10
170.8874408413168
 20
13.82179270651982
 30
0.0
 10
170.7177132497125
 20
13.77953210858852
 30
0.0
 10
170.5317404979596
 20
13.76781736230409
 30
0.0
 10
170.3528955926183
 20
13.77809486683437
 30
0.0
 10
170.1881733753743
 20
13.81966573769153
 30
0.0
 10
170.0834410841056
 20
13.8879764288394
 30
0.0
 10
169.9350960790367
 20
13.93675219032107
 30
0.0
 10
169.9980378194729
 20
14.02976591290842
 30
0.0
 10
170.0072274430059
 20
14.10296536248281
 30
0.0
 10
170.0303711301232
 20
14.16936294501346
 30
0.0
 10
170.0034588335317
 20
14.26974809527583
 30
0.0
 10
170.0521338956339
 20
14.26234033517378
 30
0.0
 10
170.0916530580697
 20
14.26894063620895
 30
0.0
 10
170.0996204944703
 20
14.19078703218934
 30
0.0
 10
170.1305436967923
 20
14.15600927375857
 30
0.0
 10
170.1465954835851
 20
14.13795663215994
 30
0.0
 11
170.1465954835851
 21
14.13795663215994
 31
0.0
 11
170.1982038075864
 21
14.07729869814736
 31
0.0
 11
170.2601105501336
 21
14.0227129516332
 31
0.0
 11
170.3327764009803
 21
13.97583980928382
 31
0.0
 11
170.4166468655844
 21
13.93839906276537
 31
0.0
 11
170.511221073241
 21
13.91390636311877
 31
0.0
 11
170.6161603327166
 21
13.90575829888472
 31
0.0
 11
170.7240739497552
 21
13.91564048638223
 31
0.0
 11
170.8208419941616
 21
13.94528704887481
 31
0.0
 11
170.9050776083319
 21
13.99175118948818
 31
0.0
 11
170.9756144207686
 21
14.0519141321815
 31
0.0
 11
171.031944210998
 21
14.1250581946632
 31
0.0
 11
171.0736690016004
 21
14.21021434047521
 31
0.0
 11
171.0994680808033
 21
14.30436190989612
 31
0.0
 11
171.1080824729447
 21
14.4045155209822
 31
0.0
 11
171.0878517703357
 21
14.54643250879397
 31
0.0
 11
171.0272522666731
 21
14.65566684036387
 31
0.0
 11
170.9364971286286
 21
14.74081306430094
 31
0.0
 11
170.8260101884741
 21
14.81052746532515
 31
0.0
 11
170.7008523531255
 21
14.86979854169922
 31
0.0
 11
170.5662951950998
 21
14.92404253474119
 31
0.0
 11
170.4316884277007
 21
14.98201274306003
 31
0.0
 11
170.3065802017259
 21
15.05297399304232
 31
0.0
 11
170.196027609828
 21
15.14113315968695
 31
0.0
 11
170.1053381235266
 21
15.25080295132617
 31
0.0
 11
170.0447055469484
 21
15.39179720476315
 31
0.0
 11
170.0245079172553
 21
15.57413260402314
 31
0.0
 11
170.0374030471347
 21
15.71216131926642
 31
0.0
 11
170.0761016659391
 21
15.83733128451289
 31
0.0
 11
170.1393141731507
 21
15.94779262129083
 31
0.0
 11
170.2257499954546
 21
16.04196885390621
 31
0.0
 11
170.3336492808963
 21
16.11846540770651
 31
0.0
 11
170.4613526283329
 21
16.17615670109488
 31
0.0
 11
170.6075393259923
 21
16.21220066809973
 31
0.0
 11
170.770976856545
 21
16.22421385386061
 31
0.0
 11
170.9248918431289
 21
16.21434269066864
 31
0.0
 11
171.0564887242608
 21
16.18477329831497
 31
0.0
 11
171.172563634494
 21
16.13439993895252
 31
0.0
 11
171.2800792741123
 21
16.06264163167877
 31
0.0
 11
171.2516994050445
 21
16.00236624106886
 31
0.0
 11
171.2284855254284
 21
15.93879017337646
 31
0.0
 11
171.2078381040801
 21
15.86478841992269
 31
0.0
 11
171.1871840681487
 21
15.77360197897326
 31
0.0
 11
171.1665597978415
 21
15.77360197897326
 31
0.0
 11
171.1459355275344
 21
15.77360197897326
 31
0.0
 11
171.1256706495791
 21
15.82395108486346
 31
0.0
 11
171.0994658759421
 21
15.87850045116928
 31
0.0
 11
171.0650468924452
 21
15.93316116296114
 31
0.0
 11
171.0203554612937
 21
15.98349593725411
 31
0.0
 11
170.9657333359511
 21
16.02777175321529
 31
0.0
 11
170.9016722004326
 21
16.06436142334501
 31
0.0
 11
170.8259682961141
 21
16.08882545979727
 31
0.0
 11
170.7365722046449
 21
16.09701100667022
 31
0.0
 11
170.6440937174208
 21
16.08926973931101
 31
0.0
 11
170.5594072091646
 21
16.06609003445566
 31
0.0
 11
170.483702448884
 21
16.02863495634008
 31
0.0
 11
170.4183754766516
 21
15.97832774281101
 31
0.0
 11
170.3650487887665
 21
15.91600293379878
 31
0.0
 11
170.3254809233902
 21
15.84249947895607
 31
0.0
 11
170.3009523754711
 21
15.75988443557391
 31
0.0
 11
170.2927954104109
 21
15.67042329844352
 31
0.0
 11
170.3130095765618
 21
15.52595308146573
 31
0.0
 11
170.3736256166821
 21
15.41591177072937
 31
0.0
 11
170.4643479320758
 21
15.33033670130631
 31
0.0
 11
170.5748676948813
 21
15.25941954854624
 31
0.0
 11
170.7000089937719
 21
15.19914305550578
 31
0.0
 11
170.8345826882553
 21
15.14590447913022
 31
0.0
 11
170.9691729191968
 21
15.09039489581073
 31
0.0
 11
171.0942976816298
 21
15.0237728124941
 31
0.0
 11
171.2048009079771
 21
14.94118863716749
 31
0.0
 11
171.2955397598288
 21
14.83800003476272
 31
0.0
 11
171.3561557999489
 21
14.70552315979584
 31
0.0
 11
171.3763699660998
 21
14.53526378483839
 31
0.0
 11
171.3621839747998
 21
14.38133030397412
 31
0.0
 11
171.3196087009193
 21
14.23605531269097
 31
0.0
 11
171.2499752884265
 21
14.10398854189068
 31
0.0
 11
171.1544992078714
 21
13.99007218775246
 31
0.0
 11
171.0341060772624
 21
13.89715272597017
 31
0.0
 11
170.8896160201846
 21
13.8283235766818
 31
0.0
 11
170.7223519532714
 21
13.78581275203967
 31
0.0
 11
170.5336103348226
 21
13.77165864614042
 31
0.0
 11
170.3405031726387
 21
13.78581275203967
 31
0.0
 11
170.1878975900911
 21
13.8283235766818
 31
0.0
 11
170.0661897942203
 21
13.88899033013889
 31
0.0
 11
169.9660261826364
 21
13.95734322942737
 31
0.0
 11
169.9922320587039
 21
14.03255545163077
 31
0.0
 11
170.0090121537618
 21
14.10014767383613
 31
0.0
 11
170.0206196447852
 21
14.17275926235961
 31
0.0
 11
170.0313606254139
 21
14.26352788212859
 31
0.0
 11
170.0520069443316
 21
14.26352788212859
 31
0.0
 11
170.0726532632493
 21
14.26352788212859
 31
0.0
 11
170.104891639163
 21
14.20119204881084
 31
0.0
 11
170.1465954835851
 21
14.13795663215994
 31
0.0
  0
SPLINE
  5
A5
102
{ACAD_REACTORS
330
C3
102
}
330
48
100
AcDbEntity
  8
_U_30EC_U_30A4_U_30E4_U_30FC_1
  6
Continuous
 62
     2
100
AcDbSpline
210
0.0
220
0.0
230
1.0
 70
    11
 71
     3
 72
    57
 73
    53
 74
    51
 42
0.000000001
 43
0.0000000001
 44
0.00000001
 40
0.0
 40
0.0
 40
0.0
 40
0.0
 40
0.0471632082808668
 40
0.0914861054632151
 40
0.1357762519702102
 40
0.1826527001609829
 40
0.2295203288572022
 40
0.2737751972219623
 40
0.3181310461542781
 40
0.3652607198398504
 40
0.4571007286314405
 40
0.567185102916511
 40
0.6894623283867994
 40
0.818175827254598
 40
0.9510087229273987
 40
1.085852229674048
 40
1.218126164475317
 40
1.343545131142385
 40
1.454537202956801
 40
1.567187607530725
 40
1.680710966642373
 40
1.794226869736708
 40
1.900009184247536
 40
2.004085860447788
 40
2.108162674451704
 40
2.214000150155305
 40
2.49603857735212
 40
2.762350745479249
 40
2.997275353279399
 40
3.185110082137732
 40
3.246407890063902
 40
3.312607550212689
 40
3.378877742711506
 40
3.440140399651445
 40
4.100501696006502
 40
4.754913085563556
 40
5.411331693423923
 40
6.077890432568702
 40
6.110575292670981
 40
6.143260152775761
 40
6.367989363395143
 40
6.610525374951543
 40
6.863389136467301
 40
7.119380025547589
 40
7.376036605091094
 40
7.631164770966282
 40
7.876722425456443
 40
8.104953735856006
 40
8.312916685924321
 40
8.497730294941293
 40
8.651018984313868
 40
8.764738853624577
 40
8.764738853624577
 40
8.764738853624577
 40
8.764738853624577
 10
174.7922649500513
 20
13.81626739612927
 30
0.0
 10
174.7766616726931
 20
13.81826231079078
 30
0.0
 10
174.7463947960302
 20
13.822132013603
 30
0.0
 10
174.7010994202252
 20
13.82341984967266
 30
0.0
 10
174.6559553129349
 20
13.8230868355405
 30
0.0
 10
174.60990171234
 20
13.82314658674223
 30
0.0
 10
174.5640496172097
 20
13.8232581365
 30
0.0
 10
174.5183711648165
 20
13.82277833456589
 30
0.0
 10
174.4750811541609
 20
13.82461109618722
 30
0.0
 10
174.4039947951513
 20
13.80049556814656
 30
0.0
 10
174.4057477261442
 20
13.92184693977253
 30
0.0
 10
174.3586196370569
 20
14.0072623975123
 30
0.0
 10
174.3191478251763
 20
14.12486929345139
 30
0.0
 10
174.2706635532645
 20
14.24232752540436
 30
0.0
 10
174.2201017402522
 20
14.3640593576151
 30
0.0
 10
174.1718634610477
 20
14.49075967862465
 30
0.0
 10
174.1135232947594
 20
14.59933687784952
 30
0.0
 10
174.0980892667262
 20
14.7562065713441
 30
0.0
 10
173.9566586330635
 20
14.72373446548321
 30
0.0
 10
173.8508397414905
 20
14.7351288868218
 30
0.0
 10
173.7358569725222
 20
14.73392591514615
 30
0.0
 10
173.6253142252141
 20
14.73506945347409
 30
0.0
 10
173.5176583522783
 20
14.73418350037526
 30
0.0
 10
173.4121322529244
 20
14.73416602390519
 30
0.0
 10
173.3109192682013
 20
14.72714032472414
 30
0.0
 10
173.1266804827753
 20
14.7513585985987
 30
0.0
 10
173.1157393685412
 20
14.44741691121885
 30
0.0
 10
173.0087691634751
 20
14.22353177253395
 30
0.0
 10
172.9098148604347
 20
14.03895314292499
 30
0.0
 10
172.9225090524008
 20
13.79530204804207
 30
0.0
 10
172.8050091716397
 20
13.82508046753198
 30
0.0
 10
172.7422055868311
 20
13.82258089509602
 30
0.0
 10
172.67858720934
 20
13.82344075102805
 30
0.0
 10
172.3946014194074
 20
13.78098039941944
 30
0.0
 10
173.0251638499382
 20
14.50081952444783
 30
0.0
 10
173.1087645289072
 20
15.01276539435728
 30
0.0
 10
173.4929252789339
 20
15.53353743550045
 30
0.0
 10
173.4777208288563
 20
16.23519626253214
 30
0.0
 10
173.7239265722697
 20
16.22345633081256
 30
0.0
 10
173.825634615756
 20
16.23225004452772
 30
0.0
 10
173.8249752035819
 20
15.98059650730347
 30
0.0
 10
173.9428317155828
 20
15.79818020733957
 30
0.0
 10
174.0315515260485
 20
15.55563740662866
 30
0.0
 10
174.1322292485258
 20
15.32340030530127
 30
0.0
 10
174.2311142712243
 20
15.08674644566914
 30
0.0
 10
174.3299676990669
 20
14.85461739170091
 30
0.0
 10
174.4256166390926
 20
14.63122222788789
 30
0.0
 10
174.5159904573272
 20
14.42272549049317
 30
0.0
 10
174.598994456819
 20
14.23308448529319
 30
0.0
 10
174.6726088582798
 20
14.06663106068096
 30
0.0
 10
174.7342815895547
 20
13.929176996261
 30
0.0
 10
174.7749458885604
 20
13.84999239430034
 30
0.0
 10
174.7922649500513
 20
13.81626739612927
 30
0.0
 11
174.7922649500513
 21
13.81626739612927
 31
0.0
 11
174.7453878317448
 21
13.82145433189185
 31
0.0
 11
174.7010975896125
 21
13.82315538223861
 31
0.0
 11
174.6568074431729
 21
13.82315538223861
 31
0.0
 11
174.609930994716
 21
13.82315538223861
 31
0.0
 11
174.5630633657034
 21
13.82315538223861
 31
0.0
 11
174.5188084970409
 21
13.82315538223861
 31
0.0
 11
174.4744852776854
 21
13.82145433189185
 31
0.0
 11
174.4276419021443
 21
13.81626739612927
 31
0.0
 11
174.3992532136325
 21
13.90360966173244
 31
0.0
 11
174.3622721815898
 21
14.00729656274818
 31
0.0
 11
174.3188386236702
 21
14.12159987001126
 31
0.0
 11
174.2711055866936
 21
14.24113531268969
 31
0.0
 11
174.2208160133237
 21
14.36408057307565
 31
0.0
 11
174.1696467003932
 21
14.48883822929445
 31
0.0
 11
174.1197531801326
 21
14.61134141502772
 31
0.0
 11
174.0733119111841
 21
14.72784517367917
 31
0.0
 11
173.9623611907589
 21
14.73087465284505
 31
0.0
 11
173.849730922509
 21
14.7330045486779
 31
0.0
 11
173.736215206945
 21
14.73432195319141
 31
0.0
 11
173.6227000476801
 21
14.73473315978853
 31
0.0
 11
173.5169185312816
 21
14.73432195319141
 31
0.0
 11
173.4128501919226
 21
14.7330045486779
 31
0.0
 11
173.3087951724046
 21
14.73087465284505
 31
0.0
 11
173.2030010615596
 21
14.72784517367917
 31
0.0
 11
173.0980914750139
 21
14.4660443751335
 31
0.0
 11
173.0034868690332
 21
14.2171023265846
 31
0.0
 11
172.9252231210298
 21
13.99559756969557
 31
0.0
 11
172.8693431224555
 21
13.81626739612927
 31
0.0
 11
172.8082651639442
 21
13.82145433189185
 31
0.0
 11
172.742087361813
 21
13.82315538223861
 31
0.0
 11
172.6758390041283
 21
13.82145433189185
 31
0.0
 11
172.6147963233938
 21
13.81626739612927
 31
0.0
 11
172.8899684951931
 21
14.41656508695142
 31
0.0
 11
173.1582945734171
 21
15.01343642360775
 31
0.0
 11
173.4240277350405
 21
15.61366245644381
 31
0.0
 11
173.6914740737033
 21
16.22421385386061
 31
0.0
 11
173.7241589339806
 21
16.22421385386061
 31
0.0
 11
173.7568437942579
 21
16.22421385386061
 31
0.0
 11
173.8428300681057
 21
16.01658539037084
 31
0.0
 11
173.9357285813609
 21
15.79254614563517
 31
0.0
 11
174.0328714521463
 21
15.55908663180469
 31
0.0
 11
174.1317936458031
 21
15.32298128464145
 31
0.0
 11
174.2315341249927
 21
15.08649780379784
 31
0.0
 11
174.3313071129353
 21
14.8516878125371
 31
0.0
 11
174.4280608257449
 21
14.6259949219685
 31
0.0
 11
174.5188084970409
 21
14.41658052097918
 31
0.0
 11
174.6022150834546
 21
14.22607611130459
 31
0.0
 11
174.6770293263377
 21
14.05708232662467
 31
0.0
 11
174.7410729186604
 21
13.91781337700667
 31
0.0
 11
174.7922649500513
 21
13.81626739612927
 31
0.0
  0
SPLINE
  5
A6
102
{ACAD_REACTORS
330
C3
102
}
330
48
100
AcDbEntity
  8
_U_30EC_U_30A4_U_30E4_U_30FC_1
  6
Continuous
 62
     2
100
AcDbSpline
210
0.0
220
0.0
230
1.0
 70
    11
 71
     3
 72
    25
 73
    21
 74
    19
 42
0.000000001
 43
0.0000000001
 44
0.00000001
 40
0.0
 40
0.0
 40
0.0
 40
0.0
 40
0.0911479969064537
 40
0.1858117896203814
 40
0.2804128399734207
 40
0.3715889190713658
 40
0.467908049421814
 40
0.5642683809229232
 40
0.6605683222644139
 40
0.7569653015809403
 40
0.8561348172521887
 40
1.092615965104196
 40
1.374867658141778
 40
1.61134881201147
 40
1.71051832842513
 40
1.809403163726437
 40
2.045205463293962
 40
2.326646917622011
 40
2.562449217190484
 40
2.661334043833792
 40
2.661334043833792
 40
2.661334043833792
 40
2.661334043833792
 10
173.26837005672
 20
14.88614538197292
 30
0.0
 10
173.2987525917923
 20
14.88598079714554
 30
0.0
 10
173.3606895889112
 20
14.88564528689922
 30
0.0
 10
173.454135696033
 20
14.88269055452
 30
0.0
 10
173.5475095236357
 20
14.8797775287715
 30
0.0
 10
173.6417760753476
 20
14.87894201643417
 30
0.0
 10
173.7354964790967
 20
14.87996644658046
 30
0.0
 10
173.8352040303205
 20
14.87916977470973
 30
0.0
 10
173.9188949546313
 20
14.88921410235219
 30
0.0
 10
174.0637996315045
 20
14.86234617674165
 30
0.0
 10
173.9396132444801
 20
15.03665530280048
 30
0.0
 10
173.8965867286282
 20
15.19651711006092
 30
0.0
 10
173.780892214221
 20
15.45518458550213
 30
0.0
 10
173.7017565431258
 20
15.5923105286186
 30
0.0
 10
173.6431576621816
 20
15.80937033134077
 30
0.0
 10
173.586480393944
 20
15.59266134213426
 30
0.0
 10
173.5052809900477
 20
15.45327012438239
 30
0.0
 10
173.4063701281489
 20
15.20406969370192
 30
0.0
 10
173.3253625094259
 20
15.01925830226075
 30
0.0
 10
173.2813683325839
 20
14.91650446856117
 30
0.0
 10
173.26837005672
 20
14.88614538197292
 30
0.0
 11
173.26837005672
 21
14.88614538197292
 31
0.0
 11
173.3595137737821
 21
14.8852612326676
 31
0.0
 11
173.4541428297581
 21
14.88269697919599
 31
0.0
 11
173.5487082179706
 21
14.88009965280777
 31
0.0
 11
173.6398803250196
 21
14.8792485764191
 31
0.0
 11
173.7361985777706
 21
14.87965978301621
 31
0.0
 11
173.8325499034377
 21
14.88097718752972
 31
0.0
 11
173.9288262638286
 21
14.88310818579312
 31
0.0
 11
174.0251753846343
 21
14.88614538197292
 31
0.0
 11
173.9854633323141
 21
14.9770164219502
 31
0.0
 11
173.8907653613968
 21
15.19370890189602
 31
0.0
 11
173.7777387509471
 21
15.45234186183135
 31
0.0
 11
173.6830407800298
 21
15.66903434177717
 31
0.0
 11
173.6433287277096
 21
15.75990538175445
 31
0.0
 11
173.6043330259267
 21
15.66903434177717
 31
0.0
 11
173.5113432755213
 21
15.45234186183135
 31
0.0
 11
173.4003555089083
 21
15.19370890189602
 31
0.0
 11
173.3073657585029
 21
14.9770164219502
 31
0.0
 11
173.26837005672
 21
14.88614538197292
 31
0.0
  0
SPLINE
  5
A7
102
{ACAD_REACTORS
330
C4
102
}
330
48
100
AcDbEntity
  8
_U_30EC_U_30A4_U_30E4_U_30FC_1
  6
Continuous
 62
     2
100
AcDbSpline
210
0.0
220
0.0
230
1.0
 70
    11
 71
     3
 72
    95
 73
    91
 74
    89
 42
0.000000001
 43
0.0000000001
 44
0.00000001
 40
0.0
 40
0.0
 40
0.0
 40
0.0
 40
0.6550406656911159
 40
1.308087289031888
 40
1.420803739835764
 40
1.566130759770761
 40
1.75706734188843
 40
2.006513545026422
 40
2.087328263121523
 40
2.185328872295583
 40
2.294612454748326
 40
2.408936380534777
 40
2.526802767798532
 40
2.646360524615574
 40
2.76253572397156
 40
2.870057342870133
 40
2.966883448431621
 40
3.050803243518249
 40
3.115818222436569
 40
3.156030057150215
 40
3.213914225080202
 40
3.276689026450602
 40
3.342960320981294
 40
3.404230667150543
 40
3.453822809493345
 40
3.532499827188407
 40
3.634775188507138
 40
3.754909333008142
 40
3.889736761660629
 40
4.035769602175198
 40
4.187256681197584
 40
4.338733685675934
 40
4.488478734676096
 40
4.634708317831552
 40
4.771493189921252
 40
4.892686571561188
 40
5.199775528944429
 40
5.460353566929623
 40
5.66760314234549
 40
5.814722905404464
 40
5.828990806219762
 40
5.855488336304459
 40
5.869756237118791
 40
6.18979650776281
 40
6.531890469873035
 40
6.88305363701701
 40
7.230512024911443
 40
7.566966656764586
 40
7.885203559707376
 40
8.172887439719178
 40
8.418011594062731
 40
8.443926721190653
 40
8.51076047061314
 40
8.60214539379565
 40
8.701714041647092
 40
8.793098965075322
 40
8.859932715057894
 40
8.885847842603544
 40
9.242301256612755
 40
9.589275455016713
 40
9.921808543164115
 40
10.23479624298462
 40
10.29968150889167
 40
10.3532349388775
 40
10.40154625355137
 40
10.4648292247781
 40
10.55973900668391
 40
10.69239545985604
 40
10.84920353475657
 40
11.01626328594767
 40
11.18672024367429
 40
11.35372582577197
 40
11.50257442292413
 40
11.61866495023277
 40
11.7132986915286
 40
11.82511050573893
 40
11.94464880845701
 40
12.06929242642494
 40
12.19707290435162
 40
12.32562632860514
 40
12.45034565331265
 40
12.56646595170314
 40
12.6709900741462
 40
12.76077625936767
 40
12.82703233506679
 40
12.87429132785978
 40
12.89831990323317
 40
12.92234847860005
 40
13.53984767410314
 40
14.18294284359354
 40
14.18294284359354
 40
14.18294284359354
 40
14.18294284359354
 10
177.3067935648021
 20
14.70898038201723
 30
0.0
 10
177.1752019758551
 20
14.82265058603231
 30
0.0
 10
176.9124193802728
 20
15.04964496316158
 30
0.0
 10
176.3997393441023
 20
15.89214462956286
 30
0.0
 10
176.4106654595362
 20
15.5342337757702
 30
0.0
 10
176.4041226527991
 20
15.39267392272133
 30
0.0
 10
176.4028026631772
 20
15.1942130529928
 30
0.0
 10
176.4018117602538
 20
15.02150296045982
 30
0.0
 10
176.4024101751974
 20
14.87865373257579
 30
0.0
 10
176.4038994301882
 20
14.78265005413358
 30
0.0
 10
176.4055683588473
 20
14.67545503263142
 30
0.0
 10
176.4071934954617
 20
14.56164211517582
 30
0.0
 10
176.4092429501687
 20
14.44441572604588
 30
0.0
 10
176.4123165501927
 20
14.32656411232969
 30
0.0
 10
176.4156339697044
 20
14.2122808732062
 30
0.0
 10
176.419360534028
 20
14.10521401867275
 30
0.0
 10
176.4217338161424
 20
14.01007408766921
 30
0.0
 10
176.4278718888357
 20
13.92558557205695
 30
0.0
 10
176.4239784495946
 20
13.86923087298141
 30
0.0
 10
176.4455230443079
 20
13.79825022472353
 30
0.0
 10
176.3680940058618
 20
13.82902677604483
 30
0.0
 10
176.3116353240191
 20
13.82011242517612
 30
0.0
 10
176.2540495896808
 20
13.82896218398275
 30
0.0
 10
176.1690163478473
 20
13.79738225225944
 30
0.0
 10
176.2009714146383
 20
13.88095155992191
 30
0.0
 10
176.1990705282538
 20
13.94882608968309
 30
0.0
 10
176.2107960047301
 20
14.05233256764419
 30
0.0
 10
176.2164241052999
 20
14.17002125616695
 30
0.0
 10
176.2237902178941
 20
14.30388609164423
 30
0.0
 10
176.232075970161
 20
14.44764152872632
 30
0.0
 10
176.2398851897428
 20
14.59714022843444
 30
0.0
 10
176.2457571222658
 20
14.74792549402078
 30
0.0
 10
176.250366781797
 20
14.89699943878437
 30
0.0
 10
176.2542632117541
 20
15.04122913163022
 30
0.0
 10
176.2570715126565
 20
15.17583905213017
 30
0.0
 10
176.2576698755023
 20
15.36469614347354
 30
0.0
 10
176.2616023867151
 20
15.58975494313154
 30
0.0
 10
176.2442175378499
 20
15.86367091125708
 30
0.0
 10
176.2850417342584
 20
16.02787112098598
 30
0.0
 10
176.1995153256002
 20
16.22749661465094
 30
0.0
 10
176.2660558907688
 20
16.22385458403978
 30
0.0
 10
176.283872427323
 20
16.22413447160853
 30
0.0
 10
176.4056801797504
 20
16.22632927398613
 30
0.0
 10
176.5080770335461
 20
15.94675118721512
 30
0.0
 10
176.7580021509357
 20
15.74563008536005
 30
0.0
 10
176.9870035331111
 20
15.47792614987918
 30
0.0
 10
177.2245151213108
 20
15.22646413862372
 30
0.0
 10
177.4486090740773
 20
14.98969974061363
 30
0.0
 10
177.675071628301
 20
14.73218692583077
 30
0.0
 10
177.8325687886513
 20
14.61649335056921
 30
0.0
 10
178.0472129612675
 20
14.27997152538794
 30
0.0
 10
178.0422645974618
 20
14.40464754091603
 30
0.0
 10
178.0433931602546
 20
14.46327691935737
 30
0.0
 10
178.0428877841516
 20
14.55043662371977
 30
0.0
 10
178.0430475158113
 20
14.64416143182872
 30
0.0
 10
178.0430054891318
 20
14.73018971297035
 30
0.0
 10
178.0430202040373
 20
14.79153891945496
 30
0.0
 10
178.0429706255983
 20
14.94135231520991
 30
0.0
 10
178.0458811522811
 20
15.17989612510104
 30
0.0
 10
178.0259521041162
 20
15.54486509868701
 30
0.0
 10
178.0750433936247
 20
15.8079963199341
 30
0.0
 10
177.9177951509182
 20
16.21928904947753
 30
0.0
 10
178.0762112872421
 20
16.16398282551748
 30
0.0
 10
178.1311680478629
 20
16.16199686500175
 30
0.0
 10
178.1827887766739
 20
16.16264778248251
 30
0.0
 10
178.2713198965366
 20
16.20369527738245
 30
0.0
 10
178.2204898303168
 20
16.05696326622986
 30
0.0
 10
178.2313389930283
 20
15.95019971954433
 30
0.0
 10
178.2166036994847
 20
15.79085705414111
 30
0.0
 10
178.2099976446204
 20
15.62853061652873
 30
0.0
 10
178.2014961399916
 20
15.45992521892394
 30
0.0
 10
178.1943227202198
 20
15.2981481470354
 30
0.0
 10
178.188906321539
 20
15.15422331457932
 30
0.0
 10
178.1871713967648
 20
15.03437493466925
 30
0.0
 10
178.1875440672318
 20
14.92686101590514
 30
0.0
 10
178.1873656126263
 20
14.81820024645586
 30
0.0
 10
178.187701086314
 20
14.6995357016553
 30
0.0
 10
178.1890040622186
 20
14.57555163512741
 30
0.0
 10
178.1908887351574
 20
14.44858294171104
 30
0.0
 10
178.192500445485
 20
14.32153861551031
 30
0.0
 10
178.1941403137429
 20
14.19854884492177
 30
0.0
 10
178.1962570745753
 20
14.08300931383759
 30
0.0
 10
178.1963848422364
 20
13.98090903955837
 30
0.0
 10
178.2006514396555
 20
13.89009848838157
 30
0.0
 10
178.190844008529
 20
13.83213621208787
 30
0.0
 10
178.211847477169
 20
13.7651713013203
 30
0.0
 10
178.1725639739898
 20
13.77291153966689
 30
0.0
 10
177.9595307117745
 20
13.75755254145192
 30
0.0
 10
177.7636297943187
 20
14.31403058094462
 30
0.0
 10
177.4611197631543
 20
14.57556035348507
 30
0.0
 10
177.3067935648021
 20
14.70898038201723
 30
0.0
 11
177.3067935648021
 21
14.70898038201723
 31
0.0
 11
176.8595529338511
 21
15.18757635411976
 31
0.0
 11
176.4124049070644
 21
15.6635264928897
 31
0.0
 11
176.4089664262494
 21
15.55086249986232
 31
0.0
 11
176.40556101835
 21
15.4055753818431
 31
0.0
 11
176.4029636920274
 21
15.21465645827967
 31
0.0
 11
176.4021126156603
 21
14.96521170139757
 31
0.0
 11
176.4025239230289
 21
14.88439802954279
 31
0.0
 11
176.4038420329817
 21
14.78640628477562
 31
0.0
 11
176.4055192267718
 21
14.6771355729974
 31
0.0
 11
176.4072367127518
 21
14.56282454872039
 31
0.0
 11
176.4094007838773
 21
14.44497802965265
 31
0.0
 11
176.4124049070644
 21
14.32545802100199
 31
0.0
 11
176.4158359733139
 21
14.20933349846155
 31
0.0
 11
176.4192928929999
 21
14.10186746550228
 31
0.0
 11
176.4227085253088
 21
14.00510162351263
 31
0.0
 11
176.4261896983793
 21
13.92125406276973
 31
0.0
 11
176.4296006184313
 21
13.8563286200776
 31
0.0
 11
176.4330776843149
 21
13.81626739612927
 31
0.0
 11
176.3754263821571
 21
13.82145433189185
 31
0.0
 11
176.3126746318309
 21
13.82315538223861
 31
0.0
 11
176.2464251717157
 21
13.82145433189185
 31
0.0
 11
176.1853747739676
 21
13.81626739612927
 31
0.0
 11
176.1926772737813
 21
13.8653189412559
 31
0.0
 11
176.2008793569054
 21
13.94356725720856
 31
0.0
 11
176.2090098822349
 21
14.04551893253029
 31
0.0
 11
176.2163406441397
 21
14.16542920159753
 31
0.0
 11
176.2236358280421
 21
14.30005912343889
 31
0.0
 11
176.2318444255596
 21
14.44586107652745
 31
0.0
 11
176.2395504149467
 21
14.59715203135072
 31
0.0
 11
176.2455763002094
 21
14.74850913200734
 31
0.0
 11
176.2503046247417
 21
14.89817951391435
 31
0.0
 11
176.254192897212
 21
15.04435739582221
 31
0.0
 11
176.2567527408965
 21
15.18111831592696
 31
0.0
 11
176.2576324804575
 21
15.3023085068689
 31
0.0
 11
176.257192610677
 21
15.60939715262544
 31
0.0
 11
176.2559126888348
 21
15.86997204839366
 31
0.0
 11
176.2528658717893
 21
16.07719922716125
 31
0.0
 11
176.2473049112763
 21
16.22421385386061
 31
0.0
 11
176.2615728121469
 21
16.22421385386061
 31
0.0
 11
176.2880703423352
 21
16.22421385386061
 31
0.0
 11
176.3023382432058
 21
16.22421385386061
 31
0.0
 11
176.5194743650277
 21
15.98910179662773
 31
0.0
 11
176.751274412308
 21
15.73751281231562
 31
0.0
 11
176.989481601884
 21
15.4794955554357
 31
0.0
 11
177.2260074557521
 21
15.22497079855489
 31
0.0
 11
177.4555698717706
 21
14.97899759549138
 31
0.0
 11
177.6731797360103
 21
14.74678934034107
 31
0.0
 11
177.8713724913707
 21
14.538266805671
 31
0.0
 11
178.0430143099086
 21
14.36326697932589
 31
0.0
 11
178.0430143099086
 21
14.38918210687043
 31
0.0
 11
178.0430143099086
 21
14.45601585685371
 31
0.0
 11
178.0430143099086
 21
14.54740078030025
 31
0.0
 11
178.0430143099086
 21
14.64696942823453
 31
0.0
 11
178.0430143099086
 21
14.73835435168106
 31
0.0
 11
178.0430143099086
 21
14.80518810166435
 31
0.0
 11
178.0430143099086
 21
14.83110322920889
 31
0.0
 11
178.0417233637609
 21
15.18755430550867
 31
0.0
 11
178.0378461155959
 21
15.53450684014415
 31
0.0
 11
178.0296197790002
 21
15.86693815950551
 31
0.0
 11
178.0154535467229
 21
16.17960510387179
 31
0.0
 11
178.0790351249619
 21
16.16666367158334
 31
0.0
 11
178.1324170159611
 21
16.16238072887607
 31
0.0
 11
178.1805381084833
 21
16.16666367158334
 31
0.0
 11
178.2424836798197
 21
16.17960510387179
 31
0.0
 11
178.2351216487575
 21
16.084981284451
 31
0.0
 11
178.2269790968818
 21
15.95257496503963
 31
0.0
 11
178.2183705364004
 21
15.79600336785656
 31
0.0
 11
178.2097547223215
 21
15.62916593734269
 31
0.0
 11
178.2016187850289
 21
15.4589032550936
 31
0.0
 11
178.1942501393835
 21
15.29206031242699
 31
0.0
 11
178.1891406931522
 21
15.14329943572809
 31
0.0
 11
178.1874503478904
 21
15.02722121527101
 31
0.0
 11
178.1874503478904
 21
14.93258747397519
 31
0.0
 11
178.1874503478904
 21
14.82077565976707
 31
0.0
 11
178.1878461204497
 21
14.70123801222749
 31
0.0
 11
178.1890819450709
 21
14.57660052093918
 31
0.0
 11
178.1908392193317
 21
14.44883212687391
 31
0.0
 11
178.1925303477608
 21
14.32028982655879
 31
0.0
 11
178.1942876220215
 21
14.19558288214554
 31
0.0
 11
178.1959787504506
 21
14.07947489606348
 31
0.0
 11
178.1972884379173
 21
13.97495896727018
 31
0.0
 11
178.1976985420736
 21
13.88517371555653
 31
0.0
 11
178.1976985420736
 21
13.81891763918416
 31
0.0
 11
178.1976985420736
 21
13.77165864614042
 31
0.0
 11
178.1736699662977
 21
13.77165864614042
 31
0.0
 11
178.1496413905218
 21
13.77165864614042
 31
0.0
 11
177.7410729200422
 21
14.2346673526219
 31
0.0
 11
177.3067935648021
 21
14.70898038201723
 31
0.0
  0
SPLINE
  5
A8
102
{ACAD_REACTORS
330
C5
102
}
330
48
100
AcDbEntity
  8
_U_30EC_U_30A4_U_30E4_U_30FC_1
  6
Continuous
 62
     2
100
AcDbSpline
210
0.0
220
0.0
230
1.0
 70
    11
 71
     3
 72
   110
 73
   106
 74
   104
 42
0.000000001
 43
0.0000000001
 44
0.00000001
 40
0.0
 40
0.0
 40
0.0
 40
0.0
 40
0.2203406257277862
 40
0.440780878283816
 40
0.5952494494614571
 40
0.7488431659393147
 40
0.902358183130856
 40
1.056801968670412
 40
1.210736449099884
 40
1.36304138653979
 40
1.515315729683076
 40
1.669377239147999
 40
1.721611652756481
 40
1.77319950294286
 40
1.824933793209904
 40
1.877110426487871
 40
1.982682281206549
 40
2.078781667087329
 40
2.172809640822107
 40
2.271937807378733
 40
2.378349933379154
 40
2.494131557736399
 40
2.626681683943505
 40
2.783145050795875
 40
2.89070123294074
 40
2.99313031245464
 40
3.099869730691614
 40
3.220237816691107
 40
3.352695482737401
 40
3.481732806389646
 40
3.593499473690177
 40
3.674323013331684
 40
3.817951711952548
 40
3.946167120793545
 40
4.061405053453202
 40
4.166480796002872
 40
4.262478775058994
 40
4.350736673550779
 40
4.433071991253807
 40
4.511216293814352
 40
4.56426245411766
 40
4.618474415571275
 40
4.67012848875388
 40
4.722296879126088
 40
4.819540945313957
 40
4.931194984127814
 40
5.049996040257427
 40
5.168643755414887
 40
5.283970811762184
 40
5.392260784910038
 40
5.486512254876056
 40
5.559178233949426
 40
5.591425852853093
 40
5.626215969637481
 40
5.667155838674026
 40
5.717449290213825
 40
5.738402360944439
 40
5.784499116553409
 40
5.830595872164382
 40
5.85154894289724
 40
5.873019280661355
 40
5.924217778407897
 40
5.985325662817276
 40
6.036524160567293
 40
6.057994498333821
 40
6.236847789607078
 40
6.381409928945255
 40
6.49319042417828
 40
6.574067534230088
 40
6.691018086205154
 40
6.8148815542201
 40
6.944307823240024
 40
7.07126671606559
 40
7.193488604461436
 40
7.309042773127663
 40
7.41400720317026
 40
7.505140441886129
 40
7.531150360599292
 40
7.559221645321886
 40
7.587202218920541
 40
7.612569159498756
 40
7.662550809480633
 40
7.70287887576378
 40
7.857328205230623
 40
8.010799568088325
 40
8.165256399657219
 40
8.322232698713615
 40
8.479564855016216
 40
8.63521623029042
 40
8.790882550925394
 40
8.948305154946903
 40
9.168271839032586
 40
9.387358980986871
 40
9.608047961033106
 40
9.832914234792296
 40
9.858338694962633
 40
9.92536681722964
 40
10.02013071422722
 40
10.12876249858961
 40
10.23739428295211
 40
10.33215817995153
 40
10.39918630222356
 40
10.42461076239745
 40
10.64992019336906
 40
10.8718852453115
 40
10.8718852453115
 40
10.8718852453115
 40
10.8718852453115
 10
179.9057788376618
 20
15.73923260398189
 30
0.0
 10
179.9092864933541
 20
15.80616462073803
 30
0.0
 10
179.9163033987662
 20
15.94005891915858
 30
0.0
 10
179.8198027599074
 20
16.22548554971468
 30
0.0
 10
180.0510134726109
 20
16.16284386190283
 30
0.0
 10
180.1919290057157
 20
16.17001554055989
 30
0.0
 10
180.3490417757588
 20
16.16235883078244
 30
0.0
 10
180.5025913427288
 20
16.1625275228304
 30
0.0
 10
180.6545104935081
 20
16.16182040535433
 30
0.0
 10
180.8142214813232
 20
16.17210158351637
 30
0.0
 10
180.9408972601118
 20
16.15496511080751
 30
0.0
 10
181.137082112208
 20
16.22727260107146
 30
0.0
 10
181.1034395279079
 20
16.12640699080116
 30
0.0
 10
181.1052011317185
 20
16.07619253947671
 30
0.0
 10
181.1027342073458
 20
16.02712335586466
 30
0.0
 10
181.1347076966011
 20
15.94063490847002
 30
0.0
 10
181.0010399903257
 20
15.98997438608336
 30
0.0
 10
180.9172208688057
 20
15.98430634314168
 30
0.0
 10
180.8173861139325
 20
15.99465516706297
 30
0.0
 10
180.7186576720146
 20
16.00086450411087
 30
0.0
 10
180.612153277111
 20
16.00697763816777
 30
0.0
 10
180.491051169806
 20
16.01588883484585
 30
0.0
 10
180.3703381502453
 20
16.00521605912385
 30
0.0
 10
180.1812553843439
 20
16.06468503080365
 30
0.0
 10
180.212902850531
 20
15.9055832007754
 30
0.0
 10
180.1995563316835
 20
15.80839128339903
 30
0.0
 10
180.1974958426449
 20
15.69634065110103
 30
0.0
 10
180.195818804467
 20
15.5769968562935
 30
0.0
 10
180.1973336794234
 20
15.4503259215511
 30
0.0
 10
180.195658247867
 20
15.32301588016117
 30
0.0
 10
180.2058844271658
 20
15.22451566404464
 30
0.0
 10
180.1779006596583
 20
15.08388702625634
 30
0.0
 10
180.3508029999305
 20
15.13989551134095
 30
0.0
 10
180.4645020202772
 20
15.12719951478498
 30
0.0
 10
180.5840151672239
 20
15.13448377051255
 30
0.0
 10
180.6888491425071
 20
15.13878017056755
 30
0.0
 10
180.7843084898611
 20
15.14330568258976
 30
0.0
 10
180.8763823507032
 20
15.15149201146199
 30
0.0
 10
180.9476551782439
 20
15.14643850638109
 30
0.0
 10
181.0544931705684
 20
15.1853642503167
 30
0.0
 10
181.0226603598036
 20
15.10517122005879
 30
0.0
 10
181.0266164503929
 20
15.05562936846033
 30
0.0
 10
181.0234502392013
 20
15.00557478039819
 30
0.0
 10
181.0550791490584
 20
14.92128847612021
 30
0.0
 10
180.9210133677692
 20
14.97425365495157
 30
0.0
 10
180.82923227932
 20
14.96540080890441
 30
0.0
 10
180.7079729189603
 20
14.97570049965155
 30
0.0
 10
180.5914113119772
 20
14.97748911767502
 30
0.0
 10
180.478337574588
 20
14.97787017109694
 30
0.0
 10
180.3679246308471
 20
14.9841544947218
 30
0.0
 10
180.2898124067841
 20
14.97189133255365
 30
0.0
 10
180.1913625833644
 20
15.00453887616124
 30
0.0
 10
180.2012355173562
 20
14.94769748054206
 30
0.0
 10
180.1973923244402
 20
14.91392130557984
 30
0.0
 10
180.1966789884268
 20
14.87119604709411
 30
0.0
 10
180.1963369642975
 20
14.83401607262153
 30
0.0
 10
180.1963834255345
 20
14.79487237370771
 30
0.0
 10
180.1963649429927
 20
14.75716849497686
 30
0.0
 10
180.1963703431806
 20
14.71944955232402
 30
0.0
 10
180.1963697214201
 20
14.6899432474515
 30
0.0
 10
180.1963698151545
 20
14.65873577699301
 30
0.0
 10
180.1963704287921
 20
14.61414424908085
 30
0.0
 10
180.1963671499336
 20
14.5596395650885
 30
0.0
 10
180.1963759623481
 20
14.51505540201448
 30
0.0
 10
180.1963359653416
 20
14.43117808585739
 30
0.0
 10
180.1976024270256
 20
14.31737520677678
 30
0.0
 10
180.1950274117841
 20
14.16830395933708
 30
0.0
 10
180.206500938172
 20
14.06597203813905
 30
0.0
 10
180.1823506222264
 20
13.93338903885834
 30
0.0
 10
180.3332993946477
 20
13.97895732272021
 30
0.0
 10
180.4428436671556
 20
13.96427012162349
 30
0.0
 10
180.5733970473921
 20
13.96920435125064
 30
0.0
 10
180.6990312209514
 20
13.97257705323359
 30
0.0
 10
180.81887306256
 20
13.97711497498772
 30
0.0
 10
180.9391362611426
 20
13.99048536182005
 30
0.0
 10
181.0222761663515
 20
13.98068712782596
 30
0.0
 10
181.1456080421076
 20
14.04126214623323
 30
0.0
 10
181.1244269203957
 20
13.98532460134021
 30
0.0
 10
181.1235950270116
 20
13.95939249372346
 30
0.0
 10
181.1218963707558
 20
13.93197256190939
 30
0.0
 10
181.1217974888829
 20
13.89738195206385
 30
0.0
 10
181.120365930133
 20
13.86050408220767
 30
0.0
 10
181.1532804192191
 20
13.76846841021808
 30
0.0
 10
180.9551306988107
 20
13.84132015974831
 30
0.0
 10
180.8300548294891
 20
13.81825726508605
 30
0.0
 10
180.6673071295156
 20
13.82454021985784
 30
0.0
 10
180.5129366450001
 20
13.82260943909925
 30
0.0
 10
180.3566670436944
 20
13.82393762599267
 30
0.0
 10
180.1970544465282
 20
13.8205987248786
 30
0.0
 10
180.0540326342237
 20
13.83265795728242
 30
0.0
 10
179.8197144881629
 20
13.76952001976919
 30
0.0
 10
179.9173810751197
 20
14.05620527466319
 30
0.0
 10
179.9006868780058
 20
14.24988308142661
 30
0.0
 10
179.9146296709686
 20
14.47848242880295
 30
0.0
 10
179.9142987846632
 20
14.63384593955047
 30
0.0
 10
179.9143078119264
 20
14.73966336444125
 30
0.0
 10
179.9143055876317
 20
14.80205784124214
 30
0.0
 10
179.9143065551889
 20
14.89220425248325
 30
0.0
 10
179.9143065473262
 20
14.99621167157437
 30
0.0
 10
179.9143053861104
 20
15.10022131375295
 30
0.0
 10
179.9143090971503
 20
15.19036243688767
 30
0.0
 10
179.9143011051052
 20
15.25276803097214
 30
0.0
 10
179.9143334275019
 20
15.35868835961119
 30
0.0
 10
179.913144078832
 20
15.51626716544739
 30
0.0
 10
179.9082216489257
 20
15.66528219822065
 30
0.0
 10
179.9057788376618
 20
15.73923260398189
 30
0.0
 11
179.9057788376618
 21
15.73923260398189
 31
0.0
 11
179.896691822374
 21
15.95938578101018
 31
0.0
 11
179.8868249573134
 21
16.17960510387179
 31
0.0
 11
180.04115751414
 21
16.17312391463728
 31
0.0
 11
180.1946500189047
 21
16.16754892331923
 31
0.0
 11
180.3481160653367
 21
16.1636716750563
 31
0.0
 11
180.502554455494
 21
16.16238072887607
 31
0.0
 11
180.6564835227474
 21
16.16367167505631
 31
0.0
 11
180.8087391004601
 21
16.16754892331923
 31
0.0
 11
180.9609113551074
 21
16.17312391463728
 31
0.0
 11
181.1148364762483
 21
16.17960510387179
 31
0.0
 11
181.1070811703124
 21
16.12794961777358
 31
0.0
 11
181.1044991623592
 21
16.07642642334204
 31
0.0
 11
181.1070811703124
 21
16.0247566056466
 31
0.0
 11
181.1148364762483
 21
15.97315954836785
 31
0.0
 11
181.0094874054411
 21
15.98001446156058
 31
0.0
 11
180.9136375700061
 21
15.98693552058657
 31
0.0
 11
180.8198593171904
 21
15.99378381919598
 31
0.0
 11
180.7209679915882
 21
16.0006321178054
 31
0.0
 11
180.6147532199924
 21
16.00710999974823
 31
0.0
 11
180.4991060528038
 21
16.01268829835794
 31
0.0
 11
180.3666126447258
 21
16.01656554662088
 31
0.0
 11
180.2101546018424
 21
16.01785649280112
 31
0.0
 11
180.2062663293721
 21
15.91037061609186
 31
0.0
 11
180.2015380048401
 21
15.80805072896463
 31
0.0
 11
180.1976607566749
 21
15.70138175329687
 31
0.0
 11
180.1963698105272
 21
15.5810205901325
 31
0.0
 11
180.1967799146836
 21
15.44856355891564
 31
0.0
 11
180.1980896021502
 21
15.31953288186455
 31
0.0
 11
180.199407457705
 21
15.20777398432309
 31
0.0
 11
180.1998191153661
 21
15.12695149302385
 31
0.0
 11
180.3434452935874
 21
15.1278025694125
 31
0.0
 11
180.4716343930758
 21
15.13039989580077
 31
0.0
 11
180.5868078221795
 21
15.13425509545254
 31
0.0
 11
180.691775631222
 21
15.13901649302076
 31
0.0
 11
180.7876346289422
 21
15.14418027774175
 31
0.0
 11
180.8757413374192
 21
15.14934406246266
 31
0.0
 11
180.9578881438497
 21
15.15491243919739
 31
0.0
 11
181.0357692335571
 21
15.16132086801523
 31
0.0
 11
181.0280180445186
 21
15.10884407115337
 31
0.0
 11
181.0254328449317
 21
15.05469378470858
 31
0.0
 11
181.0280180445186
 21
15.00310444444366
 31
0.0
 11
181.0357692335571
 21
14.95151510417881
 31
0.0
 11
180.9389813454014
 21
14.96092324653756
 31
0.0
 11
180.8275950722015
 21
14.96865128473012
 31
0.0
 11
180.7089261429373
 21
14.97425273438146
 31
0.0
 11
180.5903167449214
 21
14.97726788195011
 31
0.0
 11
180.4750025117521
 21
14.97898767361638
 31
0.0
 11
180.36672619507
 21
14.98070746528257
 31
0.0
 11
180.2724839317709
 21
14.98202486979617
 31
0.0
 11
180.1998191153661
 21
14.98243607639329
 31
0.0
 11
180.199407457705
 21
14.95019108508191
 31
0.0
 11
180.1980896021502
 21
14.91542593752117
 31
0.0
 11
180.1967799146836
 21
14.87450702260084
 31
0.0
 11
180.1963698105272
 21
14.82421524309952
 31
0.0
 11
180.1963698105272
 21
14.80326217235822
 31
0.0
 11
180.1963698105272
 21
14.75716541672736
 31
0.0
 11
180.1963698105272
 21
14.71106866109651
 31
0.0
 11
180.1963698105272
 21
14.69011559035521
 31
0.0
 11
180.1963698105272
 21
14.6686452525828
 31
0.0
 11
180.1963698105272
 21
14.61744675481784
 31
0.0
 11
180.1963698105272
 21
14.55633887038868
 31
0.0
 11
180.1963698105272
 21
14.50514037262371
 31
0.0
 11
180.1963698105272
 21
14.4836700348513
 31
0.0
 11
180.1967799146836
 21
14.30481721371547
 31
0.0
 11
180.1980896021502
 21
14.16026100715441
 31
0.0
 11
180.2002868589709
 21
14.04850210961289
 31
0.0
 11
180.2032586986986
 21
13.96767961831365
 31
0.0
 11
180.3202092517448
 21
13.96767961831365
 31
0.0
 11
180.4440727208747
 21
13.96767961831365
 31
0.0
 11
180.5734925526423
 21
13.9689705644939
 31
0.0
 11
180.7003922282244
 21
13.97284781275681
 31
0.0
 11
180.8224658067973
 21
13.97886708358865
 31
0.0
 11
180.9377587499463
 21
13.98663260442002
 31
0.0
 11
181.0421754573518
 21
13.99734161483402
 31
0.0
 11
181.1320599255449
 21
14.01237656274692
 31
0.0
 11
181.1264254031191
 21
13.98698427976715
 31
0.0
 11
181.1234433285423
 21
13.95907184053802
 31
0.0
 11
181.12213398812
 21
13.93112191867002
 31
0.0
 11
181.1217235369195
 21
13.90575829888472
 31
0.0
 11
181.1243087365064
 21
13.85584355063326
 31
0.0
 11
181.1320599255449
 21
13.81626739612927
 31
0.0
 11
180.9776977178344
 21
13.82145433189185
 31
0.0
 11
180.8242357818765
 21
13.82315538223861
 31
0.0
 11
180.6697789496484
 21
13.82315538223861
 31
0.0
 11
180.5128026496768
 21
13.82315538223861
 31
0.0
 11
180.3554704921537
 21
13.82315538223861
 31
0.0
 11
180.1998191153661
 21
13.82315538223861
 31
0.0
 11
180.0441620874242
 21
13.82145433189185
 31
0.0
 11
179.8868249573134
 21
13.81626739612927
 31
0.0
 11
179.896691822374
 21
14.0360126738521
 31
0.0
 11
179.9057788376618
 21
14.25491128490852
 31
0.0
 11
179.9121721518401
 21
14.47550763902003
 31
0.0
 11
179.914306345501
 21
14.70036378479714
 31
0.0
 11
179.914306345501
 21
14.72578824496874
 31
0.0
 11
179.914306345501
 21
14.79281636723931
 31
0.0
 11
179.914306345501
 21
14.88758026424252
 31
0.0
 11
179.914306345501
 21
14.99621204861207
 31
0.0
 11
179.914306345501
 21
15.10484383298161
 31
0.0
 11
179.914306345501
 21
15.19960772998483
 31
0.0
 11
179.914306345501
 21
15.26663585225539
 31
0.0
 11
179.914306345501
 21
15.29206031242699
 31
0.0
 11
179.9121721518401
 21
15.51735963528735
 31
0.0
 11
179.9057788376618
 21
15.73923260398189
 31
0.0
  0
SPLINE
  5
A9
102
{ACAD_REACTORS
330
C6
102
}
330
48
100
AcDbEntity
  8
_U_30EC_U_30A4_U_30E4_U_30FC_1
  6
Continuous
 62
     2
100
AcDbSpline
210
0.0
220
0.0
230
1.0
 70
    11
 71
     3
 72
    47
 73
    43
 74
    41
 42
0.000000001
 43
0.0000000001
 44
0.00000001
 40
0.0
 40
0.0
 40
0.0
 40
0.0
 40
0.2207912809957284
 40
0.4459404186303168
 40
0.4902387190460231
 40
0.5327473892724044
 40
0.574226045122651
 40
0.6155432630561801
 40
0.6568164066317288
 40
0.6982511618781633
 40
0.7407663929318151
 40
0.7851366743176222
 40
1.010288833836419
 40
1.23108050700228
 40
1.451765243652498
 40
1.676638205891785
 40
1.720461045359755
 40
1.83001814404362
 40
1.972442372353251
 40
2.11486660067762
 40
2.224423699395245
 40
2.268246538883486
 40
2.493628801207322
 40
2.715602830286727
 40
2.934211330706474
 40
3.149502369855464
 40
3.231387784851024
 40
3.318231873854145
 40
3.405143198198076
 40
3.486970301720654
 40
3.702258172494099
 40
3.92086628353432
 40
4.142839325932117
 40
4.368221903865584
 40
4.412044743360064
 40
4.52160184209608
 40
4.66402607045256
 40
4.806450298809268
 40
4.91600739754696
 40
4.959830237043284
 40
5.184703515847317
 40
5.405387250767684
 40
5.405387250767684
 40
5.405387250767684
 40
5.405387250767684
 10
182.6507427258645
 20
15.73406440953871
 30
0.0
 10
182.6568139420002
 20
15.7975848250121
 30
0.0
 10
182.6690762107243
 20
15.92587938689628
 30
0.0
 10
182.5604706879412
 20
16.20166220174078
 30
0.0
 10
182.6761985896604
 20
16.17188133432052
 30
0.0
 10
182.7171842509015
 20
16.1676555626282
 30
0.0
 10
182.7591205797519
 20
16.16310446389606
 30
0.0
 10
182.800419662571
 20
16.16201982929485
 30
0.0
 10
182.8417032115556
 20
16.16310338195227
 30
0.0
 10
182.8836148270647
 20
16.16766112711342
 30
0.0
 10
182.9245983549019
 20
16.17187430209727
 30
0.0
 10
183.0404922843489
 20
16.20177611317535
 30
0.0
 10
182.9295652727457
 20
15.92339806609888
 30
0.0
 10
182.9574856365267
 20
15.74283140824953
 30
0.0
 10
182.9404267346969
 20
15.50961042346471
 30
0.0
 10
182.9414637282102
 20
15.34906622543145
 30
0.0
 10
182.9414099399405
 20
15.22284817558722
 30
0.0
 10
182.9414277372481
 20
15.12428963336241
 30
0.0
 10
182.941418858108
 20
14.99280702442963
 30
0.0
 10
182.9414263928034
 20
14.8613284496865
 30
0.0
 10
182.9414129405128
 20
14.76276222694091
 30
0.0
 10
182.9414531717492
 20
14.63639735624152
 30
0.0
 10
182.9406746403816
 20
14.47482068822869
 30
0.0
 10
182.9565958319267
 20
14.24361821892913
 30
0.0
 10
182.9333468885408
 20
14.05874351972002
 30
0.0
 10
183.0360183444365
 20
13.78935602770057
 30
0.0
 10
182.8820238362836
 20
13.82660112685818
 30
0.0
 10
182.8004129802832
 20
13.82137994680532
 30
0.0
 10
182.7188192292583
 20
13.82660620378351
 30
0.0
 10
182.5648513666841
 20
13.78937069885382
 30
0.0
 10
182.6674183421918
 20
14.05875129862878
 30
0.0
 10
182.6442045316087
 20
14.24361585325414
 30
0.0
 10
182.6600444655139
 20
14.47482218565638
 30
0.0
 10
182.6593296313429
 20
14.63639712308503
 30
0.0
 10
182.6593664569907
 20
14.7627623121052
 30
0.0
 10
182.6593549000271
 20
14.86132756635981
 30
0.0
 10
182.6593575019214
 20
14.9928112741722
 30
0.0
 10
182.659364853178
 20
15.124275480312
 30
0.0
 10
182.6593442541351
 20
15.22287786275326
 30
0.0
 10
182.659408219203
 20
15.34896149354427
 30
0.0
 10
182.658173394759
 20
15.51210091383771
 30
0.0
 10
182.6532040396745
 20
15.66054183777549
 30
0.0
 10
182.6507427258645
 20
15.73406440953871
 30
0.0
 11
182.6507427258645
 21
15.73406440953871
 31
0.0
 11
182.6417328200379
 21
15.95467178795577
 31
0.0
 11
182.6318769706145
 21
16.17960510387179
 31
0.0
 11
182.6756985840801
 21
16.17312391463728
 31
0.0
 11
182.7178400934216
 21
16.16754892331923
 31
0.0
 11
182.759137140979
 21
16.1636716750563
 31
0.0
 11
182.8004341885365
 21
16.16238072887607
 31
0.0
 11
182.8416871388731
 21
16.16367167505631
 31
0.0
 11
182.8829400892097
 21
16.16754892331923
 31
0.0
 11
182.9250882131343
 21
16.17312391463728
 31
0.0
 11
182.9689825870145
 21
16.17960510387179
 31
0.0
 11
182.9590577693892
 21
15.95467178795577
 31
0.0
 11
182.950038420831
 21
15.73406440953871
 31
0.0
 11
182.9435638463435
 21
15.51347467001054
 31
0.0
 11
182.9414218238286
 21
15.28861190965007
 31
0.0
 11
182.9414218238286
 21
15.24478907015486
 31
0.0
 11
182.9414218238286
 21
15.13523197141682
 31
0.0
 11
182.9414218238286
 21
14.99280774305737
 31
0.0
 11
182.9414218238286
 21
14.85038351469792
 31
0.0
 11
182.9414218238286
 21
14.74082641595989
 31
0.0
 11
182.9414218238286
 21
14.69700357646467
 31
0.0
 11
182.9435638463435
 21
14.47163149318766
 31
0.0
 11
182.950038420831
 21
14.24975190990979
 31
0.0
 11
182.9590577693892
 21
14.03132954885329
 31
0.0
 11
182.9689825870145
 21
13.81626739612927
 31
0.0
 11
182.8872616168771
 21
13.82145433189185
 31
0.0
 11
182.8004341885365
 21
13.82315538223861
 31
0.0
 11
182.713539511934
 21
13.82145433189185
 31
0.0
 11
182.6318769706145
 21
13.81626739612927
 31
0.0
 11
182.6417328200379
 21
14.03132954885329
 31
0.0
 11
182.6507427258645
 21
14.24975190990979
 31
0.0
 11
182.6571833838798
 21
14.47163149318766
 31
0.0
 11
182.6593583588024
 21
14.69700357646467
 31
0.0
 11
182.6593583588024
 21
14.74082641595988
 31
0.0
 11
182.6593583588024
 21
14.85038351469792
 31
0.0
 11
182.6593583588024
 21
14.99280774305737
 31
0.0
 11
182.6593583588024
 21
15.13523197141682
 31
0.0
 11
182.6593583588024
 21
15.24478907015486
 31
0.0
 11
182.6593583588024
 21
15.28861190965007
 31
0.0
 11
182.6571833838798
 21
15.51347467001054
 31
0.0
 11
182.6507427258645
 21
15.73406440953871
 31
0.0
  0
SPLINE
  5
AA
102
{ACAD_REACTORS
330
C7
102
}
330
48
100
AcDbEntity
  8
_U_30EC_U_30A4_U_30E4_U_30FC_1
  6
Continuous
 62
     2
100
AcDbSpline
210
0.0
220
0.0
230
1.0
 70
    11
 71
     3
 72
   118
 73
   114
 74
   112
 42
0.000000001
 43
0.0000000001
 44
0.00000001
 40
0.0
 40
0.0
 40
0.0
 40
0.0
 40
0.1054708162973134
 40
0.2466098270051663
 40
0.3965912874590822
 40
0.5285525069753549
 40
0.6156245055641602
 40
0.6431434105796914
 40
0.7036850037985787
 40
0.7642265984504353
 40
0.7917455052354825
 40
0.9287404319989458
 40
1.106572819087955
 40
1.287544879680928
 40
1.317578308030445
 40
1.399928030857083
 40
1.522968204799858
 40
1.675072986590479
 40
1.844616533180556
 40
2.01997300163862
 40
2.189516548879933
 40
2.341621331585271
 40
2.464661506320407
 40
2.547011229646971
 40
2.577044658167935
 40
2.603797890893006
 40
2.662655002908721
 40
2.721512114949562
 40
2.748265347702713
 40
2.774215307344789
 40
2.845959313407119
 40
2.954338556588317
 40
3.090194227585494
 40
3.244367517100457
 40
3.407699615844216
 40
3.571031714539362
 40
3.725205003920038
 40
3.861060674729536
 40
3.96943991771623
 40
4.041183923628903
 40
4.067133883212895
 40
4.311886746012085
 40
4.54789725833545
 40
4.764747083043915
 40
4.952749679951717
 40
5.045772974195842
 40
5.137862019644879
 40
5.330543169792913
 40
5.553448265243904
 40
5.795083855888059
 40
6.043293412177123
 40
6.285761695541081
 40
6.313902908752593
 40
6.384255941793183
 40
6.475714884766771
 40
6.567173827758862
 40
6.637526860839668
 40
6.665668074074032
 40
6.692018920328004
 40
6.749990782071074
 40
6.807962643790442
 40
6.834313490017917
 40
6.856393084245195
 40
6.913335195649819
 40
6.991194817302511
 40
7.076026942283801
 40
7.15388656372532
 40
7.210828674844874
 40
7.232908268931237
 40
7.258199334923758
 40
7.324875781592408
 40
7.419142481925065
 40
7.527204308842005
 40
7.635266135230583
 40
7.729532834168569
 40
7.796209279292891
 40
7.821500344594837
 40
7.844652988850908
 40
7.89986314054163
 40
7.965759128053711
 40
8.020969279770966
 40
8.044121924046404
 40
8.069356610160423
 40
8.109134395441112
 40
8.132238100190824
 40
8.19314786778619
 40
8.279261678876361
 40
8.377977512673576
 40
8.476693347146359
 40
8.562807160411413
 40
8.6237169308262
 40
8.646820636853151
 40
8.671988793773965
 40
8.734909185827847
 40
8.816705695188562
 40
8.898502204815133
 40
8.961422597377593
 40
8.986590754550706
 40
9.01294160073286
 40
9.070913462379945
 40
9.128885324081441
 40
9.155236170324761
 40
9.180404327928803
 40
9.243324721947877
 40
9.325121234211641
 40
9.406917746637296
 40
9.469838141977752
 40
9.495006288270526
 40
9.517811184378667
 40
9.572192090486665
 40
9.637098333280893
 40
9.691479239515088
 40
9.714284125643127
 40
9.714284125643127
 40
9.714284125643127
 40
9.714284125643127
 10
185.2874469028654
 20
15.2688916318772
 30
0.0
 10
185.3090990569038
 20
15.24111869242811
 30
0.0
 10
185.3597257109475
 20
15.17618054561234
 30
0.0
 10
185.4349383202592
 20
15.06891060312899
 30
0.0
 10
185.5248482274347
 20
14.95377438266624
 30
0.0
 10
185.5709169676673
 20
14.85357045748321
 30
0.0
 10
185.6655825294655
 20
14.78434006814942
 30
0.0
 10
185.6204439320412
 20
14.73771639678273
 30
0.0
 10
185.5947047785789
 20
14.69660308866039
 30
0.0
 10
185.5645196708011
 20
14.66065971727939
 30
0.0
 10
185.5193684730561
 20
14.58579782596095
 30
0.0
 10
185.4710504458562
 20
14.80782524253602
 30
0.0
 10
185.3968539713073
 20
14.84510677337711
 30
0.0
 10
185.2836047324608
 20
15.11610202130599
 30
0.0
 10
185.2885133578171
 20
15.00095328446229
 30
0.0
 10
185.2868486556307
 20
14.92836675781627
 30
0.0
 10
185.2876830076715
 20
14.80625588483986
 30
0.0
 10
185.2873609540265
 20
14.6591380081046
 30
0.0
 10
185.2875076912457
 20
14.49307063956557
 30
0.0
 10
185.2872950092723
 20
14.32187554608602
 30
0.0
 10
185.2879497252034
 20
14.15552828635498
 30
0.0
 10
185.285919246114
 20
14.00935173055693
 30
0.0
 10
185.2913460399931
 20
13.8847104747461
 30
0.0
 10
185.2804930868709
 20
13.81718656540626
 30
0.0
 10
185.2956739155556
 20
13.75549061417022
 30
0.0
 10
185.2457895108134
 20
13.76727503897002
 30
0.0
 10
185.2017150342523
 20
13.75943822779969
 30
0.0
 10
185.1582371630201
 20
13.76760441372703
 30
0.0
 10
185.1092346786489
 20
13.75538056738469
 30
0.0
 10
185.1218731234826
 20
13.80960667249313
 30
0.0
 10
185.113018296845
 20
13.86936918907557
 30
0.0
 10
185.1175058770314
 20
13.9792202904437
 30
0.0
 10
185.1157960135992
 20
14.11029975405678
 30
0.0
 10
185.1163550915987
 20
14.26198011444328
 30
0.0
 10
185.1161928768694
 20
14.42211074929953
 30
0.0
 10
185.1162269924675
 20
14.58236865674565
 30
0.0
 10
185.1162514960128
 20
14.73370247520439
 30
0.0
 10
185.1161453543226
 20
14.865821563386
 30
0.0
 10
185.1164299141932
 20
14.97294802533192
 30
0.0
 10
185.1158675547569
 20
15.03808619579473
 30
0.0
 10
185.1180765083689
 20
15.16618957858673
 30
0.0
 10
185.0319435998603
 20
14.79097610391576
 30
0.0
 10
184.9555140818501
 20
14.63918193123394
 30
0.0
 10
184.8660040767833
 20
14.47766206446307
 30
0.0
 10
184.7640413217327
 20
14.20471848820172
 30
0.0
 10
184.7187976491039
 20
14.36717346596507
 30
0.0
 10
184.6102355941671
 20
14.45605432058124
 30
0.0
 10
184.7995791751753
 20
14.60549794961408
 30
0.0
 10
184.8565340545701
 20
14.79749136974925
 30
0.0
 10
184.9717520993353
 20
15.02899622906757
 30
0.0
 10
184.9940151630132
 20
15.21797259759063
 30
0.0
 10
185.1771905152142
 20
15.49454089325931
 30
0.0
 10
185.0538033597552
 20
15.48698978832094
 30
0.0
 10
184.9925684166834
 20
15.48856772366118
 30
0.0
 10
184.9081999617064
 20
15.48882592573672
 30
0.0
 10
184.8204235085966
 20
15.48544845751205
 30
0.0
 10
184.7656768696122
 20
15.4939481498202
 30
0.0
 10
184.7104703026025
 20
15.48048561049788
 30
0.0
 10
184.7222823035536
 20
15.52931442126763
 30
0.0
 10
184.7142496151794
 20
15.57269004896709
 30
0.0
 10
184.7228186104678
 20
15.61509438309573
 30
0.0
 10
184.7102943409157
 20
15.66267796552118
 30
0.0
 10
184.7555101538735
 20
15.65267212995109
 30
0.0
 10
184.8014815562724
 20
15.65894105174062
 30
0.0
 10
184.877722204771
 20
15.65593561405872
 30
0.0
 10
184.9561296131994
 20
15.65770448278541
 30
0.0
 10
185.0323992648933
 20
15.65464793981659
 30
0.0
 10
185.0783009459475
 20
15.66103971376177
 30
0.0
 10
185.1231733965401
 20
15.65093822978896
 30
0.0
 10
185.1105552275634
 20
15.70157201581898
 30
0.0
 10
185.1191936582707
 20
15.7550126188207
 30
0.0
 10
185.1152361595444
 20
15.8486325513168
 30
0.0
 10
185.1162325068335
 20
15.95112606688924
 30
0.0
 10
185.1171927413074
 20
16.05353270248163
 30
0.0
 10
185.1133211458006
 20
16.14735929609321
 30
0.0
 10
185.1217789814365
 20
16.20036542840353
 30
0.0
 10
185.1093075932836
 20
16.25211435651188
 30
0.0
 10
185.1542106389851
 20
16.23850747226758
 30
0.0
 10
185.1955083836772
 20
16.24100480320585
 30
0.0
 10
185.259534428105
 20
16.23648060574488
 30
0.0
 10
185.2986111148786
 20
16.22781003043307
 30
0.0
 10
185.347654349874
 20
16.23515102070688
 30
0.0
 10
185.3225080030591
 20
16.19602896051757
 30
0.0
 10
185.2815901333724
 20
16.20563842455805
 30
0.0
 10
185.2910109616604
 20
16.15540148169777
 30
0.0
 10
185.2855647318747
 20
16.1038594563949
 30
0.0
 10
185.2881699601805
 20
16.0195970758452
 30
0.0
 10
185.2870102202155
 20
15.92559135583408
 30
0.0
 10
185.2883591064232
 20
15.83196865395525
 30
0.0
 10
185.2849970101508
 20
15.74679517552223
 30
0.0
 10
185.292095991777
 20
15.69716856072044
 30
0.0
 10
185.2812569154547
 20
15.64993694969989
 30
0.0
 10
185.3304010225246
 20
15.66201674936851
 30
0.0
 10
185.3794877630148
 20
15.65447393363012
 30
0.0
 10
185.4573714280642
 20
15.65686070361432
 30
0.0
 10
185.5350365172897
 20
15.65899381905415
 30
0.0
 10
185.5845393931355
 20
15.65193391922455
 30
0.0
 10
185.634459475064
 20
15.66360151936214
 30
0.0
 10
185.6223198516882
 20
15.61540235371393
 30
0.0
 10
185.6305838229144
 20
15.57249219801236
 30
0.0
 10
185.6223198650785
 20
15.52958201851384
 30
0.0
 10
185.6344594549855
 20
15.48138288754865
 30
0.0
 10
185.5845395158747
 20
15.4930503447151
 30
0.0
 10
185.5350350651204
 20
15.48599202435046
 30
0.0
 10
185.4573784382974
 20
15.48811665228603
 30
0.0
 10
185.3794643865762
 20
15.49053389365761
 30
0.0
 10
185.3304500352717
 20
15.48291848194485
 30
0.0
 10
185.2813246108944
 20
15.49507952557593
 30
0.0
 10
185.2915559988572
 20
15.45073013424158
 30
0.0
 10
185.2856677678055
 20
15.40925436202912
 30
0.0
 10
185.287878830557
 20
15.34915394315303
 30
0.0
 10
185.2874109346148
 20
15.3022578276289
 30
0.0
 10
185.2874386992914
 20
15.27650146418197
 30
0.0
 10
185.2874469028654
 20
15.2688916318772
 30
0.0
 11
185.2874469028654
 21
15.2688916318772
 31
0.0
 11
185.3516977534485
 21
15.18524999634256
 31
0.0
 11
185.43482588355
 21
15.0711888974822
 31
0.0
 11
185.5216831568896
 21
14.94891767195723
 31
0.0
 11
185.5971214371872
 21
14.84064565642876
 31
0.0
 11
185.6459925881626
 21
14.7685821875579
 31
0.0
 11
185.6296821285093
 21
14.74641782124399
 31
0.0
 11
185.5937991172719
 21
14.69765621535339
 31
0.0
 11
185.5579161060346
 21
14.6488946094628
 31
0.0
 11
185.5416056463812
 21
14.62673024314889
 31
0.0
 11
185.4763067109446
 21
14.74716139023812
 31
0.0
 11
185.3848434243235
 21
14.89966983670206
 31
0.0
 11
185.2874469028654
 21
15.05219788193142
 31
0.0
 11
185.2874469028654
 21
15.02216445328253
 31
0.0
 11
185.2874469028654
 21
14.93981472956783
 31
0.0
 11
185.2874469028654
 21
14.81677455413528
 31
0.0
 11
185.2874469028654
 21
14.66466977033283
 31
0.0
 11
185.2874469028654
 21
14.49512622150845
 31
0.0
 11
185.2874469028654
 21
14.31976975101009
 31
0.0
 11
185.2874469028654
 21
14.15022620218571
 31
0.0
 11
185.2874469028654
 21
13.99812141838326
 31
0.0
 11
185.2874469028654
 21
13.87508124295071
 31
0.0
 11
185.2874469028654
 21
13.79273151923601
 31
0.0
 11
185.2874469028654
 21
13.76269809058712
 31
0.0
 11
185.260693670041
 21
13.76269809058712
 31
0.0
 11
185.2018365578272
 21
13.76269809058712
 31
0.0
 11
185.1429794456135
 21
13.76269809058712
 31
0.0
 11
185.1162262127891
 21
13.76269809058712
 31
0.0
 11
185.1162262127891
 21
13.7886480503125
 31
0.0
 11
185.1162262127891
 21
13.86039205661208
 31
0.0
 11
185.1162262127891
 21
13.96877130017101
 31
0.0
 11
185.1162262127891
 21
14.10462697167447
 31
0.0
 11
185.1162262127891
 21
14.25880026180761
 31
0.0
 11
185.1162262127891
 21
14.42213236125558
 31
0.0
 11
185.1162262127891
 21
14.58546446070356
 31
0.0
 11
185.1162262127891
 21
14.73963775083669
 31
0.0
 11
185.1162262127891
 21
14.87549342234015
 31
0.0
 11
185.1162262127891
 21
14.98387266589908
 31
0.0
 11
185.1162262127891
 21
15.05561667219866
 31
0.0
 11
185.1162262127891
 21
15.08156663192404
 31
0.0
 11
185.0379865861722
 21
14.84965603302372
 31
0.0
 11
184.9497110789304
 21
14.63077616328678
 31
0.0
 11
184.8544106930045
 21
14.43598991333547
 31
0.0
 11
184.7550964303356
 21
14.27636017379202
 31
0.0
 11
184.7109198342406
 21
14.35822446196599
 31
0.0
 11
184.6588057383481
 21
14.43414885430811
 31
0.0
 11
184.76273025903
 21
14.59640087926757
 31
0.0
 11
184.8629319864735
 21
14.7955146542178
 31
0.0
 11
184.9550446607902
 21
15.01890447916196
 31
0.0
 11
185.0347020220912
 21
15.25398465410319
 31
0.0
 11
185.0975378104881
 21
15.48816947904465
 31
0.0
 11
185.0693965972143
 21
15.48816947904465
 31
0.0
 11
184.9990435640298
 21
15.48816947904465
 31
0.0
 11
184.9075846208899
 21
15.48816947904465
 31
0.0
 11
184.81612567775
 21
15.48816947904465
 31
0.0
 11
184.7457726445654
 21
15.48816947904465
 31
0.0
 11
184.7176314312916
 21
15.48816947904465
 31
0.0
 11
184.7176314312916
 21
15.51452032539222
 31
0.0
 11
184.7176314312916
 21
15.57249218735688
 31
0.0
 11
184.7176314312916
 21
15.63046404932155
 31
0.0
 11
184.7176314312916
 21
15.65681489566912
 31
0.0
 11
184.739711025602
 21
15.65681489566912
 31
0.0
 11
184.7966531372444
 21
15.65681489566912
 31
0.0
 11
184.8745127592862
 21
15.65681489566912
 31
0.0
 11
184.9593448847945
 21
15.65681489566912
 31
0.0
 11
185.0372045068362
 21
15.65681489566912
 31
0.0
 11
185.0941466184787
 21
15.65681489566912
 31
0.0
 11
185.1162262127891
 21
15.65681489566912
 31
0.0
 11
185.1162262127891
 21
15.68210596174353
 31
0.0
 11
185.1162262127891
 21
15.74878240866697
 31
0.0
 11
185.1162262127891
 21
15.84304910948977
 31
0.0
 11
185.1162262127891
 21
15.95111093726224
 31
0.0
 11
185.1162262127891
 21
16.05917276503471
 31
0.0
 11
185.1162262127891
 21
16.15343946585751
 31
0.0
 11
185.1162262127891
 21
16.22011591278095
 31
0.0
 11
185.1162262127891
 21
16.24540697885536
 31
0.0
 11
185.1393181988666
 21
16.243732131078
 31
0.0
 11
185.1943837041285
 21
16.23973826330122
 31
0.0
 11
185.2601070491183
 21
16.23497138885796
 31
0.0
 11
185.3151725543802
 21
16.23097752108117
 31
0.0
 11
185.3382645404577
 21
16.22930267330381
 31
0.0
 11
185.3249012644362
 21
16.20789677921191
 31
0.0
 11
185.2874469028654
 21
16.19450114553469
 31
0.0
 11
185.2874469028654
 21
16.17139743948578
 31
0.0
 11
185.2874469028654
 21
16.11048766899319
 31
0.0
 11
185.2874469028654
 21
16.02437385553816
 31
0.0
 11
185.2874469028654
 21
15.9256580206019
 31
0.0
 11
185.2874469028654
 21
15.82694218566565
 31
0.0
 11
185.2874469028654
 21
15.74082837221061
 31
0.0
 11
185.2874469028654
 21
15.67991860171803
 31
0.0
 11
185.2874469028654
 21
15.65681489566912
 31
0.0
 11
185.312615060481
 21
15.65681489566912
 31
0.0
 11
185.37553545452
 21
15.65681489566912
 31
0.0
 11
185.4573319667707
 21
15.65681489566912
 31
0.0
 11
185.5391284790213
 21
15.65681489566912
 31
0.0
 11
185.6020488730603
 21
15.65681489566912
 31
0.0
 11
185.6272170306759
 21
15.65681489566912
 31
0.0
 11
185.6272170306759
 21
15.63046404932155
 31
0.0
 11
185.6272170306759
 21
15.57249218735689
 31
0.0
 11
185.6272170306759
 21
15.51452032539222
 31
0.0
 11
185.6272170306759
 21
15.48816947904465
 31
0.0
 11
185.6020488730603
 21
15.48816947904465
 31
0.0
 11
185.5391284790213
 21
15.48816947904465
 31
0.0
 11
185.4573319667707
 21
15.48816947904465
 31
0.0
 11
185.37553545452
 21
15.48816947904465
 31
0.0
 11
185.312615060481
 21
15.48816947904465
 31
0.0
 11
185.2874469028654
 21
15.48816947904465
 31
0.0
 11
185.2874469028654
 21
15.46536458293924
 31
0.0
 11
185.2874469028654
 21
15.41098367684171
 31
0.0
 11
185.2874469028654
 21
15.34607743408014
 31
0.0
 11
185.2874469028654
 21
15.29169652798262
 31
0.0
 11
185.2874469028654
 21
15.2688916318772
 31
0.0
  0
SPLINE
  5
AB
102
{ACAD_REACTORS
330
C8
102
}
330
48
100
AcDbEntity
  8
_U_30EC_U_30A4_U_30E4_U_30FC_1
  6
Continuous
 62
     2
100
AcDbSpline
210
0.0
220
0.0
230
1.0
 70
    11
 71
     3
 72
    91
 73
    87
 74
    85
 42
0.000000001
 43
0.0000000001
 44
0.00000001
 40
0.0
 40
0.0
 40
0.0
 40
0.0
 40
0.0345987051695718
 40
0.1258134969461085
 40
0.2547723404888703
 40
0.4026032099153556
 40
0.550434079341642
 40
0.6793929228835227
 40
0.7706077146570467
 40
0.8052064287780072
 40
1.12485239061519
 40
1.427402236308781
 40
1.706356627453422
 40
1.9555414178751
 40
2.169485938566245
 40
2.344350786664714
 40
2.480568411561844
 40
2.590440557428839
 40
2.649189927150969
 40
2.749320643306183
 40
2.912632739879884
 40
3.14774565600009
 40
3.244827496384896
 40
3.338490056946488
 40
3.583815413206907
 40
3.761423943238265
 40
3.886956104362415
 40
3.98585545188662
 40
4.091766255337505
 40
4.250186473811698
 40
4.422734315084343
 40
4.628285684838422
 40
4.87209322775824
 40
5.152549652145352
 40
5.464967135837325
 40
5.803201477852246
 40
6.160362988813718
 40
6.193449448275802
 40
6.284170385501456
 40
6.419718138764326
 40
6.587285046385604
 40
6.77406344672349
 40
6.967245678113473
 40
7.154024078817516
 40
7.321590987025873
 40
7.457138740890231
 40
7.547859678555996
 40
7.580946138182556
 40
7.608533084714608
 40
7.669224367077588
 40
7.72991564942981
 40
7.757502595949861
 40
7.790278062553314
 40
7.880146277430812
 40
8.014419963180275
 40
8.180411842397776
 40
8.365434637679245
 40
8.556801071622546
 40
8.741823866830659
 40
8.907815745916169
 40
9.042089431507323
 40
9.131957646249449
 40
9.164733112797025
 40
9.41542506313994
 40
9.66798618095841
 40
9.694169807462577
 40
9.756607686047536
 40
9.831130315322428
 40
9.893568193899863
 40
9.919751820398709
 40
9.95096796469054
 40
9.996421631210652
 40
10.22087981037454
 40
10.44341866197541
 40
10.47847970788854
 40
10.57091337438754
 40
10.70159545461229
 40
10.8514017417036
 40
11.00120802880477
 40
11.13189010907382
 40
11.2243237758301
 40
11.25938480938956
 40
11.28697175596145
 40
11.34766303835919
 40
11.4083543204207
 40
11.43594125892104
 40
11.43594125892104
 40
11.43594125892104
 40
11.43594125892104
 10
190.0818114333289
 20
15.55242795125077
 30
0.0
 10
190.070278584494
 20
15.55242790287915
 30
0.0
 10
190.0283409444999
 20
15.55242773704164
 30
0.0
 10
189.9434129719025
 20
15.55243125800908
 30
0.0
 10
189.8207688553129
 20
15.55240926435879
 30
0.0
 10
189.6791206916993
 20
15.55250801177054
 30
0.0
 10
189.537975369849
 20
15.55214686232421
 30
0.0
 10
189.4141351317905
 20
15.55321883609088
 30
0.0
 10
189.3317217825382
 20
15.55092249091268
 30
0.0
 10
189.1727791229692
 20
15.5604856937342
 30
0.0
 10
189.3503402353377
 20
15.1978539431137
 30
0.0
 10
189.3379739205453
 20
14.95243127723115
 30
0.0
 10
189.4064519473864
 20
14.66862501324835
 30
0.0
 10
189.469302432097
 20
14.43250999939035
 30
0.0
 10
189.5452253431728
 20
14.23326740396128
 30
0.0
 10
189.6303189577017
 20
14.07745347451375
 30
0.0
 10
189.7244607592935
 20
13.97657857781394
 30
0.0
 10
189.8282648207727
 20
13.92465852638964
 30
0.0
 10
189.9125872030773
 20
13.97606484379619
 30
0.0
 10
189.9351322179452
 20
14.09144544037516
 30
0.0
 10
189.974573097537
 20
14.2188514970238
 30
0.0
 10
189.9202919734944
 20
14.53622328086758
 30
0.0
 10
190.0451218072473
 20
14.38982180140903
 30
0.0
 10
190.2019291513603
 20
14.35795300331171
 30
0.0
 10
190.0947720007057
 20
14.12421357767626
 30
0.0
 10
190.0808711209867
 20
13.95972776583657
 30
0.0
 10
190.0234709467226
 20
13.8313086912248
 30
0.0
 10
189.9335020145008
 20
13.76018802352828
 30
0.0
 10
189.8095274657878
 20
13.74432324142253
 30
0.0
 10
189.663427319686
 20
13.77993797554172
 30
0.0
 10
189.5243894320284
 20
13.90000570500276
 30
0.0
 10
189.4102003962144
 20
14.07435682550321
 30
0.0
 10
189.3146141301486
 20
14.29946603111241
 30
0.0
 10
189.2318652572627
 20
14.56388246006442
 30
0.0
 10
189.1807179256413
 20
14.88187933098544
 30
0.0
 10
189.0770189207338
 20
15.15543728488911
 30
0.0
 10
189.2042841208522
 20
15.56005818612868
 30
0.0
 10
189.0357890623019
 20
15.55112367849678
 30
0.0
 10
188.9511995787078
 20
15.55315961418363
 30
0.0
 10
188.8189876387628
 20
15.55213937388407
 30
0.0
 10
188.6560505094103
 20
15.55253230318429
 30
0.0
 10
188.4733759170534
 20
15.5523569631337
 30
0.0
 10
188.2847057373382
 20
15.55260105307468
 30
0.0
 10
188.1014469020189
 20
15.55185657906236
 30
0.0
 10
187.9404746832718
 20
15.55416360522425
 30
0.0
 10
187.8029808335275
 20
15.54799804883663
 30
0.0
 10
187.7289590372311
 20
15.5603283845821
 30
0.0
 10
187.6613215186856
 20
15.54329323723556
 30
0.0
 10
187.6732373719269
 20
15.59524438447527
 30
0.0
 10
187.6655677285694
 20
15.64071424966529
 30
0.0
 10
187.6732592225115
 20
15.68614453703705
 30
0.0
 10
187.6613141797762
 20
15.7380239598457
 30
0.0
 10
187.7283588305866
 20
15.72119143490264
 30
0.0
 10
187.8017375665677
 20
15.73335409092671
 30
0.0
 10
187.9379128305271
 20
15.72727231074958
 30
0.0
 10
188.0973811801513
 20
15.72954834315058
 30
0.0
 10
188.2789173085836
 20
15.72881233998961
 30
0.0
 10
188.4658034862179
 20
15.72905954196134
 30
0.0
 10
188.6468012316836
 20
15.72886400799253
 30
0.0
 10
188.8080802578878
 20
15.72932234714839
 30
0.0
 10
188.9393882124887
 20
15.72812673751206
 30
0.0
 10
189.0225051322597
 20
15.73051347319743
 30
0.0
 10
189.1556236547813
 20
15.72230605725464
 30
0.0
 10
189.0645893502659
 20
15.97752868952655
 30
0.0
 10
188.9789633074419
 20
16.24164358328246
 30
0.0
 10
189.0990589003455
 20
16.22904442969165
 30
0.0
 10
189.1514264948543
 20
16.22694235763075
 30
0.0
 10
189.2214497569716
 20
16.22535399889657
 30
0.0
 10
189.2671922337818
 20
16.21602567538113
 30
0.0
 10
189.3220812646933
 20
16.22545966915427
 30
0.0
 10
189.2963574785682
 20
16.17733028655173
 30
0.0
 10
189.1825397571453
 20
16.18266829744166
 30
0.0
 10
189.3159346621136
 20
15.95449174576777
 30
0.0
 10
189.194365873547
 20
15.72156856595923
 30
0.0
 10
189.3223188769413
 20
15.73087258884438
 30
0.0
 10
189.4049048406461
 20
15.7280100175468
 30
0.0
 10
189.5307214850824
 20
15.72923437412302
 30
0.0
 10
189.6741469838057
 20
15.72932431888965
 30
0.0
 10
189.8157420951728
 20
15.72746163183853
 30
0.0
 10
189.9459127249967
 20
15.73333075937163
 30
0.0
 10
190.0193452286191
 20
15.72070340823203
 30
0.0
 10
190.0891112922096
 20
15.73877563110412
 30
0.0
 10
190.0775772605396
 20
15.68612850546326
 30
0.0
 10
190.0833184346682
 20
15.64221317686547
 30
0.0
 10
190.0816615770911
 20
15.59089982676549
 30
0.0
 10
190.0817757561669
 20
15.56158792021634
 30
0.0
 10
190.0818114333289
 20
15.55242795125077
 30
0.0
 11
190.0818114333289
 21
15.55242795125077
 31
0.0
 11
190.0472127192051
 21
15.55242795125077
 31
0.0
 11
189.9559979274241
 21
15.55242795125077
 31
0.0
 11
189.8270390838717
 21
15.55242795125077
 31
0.0
 11
189.6792082144336
 21
15.55242795125077
 31
0.0
 11
189.5313773449955
 21
15.55242795125077
 31
0.0
 11
189.4024185014431
 21
15.55242795125077
 31
0.0
 11
189.3112037096621
 21
15.55242795125077
 31
0.0
 11
189.2766049955383
 21
15.55242795125077
 31
0.0
 11
189.3083140497694
 21
15.23435864930121
 31
0.0
 11
189.3527866656866
 21
14.93509522788081
 31
0.0
 11
189.409238911832
 21
14.66191269512576
 31
0.0
 11
189.4768868567478
 21
14.42208605917227
 31
0.0
 11
189.5549465689762
 21
14.22289032815655
 31
0.0
 11
189.6426341170592
 21
14.07160051021478
 31
0.0
 11
189.7391655695389
 21
13.97549161348317
 31
0.0
 11
189.8437569949575
 21
13.94183864609792
 31
0.0
 11
189.8943077302785
 21
13.97177376978835
 31
0.0
 11
189.9310588991551
 21
14.06491619815047
 31
0.0
 11
189.9562640977527
 21
14.22627151712055
 31
0.0
 11
189.9721769222369
 21
14.46084531263482
 31
0.0
 11
190.0494082682583
 21
14.40202182306617
 31
0.0
 11
190.1327184184385
 21
14.35921885432689
 31
0.0
 11
190.1066365811217
 21
14.11528388661009
 31
0.0
 11
190.0673317805105
 21
13.94207902887562
 31
0.0
 11
190.0105702596765
 21
13.83011272445917
 31
0.0
 11
189.932118261691
 21
13.76989341669645
 31
0.0
 11
189.8277420296256
 21
13.75192954892317
 31
0.0
 11
189.6738595065097
 21
13.78957440012361
 31
0.0
 11
189.5388902376747
 21
13.89707348877403
 31
0.0
 11
189.4221739916163
 21
14.06627361744809
 31
0.0
 11
189.32305053683
 21
14.28902158871943
 31
0.0
 11
189.2408596418114
 21
14.55716420516172
 31
0.0
 11
189.174941075056
 21
14.8625482693486
 31
0.0
 11
189.1246346050594
 21
15.19702058385374
 31
0.0
 11
189.0892800003172
 21
15.55242795125077
 31
0.0
 11
189.0561935405844
 21
15.55242795125077
 31
0.0
 11
188.9654726026075
 21
15.55242795125077
 31
0.0
 11
188.8299248482186
 21
15.55242795125077
 31
0.0
 11
188.6623579392495
 21
15.55242795125077
 31
0.0
 11
188.4755795375324
 21
15.55242795125077
 31
0.0
 11
188.2823973048993
 21
15.55242795125077
 31
0.0
 11
188.0956189031822
 21
15.55242795125077
 31
0.0
 11
187.9280519942131
 21
15.55242795125077
 31
0.0
 11
187.7925042398242
 21
15.55242795125077
 31
0.0
 11
187.7017833018473
 21
15.55242795125077
 31
0.0
 11
187.6686968421145
 21
15.55242795125077
 31
0.0
 11
187.6686968421145
 21
15.58001489785846
 31
0.0
 11
187.6686968421145
 21
15.64070618039537
 31
0.0
 11
187.6686968421145
 21
15.70139746293229
 31
0.0
 11
187.6686968421145
 21
15.72898440953998
 31
0.0
 11
187.7014723087631
 21
15.72898440953998
 31
0.0
 11
187.7913405237673
 21
15.72898440953998
 31
0.0
 11
187.9256142097148
 21
15.72898440953998
 31
0.0
 11
188.0916060891932
 21
15.72898440953998
 31
0.0
 11
188.2766288847901
 21
15.72898440953998
 31
0.0
 11
188.4679953190932
 21
15.72898440953998
 31
0.0
 11
188.6530181146902
 21
15.72898440953998
 31
0.0
 11
188.8190099941685
 21
15.72898440953998
 31
0.0
 11
188.953283680116
 21
15.72898440953998
 31
0.0
 11
189.0431518951202
 21
15.72898440953998
 31
0.0
 11
189.0759273617688
 21
15.72898440953998
 31
0.0
 11
189.0659183950103
 21
15.97947647544958
 31
0.0
 11
189.0599112510663
 21
16.23196614552531
 31
0.0
 11
189.0860575870659
 21
16.23056921608122
 31
0.0
 11
189.1484065421419
 21
16.22723807663761
 31
0.0
 11
189.22282303691
 21
16.22326220052749
 31
0.0
 11
189.285171991986
 21
16.21993106108388
 31
0.0
 11
189.3113183279856
 21
16.21853413163979
 31
0.0
 11
189.2982931113041
 21
16.1901652861608
 31
0.0
 11
189.2551649266406
 21
16.17581274276164
 31
0.0
 11
189.2574991961821
 21
15.95136670115108
 31
0.0
 11
189.2658452735903
 21
15.72898440953998
 31
0.0
 11
189.3009063195165
 21
15.72898440953998
 31
0.0
 11
189.3933399860495
 21
15.72898440953998
 31
0.0
 11
189.5240220663201
 21
15.72898440953998
 31
0.0
 11
189.6738283534596
 21
15.72898440953998
 31
0.0
 11
189.8236346405991
 21
15.72898440953998
 31
0.0
 11
189.9543167208697
 21
15.72898440953998
 31
0.0
 11
190.0467503874027
 21
15.72898440953998
 31
0.0
 11
190.0818114333289
 21
15.72898440953998
 31
0.0
 11
190.0818114333289
 21
15.70139746293229
 31
0.0
 11
190.0818114333289
 21
15.64070618039537
 31
0.0
 11
190.0818114333289
 21
15.58001489785846
 31
0.0
 11
190.0818114333289
 21
15.55242795125077
 31
0.0
  0
SPLINE
  5
AC
102
{ACAD_REACTORS
330
C9
102
}
330
48
100
AcDbEntity
  8
_U_30EC_U_30A4_U_30E4_U_30FC_1
  6
Continuous
 62
     2
100
AcDbSpline
210
0.0
220
0.0
230
1.0
 70
    11
 71
     3
 72
    75
 73
    71
 74
    69
 42
0.000000001
 43
0.0000000001
 44
0.00000001
 40
0.0
 40
0.0
 40
0.0
 40
0.0
 40
0.0342546099129691
 40
0.1245622414432346
 40
0.2522385480897483
 40
0.3985991922940627
 40
0.5449598364980786
 40
0.6726361431438745
 40
0.7629437746736871
 40
0.7971983935297884
 40
1.101723623449709
 40
1.408591244036657
 40
1.433332471690364
 40
1.487763172450164
 40
1.542193873081997
 40
1.566935100592548
 40
1.923523931821858
 40
2.271755704953602
 40
2.590579755100844
 40
2.858943305581072
 40
2.889120339309114
 40
2.918305855191036
 40
2.941366645531159
 40
2.996357760973051
 40
3.061992318140596
 40
3.116983433626782
 40
3.14004422399747
 40
3.411273122936307
 40
3.732441619740972
 40
3.76106821753267
 40
3.837787499630232
 40
3.948858699125869
 40
4.080541049104244
 40
4.219093782625627
 40
4.350776132722175
 40
4.461847332405509
 40
4.538566614678239
 40
4.567193212544486
 40
4.594907573998744
 40
4.666381453557283
 40
4.764111044010865
 40
4.870592538125668
 40
4.968322128642062
 40
5.039796008286776
 40
5.067510369784206
 40
5.09426360318542
 40
5.153120716668062
 40
5.211977830150512
 40
5.238731063551518
 40
5.272290535138786
 40
5.36338052944459
 40
5.497618415781296
 40
5.66062156345351
 40
5.83800734174921
 40
6.01539311991059
 40
6.178396267038187
 40
6.312634151842167
 40
6.403724143059157
 40
6.437283612672252
 40
6.46403684626087
 40
6.522893960004491
 40
6.581751071483759
 40
6.608504301590707
 40
6.637253941280854
 40
6.711397748902734
 40
6.812778057283347
 40
6.923237199249123
 40
7.024617507623767
 40
7.098761315207477
 40
7.127510946007427
 40
7.127510946007427
 40
7.127510946007427
 40
7.127510946007427
 10
188.4418622390564
 20
14.95849128473263
 30
0.0
 10
188.4418622819707
 20
14.94707313408719
 30
0.0
 10
188.4418624481129
 20
14.90555257842628
 30
0.0
 10
188.4418593081787
 20
14.82146922003771
 30
0.0
 10
188.44187882798
 20
14.70004497322327
 30
0.0
 10
188.4417912187737
 20
14.55980494047447
 30
0.0
 10
188.442111623523
 20
14.42006556794576
 30
0.0
 10
188.4411605909741
 20
14.29745038894928
 30
0.0
 10
188.4431978595967
 20
14.21587074438043
 30
0.0
 10
188.4349433178747
 20
14.06271267077695
 30
0.0
 10
188.74307979409
 20
14.22560236054718
 30
0.0
 10
189.0350645173736
 20
14.39482938688001
 30
0.0
 10
189.0408354448707
 20
14.25973235781911
 30
0.0
 10
189.0455471719892
 20
14.21617221160444
 30
0.0
 10
189.0482535411917
 20
14.17211249350543
 30
0.0
 10
189.0672545672961
 20
14.02272590363135
 30
0.0
 10
188.6583942247302
 20
14.08681172241261
 30
0.0
 10
188.3793710348833
 20
13.97296341411015
 30
0.0
 10
188.1018081587166
 20
13.87364095811145
 30
0.0
 10
187.8099837184402
 20
13.91630687596351
 30
0.0
 10
187.7869144678658
 20
13.81321679744543
 30
0.0
 10
187.7537474383333
 20
13.78691091244469
 30
0.0
 10
187.7480653962739
 20
13.83455309036305
 30
0.0
 10
187.7284214559045
 20
13.8718033611507
 30
0.0
 10
187.7095089485624
 20
13.93007387847563
 30
0.0
 10
187.6942849867708
 20
13.97385201007806
 30
0.0
 10
187.6477246372935
 20
14.08759421046304
 30
0.0
 10
187.9890897312451
 20
14.0557630112005
 30
0.0
 10
188.2679649367385
 20
14.02161435106478
 30
0.0
 10
188.2617753034907
 20
14.16913976479652
 30
0.0
 10
188.2630935452773
 20
14.24013150908832
 30
0.0
 10
188.2624831689948
 20
14.34719767958661
 30
0.0
 10
188.2625871570725
 20
14.47398529785997
 30
0.0
 10
188.2629987964055
 20
14.6084924349605
 30
0.0
 10
188.2613907841969
 20
14.73395549951183
 30
0.0
 10
188.2659902567925
 20
14.84505246719117
 30
0.0
 10
188.256418650221
 20
14.90761886800687
 30
0.0
 10
188.2704001783691
 20
14.96595388295
 30
0.0
 10
188.2147384386705
 20
14.95289710582237
 30
0.0
 10
188.1575655197822
 20
14.96136307749498
 30
0.0
 10
188.0616048925647
 20
14.95729976080635
 30
0.0
 10
187.9633767522822
 20
14.95970889852473
 30
0.0
 10
187.8672582457561
 20
14.95551600613387
 30
0.0
 10
187.8104648525812
 20
14.96429346441162
 30
0.0
 10
187.7550356873385
 20
14.9509493685012
 30
0.0
 10
187.7670679427918
 20
15.00036910959256
 30
0.0
 10
187.7592003173937
 20
15.04393988030395
 30
0.0
 10
187.766629556383
 20
15.08830469118525
 30
0.0
 10
187.7551930564144
 20
15.13902297763992
 30
0.0
 10
187.8232102370134
 20
15.12162460757743
 30
0.0
 10
187.8968496879747
 20
15.13417450237189
 30
0.0
 10
188.0325064058211
 20
15.12799677011096
 30
0.0
 10
188.1884909024526
 20
15.13029203093085
 30
0.0
 10
188.3615926358144
 20
15.1294096826253
 30
0.0
 10
188.5346942964182
 20
15.13029207142408
 30
0.0
 10
188.6906789811218
 20
15.1279966295555
 30
0.0
 10
188.8263351889798
 20
15.13417486262431
 30
0.0
 10
188.8999756705653
 20
15.12162394218335
 30
0.0
 10
188.9679914174724
 20
15.13902373012143
 30
0.0
 10
188.9565590885923
 20
15.08830130414555
 30
0.0
 10
188.9639539458297
 20
15.04397060811107
 30
0.0
 10
188.9562039912272
 20
15.00028307550195
 30
0.0
 10
188.9681203741877
 20
14.95063590098476
 30
0.0
 10
188.9108170223618
 20
14.96461411338425
 30
0.0
 10
188.8520145789773
 20
14.95539755673252
 30
0.0
 10
188.75252936332
 20
14.95952268164929
 30
0.0
 10
188.649428009835
 20
14.95822760025886
 30
0.0
 10
188.5537846354574
 20
14.9585407707764
 30
0.0
 10
188.4857467971617
 20
14.95848776697143
 30
0.0
 10
188.4514462213443
 20
14.95849051871655
 30
0.0
 10
188.4418622390564
 20
14.95849128473263
 30
0.0
 11
188.4418622390564
 21
14.95849128473263
 31
0.0
 11
188.4418622390564
 21
14.92423666587184
 31
0.0
 11
188.4418622390564
 21
14.83392903432974
 31
0.0
 11
188.4418622390564
 21
14.70625272766678
 31
0.0
 11
188.4418622390564
 21
14.55989208344339
 31
0.0
 11
188.4418622390564
 21
14.41353143922
 31
0.0
 11
188.4418622390564
 21
14.28585513255704
 31
0.0
 11
188.4418622390564
 21
14.19554750101494
 31
0.0
 11
188.4418622390564
 21
14.16129288215415
 31
0.0
 11
188.7391932644568
 21
14.22709475713769
 31
0.0
 11
189.0384623627245
 21
14.29496038212072
 31
0.0
 11
189.0405487124976
 21
14.27030727882827
 31
0.0
 11
189.0451386819987
 21
14.21607045158489
 31
0.0
 11
189.0497286514996
 21
14.16183362434151
 31
0.0
 11
189.0518150012728
 21
14.13718052104906
 31
0.0
 11
188.705639688924
 21
14.05163370140897
 31
0.0
 11
188.3669653138838
 21
13.97060877629901
 31
0.0
 11
188.0563731516688
 21
13.89862764024929
 31
0.0
 11
187.7944444777956
 21
13.84021218778992
 31
0.0
 11
187.7817515029292
 21
13.81283442738013
 31
0.0
 11
187.7569794787514
 21
13.79740260446735
 31
0.0
 11
187.7491867589502
 21
13.81910683390636
 31
0.0
 11
187.7306041194242
 21
13.87086307333786
 31
0.0
 11
187.7084248399901
 21
13.93263664943351
 31
0.0
 11
187.6898422004641
 21
13.98439288886501
 31
0.0
 11
187.6820494806629
 21
14.00609711830402
 31
0.0
 11
187.9482776335931
 21
14.05794001759666
 31
0.0
 11
188.2626334936289
 21
14.1237396877191
 31
0.0
 11
188.2626334936289
 21
14.15236628569624
 31
0.0
 11
188.2626334936289
 21
14.22908556827499
 31
0.0
 11
188.2626334936289
 21
14.34015676842631
 31
0.0
 11
188.2626334936289
 21
14.47183911912117
 31
0.0
 11
188.2626334936289
 21
14.61039185333055
 31
0.0
 11
188.2626334936289
 21
14.74207420402542
 31
0.0
 11
188.2626334936289
 21
14.85314540417674
 31
0.0
 11
188.2626334936289
 21
14.92986468675549
 31
0.0
 11
188.2626334936289
 21
14.95849128473263
 31
0.0
 11
188.2349191321108
 21
14.95849128473263
 31
0.0
 11
188.1634452524063
 21
14.95849128473263
 31
0.0
 11
188.0657156617901
 21
14.95849128473263
 31
0.0
 11
187.9592341675364
 21
14.95849128473263
 31
0.0
 11
187.8615045769201
 21
14.95849128473263
 31
0.0
 11
187.7900306972156
 21
14.95849128473263
 31
0.0
 11
187.7623163356976
 21
14.95849128473263
 31
0.0
 11
187.7623163356976
 21
14.98524451823288
 31
0.0
 11
187.7623163356976
 21
15.04410163193344
 31
0.0
 11
187.7623163356976
 21
15.10295874563399
 31
0.0
 11
187.7623163356976
 21
15.12971197913424
 31
0.0
 11
187.7958758072876
 21
15.12971197913424
 31
0.0
 11
187.8869658016031
 21
15.12971197913424
 31
0.0
 11
188.021203687963
 21
15.12971197913424
 31
0.0
 11
188.1842068356856
 21
15.12971197913424
 31
0.0
 11
188.3615926140897
 21
15.12971197913424
 31
0.0
 11
188.5389783924938
 21
15.12971197913424
 31
0.0
 11
188.7019815402165
 21
15.12971197913424
 31
0.0
 11
188.8362194265763
 21
15.12971197913424
 31
0.0
 11
188.9273094208919
 21
15.12971197913424
 31
0.0
 11
188.9608688924819
 21
15.12971197913424
 31
0.0
 11
188.9608688924819
 21
15.10295874563399
 31
0.0
 11
188.9608688924819
 21
15.04410163193343
 31
0.0
 11
188.9608688924819
 21
14.98524451823288
 31
0.0
 11
188.9608688924819
 21
14.95849128473263
 31
0.0
 11
188.9321192527878
 21
14.95849128473263
 31
0.0
 11
188.8579754451555
 21
14.95849128473263
 31
0.0
 11
188.7565951367605
 21
14.95849128473263
 31
0.0
 11
188.6461359947778
 21
14.95849128473263
 31
0.0
 11
188.5447556863828
 21
14.95849128473263
 31
0.0
 11
188.4706118787505
 21
14.95849128473263
 31
0.0
 11
188.4418622390564
 21
14.95849128473263
 31
0.0
  0
SPLINE
  5
AD
102
{ACAD_REACTORS
330
CA
102
}
330
48
100
AcDbEntity
  8
_U_30EC_U_30A4_U_30E4_U_30FC_1
  6
Continuous
 62
     2
100
AcDbSpline
210
0.0
220
0.0
230
1.0
 70
    11
 71
     3
 72
    15
 73
    11
 74
     9
 42
0.000000001
 43
0.0000000001
 44
0.00000001
 40
0.0
 40
0.0
 40
0.0
 40
0.0
 40
0.2785535985096802
 40
0.5215624748198895
 40
0.6076917376040945
 40
0.6938210001741886
 40
0.9405019146455484
 40
1.221691403489106
 40
1.300471877081008
 40
1.379252341684778
 40
1.379252341684778
 40
1.379252341684778
 40
1.379252341684778
 10
189.5681493631
 20
16.22930267330381
 30
0.0
 10
189.6296017794178
 20
16.17691646592716
 30
0.0
 10
189.7446649974114
 20
16.07882876798225
 30
0.0
 10
190.0397348497245
 20
15.92889785897219
 30
0.0
 10
189.9025147631856
 20
15.84343227515015
 30
0.0
 10
189.8041227843778
 20
15.71085785201556
 30
0.0
 10
189.7130033590649
 20
16.01616985781416
 30
0.0
 10
189.3636839480657
 20
16.07967869465372
 30
0.0
 10
189.5119258376571
 20
16.17896509880878
 30
0.0
 10
189.5494081874237
 20
16.21252348402382
 30
0.0
 10
189.5681493631
 20
16.22930267330381
 30
0.0
 11
189.5681493631
 21
16.22930267330381
 31
0.0
 11
189.7919222440597
 21
16.06341774278972
 31
0.0
 11
189.9695046306384
 21
15.89753281227564
 31
0.0
 11
189.9066308127979
 21
15.83866743034592
 31
0.0
 11
189.8437569949575
 21
15.7798020484162
 31
0.0
 11
189.6688535117725
 21
15.95375677059491
 31
0.0
 11
189.4478256856141
 21
16.12757920110701
 31
0.0
 11
189.507987524357
 21
16.17844093720541
 31
0.0
 11
189.5681493631
 21
16.22930267330381
 31
0.0
  0
SPLINE
  5
AE
102
{ACAD_REACTORS
330
CB
102
}
330
48
100
AcDbEntity
  8
_U_30EC_U_30A4_U_30E4_U_30FC_1
  6
Continuous
 62
     2
100
AcDbSpline
210
0.0
220
0.0
230
1.0
 70
    11
 71
     3
 72
    35
 73
    31
 74
    29
 42
0.000000001
 43
0.0000000001
 44
0.00000001
 40
0.0
 40
0.0
 40
0.0
 40
0.0
 40
0.0335231036620315
 40
0.0713218571712236
 40
0.4278866681487281
 40
0.8116865841964517
 40
1.198190238000085
 40
1.561379546812713
 40
1.659983174622061
 40
1.759315573807169
 40
2.132719617231029
 40
2.52523336358878
 40
2.91081539777969
 40
3.265244364303316
 40
3.59260672358202
 40
3.964386154603966
 40
4.35994213173781
 40
4.758154118639342
 40
4.843846538699916
 40
4.936650065543224
 40
5.256616602537328
 40
5.581707404416038
 40
5.899719158308154
 40
6.198363494280702
 40
6.466301046615715
 40
6.493895311537037
 40
6.55969702019683
 40
6.638234543442405
 40
6.704036252154157
 40
6.731630508422963
 40
6.731630508422963
 40
6.731630508422963
 40
6.731630508422963
 10
191.9736010568669
 20
16.23463843719134
 30
0.0
 10
191.9676006097789
 20
16.22480690542323
 30
0.0
 10
191.9548344099157
 20
16.20388988579794
 30
0.0
 10
191.7949362006552
 20
16.17127126532704
 30
0.0
 10
192.2322025842337
 20
15.88206680336694
 30
0.0
 10
192.4345394828262
 20
15.68041138358441
 30
0.0
 10
192.6819564267973
 20
15.43749387603275
 30
0.0
 10
193.1831513624605
 20
15.36047662757777
 30
0.0
 10
193.012556219897
 20
15.21876939174657
 30
0.0
 10
192.9383299463202
 20
15.01710366209105
 30
0.0
 10
192.6131432248188
 20
15.36956287174728
 30
0.0
 10
192.3277741670665
 20
15.53175212559563
 30
0.0
 10
192.0337604077658
 20
15.73687130053047
 30
0.0
 10
191.8084452691134
 20
16.21827488595455
 30
0.0
 10
191.5993085055522
 20
15.75343046609221
 30
0.0
 10
191.3207873674835
 20
15.54350952252912
 30
0.0
 10
191.037138317721
 20
15.37424456359986
 30
0.0
 10
190.7078639527831
 20
15.00142360907934
 30
0.0
 10
190.6277012318225
 20
15.19708014459002
 30
0.0
 10
190.4759724909745
 20
15.32491104190599
 30
0.0
 10
190.9083395826795
 20
15.40454031765933
 30
0.0
 10
191.0962565329766
 20
15.60026634915476
 30
0.0
 10
191.3468477420504
 20
15.81632996916752
 30
0.0
 10
191.571435047016
 20
15.98190992300061
 30
0.0
 10
191.6259775409715
 20
16.26133964636827
 30
0.0
 10
191.749466102901
 20
16.24737950408078
 30
0.0
 10
191.8060273344521
 20
16.24521268867647
 30
0.0
 10
191.8761870984944
 20
16.2404685988136
 30
0.0
 10
191.9333414022105
 20
16.23709429350541
 30
0.0
 10
191.9644190320839
 20
16.23519854711119
 30
0.0
 10
191.9736010568669
 20
16.23463843719134
 30
0.0
 11
191.9736010568669
 21
16.23463843719134
 31
0.0
 11
191.9525319069885
 21
16.20856374969785
 31
0.0
 11
191.9174464559425
 21
16.19450114553469
 31
0.0
 11
192.1512374769094
 21
15.92527961131381
 31
0.0
 11
192.4414585957567
 21
15.67413407969259
 31
0.0
 11
192.7612797483684
 21
15.45710987618784
 31
0.0
 11
193.0838708706289
 21
15.29025232631637
 31
0.0
 11
193.0213299868076
 21
15.21402035584928
 31
0.0
 11
192.9688035818976
 21
15.12971197913424
 31
0.0
 11
192.6436279095815
 21
15.3132640483158
 31
0.0
 11
192.3237227768437
 21
15.54070139743428
 31
0.0
 11
192.0354200158608
 21
15.7967385512331
 31
0.0
 11
191.8050514588095
 21
16.06609003445566
 31
0.0
 11
191.5995531719516
 21
15.81126348721036
 31
0.0
 11
191.3288301341536
 21
15.55645182277756
 31
0.0
 11
191.0119538423247
 21
15.31969466354856
 31
0.0
 11
190.6679957933741
 21
15.11903163191467
 31
0.0
 11
190.6218855341338
 21
15.19126067703553
 31
0.0
 11
190.5636970460349
 21
15.26355586798967
 31
0.0
 11
190.8433040489016
 21
15.41911456961745
 31
0.0
 11
191.1093004621155
 21
15.60601009790405
 31
0.0
 11
191.3499997459747
 21
15.81384496285209
 31
0.0
 11
191.5537153607774
 21
16.03222167446416
 31
0.0
 11
191.7087607668218
 21
16.25074274274287
 31
0.0
 11
191.7363041569865
 21
16.24906789496551
 31
0.0
 11
191.8019845489177
 21
16.24507402718873
 31
0.0
 11
191.880377274771
 21
16.24030715274548
 31
0.0
 11
191.9460576667022
 21
16.2363132849687
 31
0.0
 11
191.9736010568669
 21
16.23463843719134
 31
0.0
  0
SPLINE
  5
AF
102
{ACAD_REACTORS
330
CC
102
}
330
48
100
AcDbEntity
  8
_U_30EC_U_30A4_U_30E4_U_30FC_1
  6
Continuous
 62
     2
100
AcDbSpline
210
0.0
220
0.0
230
1.0
 70
    11
 71
     3
 72
    91
 73
    87
 74
    85
 42
0.000000001
 43
0.0000000001
 44
0.00000001
 40
0.0
 40
0.0
 40
0.0
 40
0.0
 40
0.0267532254356684
 40
0.0856103386464066
 40
0.144467452199655
 40
0.1712206856618426
 40
0.2039416005642447
 40
0.2955601971652395
 40
0.4362601844616829
 40
0.6162252844507161
 40
0.8256392189704609
 40
1.054685709844402
 40
1.293548478893522
 40
1.532411247938294
 40
1.761457738799559
 40
1.970871673298528
 40
2.150836773256724
 40
2.291536760495585
 40
2.383155356836691
 40
2.415876284101311
 40
2.442629517487954
 40
2.50148663094908
 40
2.560343744424226
 40
2.587096977826497
 40
2.617068194440924
 40
2.699247336756065
 40
2.822032643466378
 40
2.973822353257908
 40
3.14301470482335
 40
3.318007936879929
 40
3.487200288186762
 40
3.638989997548243
 40
3.761775303794741
 40
3.843954445753076
 40
3.873925662229772
 40
3.89081277350048
 40
3.907699884771658
 40
3.937960767857223
 40
3.980983618142227
 40
4.199085915228409
 40
4.4394443392372
 40
4.677588241260803
 40
5.050698317837717
 40
5.448212454763074
 40
5.8552912180446
 40
6.138575438885308
 40
6.417434507584107
 40
6.444551104393765
 40
6.504207617363039
 40
6.563864130314363
 40
6.590980727103931
 40
6.848609460381335
 40
7.109611990668312
 40
7.352910904445996
 40
7.557830220705367
 40
7.587518925913284
 40
7.652834077375726
 40
7.718149228845709
 40
7.747837934062011
 40
7.854880190300928
 40
7.976511257403507
 40
8.369487896592252
 40
8.757514959223574
 40
9.126072419331036
 40
9.460639380392156
 40
9.746695593035982
 40
9.777569943118719
 40
9.807050320931788
 40
9.83037733612891
 40
9.886003295435993
 40
9.952395569429887
 40
10.00802152870624
 40
10.03134854388216
 40
10.21356951009586
 40
10.42203479292872
 40
10.66154556731063
 40
10.91693789564303
 40
11.15832906556564
 40
11.18982674596622
 40
11.27286608520406
 40
11.39026653033354
 40
11.5248475284089
 40
11.6594285264845
 40
11.77682897161491
 40
11.8598683108569
 40
11.89136598230436
 40
11.89136598230436
 40
11.89136598230436
 40
11.89136598230436
 10
190.7027885008196
 20
14.70699600701772
 30
0.0
 10
190.7028237765288
 20
14.71587847311985
 30
0.0
 10
190.7029366710796
 20
14.74430237047346
 30
0.0
 10
190.7012984568488
 20
14.79409639169802
 30
0.0
 10
190.7069750292911
 20
14.83657564478154
 30
0.0
 10
190.6956928731706
 20
14.88730154856846
 30
0.0
 10
190.7632296979032
 20
14.87012900740108
 30
0.0
 10
190.83880292107
 20
14.88290227165995
 30
0.0
 10
190.9828357056
 20
14.87629729457381
 30
0.0
 10
191.1569419185427
 20
14.87888462206465
 30
0.0
 10
191.3639599611003
 20
14.87800591955552
 30
0.0
 10
191.5894688172378
 20
14.87828207920027
 30
0.0
 10
191.8251162293406
 20
14.87818339658661
 30
0.0
 10
192.0607640531348
 20
14.87828184412766
 30
0.0
 10
192.2862717580626
 20
14.87800678190788
 30
0.0
 10
192.4932934632805
 20
14.87888186270734
 30
0.0
 10
192.6673888915288
 20
14.87630522678445
 30
0.0
 10
192.8114492071986
 20
14.88288290449213
 30
0.0
 10
192.8869691915292
 20
14.87016243405603
 30
0.0
 10
192.954577603703
 20
14.88726400191686
 30
0.0
 10
192.9430840140675
 20
14.83674785802939
 30
0.0
 10
192.9505104581733
 20
14.79253252226501
 30
0.0
 10
192.9428838927986
 20
14.74867966503609
 30
0.0
 10
192.9546489459425
 20
14.69878374479327
 30
0.0
 10
192.8930788491983
 20
14.71393227712512
 30
0.0
 10
192.8256791738672
 20
14.70310665350673
 30
0.0
 10
192.7013004056221
 20
14.70852031626236
 30
0.0
 10
192.555442823657
 20
14.70649205390785
 30
0.0
 10
192.3893576440085
 20
14.70715777578387
 30
0.0
 10
192.2188412621724
 20
14.70689643521242
 30
0.0
 10
192.0519790855388
 20
14.70721553391094
 30
0.0
 10
191.9087346827105
 20
14.70635302590762
 30
0.0
 10
191.7773313869834
 20
14.70863300482988
 30
0.0
 10
191.7239859134657
 20
14.70407704374202
 30
0.0
 10
191.6485188456912
 20
14.70999914992877
 30
0.0
 10
191.6769075779233
 20
14.70094169343353
 30
0.0
 10
191.7033652409542
 20
14.6972591226893
 30
0.0
 10
191.6633522907702
 20
14.66654271968273
 30
0.0
 10
191.5713663691869
 20
14.67667591174636
 30
0.0
 10
191.543939620707
 20
14.43032502247786
 30
0.0
 10
191.4478793967234
 20
14.27499558764377
 30
0.0
 10
191.1917277964475
 20
13.94525417931565
 30
0.0
 10
191.7627537732763
 20
14.08430022210453
 30
0.0
 10
192.0173656320517
 20
14.08291779973361
 30
0.0
 10
192.6279647048618
 20
13.99790569242088
 30
0.0
 10
192.3340698578083
 20
14.296854175582
 30
0.0
 10
192.013330428652
 20
14.44330856901777
 30
0.0
 10
192.1313543360434
 20
14.50025540818287
 30
0.0
 10
192.1724716466262
 20
14.52420099873348
 30
0.0
 10
192.2156812394412
 20
14.5459975881123
 30
0.0
 10
192.3174574094449
 20
14.60928721253905
 30
0.0
 10
192.4328867625248
 20
14.35147151408779
 30
0.0
 10
192.6329591642278
 20
14.21616041113683
 30
0.0
 10
192.7269077387228
 20
14.03792795138882
 30
0.0
 10
192.9558829746395
 20
13.87997821027049
 30
0.0
 10
192.8596031846708
 20
13.82915972576299
 30
0.0
 10
192.816795976378
 20
13.79881292523054
 30
0.0
 10
192.771824352878
 20
13.77466130281461
 30
0.0
 10
192.7121720925213
 20
13.72552146747569
 30
0.0
 10
192.6789731061326
 20
13.85997475673614
 30
0.0
 10
192.5582013350795
 20
14.01594265286574
 30
0.0
 10
192.1970976005979
 20
13.88569928059558
 30
0.0
 10
191.8385061955541
 20
13.90224694409482
 30
0.0
 10
191.4570920450079
 20
13.89331229351867
 30
0.0
 10
191.1703455282893
 20
13.828826716724
 30
0.0
 10
190.859205559971
 20
13.94230668192843
 30
0.0
 10
190.8268737818788
 20
13.83122259927767
 30
0.0
 10
190.7896178253317
 20
13.81196313850014
 30
0.0
 10
190.7865737632754
 20
13.85874784087299
 30
0.0
 10
190.7679892860607
 20
13.89806853919133
 30
0.0
 10
190.7512436616779
 20
13.95765983478234
 30
0.0
 10
190.7383730915753
 20
14.00201969871283
 30
0.0
 10
190.704232780643
 20
14.09106331120203
 30
0.0
 10
190.9482714457755
 20
14.02181042943768
 30
0.0
 10
191.1441394486672
 20
14.00030369057743
 30
0.0
 10
191.2395426381278
 20
14.28226484478464
 30
0.0
 10
191.2945135769598
 20
14.44363045421123
 30
0.0
 10
191.5159619357157
 20
14.71391177589738
 30
0.0
 10
191.3849239381217
 20
14.70548446853734
 30
0.0
 10
191.3110026555854
 20
14.70779008496969
 30
0.0
 10
191.1977459876244
 20
14.70671378321658
 30
0.0
 10
191.0694251807485
 20
14.7070763907651
 30
0.0
 10
190.9404252030415
 20
14.70697724466085
 30
0.0
 10
190.8287840946292
 20
14.70699932712572
 30
0.0
 10
190.7514663970025
 20
14.7069957918967
 30
0.0
 10
190.713287653201
 20
14.70699595845081
 30
0.0
 10
190.7027885008196
 20
14.70699600701772
 30
0.0
 11
190.7027885008196
 21
14.70699600701772
 31
0.0
 11
190.7027885008196
 21
14.73374924051797
 31
0.0
 11
190.7027885008196
 21
14.79260635421853
 31
0.0
 11
190.7027885008196
 21
14.85146346791909
 31
0.0
 11
190.7027885008196
 21
14.87821670141934
 31
0.0
 11
190.7355094280989
 21
14.87821670141934
 31
0.0
 11
190.8271280244809
 21
14.87821670141934
 31
0.0
 11
190.9678280117818
 21
14.87821670141934
 31
0.0
 11
191.1477931118179
 21
14.87821670141934
 31
0.0
 11
191.3572070464054
 21
14.87821670141934
 31
0.0
 11
191.5862535373604
 21
14.87821670141934
 31
0.0
 11
191.8251163064992
 21
14.87821670141934
 31
0.0
 11
192.0639790756381
 21
14.87821670141934
 31
0.0
 11
192.2930255665931
 21
14.87821670141934
 31
0.0
 11
192.5024395011806
 21
14.87821670141934
 31
0.0
 11
192.6824046012167
 21
14.87821670141934
 31
0.0
 11
192.8231045885176
 21
14.87821670141934
 31
0.0
 11
192.9147231848996
 21
14.87821670141934
 31
0.0
 11
192.9474441121789
 21
14.87821670141934
 31
0.0
 11
192.9474441121789
 21
14.85146346791909
 31
0.0
 11
192.9474441121789
 21
14.79260635421853
 31
0.0
 11
192.9474441121789
 21
14.73374924051797
 31
0.0
 11
192.9474441121789
 21
14.70699600701772
 31
0.0
 11
192.9174728954758
 21
14.70699600701772
 31
0.0
 11
192.8352937529027
 21
14.70699600701772
 31
0.0
 11
192.7125084457639
 21
14.70699600701772
 31
0.0
 11
192.5607187353642
 21
14.70699600701772
 31
0.0
 11
192.3915263830077
 21
14.70699600701772
 31
0.0
 11
192.2165331499991
 21
14.70699600701772
 31
0.0
 11
192.0473407976426
 21
14.70699600701772
 31
0.0
 11
191.8955510872428
 21
14.70699600701772
 31
0.0
 11
191.7727657801042
 21
14.70699600701772
 31
0.0
 11
191.690586637531
 21
14.70699600701772
 31
0.0
 11
191.6606154208279
 21
14.70699600701772
 31
0.0
 11
191.6766359412525
 21
14.70165583340794
 31
0.0
 11
191.6926564616771
 21
14.69631565979815
 31
0.0
 11
191.6706155681421
 21
14.67558114591443
 31
0.0
 11
191.6284861855364
 21
14.6668587153611
 31
0.0
 11
191.5365235541377
 21
14.46909247312657
 31
0.0
 11
191.4279078521763
 21
14.25467511978509
 31
0.0
 11
191.3127500824808
 21
14.0462255905162
 31
0.0
 11
191.6857366675021
 21
14.05582441253029
 31
0.0
 11
192.0830700036151
 21
14.06781232404994
 31
0.0
 11
192.4899342191146
 21
14.08102711828532
 31
0.0
 11
192.2983119496979
 21
14.28966761302481
 31
0.0
 11
192.0966752013699
 21
14.48229420151832
 31
0.0
 11
192.120494779475
 21
14.49525327269565
 31
0.0
 11
192.1728978513062
 21
14.52376322928576
 31
0.0
 11
192.2253009231374
 21
14.55227318587588
 31
0.0
 11
192.2491205012425
 21
14.5652322570532
 31
0.0
 11
192.4387101558627
 21
14.39079508370268
 31
0.0
 11
192.6200310940436
 21
14.20305846374091
 31
0.0
 11
192.7777729231148
 21
14.01782380992436
 31
0.0
 11
192.8966252504059
 21
13.85089253500949
 31
0.0
 11
192.8715408217924
 21
13.83501202286069
 31
0.0
 11
192.8163550788426
 21
13.80007489613332
 31
0.0
 11
192.7611693358928
 21
13.76513776940596
 31
0.0
 11
192.7360849072793
 21
13.74925725725716
 31
0.0
 11
192.6775518151613
 21
13.83887824681809
 31
0.0
 11
192.6050015078457
 21
13.93650288221032
 31
0.0
 11
192.2125412924095
 21
13.91636286943759
 31
0.0
 11
191.8249474069561
 21
13.89803302999773
 31
0.0
 11
191.4567378976213
 21
13.88202178722396
 31
0.0
 11
191.1224308105412
 21
13.86883756444947
 31
0.0
 11
190.8365441918517
 21
13.8589887850075
 31
0.0
 11
190.821186232174
 21
13.83220523466695
 31
0.0
 11
190.7937434290546
 21
13.82143559057246
 31
0.0
 11
190.786792719232
 21
13.84370299445578
 31
0.0
 11
190.7702179496548
 21
13.89680218833139
 31
0.0
 11
190.7504351601596
 21
13.96017864553777
 31
0.0
 11
190.7338603905825
 21
14.01327783941338
 31
0.0
 11
190.7269096807599
 21
14.0355452432967
 31
0.0
 11
190.9091199859154
 21
14.03751638912952
 31
0.0
 11
191.1174975848589
 21
14.04356211829472
 31
0.0
 11
191.2303203127217
 21
14.25483550301554
 31
0.0
 11
191.3407936722036
 21
14.48509813155879
 31
0.0
 11
191.4358254265628
 21
14.70699600701772
 31
0.0
 11
191.4043277461597
 21
14.70699600701772
 31
0.0
 11
191.3212884069154
 21
14.70699600701772
 31
0.0
 11
191.2038879617768
 21
14.70699600701772
 31
0.0
 11
191.0693069636912
 21
14.70699600701772
 31
0.0
 11
190.9347259656055
 21
14.70699600701772
 31
0.0
 11
190.817325520467
 21
14.70699600701772
 31
0.0
 11
190.7342861812226
 21
14.70699600701772
 31
0.0
 11
190.7027885008196
 21
14.70699600701772
 31
0.0
  0
SPLINE
  5
B0
102
{ACAD_REACTORS
330
CD
102
}
330
48
100
AcDbEntity
  8
_U_30EC_U_30A4_U_30E4_U_30FC_1
  6
Continuous
 62
     2
100
AcDbSpline
210
0.0
220
0.0
230
1.0
 70
    11
 71
     3
 72
   131
 73
   127
 74
   125
 42
0.000000001
 43
0.0000000001
 44
0.00000001
 40
0.0
 40
0.0
 40
0.0
 40
0.0
 40
0.019557702982624
 40
0.0426490537461544
 40
0.2863607575856668
 40
0.5344948436189347
 40
0.7842238845573245
 40
0.873731578946745
 40
0.9803832810312967
 40
1.092842274517042
 40
1.199761146656776
 40
1.289788768186478
 40
1.35157358078619
 40
1.370727117561418
 40
1.416400936017833
 40
1.470914848355978
 40
1.516588666791768
 40
1.535742203552851
 40
1.63421659229316
 40
1.760283341174932
 40
1.897966686682059
 40
2.03121638736886
 40
2.049689751137854
 40
2.10111560164679
 40
2.179502577739908
 40
2.278859318314026
 40
2.393194462258683
 40
2.516516648383797
 40
2.642834515405926
 40
2.766156701983431
 40
2.880491846754546
 40
2.979848588358588
 40
3.058235565443765
 40
3.109661416668922
 40
3.128134780704097
 40
3.146783742386414
 40
3.191254343315275
 40
3.244332157315934
 40
3.288802758225809
 40
3.30745171989508
 40
3.327717853844692
 40
3.383747753580054
 40
3.468388665924446
 40
3.574487837698757
 40
3.694892515728861
 40
3.822449946852003
 40
3.950007377920396
 40
4.070412055800488
 40
4.176511227368047
 40
4.261152139501493
 40
4.317182039076687
 40
4.337448172964607
 40
4.620011002696265
 40
4.885096638397558
 40
4.945373043518352
 40
5.01410771048869
 40
5.070481727652076
 40
5.319246955636602
 40
5.584812164506141
 40
5.859000912057012
 40
6.133746937542176
 40
6.401732212968974
 40
6.420736683995593
 40
6.472845717451187
 40
6.550702743894171
 40
6.64695119387438
 40
6.754234497930704
 40
6.865196086587511
 40
6.972479390357969
 40
7.068727839772159
 40
7.146584865451168
 40
7.198693898189398
 40
7.217698368905539
 40
7.234950401631017
 40
7.276089864270063
 40
7.325191803516177
 40
7.366331266090566
 40
7.383583298769918
 40
7.402779163492323
 40
7.453386443254726
 40
7.524934666445756
 40
7.606953361406096
 40
7.688972056429276
 40
7.760520279784527
 40
7.811127559734797
 40
7.830323424546418
 40
7.847844055300048
 40
7.89479934566709
 40
7.962779392744777
 40
8.043374293560824
 40
8.12817414514973
 40
8.208769044817535
 40
8.276749090377235
 40
8.323704379669794
 40
8.341225010056528
 40
8.358497614800676
 40
8.401679126686853
 40
8.45781509218591
 40
8.513951057728315
 40
8.557132569708214
 40
8.574405174505257
 40
8.60234066861657
 40
8.643455660540113
 40
8.66322527196678
 40
8.715345156564428
 40
8.789031889628763
 40
8.873502045520492
 40
8.957972194324116
 40
9.031658925568006
 40
9.083778811234698
 40
9.10354842300316
 40
9.119550083123697
 40
9.160817522379999
 40
9.217244429110336
 40
9.278724491644793
 40
9.335151398295578
 40
9.376418837357845
 40
9.392420497300632
 40
9.401196302734851
 40
9.417494229384326
 40
9.426270027749599
 40
9.440875075477631
 40
9.47570249699881
 40
9.517270709865972
 40
9.55209813199414
 40
9.566703169884347
 40
9.566703169884347
 40
9.566703169884347
 40
9.566703169884347
 10
194.6170254148479
 20
15.67015871511028
 30
0.0
 10
194.6134345093371
 20
15.66453690702159
 30
0.0
 10
194.6056039123624
 20
15.65227754419111
 30
0.0
 10
194.5129968974547
 20
15.61601916040973
 30
0.0
 10
194.4887622233247
 20
15.40148444212714
 30
0.0
 10
194.3858709845937
 20
15.22197284509708
 30
0.0
 10
194.1220492364306
 20
15.03615573798145
 30
0.0
 10
194.2845471569179
 20
14.95959336566081
 30
0.0
 10
194.3607225760838
 20
14.89856693195441
 30
0.0
 10
194.4492171072758
 20
14.8351580454476
 30
0.0
 10
194.538993023311
 20
14.7752563421956
 30
0.0
 10
194.5883817636046
 20
14.72102154849206
 30
0.0
 10
194.6745708157381
 20
14.69286240541836
 30
0.0
 10
194.6411260674229
 20
14.65713309652812
 30
0.0
 10
194.621467116631
 20
14.62550387991906
 30
0.0
 10
194.5919888217882
 20
14.5847587279607
 30
0.0
 10
194.5688989446031
 20
14.55504663489644
 30
0.0
 10
194.5380205968356
 20
14.50211422668495
 30
0.0
 10
194.4729193365741
 20
14.627403349389
 30
0.0
 10
194.3796000122416
 20
14.68213900233939
 30
0.0
 10
194.295063628514
 20
14.73916423939338
 30
0.0
 10
194.1722498125743
 20
14.89675287427522
 30
0.0
 10
194.1764450847302
 20
14.82035806766837
 30
0.0
 10
194.1751478652679
 20
14.77361280161296
 30
0.0
 10
194.1758126448077
 20
14.69584785812601
 30
0.0
 10
194.1755549986958
 20
14.59902068324423
 30
0.0
 10
194.1756431239922
 20
14.48650279078809
 30
0.0
 10
194.1756077302282
 20
14.36524085945699
 30
0.0
 10
194.175651175828
 20
14.24086897858961
 30
0.0
 10
194.1755199942406
 20
14.11967683631335
 30
0.0
 10
194.1759477562047
 20
14.00691148919743
 30
0.0
 10
194.1746678202311
 20
13.91082913768744
 30
0.0
 10
194.1779759851044
 20
13.83113826468699
 30
0.0
 10
194.1715197740087
 20
13.78815175788783
 30
0.0
 10
194.1806208705557
 20
13.74955432372042
 30
0.0
 10
194.1447910339936
 20
13.75810887724069
 30
0.0
 10
194.1115223815253
 20
13.75342519985446
 30
0.0
 10
194.0604562576042
 20
13.75351298759783
 30
0.0
 10
194.0269723972814
 20
13.7579443028382
 30
0.0
 10
193.9907585408754
 20
13.74960793842508
 30
0.0
 10
194.0009782568666
 20
13.79145277179283
 30
0.0
 10
193.9936487887774
 20
13.83778560820173
 30
0.0
 10
193.9973633136103
 20
13.92374831106014
 30
0.0
 10
193.9959480554897
 20
14.02605142704849
 30
0.0
 10
193.9964105554639
 20
14.14453223931511
 30
0.0
 10
193.9962773686231
 20
14.26957683153356
 30
0.0
 10
193.9963015910046
 20
14.3947582810705
 30
0.0
 10
193.9963354925551
 20
14.51286645379058
 30
0.0
 10
193.9962060293133
 20
14.61628748709516
 30
0.0
 10
193.9965507549082
 20
14.69932036153667
 30
0.0
 10
193.9958698278691
 20
14.75143368521244
 30
0.0
 10
193.9994586600622
 20
14.87912907821362
 30
0.0
 10
193.7826171386438
 20
14.58048716819624
 30
0.0
 10
193.6021354921949
 20
14.35263981511509
 30
0.0
 10
193.5490322295612
 20
14.49373443289817
 30
0.0
 10
193.5200429133149
 20
14.54325767560941
 30
0.0
 10
193.419664806282
 20
14.64641779790105
 30
0.0
 10
193.7405127723262
 20
14.7269503502378
 30
0.0
 10
193.868989700543
 20
14.91066283036432
 30
0.0
 10
194.090645432536
 20
15.1193199577176
 30
0.0
 10
194.1770224894069
 20
15.29339211228345
 30
0.0
 10
194.4549394229075
 20
15.56967051342512
 30
0.0
 10
194.3346247839285
 20
15.56534559551113
 30
0.0
 10
194.2863197351349
 20
15.56614856202552
 30
0.0
 10
194.2102377454906
 20
15.56574582146583
 30
0.0
 10
194.116701000975
 20
15.56590275611608
 30
0.0
 10
194.0117594788557
 20
15.56582502576223
 30
0.0
 10
193.9033887738718
 20
15.56595464378553
 30
0.0
 10
193.7981454235897
 20
15.56554393490691
 30
0.0
 10
193.7056237819413
 20
15.5668207367159
 30
0.0
 10
193.6268130800707
 20
15.56340766534849
 30
0.0
 10
193.5839674565379
 20
15.57023350036319
 30
0.0
 10
193.5449499586515
 20
15.56065064201123
 30
0.0
 10
193.5526365271864
 20
15.59420779565542
 30
0.0
 10
193.5485464404312
 20
15.62523550322232
 30
0.0
 10
193.5485531368814
 20
15.672365292709
 30
0.0
 10
193.5526239724911
 20
15.70340941646778
 30
0.0
 10
193.5449495574583
 20
15.73701861635903
 30
0.0
 10
193.5834819405495
 20
15.72748410420872
 30
0.0
 10
193.6241228014479
 20
15.73397435498071
 30
0.0
 10
193.6951471850463
 20
15.73100150650254
 30
0.0
 10
193.7729318149634
 20
15.73174761399158
 30
0.0
 10
193.8507292246474
 20
15.73247814044525
 30
0.0
 10
193.9217232089908
 20
15.7295423551416
 30
0.0
 10
193.9624279791821
 20
15.73595468772952
 30
0.0
 10
194.000985348991
 20
15.72650524176004
 30
0.0
 10
193.9927342754929
 20
15.76264692158784
 30
0.0
 10
193.9982346669358
 20
15.80129837613227
 30
0.0
 10
193.9955754206165
 20
15.86913528561839
 30
0.0
 10
193.9965815471534
 20
15.9459164153874
 30
0.0
 10
193.996017801832
 20
16.02849393582757
 30
0.0
 10
193.9970714526593
 20
16.10517329229878
 30
0.0
 10
193.9942675863131
 20
16.173319907767
 30
0.0
 10
194.0000702721305
 20
16.21132399809346
 30
0.0
 10
193.991565455116
 20
16.24758448077646
 30
0.0
 10
194.0255610233125
 20
16.23755723771853
 30
0.0
 10
194.0594575683099
 20
16.24073266813706
 30
0.0
 10
194.1126669060347
 20
16.2350896564061
 30
0.0
 10
194.1660768574483
 20
16.23434774436425
 30
0.0
 10
194.1995914649491
 20
16.2281922348298
 30
0.0
 10
194.2388086183039
 20
16.23346029773593
 30
0.0
 10
194.2120263698492
 20
16.19253380793488
 30
0.0
 10
194.1708111001725
 20
16.20371204538111
 30
0.0
 10
194.1782641540874
 20
16.15867056192124
 30
0.0
 10
194.1742227952185
 20
16.11412278028144
 30
0.0
 10
194.1761714049641
 20
16.04223572621703
 30
0.0
 10
194.1752364849759
 20
15.96168630588771
 30
0.0
 10
194.176510719003
 20
15.88173995404994
 30
0.0
 10
194.1732043793865
 20
15.80841837083183
 30
0.0
 10
194.1802106179962
 20
15.76688643002568
 30
0.0
 10
194.1701440380126
 20
15.72752418568113
 30
0.0
 10
194.2029814803922
 20
15.73468063430981
 30
0.0
 10
194.2364577296482
 20
15.73027243137945
 30
0.0
 10
194.2915053476019
 20
15.73217943347897
 30
0.0
 10
194.3489502595316
 20
15.73185366407289
 30
0.0
 10
194.402302624831
 20
15.73106308733081
 30
0.0
 10
194.4398540896639
 20
15.73313959118074
 30
0.0
 10
194.4623172523237
 20
15.73022338167109
 30
0.0
 10
194.4751678073731
 20
15.73572552644056
 30
0.0
 10
194.4858255685888
 20
15.7380111819779
 30
0.0
 10
194.4986635650143
 20
15.74494972588052
 30
0.0
 10
194.5145991033071
 20
15.72853046313672
 30
0.0
 10
194.5410623920891
 20
15.71709122319449
 30
0.0
 10
194.5726805253757
 20
15.6964468783519
 30
0.0
 10
194.5987255892151
 20
15.68116869628295
 30
0.0
 10
194.6128517723973
 20
15.67266976323184
 30
0.0
 10
194.6170254148479
 20
15.67015871511028
 30
0.0
 11
194.6170254148479
 21
15.67015871511028
 31
0.0
 11
194.6049990002243
 21
15.65473571164187
 31
0.0
 11
194.5848961795565
 21
15.64337406233917
 31
0.0
 11
194.4778986355813
 21
15.42440620231159
 31
0.0
 11
194.3477039934324
 21
15.21317201512161
 31
0.0
 11
194.1996540366071
 21
15.01206059027479
 31
0.0
 11
194.2734958253735
 21
14.96147384935379
 31
0.0
 11
194.36056643118
 21
14.89988411653738
 31
0.0
 11
194.4518003750404
 21
14.83413160594425
 31
0.0
 11
194.5381321779687
 21
14.77105653169304
 31
0.0
 11
194.6104963609787
 21
14.71749910790242
 31
0.0
 11
194.6598274450843
 21
14.68029954869105
 31
0.0
 11
194.6486940702213
 21
14.66471410869495
 31
0.0
 11
194.6221452532403
 21
14.62754882870424
 31
0.0
 11
194.5904579555533
 21
14.58319026871533
 31
0.0
 11
194.5639091385723
 21
14.54602498872462
 31
0.0
 11
194.5527757637093
 21
14.53043954872852
 31
0.0
 11
194.4807013362948
 21
14.59754008690618
 31
0.0
 11
194.3852856985382
 21
14.67993354174669
 31
0.0
 11
194.279326415217
 21
14.76785017366916
 31
0.0
 11
194.1756210511091
 21
14.85152024309267
 31
0.0
 11
194.1756210511091
 21
14.83304687900863
 31
0.0
 11
194.1756210511091
 21
14.78162102763955
 31
0.0
 11
194.1756210511091
 21
14.70323405030999
 31
0.0
 11
194.1756210511091
 21
14.60387730834448
 31
0.0
 11
194.1756210511091
 21
14.4895421630676
 31
0.0
 11
194.1756210511091
 21
14.36621997580389
 31
0.0
 11
194.1756210511091
 21
14.2399021078779
 31
0.0
 11
194.1756210511091
 21
14.11657992061418
 31
0.0
 11
194.1756210511091
 21
14.0022447753373
 31
0.0
 11
194.1756210511091
 21
13.9028880333718
 31
0.0
 11
194.1756210511091
 21
13.82450105604223
 31
0.0
 11
194.1756210511091
 21
13.77307520467315
 31
0.0
 11
194.1756210511091
 21
13.75460184058911
 31
0.0
 11
194.1569720893627
 21
13.75460184058911
 31
0.0
 11
194.112501488275
 21
13.75460184058911
 31
0.0
 11
194.0594236740737
 21
13.75460184058911
 31
0.0
 11
194.014953072986
 21
13.75460184058911
 31
0.0
 11
193.9963041112396
 21
13.75460184058911
 31
0.0
 11
193.9963041112396
 21
13.77486797460218
 31
0.0
 11
193.9963041112396
 21
13.83089787452066
 31
0.0
 11
193.9963041112396
 21
13.91553878716347
 31
0.0
 11
193.9963041112396
 21
14.02163795934953
 31
0.0
 11
193.9963041112396
 21
14.14204263789775
 31
0.0
 11
193.9963041112396
 21
14.26960006962705
 31
0.0
 11
193.9963041112396
 21
14.39715750135636
 31
0.0
 11
193.9963041112396
 21
14.51756217990458
 31
0.0
 11
193.9963041112396
 21
14.62366135209064
 31
0.0
 11
193.9963041112396
 21
14.70830226473345
 31
0.0
 11
193.9963041112396
 21
14.76433216465193
 31
0.0
 11
193.9963041112396
 21
14.784598298665
 31
0.0
 11
193.7883272849481
 21
14.59331998274057
 31
0.0
 11
193.5763486358425
 21
14.43414885430811
 31
0.0
 11
193.5495629014483
 21
14.48814671952095
 31
0.0
 11
193.5138765415024
 21
14.54689140572026
 31
0.0
 11
193.4799697494124
 21
14.59192871537975
 31
0.0
 11
193.6830287742319
 21
14.73563387201053
 31
0.0
 11
193.8818531958261
 21
14.91168423529988
 31
0.0
 11
194.0677041444179
 21
15.11327514524949
 31
0.0
 11
194.2318427502304
 21
15.33360194186108
 31
0.0
 11
194.3655301434865
 21
15.56585996513634
 31
0.0
 11
194.3465256724482
 21
15.56585996513634
 31
0.0
 11
194.2944166389563
 21
15.56585996513634
 31
0.0
 11
194.2165596124448
 21
15.56585996513634
 31
0.0
 11
194.1203111623479
 21
15.56585996513634
 31
0.0
 11
194.0130278580997
 21
15.56585996513634
 31
0.0
 11
193.9020662691345
 21
15.56585996513634
 31
0.0
 11
193.7947829648864
 21
15.56585996513634
 31
0.0
 11
193.6985345147895
 21
15.56585996513634
 31
0.0
 11
193.620677488278
 21
15.56585996513634
 31
0.0
 11
193.568568454786
 21
15.56585996513634
 31
0.0
 11
193.5495639837478
 21
15.56585996513634
 31
0.0
 11
193.5495639837478
 21
15.58311199790981
 31
0.0
 11
193.5495639837478
 21
15.62425146067731
 31
0.0
 11
193.5495639837478
 21
15.67335340010949
 31
0.0
 11
193.5495639837478
 21
15.71449286287698
 31
0.0
 11
193.5495639837478
 21
15.73174489565045
 31
0.0
 11
193.568759848601
 21
15.73174489565045
 31
0.0
 11
193.6193671286684
 21
15.73174489565045
 31
0.0
 11
193.690915352212
 21
15.73174489565045
 31
0.0
 11
193.7729340474937
 21
15.73174489565045
 31
0.0
 11
193.8549527427754
 21
15.73174489565045
 31
0.0
 11
193.926500966319
 21
15.73174489565045
 31
0.0
 11
193.9771082463865
 21
15.73174489565045
 31
0.0
 11
193.9963041112396
 21
15.73174489565045
 31
0.0
 11
193.9963041112396
 21
15.74926552655218
 31
0.0
 11
193.9963041112396
 21
15.79622081736882
 31
0.0
 11
193.9963041112396
 21
15.86420086526753
 31
0.0
 11
193.9963041112396
 21
15.94479576741549
 31
0.0
 11
193.9963041112396
 21
16.02959562097986
 31
0.0
 11
193.9963041112396
 21
16.11019052312782
 31
0.0
 11
193.9963041112396
 21
16.17817057102653
 31
0.0
 11
193.9963041112396
 21
16.22512586184317
 31
0.0
 11
193.9963041112396
 21
16.2426464927449
 31
0.0
 11
194.0135484112112
 21
16.24165806167519
 31
0.0
 11
194.0566591611401
 21
16.23918698400091
 31
0.0
 11
194.1127031360478
 21
16.23597458302435
 31
0.0
 11
194.1687471109554
 21
16.2327621820478
 31
0.0
 11
194.2118578608843
 21
16.23029110437352
 31
0.0
 11
194.2291021608559
 21
16.22930267330381
 31
0.0
 11
194.2143774674852
 21
16.20556293372641
 31
0.0
 11
194.1756210511091
 21
16.19183767331312
 31
0.0
 11
194.1756210511091
 21
16.17206806177293
 31
0.0
 11
194.1756210511091
 21
16.11994817680333
 31
0.0
 11
194.1756210511091
 21
16.04626144288079
 31
0.0
 11
194.1756210511091
 21
15.96179128448179
 31
0.0
 11
194.1756210511091
 21
15.87732112608278
 31
0.0
 11
194.1756210511091
 21
15.80363439216024
 31
0.0
 11
194.1756210511091
 21
15.75151450719064
 31
0.0
 11
194.1756210511091
 21
15.73174489565045
 31
0.0
 11
194.1916227112936
 21
15.73174489565045
 31
0.0
 11
194.2328901507171
 21
15.73174489565045
 31
0.0
 11
194.2893170576837
 21
15.73174489565045
 31
0.0
 11
194.3507971204982
 21
15.73174489565045
 31
0.0
 11
194.4072240274648
 21
15.73174489565045
 31
0.0
 11
194.4484914668882
 21
15.73174489565045
 31
0.0
 11
194.4644931270728
 21
15.73174489565045
 31
0.0
 11
194.4728206422924
 21
15.73451387455921
 31
0.0
 11
194.4882860277004
 21
15.73965626396118
 31
0.0
 11
194.49661354292
 21
15.74242524286994
 31
0.0
 11
194.5091363776005
 21
15.73490952398294
 31
0.0
 11
194.5389985218386
 21
15.71698742509854
 31
0.0
 11
194.5746404359293
 21
15.69559653288168
 31
0.0
 11
194.6045025801674
 21
15.67767443399729
 31
0.0
 11
194.6170254148479
 21
15.67015871511028
 31
0.0
  0
SPLINE
  5
B1
102
{ACAD_REACTORS
330
CE
102
}
330
48
100
AcDbEntity
  8
_U_30EC_U_30A4_U_30E4_U_30FC_1
  6
Continuous
 62
     2
100
AcDbSpline
210
0.0
220
0.0
230
1.0
 70
    11
 71
     3
 72
   124
 73
   120
 74
   118
 42
0.000000001
 43
0.0000000001
 44
0.00000001
 40
0.0
 40
0.0
 40
0.0
 40
0.0
 40
0.027818722962451
 40
0.1011590162384269
 40
0.2048470170590523
 40
0.3237088716559245
 40
0.4425707262522284
 40
0.5462587270700116
 40
0.6195990203312934
 40
0.6474177522579513
 40
0.6750060736116077
 40
0.7357003855243611
 40
0.7963946998055345
 40
0.8239830245572637
 40
0.8540933811104015
 40
0.9373396629410127
 40
1.06309468734335
 40
1.220731268638217
 40
1.399622220914891
 40
1.589140358637933
 40
1.778658496424071
 40
1.957549448940738
 40
2.115186030873388
 40
2.24094105691472
 40
2.324187341760818
 40
2.354297700109668
 40
2.381886024672174
 40
2.442580338710763
 40
2.503274652750787
 40
2.530862977314894
 40
2.560983949278847
 40
2.640393784453221
 40
2.752662861759444
 40
2.881361560118489
 40
3.010060258455536
 40
3.122329335705712
 40
3.201739170818354
 40
3.231860142753715
 40
3.264298024030771
 40
3.352343701778643
 40
3.482095226869167
 40
3.639650650173428
 40
3.811108022565883
 40
3.982565394928392
 40
4.140120818152973
 40
4.269872343141684
 40
4.357918020802747
 40
4.390355902044376
 40
4.423256253992945
 40
4.508104530073466
 40
4.624121560637234
 40
4.750528176031991
 40
4.866545206602438
 40
4.951393482692395
 40
4.984293834645796
 40
5.011450833242708
 40
5.071196230152487
 40
5.130941627057557
 40
5.158098625649219
 40
5.19099897760191
 40
5.275847253689736
 40
5.39186428425717
 40
5.518270899648715
 40
5.634287930209754
 40
5.719136206288428
 40
5.752036558236315
 40
5.782130946283341
 40
5.862783906229514
 40
5.979550131775382
 40
6.117984316640787
 40
6.263641154588334
 40
6.402075339414538
 40
6.518841564908334
 40
6.599494524815916
 40
6.629588912849154
 40
6.654403028226731
 40
6.713575149488526
 40
6.7841999393299
 40
6.843372060494002
 40
6.868186175803248
 40
6.896246243202352
 40
6.939586233758774
 40
6.967846564565402
 40
7.043584251090344
 40
7.1532343344522
 40
7.283231855734952
 40
7.420011856035988
 40
7.55000937658034
 40
7.659659458835744
 40
7.735397144417737
 40
7.763657474851909
 40
7.796409728011566
 40
7.880876065096841
 40
7.996370852466226
 40
8.12220844641912
 40
8.237703224799715
 40
8.322169562011409
 40
8.354921815206422
 40
8.3820788133082
 40
8.4418242092075
 40
8.501569605240642
 40
8.528726603486218
 40
8.561478856696267
 40
8.645945193878317
 40
8.761439980865829
 40
8.887277580764971
 40
9.002772362001492
 40
9.087238696661712
 40
9.119990949236167
 40
9.152428830613866
 40
9.240474508639082
 40
9.370226034150033
 40
9.527781457984918
 40
9.699238830981907
 40
9.870696203979099
 40
10.02825162781452
 40
10.15800315332614
 40
10.24604883135169
 40
10.27848670378572
 40
10.27848670378572
 40
10.27848670378572
 40
10.27848670378572
 10
195.3821827564383
 20
14.01410517385757
 30
0.0
 10
195.3914554737523
 20
14.01410498511274
 30
0.0
 10
195.425174453686
 20
14.01410430876714
 30
0.0
 10
195.4934706812465
 20
14.01411807243305
 30
0.0
 10
195.592014171158
 20
14.01403224219545
 30
0.0
 10
195.7062066464812
 20
14.0144175561225
 30
0.0
 10
195.8185894417071
 20
14.01300835897545
 30
0.0
 10
195.9214376600119
 20
14.01719117422243
 30
0.0
 10
195.9806839874849
 20
14.00823089251982
 30
0.0
 10
196.0371265937034
 20
14.0216443452606
 30
0.0
 10
196.0246255586956
 20
13.97087198613361
 30
0.0
 10
196.0329549635704
 20
13.92589320939067
 30
0.0
 10
196.0248170841121
 20
13.88056752990488
 30
0.0
 10
196.0370529214458
 20
13.82931932408465
 30
0.0
 10
195.9747773490334
 20
13.84447955365276
 30
0.0
 10
195.9060513026868
 20
13.83359750710742
 30
0.0
 10
195.7782756749592
 20
13.83911304747972
 30
0.0
 10
195.6262984511644
 20
13.83700851253699
 30
0.0
 10
195.4502695972522
 20
13.83771002588473
 30
0.0
 10
195.2644431934287
 20
13.83745237531292
 30
0.0
 10
195.0786167437175
 20
13.83771005144603
 30
0.0
 10
194.9025880142167
 20
13.83700841847731
 30
0.0
 10
194.7506104154193
 20
13.83911332229988
 30
0.0
 10
194.6228357664553
 20
13.8335968076764
 30
0.0
 10
194.5541077836579
 20
13.84448077125942
 30
0.0
 10
194.4918349042882
 20
13.8293178668421
 30
0.0
 10
194.5040616290017
 20
13.88057510805171
 30
0.0
 10
194.4960004462596
 20
13.92582473272425
 30
0.0
 10
194.5040675809891
 20
13.97106357955323
 30
0.0
 10
194.4918238487082
 20
14.02234176909958
 30
0.0
 10
194.5525017120697
 20
14.00749577363135
 30
0.0
 10
194.6162810745735
 20
14.01756448170735
 30
0.0
 10
194.7277314353502
 20
14.01294644211999
 30
0.0
 10
194.8497533443823
 20
14.01413328905469
 30
0.0
 10
194.9719538137823
 20
14.01515863900634
 30
0.0
 10
195.0829794287392
 20
14.01092475623402
 30
0.0
 10
195.1476517413958
 20
14.02018584521739
 30
0.0
 10
195.2091162810501
 20
14.00604423049683
 30
0.0
 10
195.1930065601337
 20
14.07235527884517
 30
0.0
 10
195.2042980327358
 20
14.14447790121976
 30
0.0
 10
195.1987400822561
 20
14.27513760888286
 30
0.0
 10
195.2008035061691
 20
14.42607323708242
 30
0.0
 10
195.2000167127295
 20
14.59335873107886
 30
0.0
 10
195.2007845215627
 20
14.76061110332304
 30
0.0
 10
195.1988038785628
 20
14.91163289269914
 30
0.0
 10
195.2041306156621
 20
15.04206069552996
 30
0.0
 10
195.1933101388425
 20
15.11465442605899
 30
0.0
 10
195.2090326429875
 20
15.18150469436799
 30
0.0
 10
195.143270813249
 20
15.16580512490825
 30
0.0
 10
195.0756367830764
 20
15.17609243083996
 30
0.0
 10
194.9615885293809
 20
15.17113786847123
 30
0.0
 10
194.8451242674902
 20
15.17414128030475
 30
0.0
 10
194.7306554121477
 20
15.16880303143389
 30
0.0
 10
194.6640324657812
 20
15.18001268074826
 30
0.0
 10
194.5990769715186
 20
15.16349132665012
 30
0.0
 10
194.6107989758707
 20
15.21473720477059
 30
0.0
 10
194.6032830189122
 20
15.25950333784091
 30
0.0
 10
194.6107989878835
 20
15.3042694489796
 30
0.0
 10
194.5990769505347
 20
15.3555153612974
 30
0.0
 10
194.66403263392
 20
15.33899381766814
 30
0.0
 10
194.7306533339822
 20
15.35020571373943
 30
0.0
 10
194.8451352858063
 20
15.34485436710663
 30
0.0
 10
194.9615454436962
 20
15.34791188771116
 30
0.0
 10
195.0757660174641
 20
15.34278499010707
 30
0.0
 10
195.1430150439226
 20
15.35345733355597
 30
0.0
 10
195.2083325941438
 20
15.33742082669076
 30
0.0
 10
195.1941391448553
 20
15.39949685750052
 30
0.0
 10
195.2036059462995
 20
15.46586761628761
 30
0.0
 10
195.1990269004085
 20
15.58239972741965
 30
0.0
 10
195.2007696555948
 20
15.71426685022374
 30
0.0
 10
195.1997551495392
 20
15.85615960150272
 30
0.0
 10
195.2017191344372
 20
15.98769050702579
 30
0.0
 10
195.196466855385
 20
16.10524577283001
 30
0.0
 10
195.2073408763475
 20
16.16947789001583
 30
0.0
 10
195.1919536641853
 20
16.23108802545046
 30
0.0
 10
195.2407591537801
 20
16.21702407382109
 30
0.0
 10
195.2853995564726
 20
16.21954742075313
 30
0.0
 10
195.3538643946742
 20
16.21512797401709
 30
0.0
 10
195.3959106169103
 20
16.20613025544034
 30
0.0
 10
195.4487544758776
 20
16.21411714866509
 30
0.0
 10
195.4207035002013
 20
16.17113917611673
 30
0.0
 10
195.3749142248595
 20
16.18259552043838
 30
0.0
 10
195.3869539073264
 20
16.12173520005136
 30
0.0
 10
195.3796086070641
 20
16.05769299468773
 30
0.0
 10
195.3831195826162
 20
15.94909368863911
 30
0.0
 10
195.3819806760173
 20
15.82494319144753
 30
0.0
 10
195.3819174780263
 20
15.69189719829877
 30
0.0
 10
195.3832872966869
 20
15.56797381249555
 30
0.0
 10
195.3791638801313
 20
15.45868337849337
 30
0.0
 10
195.3877763103564
 20
15.39608580094169
 30
0.0
 10
195.3746757454402
 20
15.33740133296364
 30
0.0
 10
195.4393884328198
 20
15.35362113810901
 30
0.0
 10
195.5060405953156
 20
15.34270260383311
 30
0.0
 10
195.6198779541102
 20
15.34793740173754
 30
0.0
 10
195.7357259122097
 20
15.34485547516912
 30
0.0
 10
195.849692426328
 20
15.35018259812511
 30
0.0
 10
195.9160341018099
 20
15.33904208166541
 30
0.0
 10
195.980718852548
 20
15.35546979593177
 30
0.0
 10
195.9689820772722
 20
15.30425925210049
 30
0.0
 10
195.9765168063041
 20
15.25950334121001
 30
0.0
 10
195.9689820992257
 20
15.21474739010027
 30
0.0
 10
195.9807188140736
 20
15.16353690871041
 30
0.0
 10
195.9160344075252
 20
15.1799642779422
 30
0.0
 10
195.8496886430824
 20
15.1688278444727
 30
0.0
 10
195.7357459487012
 20
15.17413115893121
 30
0.0
 10
195.6197995623054
 20
15.17114764593544
 30
0.0
 10
195.5062756882122
 20
15.17606892268395
 30
0.0
 10
195.4389231318804
 20
15.1658508751352
 30
0.0
 10
195.3734285122495
 20
15.18145996138816
 30
0.0
 10
195.3891713619218
 20
15.11463851827411
 30
0.0
 10
195.3783275998212
 20
15.04207057815879
 30
0.0
 10
195.3836581629793
 20
14.91162247614417
 30
0.0
 10
195.3817136151854
 20
14.76064558185226
 30
0.0
 10
195.3823133683214
 20
14.59322243934158
 30
0.0
 10
195.3821506559605
 20
14.42656176118372
 30
0.0
 10
195.3821895488135
 20
14.27360142921636
 30
0.0
 10
195.38218164131
 20
14.14849178985705
 30
0.0
 10
195.3821828382744
 20
14.0650789099142
 30
0.0
 10
195.3821827716208
 20
14.02491778281976
 30
0.0
 10
195.3821827564383
 20
14.01410517385757
 30
0.0
 11
195.3821827564383
 21
14.01410517385757
 31
0.0
 11
195.4100014883675
 21
14.01410517385757
 31
0.0
 11
195.4833417816353
 21
14.01410517385757
 31
0.0
 11
195.5870297824623
 21
14.01410517385757
 31
0.0
 11
195.7058916370687
 21
14.01410517385757
 31
0.0
 11
195.8247534916752
 21
14.01410517385757
 31
0.0
 11
195.9284414925021
 21
14.01410517385757
 31
0.0
 11
196.0017817857699
 21
14.01410517385757
 31
0.0
 11
196.0296005176991
 21
14.01410517385757
 31
0.0
 11
196.0296005176991
 21
13.9865168492117
 31
0.0
 11
196.0296005176991
 21
13.92582253499077
 31
0.0
 11
196.0296005176991
 21
13.86512822076984
 31
0.0
 11
196.0296005176991
 21
13.83753989612397
 31
0.0
 11
195.9994901593494
 21
13.83753989612397
 31
0.0
 11
195.9162438745005
 21
13.83753989612397
 31
0.0
 11
195.7904888484522
 21
13.83753989612397
 31
0.0
 11
195.6328522665042
 21
13.83753989612397
 31
0.0
 11
195.4539613139565
 21
13.83753989612397
 31
0.0
 11
195.2644431761088
 21
13.83753989612397
 31
0.0
 11
195.0749250382613
 21
13.83753989612397
 31
0.0
 11
194.8960340857136
 21
13.83753989612397
 31
0.0
 11
194.7383975037656
 21
13.83753989612397
 31
0.0
 11
194.6126424777171
 21
13.83753989612397
 31
0.0
 11
194.5293961928682
 21
13.83753989612397
 31
0.0
 11
194.4992858345186
 21
13.83753989612397
 31
0.0
 11
194.4992858345186
 21
13.86512822076984
 31
0.0
 11
194.4992858345186
 21
13.92582253499077
 31
0.0
 11
194.4992858345186
 21
13.9865168492117
 31
0.0
 11
194.4992858345186
 21
14.01410517385757
 31
0.0
 11
194.5294068064946
 21
14.01410517385757
 31
0.0
 11
194.6088166417039
 21
14.01410517385757
 31
0.0
 11
194.7210857190689
 21
14.01410517385757
 31
0.0
 11
194.8497844175117
 21
14.01410517385757
 31
0.0
 11
194.9784831159545
 21
14.01410517385757
 31
0.0
 11
195.0907521933194
 21
14.01410517385757
 31
0.0
 11
195.1701620285289
 21
14.01410517385757
 31
0.0
 11
195.2002830005048
 21
14.01410517385757
 31
0.0
 11
195.2002830005048
 21
14.04654305523835
 31
0.0
 11
195.2002830005048
 21
14.1345887332719
 31
0.0
 11
195.2002830005048
 21
14.26434025879503
 31
0.0
 11
195.2002830005048
 21
14.42189568264454
 31
0.0
 11
195.2002830005048
 21
14.59335305565724
 31
0.0
 11
195.2002830005048
 21
14.76481042866994
 31
0.0
 11
195.2002830005048
 21
14.92236585251945
 31
0.0
 11
195.2002830005048
 21
15.05211737804258
 31
0.0
 11
195.2002830005048
 21
15.14016305607613
 31
0.0
 11
195.2002830005048
 21
15.17260093745691
 31
0.0
 11
195.1673826485529
 21
15.17260093745691
 31
0.0
 11
195.0825343724662
 21
15.17260093745691
 31
0.0
 11
194.9665173418988
 21
15.17260093745691
 31
0.0
 11
194.8401107265044
 21
15.17260093745691
 31
0.0
 11
194.724093695937
 21
15.17260093745691
 31
0.0
 11
194.6392454198503
 21
15.17260093745691
 31
0.0
 11
194.6063450678984
 21
15.17260093745691
 31
0.0
 11
194.6063450678984
 21
15.19975793614803
 31
0.0
 11
194.6063450678984
 21
15.2595033332685
 31
0.0
 11
194.6063450678984
 21
15.31924873038897
 31
0.0
 11
194.6063450678984
 21
15.34640572908009
 31
0.0
 11
194.6392454198504
 21
15.34640572908009
 31
0.0
 11
194.724093695937
 21
15.34640572908009
 31
0.0
 11
194.8401107265044
 21
15.34640572908009
 31
0.0
 11
194.9665173418988
 21
15.34640572908009
 31
0.0
 11
195.0825343724662
 21
15.34640572908009
 31
0.0
 11
195.1673826485529
 21
15.34640572908009
 31
0.0
 11
195.2002830005048
 21
15.34640572908009
 31
0.0
 11
195.2002830005048
 21
15.37650011731369
 31
0.0
 11
195.2002830005048
 21
15.45715307777972
 31
0.0
 11
195.2002830005048
 21
15.57391930412608
 31
0.0
 11
195.2002830005048
 21
15.71235349000062
 31
0.0
 11
195.2002830005048
 21
15.85801032905123
 31
0.0
 11
195.2002830005048
 21
15.99644451492577
 31
0.0
 11
195.2002830005048
 21
16.11321074127213
 31
0.0
 11
195.2002830005048
 21
16.19386370173816
 31
0.0
 11
195.2002830005048
 21
16.22395808997176
 31
0.0
 11
195.2250405288618
 21
16.2222832421944
 31
0.0
 11
195.284077711867
 21
16.21828937441764
 31
0.0
 11
195.3545414464215
 21
16.2135224999744
 31
0.0
 11
195.4135786294266
 21
16.20952863219763
 31
0.0
 11
195.4383361577836
 21
16.20785378442028
 31
0.0
 11
195.4233067224031
 21
16.18415814206509
 31
0.0
 11
195.3821827564383
 21
16.17047697887404
 31
0.0
 11
195.3821827564383
 21
16.14221664794832
 31
0.0
 11
195.3821827564383
 21
16.06647896106739
 31
0.0
 11
195.3821827564383
 21
15.95682887707561
 31
0.0
 11
195.3821827564383
 21
15.8268313548173
 31
0.0
 11
195.3821827564383
 21
15.69005135313683
 31
0.0
 11
195.3821827564383
 21
15.56005383087852
 31
0.0
 11
195.3821827564383
 21
15.45040374688673
 31
0.0
 11
195.3821827564383
 21
15.37466606000581
 31
0.0
 11
195.3821827564383
 21
15.34640572908009
 31
0.0
 11
195.4149350096115
 21
15.34640572908009
 31
0.0
 11
195.4994013467422
 21
15.34640572908009
 31
0.0
 11
195.6148961342476
 21
15.34640572908009
 31
0.0
 11
195.7407337385445
 21
15.34640572908009
 31
0.0
 11
195.8562285260498
 21
15.34640572908009
 31
0.0
 11
195.9406948631806
 21
15.34640572908009
 31
0.0
 11
195.9734471163538
 21
15.34640572908009
 31
0.0
 11
195.9734471163538
 21
15.31924873038897
 31
0.0
 11
195.9734471163538
 21
15.2595033332685
 31
0.0
 11
195.9734471163538
 21
15.19975793614803
 31
0.0
 11
195.9734471163538
 21
15.17260093745691
 31
0.0
 11
195.9406948631806
 21
15.17260093745691
 31
0.0
 11
195.8562285260498
 21
15.17260093745691
 31
0.0
 11
195.7407337385445
 21
15.17260093745691
 31
0.0
 11
195.6148961342476
 21
15.17260093745691
 31
0.0
 11
195.4994013467422
 21
15.17260093745691
 31
0.0
 11
195.4149350096114
 21
15.17260093745691
 31
0.0
 11
195.3821827564383
 21
15.17260093745691
 31
0.0
 11
195.3821827564383
 21
15.14016305607613
 31
0.0
 11
195.3821827564383
 21
15.05211737804258
 31
0.0
 11
195.3821827564383
 21
14.92236585251945
 31
0.0
 11
195.3821827564383
 21
14.76481042866994
 31
0.0
 11
195.3821827564383
 21
14.59335305565724
 31
0.0
 11
195.3821827564383
 21
14.42189568264454
 31
0.0
 11
195.3821827564383
 21
14.26434025879503
 31
0.0
 11
195.3821827564383
 21
14.1345887332719
 31
0.0
 11
195.3821827564383
 21
14.04654305523835
 31
0.0
 11
195.3821827564383
 21
14.01410517385757
 31
0.0
  0
SPLINE
  5
B2
102
{ACAD_REACTORS
330
CF
102
}
330
48
100
AcDbEntity
  8
_U_30EC_U_30A4_U_30E4_U_30FC_1
  6
Continuous
 62
     2
100
AcDbSpline
210
0.0
220
0.0
230
1.0
 70
     8
 71
     3
 72
    62
 73
    58
 74
    56
 42
0.000000001
 43
0.0000000001
 44
0.00000001
 40
0.0
 40
0.0
 40
0.0
 40
0.0
 40
0.0598250028308769
 40
0.20248464868979
 40
0.3727558389221599
 40
0.5154154847936923
 40
0.5752404975786476
 40
0.9332326775488595
 40
1.29045176283961
 40
1.602077253145985
 40
1.699931634112219
 40
1.799359756425154
 40
2.270120149657193
 40
2.804661928461616
 40
2.882342287383329
 40
3.07654318571918
 40
3.329004354835646
 40
3.581465524568474
 40
3.775666424543761
 40
3.853346784558381
 40
3.899120679595155
 40
3.984129341792181
 40
4.029903236817558
 40
4.105797496059713
 40
4.295533144152673
 40
4.542189486611909
 40
4.788845828875857
 40
4.978581476410238
 40
5.05447573524448
 40
5.621734664339475
 40
6.130867242037511
 40
6.225249780948726
 40
6.318913039727469
 40
6.663579954559085
 40
7.047498900224952
 40
7.435230791575872
 40
7.498943906668284
 40
7.650875181210278
 40
7.832212509001788
 40
7.984143783697174
 40
8.047856898903301
 40
8.091554632732805
 40
8.172707566964457
 40
8.216405300768178
 40
8.289021782161063
 40
8.462184160757436
 40
8.668861838005517
 40
8.842024215264109
 40
8.914640695475304
 40
8.989881580861509
 40
9.155411528827416
 40
9.320941477744203
 40
9.396182352487452
 40
9.454709011143999
 40
9.583467660170934
 40
9.712226309013213
 40
9.770752957989666
 40
9.770752957989666
 40
9.770752957989666
 40
9.770752957989666
 10
187.1521871691834
 20
14.9398028819595
 30
0.0
 10
187.1322348171624
 20
14.93980875568671
 30
0.0
 10
187.0647037716466
 20
14.93982863806157
 30
0.0
 10
186.9410612161789
 20
14.93949362520326
 30
0.0
 10
186.7863180150056
 20
14.94107673750512
 30
0.0
 10
186.669734948248
 20
14.93686078860495
 30
0.0
 10
186.455094263424
 20
14.95215205331627
 30
0.0
 10
186.8518948407228
 20
14.59198721286192
 30
0.0
 10
186.8945656069267
 20
14.37510503397166
 30
0.0
 10
187.3189162146611
 20
14.19325062511448
 30
0.0
 10
187.1439821496074
 20
14.0898519656807
 30
0.0
 10
187.0194523925082
 20
13.87831523212726
 30
0.0
 10
186.7666277235943
 20
14.34806081001557
 30
0.0
 10
186.4797602893627
 20
14.99511516984523
 30
0.0
 10
186.4906335926661
 20
14.68782672154695
 30
0.0
 10
186.4882892777961
 20
14.5228861697178
 30
0.0
 10
186.4861096126411
 20
14.28879670711694
 30
0.0
 10
186.4980774396348
 20
14.04498072421784
 30
0.0
 10
186.4687984740632
 20
13.89855796860985
 30
0.0
 10
186.5114522625471
 20
13.75113490174537
 30
0.0
 10
186.423981400564
 20
13.76685797306221
 30
0.0
 10
186.3768527606744
 20
13.76694303543455
 30
0.0
 10
186.2898973207713
 20
13.75109425482909
 30
0.0
 10
186.3313474021722
 20
13.89527771422762
 30
0.0
 10
186.3029875004285
 20
14.03855052698455
 30
0.0
 10
186.3145973775299
 20
14.27674947365264
 30
0.0
 10
186.3124175648272
 20
14.50517235240346
 30
0.0
 10
186.3103111127993
 20
14.66705729375993
 30
0.0
 10
186.3208035438325
 20
14.98153709333751
 30
0.0
 10
186.0128963252893
 20
14.29229470872435
 30
0.0
 10
185.7055258267455
 20
13.81476750243046
 30
0.0
 10
185.5851367066275
 20
14.03741112637429
 30
0.0
 10
185.4074607910721
 20
14.15011034955562
 30
0.0
 10
185.8853326362894
 20
14.32548143465463
 30
0.0
 10
185.9353959057208
 20
14.56091929252027
 30
0.0
 10
186.3583799621717
 20
14.95322989344607
 30
0.0
 10
186.127675427354
 20
14.93655307029066
 30
0.0
 10
186.004968585934
 20
14.9426951894877
 30
0.0
 10
185.8325483095662
 20
14.93312822699574
 30
0.0
 10
185.7213224694449
 20
14.95448818489666
 30
0.0
 10
185.6025779627447
 20
14.92136265357419
 30
0.0
 10
185.6183169706686
 20
15.00203900606883
 30
0.0
 10
185.6178550933762
 20
15.04645414290853
 30
0.0
 10
185.6027881889931
 20
15.12967081778532
 30
0.0
 10
185.7372380935443
 20
15.09062651983882
 30
0.0
 10
185.8619755545747
 20
15.11739729328421
 30
0.0
 10
186.062875523728
 20
15.10063949044051
 30
0.0
 10
186.1921540949352
 20
15.12204225913003
 30
0.0
 10
186.3328419928295
 20
15.08868778853419
 30
0.0
 10
186.2980927452614
 20
15.22651875785067
 30
0.0
 10
186.3222185666714
 20
15.3496325734948
 30
0.0
 10
186.2967086182391
 20
15.47024055670334
 30
0.0
 10
186.3333251146685
 20
15.60539865141494
 30
0.0
 10
186.2211417027769
 20
15.58094545781889
 30
0.0
 10
186.1280356457136
 20
15.59307749842021
 30
0.0
 10
186.0191547579819
 20
15.58957630069992
 30
0.0
 10
185.9569697640964
 20
15.58981755951602
 30
0.0
 10
185.9375369557246
 20
15.58989295124143
 30
0.0
 11
187.1521871691834
 21
14.9398028819595
 31
0.0
 11
187.0923621563983
 21
14.9398028819595
 31
0.0
 11
186.949702510526
 21
14.9398028819595
 31
0.0
 11
186.7794313202914
 21
14.9398028819595
 31
0.0
 11
186.6367716744192
 21
14.9398028819595
 31
0.0
 11
186.576946661634
 21
14.9398028819595
 31
0.0
 11
186.7679960754843
 21
14.6370512796689
 31
0.0
 11
186.994127278563
 21
14.36051890576684
 31
0.0
 11
187.2244526173371
 21
14.15061253493457
 31
0.0
 11
187.1521596330704
 21
14.08466403668716
 31
0.0
 11
187.0879364402643
 21
14.0087605905256
 31
0.0
 11
186.7732818215558
 21
14.35891458349363
 31
0.0
 11
186.4886640249977
 21
14.81138295143602
 31
0.0
 11
186.4886640249977
 21
14.73370259137314
 31
0.0
 11
186.4886640249977
 21
14.53950169121594
 31
0.0
 11
186.4886640249977
 21
14.28704052101157
 31
0.0
 11
186.4886640249977
 21
14.03457935080721
 31
0.0
 11
186.4886640249977
 21
13.84037845065
 31
0.0
 11
186.4886640249977
 21
13.76269809058712
 31
0.0
 11
186.4428901295606
 21
13.76269809058712
 31
0.0
 11
186.3578814666058
 21
13.76269809058712
 31
0.0
 11
186.3121075711687
 21
13.76269809058712
 31
0.0
 11
186.3121075711687
 21
13.8385923498274
 31
0.0
 11
186.3121075711687
 21
14.02832799792811
 31
0.0
 11
186.3121075711687
 21
14.27498434045903
 31
0.0
 11
186.3121075711687
 21
14.52164068298995
 31
0.0
 11
186.3121075711687
 21
14.71137633109065
 31
0.0
 11
186.3121075711687
 21
14.78727059033094
 31
0.0
 11
185.9987626399267
 21
14.31440946197693
 31
0.0
 11
185.6352328662148
 21
13.95795177109381
 31
0.0
 11
185.5773927461628
 21
14.03253450545022
 31
0.0
 11
185.5094852305341
 21
14.09704322939243
 31
0.0
 11
185.7750721898319
 21
14.31672219795889
 31
0.0
 11
186.0233764972061
 21
14.60953395971697
 31
0.0
 11
186.226498280526
 21
14.9398028819595
 31
0.0
 11
186.1627851652721
 21
14.9398028819595
 31
0.0
 11
186.0108538904359
 21
14.9398028819595
 31
0.0
 11
185.8295165624055
 21
14.9398028819595
 31
0.0
 11
185.6775852875693
 21
14.9398028819595
 31
0.0
 11
185.6138721723154
 21
14.9398028819595
 31
0.0
 11
185.6138721723154
 21
14.98350061600208
 31
0.0
 11
185.6138721723154
 21
15.06465355065258
 31
0.0
 11
185.6138721723154
 21
15.10835128469516
 31
0.0
 11
185.6864886537961
 21
15.10835128469516
 31
0.0
 11
185.8596510327118
 21
15.10835128469516
 31
0.0
 11
186.0663287107723
 21
15.10835128469516
 31
0.0
 11
186.239491089688
 21
15.10835128469516
 31
0.0
 11
186.3121075711687
 21
15.10835128469516
 31
0.0
 11
186.3121075711687
 21
15.18359217009301
 31
0.0
 11
186.3121075711687
 21
15.34912211796829
 31
0.0
 11
186.3121075711687
 21
15.51465206584358
 31
0.0
 11
186.3121075711687
 21
15.58989295124143
 31
0.0
 11
186.2535809125055
 21
15.58989295124143
 31
0.0
 11
186.1248222634467
 21
15.58989295124143
 31
0.0
 11
185.9960636143877
 21
15.58989295124143
 31
0.0
 11
185.9375369557246
 21
15.58989295124143
 31
0.0
  0
SPLINE
  5
B3
102
{ACAD_REACTORS
330
CF
102
}
330
48
100
AcDbEntity
  8
_U_30EC_U_30A4_U_30E4_U_30FC_1
  6
Continuous
 62
     2
100
AcDbSpline
210
0.0
220
0.0
230
1.0
 70
     8
 71
     3
 72
    70
 73
    66
 74
    64
 42
0.000000001
 43
0.0000000001
 44
0.00000001
 40
0.0
 40
0.0
 40
0.0
 40
0.0
 40
0.0241731073021472
 40
0.0846058988986729
 40
0.1631685280352999
 40
0.2417311571788903
 40
0.3021639488291898
 40
0.3263370654894688
 40
0.3533118254248028
 40
0.4228783438921294
 40
0.5179999095312621
 40
0.6216398239465285
 40
0.716761389149896
 40
0.7863279069649117
 40
0.813302679176109
 40
0.8372943998770928
 40
0.8945054261372123
 40
0.9627895541962177
 40
1.020000580349084
 40
1.043992300975182
 40
1.071934345522955
 40
1.113121768772888
 40
1.145225199332213
 40
1.225483775412751
 40
1.329819923771463
 40
1.434156071994357
 40
1.514414647795778
 40
1.546518078208386
 40
1.578974764260188
 40
1.662678849314126
 40
1.777131373668347
 40
1.901833377474737
 40
2.016285900500499
 40
2.099989982527838
 40
2.132446666570196
 40
2.15878235448592
 40
2.216720867907709
 40
2.27465938133413
 40
2.300995069256066
 40
2.333451754066038
 40
2.41715583654369
 40
2.53160835898513
 40
2.656310362283625
 40
2.770762886388729
 40
2.854466971339866
 40
2.886923657363672
 40
2.913597976833104
 40
2.98238964287491
 40
3.076451716946774
 40
3.178937260458387
 40
3.272999334739792
 40
3.341791001059013
 40
3.368465320663326
 40
3.396976080738575
 40
3.472140811845783
 40
3.578408190308473
 40
3.700226892455937
 40
3.822045594634154
 40
3.928312973256261
 40
4.003477705314658
 40
4.031988456866724
 40
4.058324144797522
 40
4.11626265823668
 40
4.174201171400474
 40
4.200536849608406
 40
4.200536849608406
 40
4.200536849608406
 40
4.200536849608406
 10
185.985770496161
 20
15.75844135397704
 30
0.0
 10
185.993825954468
 20
15.75844359811686
 30
0.0
 10
186.0220200663241
 20
15.75845146032796
 30
0.0
 10
186.0765534803674
 20
15.7583075482837
 30
0.0
 10
186.1482891808604
 20
15.75909120499897
 30
0.0
 10
186.2236240137062
 20
15.7562757046381
 30
0.0
 10
186.2713052366439
 20
15.76298403400956
 30
0.0
 10
186.3195071245616
 20
15.75197563692432
 30
0.0
 10
186.3062571799873
 20
15.80546402997032
 30
0.0
 10
186.3151093964538
 20
15.86049583543091
 30
0.0
 10
186.3108698036285
 20
15.95419908726108
 30
0.0
 10
186.313348348128
 20
16.04959482218531
 30
0.0
 10
186.309093870606
 20
16.14356821983387
 30
0.0
 10
186.3179818665846
 20
16.19795062438012
 30
0.0
 10
186.3046977409945
 20
16.2523399769146
 30
0.0
 10
186.3514119277109
 20
16.23842216335358
 30
0.0
 10
186.3943254545736
 20
16.24103877374043
 30
0.0
 10
186.4605443456686
 20
16.23648422450754
 30
0.0
 10
186.5013342271799
 20
16.22778162134163
 30
0.0
 10
186.552514569082
 20
16.23531799890193
 30
0.0
 10
186.5253720487201
 20
16.19349970223292
 30
0.0
 10
186.4803096055708
 20
16.20284992072592
 30
0.0
 10
186.4942065045051
 20
16.13841207371837
 30
0.0
 10
186.4858414431656
 20
16.07378219627398
 30
0.0
 10
186.4903632178399
 20
15.97529141193887
 30
0.0
 10
186.4854741311169
 20
15.8759593284257
 30
0.0
 10
186.4950258992081
 20
15.81293115552966
 30
0.0
 10
186.4799761455202
 20
15.74964011499787
 30
0.0
 10
186.5449159457208
 20
15.76515072944267
 30
0.0
 10
186.6116246399498
 20
15.75499387697812
 30
0.0
 10
186.7241435470828
 20
15.75988800099366
 30
0.0
 10
186.8390235448954
 20
15.75691204732783
 30
0.0
 10
186.9519871999746
 20
15.7622166418499
 30
0.0
 10
187.0176267597679
 20
15.75107306472088
 30
0.0
 10
187.0816276691053
 20
15.76744532319856
 30
0.0
 10
187.070314288919
 20
15.71761689905274
 30
0.0
 10
187.0775339871509
 20
15.67416715212121
 30
0.0
 10
187.0703142611269
 20
15.63071745587443
 30
0.0
 10
187.0816277175994
 20
15.58088895196875
 30
0.0
 10
187.0176263598971
 20
15.59726166091361
 30
0.0
 10
186.951992124046
 20
15.58611271661587
 30
0.0
 10
186.838997431733
 20
15.59144857206853
 30
0.0
 10
186.7242456548643
 20
15.5883434566382
 30
0.0
 10
186.6113183686861
 20
15.59364894682588
 30
0.0
 10
186.5455220903585
 20
15.58257300019592
 30
0.0
 10
186.4816097975359
 20
15.59887597847617
 30
0.0
 10
186.4936015165127
 20
15.5442352439574
 30
0.0
 10
186.4862104613006
 20
15.48854295047841
 30
0.0
 10
186.4892684841984
 20
15.39649689140569
 30
0.0
 10
186.4893422785684
 20
15.30179109873099
 30
0.0
 10
186.4860313578361
 20
15.20952782902265
 30
0.0
 10
186.4939505989904
 20
15.15435768736138
 30
0.0
 10
186.4815076611618
 20
15.10058169100134
 30
0.0
 10
186.5389116551633
 20
15.11453768862779
 30
0.0
 10
186.5994708140384
 20
15.10511457884226
 30
0.0
 10
186.7048680855082
 20
15.10942885928703
 30
0.0
 10
186.8204294070624
 20
15.10835504612031
 30
0.0
 10
186.9359688877798
 20
15.10725965900994
 30
0.0
 10
187.0414181130843
 20
15.11162525770632
 30
0.0
 10
187.1018680471804
 20
15.10209426030669
 30
0.0
 10
187.1592837739112
 20
15.11617289606379
 30
0.0
 10
187.147777387671
 20
15.06707153265681
 30
0.0
 10
187.1537566781749
 20
15.02564658018649
 30
0.0
 10
187.1520311050804
 20
14.97651677966695
 30
0.0
 10
187.1521500122972
 20
14.94854428447608
 30
0.0
 10
187.1521871691834
 20
14.9398028819595
 30
0.0
 11
185.985770496161
 21
15.75844135397704
 31
0.0
 11
186.0099436128282
 21
15.75844135397704
 31
0.0
 11
186.0703764044963
 21
15.75844135397704
 31
0.0
 11
186.1489390336649
 21
15.75844135397704
 31
0.0
 11
186.2275016628334
 21
15.75844135397704
 31
0.0
 11
186.2879344545015
 21
15.75844135397704
 31
0.0
 11
186.3121075711687
 21
15.75844135397704
 31
0.0
 11
186.3121075711687
 21
15.78541612620062
 31
0.0
 11
186.3121075711687
 21
15.85498264404038
 31
0.0
 11
186.3121075711687
 21
15.95010420924985
 31
0.0
 11
186.3121075711687
 21
16.05374412358255
 31
0.0
 11
186.3121075711687
 21
16.14886568879202
 31
0.0
 11
186.3121075711687
 21
16.21843220663178
 31
0.0
 11
186.3121075711687
 21
16.24540697885536
 31
0.0
 11
186.3360407604892
 21
16.243732131078
 31
0.0
 11
186.3931122119458
 21
16.23973826330121
 31
0.0
 11
186.4612297507811
 21
16.23497138885795
 31
0.0
 11
186.5183012022377
 21
16.23097752108117
 31
0.0
 11
186.5422343915582
 21
16.22930267330381
 31
0.0
 11
186.5274972731229
 21
16.20556293372641
 31
0.0
 11
186.4886640249977
 21
16.19183767331312
 31
0.0
 11
186.4886640249977
 21
16.15973424225119
 31
0.0
 11
186.4886640249977
 21
16.07947566459636
 31
0.0
 11
186.4886640249977
 21
15.97513951364508
 31
0.0
 11
186.4886640249977
 21
15.8708033626938
 31
0.0
 11
186.4886640249977
 21
15.79054478503897
 31
0.0
 11
186.4886640249977
 21
15.75844135397704
 31
0.0
 11
186.5211207110825
 21
15.75844135397704
 31
0.0
 11
186.6048247962486
 21
15.75844135397704
 31
0.0
 11
186.7192773208635
 21
15.75844135397704
 31
0.0
 11
186.8439793252946
 21
15.75844135397704
 31
0.0
 11
186.9584318499095
 21
15.75844135397704
 31
0.0
 11
187.0421359350756
 21
15.75844135397704
 31
0.0
 11
187.0745926211604
 21
15.75844135397704
 31
0.0
 11
187.0745926211604
 21
15.7321056660496
 31
0.0
 11
187.0745926211604
 21
15.67416715260923
 31
0.0
 11
187.0745926211604
 21
15.61622863916887
 31
0.0
 11
187.0745926211604
 21
15.58989295124143
 31
0.0
 11
187.0421359350756
 21
15.58989295124143
 31
0.0
 11
186.9584318499095
 21
15.58989295124143
 31
0.0
 11
186.8439793252946
 21
15.58989295124143
 31
0.0
 11
186.7192773208635
 21
15.58989295124143
 31
0.0
 11
186.6048247962486
 21
15.58989295124143
 31
0.0
 11
186.5211207110825
 21
15.58989295124143
 31
0.0
 11
186.4886640249977
 21
15.58989295124143
 31
0.0
 11
186.4886640249977
 21
15.56321863152021
 31
0.0
 11
186.4886640249977
 21
15.49442696487074
 31
0.0
 11
186.4886640249977
 21
15.40036489006433
 31
0.0
 11
186.4886640249977
 21
15.29787934587226
 31
0.0
 11
186.4886640249977
 21
15.20381727106585
 31
0.0
 11
186.4886640249977
 21
15.13502560441638
 31
0.0
 11
186.4886640249977
 21
15.10835128469516
 31
0.0
 11
186.5171747850994
 21
15.10835128469516
 31
0.0
 11
186.5923395162767
 21
15.10835128469516
 31
0.0
 11
186.6986068948377
 21
15.10835128469516
 31
0.0
 11
186.8204255970905
 21
15.10835128469516
 31
0.0
 11
186.9422442993434
 21
15.10835128469516
 31
0.0
 11
187.0485116779044
 21
15.10835128469516
 31
0.0
 11
187.1236764090817
 21
15.10835128469516
 31
0.0
 11
187.1521871691834
 21
15.10835128469516
 31
0.0
 11
187.1521871691834
 21
15.08201559676771
 31
0.0
 11
187.1521871691834
 21
15.02407708332733
 31
0.0
 11
187.1521871691834
 21
14.96613856988695
 31
0.0
 11
187.1521871691834
 21
14.9398028819595
 31
0.0
  0
SPLINE
  5
B4
102
{ACAD_REACTORS
330
CF
102
}
330
48
100
AcDbEntity
  8
_U_30EC_U_30A4_U_30E4_U_30FC_1
  6
Continuous
 62
     2
100
AcDbSpline
210
0.0
220
0.0
230
1.0
 70
     8
 71
     3
 72
    24
 73
    20
 74
    18
 42
0.000000001
 43
0.0000000001
 44
0.00000001
 40
0.0
 40
0.0
 40
0.0
 40
0.0
 40
0.2211075008753544
 40
0.4273218586244976
 40
0.5080174679238926
 40
0.5914835907869855
 40
0.8143265690192292
 40
1.054651302686539
 40
1.295452694023128
 40
1.518109231328782
 40
1.540864321905425
 40
1.595126460622686
 40
1.659890947896028
 40
1.714153085187414
 40
1.736908174961714
 40
1.764951100735442
 40
1.80156229122106
 40
1.953914424543737
 40
2.126104167379796
 40
2.126104167379796
 40
2.126104167379796
 40
2.126104167379796
 10
185.9375369556888
 20
15.58989295113016
 30
0.0
 10
185.9112579081811
 20
15.53097628234373
 30
0.0
 10
185.8604698894425
 20
15.41711139679255
 30
0.0
 10
185.8131784839111
 20
15.14441958233118
 30
0.0
 10
185.7043482802618
 20
15.24445482575454
 30
0.0
 10
185.5514800279637
 20
15.27118593367332
 30
0.0
 10
185.7686155181198
 20
15.48518135017632
 30
0.0
 10
185.7838483674381
 20
15.70332117782486
 30
0.0
 10
185.8906889492
 20
15.88451579066427
 30
0.0
 10
185.8305380947078
 20
16.16913226311401
 30
0.0
 10
185.9334317395402
 20
16.14114089222451
 30
0.0
 10
185.977993346815
 20
16.13243251602299
 30
0.0
 10
186.0380842395397
 20
16.12139654183355
 30
0.0
 10
186.0756619587438
 20
16.1076752305556
 30
0.0
 10
186.1252466928607
 20
16.10756076160222
 30
0.0
 10
186.0930158919325
 20
16.07306592398622
 30
0.0
 10
186.0171802221882
 20
16.08404104537963
 30
0.0
 10
186.0429447159693
 20
15.8985896958245
 30
0.0
 10
186.0055896763851
 20
15.80702313549589
 30
0.0
 10
185.985770496161
 20
15.75844135397704
 30
0.0
 11
185.9375369556888
 21
15.58989295113016
 31
0.0
 11
185.8616471328552
 21
15.3822170831856
 31
0.0
 11
185.7717402238433
 21
15.19663392356193
 31
0.0
 11
185.701149392311
 21
15.2357327256355
 31
0.0
 11
185.6245525192651
 21
15.2688916318772
 31
0.0
 11
185.7214026947455
 21
15.46958801203538
 31
0.0
 11
185.7994641467471
 21
15.69688163177024
 31
0.0
 11
185.858971692972
 21
15.93021436608691
 31
0.0
 11
185.9001601511226
 21
16.14902808999054
 31
0.0
 11
185.9224183822215
 21
16.14429889221395
 31
0.0
 11
185.975495702534
 21
16.13302157443899
 31
0.0
 11
186.0388460525845
 21
16.11956154999792
 31
0.0
 11
186.0919233728971
 21
16.10828423222296
 31
0.0
 11
186.1141816039959
 21
16.10355503444637
 31
0.0
 11
186.0964097157461
 21
16.08186250841009
 31
0.0
 11
186.0606122998071
 21
16.07418628445366
 31
0.0
 11
186.028195330148
 21
15.92532288171312
 31
0.0
 11
185.985770496161
 21
15.75844135397704
 31
0.0
  0
LWPOLYLINE
  5
B5
102
{ACAD_REACTORS
330
D0
102
}
330
48
100
AcDbEntity
  8
_U_30EC_U_30A4_U_30E4_U_30FC_1
  6
Continuous
 62
     2
100
AcDbPolyline
 90
        5
 70
     1
 43
0.0
 10
191.1602971697031
 20
15.39722336795625
 10
192.4578138032672
 20
15.39722336795625
 10
192.4578138032672
 20
15.22875434022056
 10
191.1602971697031
 20
15.22875434022056
 10
191.1602971697031
 20
15.39722336795625
  0
MTEXT
  5
B7
330
48
100
AcDbEntity
  8
1
 62
   250
100
AcDbMText
 10
25.0
 20
5.0
 30
0.0
 40
3.5
 41
0.0
 71
     4
 72
     1
  1
備考欄の文字列 原点位置=4
  7
CONVERTER_11
 73
     1
 44
0.54545454545455
  0
MTEXT
  5
B8
330
48
100
AcDbEntity
  8
1
 62
     2
100
AcDbMText
 10
89.5
 20
24.00000000000001
 30
0.0
 40
3.5
 41
0.0
 71
     5
 72
     1
  1
尺度
  7
CONVERTER_11
 73
     1
 44
0.54545454545455
  0
MTEXT
  5
B9
330
48
100
AcDbEntity
  8
1
 62
     2
100
AcDbMText
 10
135.5
 20
25.00000000000001
 30
0.0
 40
3.0
 41
0.0
 71
     5
 72
     1
  1
製図
  7
CONVERTER_11
 73
     1
 44
0.59090909090909
  0
MTEXT
  5
BA
330
48
100
AcDbEntity
  8
1
 62
     2
100
AcDbMText
 10
152.5
 20
25.00000000000001
 30
0.0
 40
3.0
 41
0.0
 71
     5
 72
     1
  1
設計
  7
CONVERTER_11
 73
     1
 44
0.59090909090909
  0
MTEXT
  5
BB
330
48
100
AcDbEntity
  8
1
 62
     2
100
AcDbMText
 10
118.5
 20
25.00000000000001
 30
0.0
 40
3.0
 41
0.0
 71
     5
 72
     1
  1
検図
  7
CONVERTER_11
 73
     1
 44
0.59090909090909
  0
MTEXT
  5
BC
330
48
100
AcDbEntity
  8
1
 62
     2
100
AcDbMText
 10
175.0
 20
23.50000000000001
 30
0.0
 40
3.5
 41
0.0
 71
     5
 72
     1
  1
第三角法
  7
CONVERTER_11
 73
     1
 44
0.54545454545455
  0
MTEXT
  5
BD
330
48
100
AcDbEntity
  8
1
 62
     2
100
AcDbMText
 10
101.5
 20
25.00000000000001
 30
0.0
 40
3.0
 41
0.0
 71
     5
 72
     1
  1
承認
  7
CONVERTER_11
 73
     1
 44
0.59090909090909
  0
MTEXT
  5
BE
330
48
100
AcDbEntity
  8
1
 62
     2
100
AcDbMText
 10
29.0
 20
14.25
 30
0.0
 40
3.5
 41
0.0
 71
     5
 72
     1
  1
品番
  7
CONVERTER_11
 73
     1
 44
0.72727272727273
  0
MTEXT
  5
BF
330
48
100
AcDbEntity
  8
1
 62
     2
100
AcDbMText
 10
29.0
 20
22.75
 30
0.0
 40
3.5
 41
0.0
 71
     5
 72
     1
  1
品名
  7
CONVERTER_11
 73
     1
 44
0.72727272727273
  0
MTEXT
  5
C0
330
48
100
AcDbEntity
  8
1
 62
     2
100
AcDbMText
 10
29.0
 20
34.0
 30
0.0
 40
3.5
 41
0.0
 71
     5
 72
     1
  1
備考
  7
CONVERTER_11
 73
     1
 44
0.45454545454545
  0
MTEXT
  5
C1
330
48
100
AcDbEntity
  8
1
 62
     2
100
AcDbMText
 10
32.5
 20
282.0000000000003
 30
0.0
 40
5.0
 41
0.0
 71
     5
 72
     1
  1
図番
  7
CONVERTER_11
 73
     1
 44
0.45454545454545
  0
HATCH
  5
C2
330
48
100
AcDbEntity
  8
1
  6
Continuous
 62
     2
100
AcDbHatch
 10
0.0
 20
0.0
 30
0.0
210
0.0
220
0.0
230
1.0
  2
CUSTOM0
 70
     0
 71
     1
 91
        1
 92
        1
 93
        1
 72
     4
 94
        3
 73
     0
 74
     0
 95
       99
 96
       95
 40
0.0
 40
0.0
 40
0.0
 40
0.0
 40
0.0796417172272494
 40
0.1621768542356667
 40
0.2486489160958101
 40
0.3404969668525304
 40
0.4381912511165336
 40
0.5434463660245634
 40
0.6518115192847388
 40
0.7530190937886663
 40
0.8492196919724959
 40
0.9419290312998035
 40
1.034249663570026
 40
1.129078600620208
 40
1.226697027573258
 40
1.327220425421726
 40
1.470572134938048
 40
1.595489863371262
 40
1.719934125348396
 40
1.850576620127363
 40
1.989059629987307
 40
2.134139054226976
 40
2.28069800720724
 40
2.424529739039462
 40
2.565929576985876
 40
2.708239260773531
 40
2.861717887443679
 40
3.045168540347395
 40
3.183798301138637
 40
3.314813961455483
 40
3.442083470447344
 40
3.569912708373062
 40
3.702177512509417
 40
3.84230755965961
 40
3.992872223246012
 40
4.156750662218315
 40
4.310981861107536
 40
4.445859909322664
 40
4.572393936131604
 40
4.701656719782051
 40
4.768279086008554
 40
4.835960697898494
 40
4.912788918729421
 40
5.006285208481647
 40
5.026909478751695
 40
5.047533749021203
 40
5.101808031471281
 40
5.162325165538602
 40
5.226919745995881
 40
5.294231806596813
 40
5.364544852554941
 40
5.43831905546801
 40
5.517877651324292
 40
5.60764771486166
 40
5.700449642544478
 40
5.788251142364154
 40
5.872714706039811
 40
5.955167292575377
 40
6.037192395190431
 40
6.120669181469138
 40
6.20684861668639
 40
6.296680855416803
 40
6.442558392872628
 40
6.568190371608324
 40
6.692904567360366
 40
6.824220446557124
 40
6.96312185032936
 40
7.107843738851142
 40
7.253431663907285
 40
7.395187468036756
 40
7.533140753237766
 40
7.670550457175235
 40
7.816236511769252
 40
7.987691657359216
 40
8.142277421969249
 40
8.293662615415016
 40
8.442962460879277
 40
8.591598316185278
 40
8.74367899236179
 40
8.903725323699199
 40
9.076307008890518
 40
9.2655786046806
 40
9.459203795360775
 40
9.617619810273561
 40
9.753609671361895
 40
9.87487330000402
 40
9.954520184977708
 40
10.02416413719238
 40
10.09769764405436
 40
10.18909955924964
 40
10.20974586420131
 40
10.2303921826338
 40
10.30057101881263
 40
10.37632012987541
 40
10.37632012987541
 40
10.37632012987541
 40
10.37632012987541
 10
170.1465954835851
 20
14.13795663215994
 10
170.1632217851219
 20
14.11720608845312
 10
170.1970784206578
 20
14.07495111711898
 10
170.2599822541036
 20
14.02029811392076
 10
170.3332500940394
 20
13.97299025121048
 10
170.4175969238636
 20
13.93527231437936
 10
170.513224061546
 20
13.9104061973195
 10
170.6171853775347
 20
13.90309559345938
 10
170.7224020220405
 20
13.91142322794053
 10
170.8206626371333
 20
13.94149179651528
 10
170.9058986427548
 20
13.98848822971875
 10
170.9779220206103
 20
14.04952991250857
 10
171.0350917709096
 20
14.12412969578585
 10
171.076786874744
 20
14.21002464660171
 10
171.1026952846293
 20
14.30485850432211
 10
171.1118037332654
 20
14.41854979038367
 10
171.0986864796487
 20
14.54332587770779
 10
171.0325330334414
 20
14.6601471917189
 10
170.936937091957
 20
14.74512539577372
 10
170.8249681022369
 20
14.81416684459163
 10
170.699365958327
 20
14.8720414204589
 10
170.5656691620857
 20
14.92373723284338
 10
170.431312281883
 20
14.97899092397179
 10
170.3051983986878
 20
15.04939770641653
 10
170.1926579987535
 20
15.13785540731246
 10
170.0969963064459
 20
15.24981067868477
 10
170.0334157151825
 20
15.3994991010138
 10
170.0200706505016
 20
15.55932794385143
 10
170.0320510987448
 20
15.71048405306845
 10
170.0712298928841
 20
15.83809244591539
 10
170.135498775091
 20
15.95080874030847
 10
170.2238204999742
 20
16.04648609268681
 10
170.3338091207628
 20
16.12354214985756
 10
170.4632284401266
 20
16.18151396936278
 10
170.6111838967794
 20
16.21739177588822
 10
170.7682069455487
 20
16.22746719050563
 10
170.917494046643
 20
16.21863637762588
 10
171.059625361417
 20
16.19074899340356
 10
171.1595922609626
 20
16.13413314701135
 10
171.3125074736186
 20
16.08674602105507
 10
171.2455131717169
 20
16.00197553001185
 10
171.229647912027
 20
15.93438901873482
 10
171.1978750531297
 20
15.86926092793189
 10
171.2150202209571
 20
15.76723453256952
 10
171.1666427208232
 20
15.774932116819
 10
171.1315789440766
 20
15.76806771724807
 10
171.1296697985719
 20
15.83263831158198
 10
171.0985692931988
 20
15.87825639621389
 10
171.0664551628457
 20
15.93561036628461
 10
171.0208038475168
 20
15.98540462692555
 10
170.9658508218386
 20
16.02994813718998
 10
170.9010841173008
 20
16.06763988836547
 10
170.8232377310597
 20
16.09283375791355
 10
170.7355160553352
 20
16.0993123099811
 10
170.6452903277807
 20
16.09235709285608
 10
170.5594594694065
 20
16.06909190460919
 10
170.4828343638596
 20
16.03131644107544
 10
170.4165265636201
 20
15.98051641089576
 10
170.3622560536964
 20
15.91731143407207
 10
170.3224925345459
 20
15.84276455710365
 10
170.2976775510588
 20
15.75917313997763
 10
170.2892124262871
 20
15.65192948382285
 10
170.3019697987104
 20
15.52965457267557
 10
170.3681548409274
 20
15.41149724291214
 10
170.4640977399832
 20
15.32606325709526
 10
170.5757914963183
 20
15.25583362306721
 10
170.7010863668702
 20
15.19659162305303
 10
170.8349823941448
 20
15.14616708086133
 10
170.968993033315
 20
15.0932251698438
 10
171.0950885316915
 20
15.02750170625179
 10
171.2076216638417
 20
14.9448035253732
 10
171.3031370284233
 20
14.83996006310073
 10
171.3672706486962
 20
14.69937117251569
 10
171.3811103725278
 20
14.54065409451592
 10
171.367395471223
 20
14.38153155217875
 10
171.3244739153984
 20
14.2348382881921
 10
171.2545906329065
 20
14.10119796587144
 10
171.157459221383
 20
13.98532387699286
 10
171.0347806023657
 20
13.89089981770089
 10
170.8874408413168
 20
13.82179270651982
 10
170.7177132497125
 20
13.77953210858852
 10
170.5317404979596
 20
13.76781736230409
 10
170.3528955926183
 20
13.77809486683437
 10
170.1881733753743
 20
13.81966573769153
 10
170.0834410841056
 20
13.8879764288394
 10
169.9350960790367
 20
13.93675219032107
 10
169.9980378194729
 20
14.02976591290842
 10
170.0072274430059
 20
14.10296536248281
 10
170.0303711301232
 20
14.16936294501346
 10
170.0034588335317
 20
14.26974809527583
 10
170.0521338956339
 20
14.26234033517378
 10
170.0916530580697
 20
14.26894063620895
 10
170.0996204944703
 20
14.19078703218934
 10
170.1305436967923
 20
14.15600927375857
 10
170.1465954835851
 20
14.13795663215994
 97
        1
330
A4
 75
     1
 76
     2
 52
45.0
 41
0.1
 77
     0
 78
     1
 53
45.0
 43
0.0
 44
0.0
 45
-0.282842712474619
 46
0.0
 79
     0
 98
        1
 10
0.0
 20
0.0
  0
HATCH
  5
C3
330
48
100
AcDbEntity
  8
1
  6
Continuous
 62
     2
100
AcDbHatch
 10
0.0
 20
0.0
 30
0.0
210
0.0
220
0.0
230
1.0
  2
CUSTOM1
 70
     0
 71
     1
 91
        2
 92
        1
 93
        1
 72
     4
 94
        3
 73
     0
 74
     0
 95
       57
 96
       53
 40
0.0
 40
0.0
 40
0.0
 40
0.0
 40
0.0471632082808668
 40
0.0914861054632151
 40
0.1357762519702102
 40
0.1826527001609829
 40
0.2295203288572022
 40
0.2737751972219623
 40
0.3181310461542781
 40
0.3652607198398504
 40
0.4571007286314405
 40
0.567185102916511
 40
0.6894623283867994
 40
0.818175827254598
 40
0.9510087229273987
 40
1.085852229674048
 40
1.218126164475317
 40
1.343545131142385
 40
1.454537202956801
 40
1.567187607530725
 40
1.680710966642373
 40
1.794226869736708
 40
1.900009184247536
 40
2.004085860447788
 40
2.108162674451704
 40
2.214000150155305
 40
2.49603857735212
 40
2.762350745479249
 40
2.997275353279399
 40
3.185110082137732
 40
3.246407890063902
 40
3.312607550212689
 40
3.378877742711506
 40
3.440140399651445
 40
4.100501696006502
 40
4.754913085563556
 40
5.411331693423923
 40
6.077890432568702
 40
6.110575292670981
 40
6.143260152775761
 40
6.367989363395143
 40
6.610525374951543
 40
6.863389136467301
 40
7.119380025547589
 40
7.376036605091094
 40
7.631164770966282
 40
7.876722425456443
 40
8.104953735856006
 40
8.312916685924321
 40
8.497730294941293
 40
8.651018984313868
 40
8.764738853624577
 40
8.764738853624577
 40
8.764738853624577
 40
8.764738853624577
 10
174.7922649500513
 20
13.81626739612927
 10
174.7766616726931
 20
13.81826231079078
 10
174.7463947960302
 20
13.822132013603
 10
174.7010994202252
 20
13.82341984967266
 10
174.6559553129349
 20
13.8230868355405
 10
174.60990171234
 20
13.82314658674223
 10
174.5640496172097
 20
13.8232581365
 10
174.5183711648165
 20
13.82277833456589
 10
174.4750811541609
 20
13.82461109618722
 10
174.4039947951513
 20
13.80049556814656
 10
174.4057477261442
 20
13.92184693977253
 10
174.3586196370569
 20
14.0072623975123
 10
174.3191478251763
 20
14.12486929345139
 10
174.2706635532645
 20
14.24232752540436
 10
174.2201017402522
 20
14.3640593576151
 10
174.1718634610477
 20
14.49075967862465
 10
174.1135232947594
 20
14.59933687784952
 10
174.0980892667262
 20
14.7562065713441
 10
173.9566586330635
 20
14.72373446548321
 10
173.8508397414905
 20
14.7351288868218
 10
173.7358569725222
 20
14.73392591514615
 10
173.6253142252141
 20
14.73506945347409
 10
173.5176583522783
 20
14.73418350037526
 10
173.4121322529244
 20
14.73416602390519
 10
173.3109192682013
 20
14.72714032472414
 10
173.1266804827753
 20
14.7513585985987
 10
173.1157393685412
 20
14.44741691121885
 10
173.0087691634751
 20
14.22353177253395
 10
172.9098148604347
 20
14.03895314292499
 10
172.9225090524008
 20
13.79530204804207
 10
172.8050091716397
 20
13.82508046753198
 10
172.7422055868311
 20
13.82258089509602
 10
172.67858720934
 20
13.82344075102805
 10
172.3946014194074
 20
13.78098039941944
 10
173.0251638499382
 20
14.50081952444783
 10
173.1087645289072
 20
15.01276539435728
 10
173.4929252789339
 20
15.53353743550045
 10
173.4777208288563
 20
16.23519626253214
 10
173.7239265722697
 20
16.22345633081256
 10
173.825634615756
 20
16.23225004452772
 10
173.8249752035819
 20
15.98059650730347
 10
173.9428317155828
 20
15.79818020733957
 10
174.0315515260485
 20
15.55563740662866
 10
174.1322292485258
 20
15.32340030530127
 10
174.2311142712243
 20
15.08674644566914
 10
174.3299676990669
 20
14.85461739170091
 10
174.4256166390926
 20
14.63122222788789
 10
174.5159904573272
 20
14.42272549049317
 10
174.598994456819
 20
14.23308448529319
 10
174.6726088582798
 20
14.06663106068096
 10
174.7342815895547
 20
13.929176996261
 10
174.7749458885604
 20
13.84999239430034
 10
174.7922649500513
 20
13.81626739612927
 97
        1
330
A5
 92
       16
 93
        1
 72
     4
 94
        3
 73
     0
 74
     0
 95
       25
 96
       21
 40
0.0
 40
0.0
 40
0.0
 40
0.0
 40
0.0911479969064537
 40
0.1858117896203814
 40
0.2804128399734207
 40
0.3715889190713658
 40
0.467908049421814
 40
0.5642683809229232
 40
0.6605683222644139
 40
0.7569653015809403
 40
0.8561348172521887
 40
1.092615965104196
 40
1.374867658141778
 40
1.61134881201147
 40
1.71051832842513
 40
1.809403163726437
 40
2.045205463293962
 40
2.326646917622011
 40
2.562449217190484
 40
2.661334043833792
 40
2.661334043833792
 40
2.661334043833792
 40
2.661334043833792
 10
173.26837005672
 20
14.88614538197292
 10
173.2987525917923
 20
14.88598079714554
 10
173.3606895889112
 20
14.88564528689922
 10
173.454135696033
 20
14.88269055452
 10
173.5475095236357
 20
14.8797775287715
 10
173.6417760753476
 20
14.87894201643417
 10
173.7354964790967
 20
14.87996644658046
 10
173.8352040303205
 20
14.87916977470973
 10
173.9188949546313
 20
14.88921410235219
 10
174.0637996315045
 20
14.86234617674165
 10
173.9396132444801
 20
15.03665530280048
 10
173.8965867286282
 20
15.19651711006092
 10
173.780892214221
 20
15.45518458550213
 10
173.7017565431258
 20
15.5923105286186
 10
173.6431576621816
 20
15.80937033134077
 10
173.586480393944
 20
15.59266134213426
 10
173.5052809900477
 20
15.45327012438239
 10
173.4063701281489
 20
15.20406969370192
 10
173.3253625094259
 20
15.01925830226075
 10
173.2813683325839
 20
14.91650446856117
 10
173.26837005672
 20
14.88614538197292
 97
        1
330
A6
 75
     1
 76
     2
 52
45.0
 41
0.1
 77
     0
 78
     1
 53
45.0
 43
0.0
 44
0.0
 45
-0.282842712474619
 46
0.0
 79
     0
 98
        1
 10
0.0
 20
0.0
  0
HATCH
  5
C4
330
48
100
AcDbEntity
  8
1
  6
Continuous
 62
     2
100
AcDbHatch
 10
0.0
 20
0.0
 30
0.0
210
0.0
220
0.0
230
1.0
  2
CUSTOM2
 70
     0
 71
     1
 91
        1
 92
        1
 93
        1
 72
     4
 94
        3
 73
     0
 74
     0
 95
       95
 96
       91
 40
0.0
 40
0.0
 40
0.0
 40
0.0
 40
0.6550406656911159
 40
1.308087289031888
 40
1.420803739835764
 40
1.566130759770761
 40
1.75706734188843
 40
2.006513545026422
 40
2.087328263121523
 40
2.185328872295583
 40
2.294612454748326
 40
2.408936380534777
 40
2.526802767798532
 40
2.646360524615574
 40
2.76253572397156
 40
2.870057342870133
 40
2.966883448431621
 40
3.050803243518249
 40
3.115818222436569
 40
3.156030057150215
 40
3.213914225080202
 40
3.276689026450602
 40
3.342960320981294
 40
3.404230667150543
 40
3.453822809493345
 40
3.532499827188407
 40
3.634775188507138
 40
3.754909333008142
 40
3.889736761660629
 40
4.035769602175198
 40
4.187256681197584
 40
4.338733685675934
 40
4.488478734676096
 40
4.634708317831552
 40
4.771493189921252
 40
4.892686571561188
 40
5.199775528944429
 40
5.460353566929623
 40
5.66760314234549
 40
5.814722905404464
 40
5.828990806219762
 40
5.855488336304459
 40
5.869756237118791
 40
6.18979650776281
 40
6.531890469873035
 40
6.88305363701701
 40
7.230512024911443
 40
7.566966656764586
 40
7.885203559707376
 40
8.172887439719178
 40
8.418011594062731
 40
8.443926721190653
 40
8.51076047061314
 40
8.60214539379565
 40
8.701714041647092
 40
8.793098965075322
 40
8.859932715057894
 40
8.885847842603544
 40
9.242301256612755
 40
9.589275455016713
 40
9.921808543164115
 40
10.23479624298462
 40
10.29968150889167
 40
10.3532349388775
 40
10.40154625355137
 40
10.4648292247781
 40
10.55973900668391
 40
10.69239545985604
 40
10.84920353475657
 40
11.01626328594767
 40
11.18672024367429
 40
11.35372582577197
 40
11.50257442292413
 40
11.61866495023277
 40
11.7132986915286
 40
11.82511050573893
 40
11.94464880845701
 40
12.06929242642494
 40
12.19707290435162
 40
12.32562632860514
 40
12.45034565331265
 40
12.56646595170314
 40
12.6709900741462
 40
12.76077625936767
 40
12.82703233506679
 40
12.87429132785978
 40
12.89831990323317
 40
12.92234847860005
 40
13.53984767410314
 40
14.18294284359354
 40
14.18294284359354
 40
14.18294284359354
 40
14.18294284359354
 10
177.3067935648021
 20
14.70898038201723
 10
177.1752019758551
 20
14.82265058603231
 10
176.9124193802728
 20
15.04964496316158
 10
176.3997393441023
 20
15.89214462956286
 10
176.4106654595362
 20
15.5342337757702
 10
176.4041226527991
 20
15.39267392272133
 10
176.4028026631772
 20
15.1942130529928
 10
176.4018117602538
 20
15.02150296045982
 10
176.4024101751974
 20
14.87865373257579
 10
176.4038994301882
 20
14.78265005413358
 10
176.4055683588473
 20
14.67545503263142
 10
176.4071934954617
 20
14.56164211517582
 10
176.4092429501687
 20
14.44441572604588
 10
176.4123165501927
 20
14.32656411232969
 10
176.4156339697044
 20
14.2122808732062
 10
176.419360534028
 20
14.10521401867275
 10
176.4217338161424
 20
14.01007408766921
 10
176.4278718888357
 20
13.92558557205695
 10
176.4239784495946
 20
13.86923087298141
 10
176.4455230443079
 20
13.79825022472353
 10
176.3680940058618
 20
13.82902677604483
 10
176.3116353240191
 20
13.82011242517612
 10
176.2540495896808
 20
13.82896218398275
 10
176.1690163478473
 20
13.79738225225944
 10
176.2009714146383
 20
13.88095155992191
 10
176.1990705282538
 20
13.94882608968309
 10
176.2107960047301
 20
14.05233256764419
 10
176.2164241052999
 20
14.17002125616695
 10
176.2237902178941
 20
14.30388609164423
 10
176.232075970161
 20
14.44764152872632
 10
176.2398851897428
 20
14.59714022843444
 10
176.2457571222658
 20
14.74792549402078
 10
176.250366781797
 20
14.89699943878437
 10
176.2542632117541
 20
15.04122913163022
 10
176.2570715126565
 20
15.17583905213017
 10
176.2576698755023
 20
15.36469614347354
 10
176.2616023867151
 20
15.58975494313154
 10
176.2442175378499
 20
15.86367091125708
 10
176.2850417342584
 20
16.02787112098598
 10
176.1995153256002
 20
16.22749661465094
 10
176.2660558907688
 20
16.22385458403978
 10
176.283872427323
 20
16.22413447160853
 10
176.4056801797504
 20
16.22632927398613
 10
176.5080770335461
 20
15.94675118721512
 10
176.7580021509357
 20
15.74563008536005
 10
176.9870035331111
 20
15.47792614987918
 10
177.2245151213108
 20
15.22646413862372
 10
177.4486090740773
 20
14.98969974061363
 10
177.675071628301
 20
14.73218692583077
 10
177.8325687886513
 20
14.61649335056921
 10
178.0472129612675
 20
14.27997152538794
 10
178.0422645974618
 20
14.40464754091603
 10
178.0433931602546
 20
14.46327691935737
 10
178.0428877841516
 20
14.55043662371977
 10
178.0430475158113
 20
14.64416143182872
 10
178.0430054891318
 20
14.73018971297035
 10
178.0430202040373
 20
14.79153891945496
 10
178.0429706255983
 20
14.94135231520991
 10
178.0458811522811
 20
15.17989612510104
 10
178.0259521041162
 20
15.54486509868701
 10
178.0750433936247
 20
15.8079963199341
 10
177.9177951509182
 20
16.21928904947753
 10
178.0762112872421
 20
16.16398282551748
 10
178.1311680478629
 20
16.16199686500175
 10
178.1827887766739
 20
16.16264778248251
 10
178.2713198965366
 20
16.20369527738245
 10
178.2204898303168
 20
16.05696326622986
 10
178.2313389930283
 20
15.95019971954433
 10
178.2166036994847
 20
15.79085705414111
 10
178.2099976446204
 20
15.62853061652873
 10
178.2014961399916
 20
15.45992521892394
 10
178.1943227202198
 20
15.2981481470354
 10
178.188906321539
 20
15.15422331457932
 10
178.1871713967648
 20
15.03437493466925
 10
178.1875440672318
 20
14.92686101590514
 10
178.1873656126263
 20
14.81820024645586
 10
178.187701086314
 20
14.6995357016553
 10
178.1890040622186
 20
14.57555163512741
 10
178.1908887351574
 20
14.44858294171104
 10
178.192500445485
 20
14.32153861551031
 10
178.1941403137429
 20
14.19854884492177
 10
178.1962570745753
 20
14.08300931383759
 10
178.1963848422364
 20
13.98090903955837
 10
178.2006514396555
 20
13.89009848838157
 10
178.190844008529
 20
13.83213621208787
 10
178.211847477169
 20
13.7651713013203
 10
178.1725639739898
 20
13.77291153966689
 10
177.9595307117745
 20
13.75755254145192
 10
177.7636297943187
 20
14.31403058094462
 10
177.4611197631543
 20
14.57556035348507
 10
177.3067935648021
 20
14.70898038201723
 97
        1
330
A7
 75
     1
 76
     2
 52
45.0
 41
0.1
 77
     0
 78
     1
 53
45.0
 43
0.0
 44
0.0
 45
-0.282842712474619
 46
0.0
 79
     0
 98
        1
 10
0.0
 20
0.0
  0
HATCH
  5
C5
330
48
100
AcDbEntity
  8
1
  6
Continuous
 62
     2
100
AcDbHatch
 10
0.0
 20
0.0
 30
0.0
210
0.0
220
0.0
230
1.0
  2
CUSTOM3
 70
     0
 71
     1
 91
        1
 92
        1
 93
        1
 72
     4
 94
        3
 73
     0
 74
     0
 95
      110
 96
      106
 40
0.0
 40
0.0
 40
0.0
 40
0.0
 40
0.2203406257277862
 40
0.440780878283816
 40
0.5952494494614571
 40
0.7488431659393147
 40
0.902358183130856
 40
1.056801968670412
 40
1.210736449099884
 40
1.36304138653979
 40
1.515315729683076
 40
1.669377239147999
 40
1.721611652756481
 40
1.77319950294286
 40
1.824933793209904
 40
1.877110426487871
 40
1.982682281206549
 40
2.078781667087329
 40
2.172809640822107
 40
2.271937807378733
 40
2.378349933379154
 40
2.494131557736399
 40
2.626681683943505
 40
2.783145050795875
 40
2.89070123294074
 40
2.99313031245464
 40
3.099869730691614
 40
3.220237816691107
 40
3.352695482737401
 40
3.481732806389646
 40
3.593499473690177
 40
3.674323013331684
 40
3.817951711952548
 40
3.946167120793545
 40
4.061405053453202
 40
4.166480796002872
 40
4.262478775058994
 40
4.350736673550779
 40
4.433071991253807
 40
4.511216293814352
 40
4.56426245411766
 40
4.618474415571275
 40
4.67012848875388
 40
4.722296879126088
 40
4.819540945313957
 40
4.931194984127814
 40
5.049996040257427
 40
5.168643755414887
 40
5.283970811762184
 40
5.392260784910038
 40
5.486512254876056
 40
5.559178233949426
 40
5.591425852853093
 40
5.626215969637481
 40
5.667155838674026
 40
5.717449290213825
 40
5.738402360944439
 40
5.784499116553409
 40
5.830595872164382
 40
5.85154894289724
 40
5.873019280661355
 40
5.924217778407897
 40
5.985325662817276
 40
6.036524160567293
 40
6.057994498333821
 40
6.236847789607078
 40
6.381409928945255
 40
6.49319042417828
 40
6.574067534230088
 40
6.691018086205154
 40
6.8148815542201
 40
6.944307823240024
 40
7.07126671606559
 40
7.193488604461436
 40
7.309042773127663
 40
7.41400720317026
 40
7.505140441886129
 40
7.531150360599292
 40
7.559221645321886
 40
7.587202218920541
 40
7.612569159498756
 40
7.662550809480633
 40
7.70287887576378
 40
7.857328205230623
 40
8.010799568088325
 40
8.165256399657219
 40
8.322232698713615
 40
8.479564855016216
 40
8.63521623029042
 40
8.790882550925394
 40
8.948305154946903
 40
9.168271839032586
 40
9.387358980986871
 40
9.608047961033106
 40
9.832914234792296
 40
9.858338694962633
 40
9.92536681722964
 40
10.02013071422722
 40
10.12876249858961
 40
10.23739428295211
 40
10.33215817995153
 40
10.39918630222356
 40
10.42461076239745
 40
10.64992019336906
 40
10.8718852453115
 40
10.8718852453115
 40
10.8718852453115
 40
10.8718852453115
 10
179.9057788376618
 20
15.73923260398189
 10
179.9092864933541
 20
15.80616462073803
 10
179.9163033987662
 20
15.94005891915858
 10
179.8198027599074
 20
16.22548554971468
 10
180.0510134726109
 20
16.16284386190283
 10
180.1919290057157
 20
16.17001554055989
 10
180.3490417757588
 20
16.16235883078244
 10
180.5025913427288
 20
16.1625275228304
 10
180.6545104935081
 20
16.16182040535433
 10
180.8142214813232
 20
16.17210158351637
 10
180.9408972601118
 20
16.15496511080751
 10
181.137082112208
 20
16.22727260107146
 10
181.1034395279079
 20
16.12640699080116
 10
181.1052011317185
 20
16.07619253947671
 10
181.1027342073458
 20
16.02712335586466
 10
181.1347076966011
 20
15.94063490847002
 10
181.0010399903257
 20
15.98997438608336
 10
180.9172208688057
 20
15.98430634314168
 10
180.8173861139325
 20
15.99465516706297
 10
180.7186576720146
 20
16.00086450411087
 10
180.612153277111
 20
16.00697763816777
 10
180.491051169806
 20
16.01588883484585
 10
180.3703381502453
 20
16.00521605912385
 10
180.1812553843439
 20
16.06468503080365
 10
180.212902850531
 20
15.9055832007754
 10
180.1995563316835
 20
15.80839128339903
 10
180.1974958426449
 20
15.69634065110103
 10
180.195818804467
 20
15.5769968562935
 10
180.1973336794234
 20
15.4503259215511
 10
180.195658247867
 20
15.32301588016117
 10
180.2058844271658
 20
15.22451566404464
 10
180.1779006596583
 20
15.08388702625634
 10
180.3508029999305
 20
15.13989551134095
 10
180.4645020202772
 20
15.12719951478498
 10
180.5840151672239
 20
15.13448377051255
 10
180.6888491425071
 20
15.13878017056755
 10
180.7843084898611
 20
15.14330568258976
 10
180.8763823507032
 20
15.15149201146199
 10
180.9476551782439
 20
15.14643850638109
 10
181.0544931705684
 20
15.1853642503167
 10
181.0226603598036
 20
15.10517122005879
 10
181.0266164503929
 20
15.05562936846033
 10
181.0234502392013
 20
15.00557478039819
 10
181.0550791490584
 20
14.92128847612021
 10
180.9210133677692
 20
14.97425365495157
 10
180.82923227932
 20
14.96540080890441
 10
180.7079729189603
 20
14.97570049965155
 10
180.5914113119772
 20
14.97748911767502
 10
180.478337574588
 20
14.97787017109694
 10
180.3679246308471
 20
14.9841544947218
 10
180.2898124067841
 20
14.97189133255365
 10
180.1913625833644
 20
15.00453887616124
 10
180.2012355173562
 20
14.94769748054206
 10
180.1973923244402
 20
14.91392130557984
 10
180.1966789884268
 20
14.87119604709411
 10
180.1963369642975
 20
14.83401607262153
 10
180.1963834255345
 20
14.79487237370771
 10
180.1963649429927
 20
14.75716849497686
 10
180.1963703431806
 20
14.71944955232402
 10
180.1963697214201
 20
14.6899432474515
 10
180.1963698151545
 20
14.65873577699301
 10
180.1963704287921
 20
14.61414424908085
 10
180.1963671499336
 20
14.5596395650885
 10
180.1963759623481
 20
14.51505540201448
 10
180.1963359653416
 20
14.43117808585739
 10
180.1976024270256
 20
14.31737520677678
 10
180.1950274117841
 20
14.16830395933708
 10
180.206500938172
 20
14.06597203813905
 10
180.1823506222264
 20
13.93338903885834
 10
180.3332993946477
 20
13.97895732272021
 10
180.4428436671556
 20
13.96427012162349
 10
180.5733970473921
 20
13.96920435125064
 10
180.6990312209514
 20
13.97257705323359
 10
180.81887306256
 20
13.97711497498772
 10
180.9391362611426
 20
13.99048536182005
 10
181.0222761663515
 20
13.98068712782596
 10
181.1456080421076
 20
14.04126214623323
 10
181.1244269203957
 20
13.98532460134021
 10
181.1235950270116
 20
13.95939249372346
 10
181.1218963707558
 20
13.93197256190939
 10
181.1217974888829
 20
13.89738195206385
 10
181.120365930133
 20
13.86050408220767
 10
181.1532804192191
 20
13.76846841021808
 10
180.9551306988107
 20
13.84132015974831
 10
180.8300548294891
 20
13.81825726508605
 10
180.6673071295156
 20
13.82454021985784
 10
180.5129366450001
 20
13.82260943909925
 10
180.3566670436944
 20
13.82393762599267
 10
180.1970544465282
 20
13.8205987248786
 10
180.0540326342237
 20
13.83265795728242
 10
179.8197144881629
 20
13.76952001976919
 10
179.9173810751197
 20
14.05620527466319
 10
179.9006868780058
 20
14.24988308142661
 10
179.9146296709686
 20
14.47848242880295
 10
179.9142987846632
 20
14.63384593955047
 10
179.9143078119264
 20
14.73966336444125
 10
179.9143055876317
 20
14.80205784124214
 10
179.9143065551889
 20
14.89220425248325
 10
179.9143065473262
 20
14.99621167157437
 10
179.9143053861104
 20
15.10022131375295
 10
179.9143090971503
 20
15.19036243688767
 10
179.9143011051052
 20
15.25276803097214
 10
179.9143334275019
 20
15.35868835961119
 10
179.913144078832
 20
15.51626716544739
 10
179.9082216489257
 20
15.66528219822065
 10
179.9057788376618
 20
15.73923260398189
 97
        1
330
A8
 75
     1
 76
     2
 52
45.0
 41
0.1
 77
     0
 78
     1
 53
45.0
 43
0.0
 44
0.0
 45
-0.282842712474619
 46
0.0
 79
     0
 98
        1
 10
0.0
 20
0.0
  0
HATCH
  5
C6
330
48
100
AcDbEntity
  8
1
  6
Continuous
 62
     2
100
AcDbHatch
 10
0.0
 20
0.0
 30
0.0
210
0.0
220
0.0
230
1.0
  2
CUSTOM4
 70
     0
 71
     1
 91
        1
 92
        1
 93
        1
 72
     4
 94
        3
 73
     0
 74
     0
 95
       47
 96
       43
 40
0.0
 40
0.0
 40
0.0
 40
0.0
 40
0.2207912809957284
 40
0.4459404186303168
 40
0.4902387190460231
 40
0.5327473892724044
 40
0.574226045122651
 40
0.6155432630561801
 40
0.6568164066317288
 40
0.6982511618781633
 40
0.7407663929318151
 40
0.7851366743176222
 40
1.010288833836419
 40
1.23108050700228
 40
1.451765243652498
 40
1.676638205891785
 40
1.720461045359755
 40
1.83001814404362
 40
1.972442372353251
 40
2.11486660067762
 40
2.224423699395245
 40
2.268246538883486
 40
2.493628801207322
 40
2.715602830286727
 40
2.934211330706474
 40
3.149502369855464
 40
3.231387784851024
 40
3.318231873854145
 40
3.405143198198076
 40
3.486970301720654
 40
3.702258172494099
 40
3.92086628353432
 40
4.142839325932117
 40
4.368221903865584
 40
4.412044743360064
 40
4.52160184209608
 40
4.66402607045256
 40
4.806450298809268
 40
4.91600739754696
 40
4.959830237043284
 40
5.184703515847317
 40
5.405387250767684
 40
5.405387250767684
 40
5.405387250767684
 40
5.405387250767684
 10
182.6507427258645
 20
15.73406440953871
 10
182.6568139420002
 20
15.7975848250121
 10
182.6690762107243
 20
15.92587938689628
 10
182.5604706879412
 20
16.20166220174078
 10
182.6761985896604
 20
16.17188133432052
 10
182.7171842509015
 20
16.1676555626282
 10
182.7591205797519
 20
16.16310446389606
 10
182.800419662571
 20
16.16201982929485
 10
182.8417032115556
 20
16.16310338195227
 10
182.8836148270647
 20
16.16766112711342
 10
182.9245983549019
 20
16.17187430209727
 10
183.0404922843489
 20
16.20177611317535
 10
182.9295652727457
 20
15.92339806609888
 10
182.9574856365267
 20
15.74283140824953
 10
182.9404267346969
 20
15.50961042346471
 10
182.9414637282102
 20
15.34906622543145
 10
182.9414099399405
 20
15.22284817558722
 10
182.9414277372481
 20
15.12428963336241
 10
182.941418858108
 20
14.99280702442963
 10
182.9414263928034
 20
14.8613284496865
 10
182.9414129405128
 20
14.76276222694091
 10
182.9414531717492
 20
14.63639735624152
 10
182.9406746403816
 20
14.47482068822869
 10
182.9565958319267
 20
14.24361821892913
 10
182.9333468885408
 20
14.05874351972002
 10
183.0360183444365
 20
13.78935602770057
 10
182.8820238362836
 20
13.82660112685818
 10
182.8004129802832
 20
13.82137994680532
 10
182.7188192292583
 20
13.82660620378351
 10
182.5648513666841
 20
13.78937069885382
 10
182.6674183421918
 20
14.05875129862878
 10
182.6442045316087
 20
14.24361585325414
 10
182.6600444655139
 20
14.47482218565638
 10
182.6593296313429
 20
14.63639712308503
 10
182.6593664569907
 20
14.7627623121052
 10
182.6593549000271
 20
14.86132756635981
 10
182.6593575019214
 20
14.9928112741722
 10
182.659364853178
 20
15.124275480312
 10
182.6593442541351
 20
15.22287786275326
 10
182.659408219203
 20
15.34896149354427
 10
182.658173394759
 20
15.51210091383771
 10
182.6532040396745
 20
15.66054183777549
 10
182.6507427258645
 20
15.73406440953871
 97
        1
330
A9
 75
     1
 76
     2
 52
45.0
 41
0.1
 77
     0
 78
     1
 53
45.0
 43
0.0
 44
0.0
 45
-0.282842712474619
 46
0.0
 79
     0
 98
        1
 10
0.0
 20
0.0
  0
HATCH
  5
C7
330
48
100
AcDbEntity
  8
1
  6
Continuous
 62
     2
100
AcDbHatch
 10
0.0
 20
0.0
 30
0.0
210
0.0
220
0.0
230
1.0
  2
CUSTOM5
 70
     0
 71
     1
 91
        1
 92
        1
 93
        1
 72
     4
 94
        3
 73
     0
 74
     0
 95
      118
 96
      114
 40
0.0
 40
0.0
 40
0.0
 40
0.0
 40
0.1054708162973134
 40
0.2466098270051663
 40
0.3965912874590822
 40
0.5285525069753549
 40
0.6156245055641602
 40
0.6431434105796914
 40
0.7036850037985787
 40
0.7642265984504353
 40
0.7917455052354825
 40
0.9287404319989458
 40
1.106572819087955
 40
1.287544879680928
 40
1.317578308030445
 40
1.399928030857083
 40
1.522968204799858
 40
1.675072986590479
 40
1.844616533180556
 40
2.01997300163862
 40
2.189516548879933
 40
2.341621331585271
 40
2.464661506320407
 40
2.547011229646971
 40
2.577044658167935
 40
2.603797890893006
 40
2.662655002908721
 40
2.721512114949562
 40
2.748265347702713
 40
2.774215307344789
 40
2.845959313407119
 40
2.954338556588317
 40
3.090194227585494
 40
3.244367517100457
 40
3.407699615844216
 40
3.571031714539362
 40
3.725205003920038
 40
3.861060674729536
 40
3.96943991771623
 40
4.041183923628903
 40
4.067133883212895
 40
4.311886746012085
 40
4.54789725833545
 40
4.764747083043915
 40
4.952749679951717
 40
5.045772974195842
 40
5.137862019644879
 40
5.330543169792913
 40
5.553448265243904
 40
5.795083855888059
 40
6.043293412177123
 40
6.285761695541081
 40
6.313902908752593
 40
6.384255941793183
 40
6.475714884766771
 40
6.567173827758862
 40
6.637526860839668
 40
6.665668074074032
 40
6.692018920328004
 40
6.749990782071074
 40
6.807962643790442
 40
6.834313490017917
 40
6.856393084245195
 40
6.913335195649819
 40
6.991194817302511
 40
7.076026942283801
 40
7.15388656372532
 40
7.210828674844874
 40
7.232908268931237
 40
7.258199334923758
 40
7.324875781592408
 40
7.419142481925065
 40
7.527204308842005
 40
7.635266135230583
 40
7.729532834168569
 40
7.796209279292891
 40
7.821500344594837
 40
7.844652988850908
 40
7.89986314054163
 40
7.965759128053711
 40
8.020969279770966
 40
8.044121924046404
 40
8.069356610160423
 40
8.109134395441112
 40
8.132238100190824
 40
8.19314786778619
 40
8.279261678876361
 40
8.377977512673576
 40
8.476693347146359
 40
8.562807160411413
 40
8.6237169308262
 40
8.646820636853151
 40
8.671988793773965
 40
8.734909185827847
 40
8.816705695188562
 40
8.898502204815133
 40
8.961422597377593
 40
8.986590754550706
 40
9.01294160073286
 40
9.070913462379945
 40
9.128885324081441
 40
9.155236170324761
 40
9.180404327928803
 40
9.243324721947877
 40
9.325121234211641
 40
9.406917746637296
 40
9.469838141977752
 40
9.495006288270526
 40
9.517811184378667
 40
9.572192090486665
 40
9.637098333280893
 40
9.691479239515088
 40
9.714284125643127
 40
9.714284125643127
 40
9.714284125643127
 40
9.714284125643127
 10
185.2874469028654
 20
15.2688916318772
 10
185.3090990569038
 20
15.24111869242811
 10
185.3597257109475
 20
15.17618054561234
 10
185.4349383202592
 20
15.06891060312899
 10
185.5248482274347
 20
14.95377438266624
 10
185.5709169676673
 20
14.85357045748321
 10
185.6655825294655
 20
14.78434006814942
 10
185.6204439320412
 20
14.73771639678273
 10
185.5947047785789
 20
14.69660308866039
 10
185.5645196708011
 20
14.66065971727939
 10
185.5193684730561
 20
14.58579782596095
 10
185.4710504458562
 20
14.80782524253602
 10
185.3968539713073
 20
14.84510677337711
 10
185.2836047324608
 20
15.11610202130599
 10
185.2885133578171
 20
15.00095328446229
 10
185.2868486556307
 20
14.92836675781627
 10
185.2876830076715
 20
14.80625588483986
 10
185.2873609540265
 20
14.6591380081046
 10
185.2875076912457
 20
14.49307063956557
 10
185.2872950092723
 20
14.32187554608602
 10
185.2879497252034
 20
14.15552828635498
 10
185.285919246114
 20
14.00935173055693
 10
185.2913460399931
 20
13.8847104747461
 10
185.2804930868709
 20
13.81718656540626
 10
185.2956739155556
 20
13.75549061417022
 10
185.2457895108134
 20
13.76727503897002
 10
185.2017150342523
 20
13.75943822779969
 10
185.1582371630201
 20
13.76760441372703
 10
185.1092346786489
 20
13.75538056738469
 10
185.1218731234826
 20
13.80960667249313
 10
185.113018296845
 20
13.86936918907557
 10
185.1175058770314
 20
13.9792202904437
 10
185.1157960135992
 20
14.11029975405678
 10
185.1163550915987
 20
14.26198011444328
 10
185.1161928768694
 20
14.42211074929953
 10
185.1162269924675
 20
14.58236865674565
 10
185.1162514960128
 20
14.73370247520439
 10
185.1161453543226
 20
14.865821563386
 10
185.1164299141932
 20
14.97294802533192
 10
185.1158675547569
 20
15.03808619579473
 10
185.1180765083689
 20
15.16618957858673
 10
185.0319435998603
 20
14.79097610391576
 10
184.9555140818501
 20
14.63918193123394
 10
184.8660040767833
 20
14.47766206446307
 10
184.7640413217327
 20
14.20471848820172
 10
184.7187976491039
 20
14.36717346596507
 10
184.6102355941671
 20
14.45605432058124
 10
184.7995791751753
 20
14.60549794961408
 10
184.8565340545701
 20
14.79749136974925
 10
184.9717520993353
 20
15.02899622906757
 10
184.9940151630132
 20
15.21797259759063
 10
185.1771905152142
 20
15.49454089325931
 10
185.0538033597552
 20
15.48698978832094
 10
184.9925684166834
 20
15.48856772366118
 10
184.9081999617064
 20
15.48882592573672
 10
184.8204235085966
 20
15.48544845751205
 10
184.7656768696122
 20
15.4939481498202
 10
184.7104703026025
 20
15.48048561049788
 10
184.7222823035536
 20
15.52931442126763
 10
184.7142496151794
 20
15.57269004896709
 10
184.7228186104678
 20
15.61509438309573
 10
184.7102943409157
 20
15.66267796552118
 10
184.7555101538735
 20
15.65267212995109
 10
184.8014815562724
 20
15.65894105174062
 10
184.877722204771
 20
15.65593561405872
 10
184.9561296131994
 20
15.65770448278541
 10
185.0323992648933
 20
15.65464793981659
 10
185.0783009459475
 20
15.66103971376177
 10
185.1231733965401
 20
15.65093822978896
 10
185.1105552275634
 20
15.70157201581898
 10
185.1191936582707
 20
15.7550126188207
 10
185.1152361595444
 20
15.8486325513168
 10
185.1162325068335
 20
15.95112606688924
 10
185.1171927413074
 20
16.05353270248163
 10
185.1133211458006
 20
16.14735929609321
 10
185.1217789814365
 20
16.20036542840353
 10
185.1093075932836
 20
16.25211435651188
 10
185.1542106389851
 20
16.23850747226758
 10
185.1955083836772
 20
16.24100480320585
 10
185.259534428105
 20
16.23648060574488
 10
185.2986111148786
 20
16.22781003043307
 10
185.347654349874
 20
16.23515102070688
 10
185.3225080030591
 20
16.19602896051757
 10
185.2815901333724
 20
16.20563842455805
 10
185.2910109616604
 20
16.15540148169777
 10
185.2855647318747
 20
16.1038594563949
 10
185.2881699601805
 20
16.0195970758452
 10
185.2870102202155
 20
15.92559135583408
 10
185.2883591064232
 20
15.83196865395525
 10
185.2849970101508
 20
15.74679517552223
 10
185.292095991777
 20
15.69716856072044
 10
185.2812569154547
 20
15.64993694969989
 10
185.3304010225246
 20
15.66201674936851
 10
185.3794877630148
 20
15.65447393363012
 10
185.4573714280642
 20
15.65686070361432
 10
185.5350365172897
 20
15.65899381905415
 10
185.5845393931355
 20
15.65193391922455
 10
185.634459475064
 20
15.66360151936214
 10
185.6223198516882
 20
15.61540235371393
 10
185.6305838229144
 20
15.57249219801236
 10
185.6223198650785
 20
15.52958201851384
 10
185.6344594549855
 20
15.48138288754865
 10
185.5845395158747
 20
15.4930503447151
 10
185.5350350651204
 20
15.48599202435046
 10
185.4573784382974
 20
15.48811665228603
 10
185.3794643865762
 20
15.49053389365761
 10
185.3304500352717
 20
15.48291848194485
 10
185.2813246108944
 20
15.49507952557593
 10
185.2915559988572
 20
15.45073013424158
 10
185.2856677678055
 20
15.40925436202912
 10
185.287878830557
 20
15.34915394315303
 10
185.2874109346148
 20
15.3022578276289
 10
185.2874386992914
 20
15.27650146418197
 10
185.2874469028654
 20
15.2688916318772
 97
        1
330
AA
 75
     1
 76
     2
 52
45.0
 41
0.1
 77
     0
 78
     1
 53
45.0
 43
0.0
 44
0.0
 45
-0.282842712474619
 46
0.0
 79
     0
 98
        1
 10
0.0
 20
0.0
  0
HATCH
  5
C8
330
48
100
AcDbEntity
  8
1
  6
Continuous
 62
     2
100
AcDbHatch
 10
0.0
 20
0.0
 30
0.0
210
0.0
220
0.0
230
1.0
  2
CUSTOM6
 70
     0
 71
     1
 91
        1
 92
        1
 93
        1
 72
     4
 94
        3
 73
     0
 74
     0
 95
       91
 96
       87
 40
0.0
 40
0.0
 40
0.0
 40
0.0
 40
0.0345987051695718
 40
0.1258134969461085
 40
0.2547723404888703
 40
0.4026032099153556
 40
0.550434079341642
 40
0.6793929228835227
 40
0.7706077146570467
 40
0.8052064287780072
 40
1.12485239061519
 40
1.427402236308781
 40
1.706356627453422
 40
1.9555414178751
 40
2.169485938566245
 40
2.344350786664714
 40
2.480568411561844
 40
2.590440557428839
 40
2.649189927150969
 40
2.749320643306183
 40
2.912632739879884
 40
3.14774565600009
 40
3.244827496384896
 40
3.338490056946488
 40
3.583815413206907
 40
3.761423943238265
 40
3.886956104362415
 40
3.98585545188662
 40
4.091766255337505
 40
4.250186473811698
 40
4.422734315084343
 40
4.628285684838422
 40
4.87209322775824
 40
5.152549652145352
 40
5.464967135837325
 40
5.803201477852246
 40
6.160362988813718
 40
6.193449448275802
 40
6.284170385501456
 40
6.419718138764326
 40
6.587285046385604
 40
6.77406344672349
 40
6.967245678113473
 40
7.154024078817516
 40
7.321590987025873
 40
7.457138740890231
 40
7.547859678555996
 40
7.580946138182556
 40
7.608533084714608
 40
7.669224367077588
 40
7.72991564942981
 40
7.757502595949861
 40
7.790278062553314
 40
7.880146277430812
 40
8.014419963180275
 40
8.180411842397776
 40
8.365434637679245
 40
8.556801071622546
 40
8.741823866830659
 40
8.907815745916169
 40
9.042089431507323
 40
9.131957646249449
 40
9.164733112797025
 40
9.41542506313994
 40
9.66798618095841
 40
9.694169807462577
 40
9.756607686047536
 40
9.831130315322428
 40
9.893568193899863
 40
9.919751820398709
 40
9.95096796469054
 40
9.996421631210652
 40
10.22087981037454
 40
10.44341866197541
 40
10.47847970788854
 40
10.57091337438754
 40
10.70159545461229
 40
10.8514017417036
 40
11.00120802880477
 40
11.13189010907382
 40
11.2243237758301
 40
11.25938480938956
 40
11.28697175596145
 40
11.34766303835919
 40
11.4083543204207
 40
11.43594125892104
 40
11.43594125892104
 40
11.43594125892104
 40
11.43594125892104
 10
190.0818114333289
 20
15.55242795125077
 10
190.070278584494
 20
15.55242790287915
 10
190.0283409444999
 20
15.55242773704164
 10
189.9434129719025
 20
15.55243125800908
 10
189.8207688553129
 20
15.55240926435879
 10
189.6791206916993
 20
15.55250801177054
 10
189.537975369849
 20
15.55214686232421
 10
189.4141351317905
 20
15.55321883609088
 10
189.3317217825382
 20
15.55092249091268
 10
189.1727791229692
 20
15.5604856937342
 10
189.3503402353377
 20
15.1978539431137
 10
189.3379739205453
 20
14.95243127723115
 10
189.4064519473864
 20
14.66862501324835
 10
189.469302432097
 20
14.43250999939035
 10
189.5452253431728
 20
14.23326740396128
 10
189.6303189577017
 20
14.07745347451375
 10
189.7244607592935
 20
13.97657857781394
 10
189.8282648207727
 20
13.92465852638964
 10
189.9125872030773
 20
13.97606484379619
 10
189.9351322179452
 20
14.09144544037516
 10
189.974573097537
 20
14.2188514970238
 10
189.9202919734944
 20
14.53622328086758
 10
190.0451218072473
 20
14.38982180140903
 10
190.2019291513603
 20
14.35795300331171
 10
190.0947720007057
 20
14.12421357767626
 10
190.0808711209867
 20
13.95972776583657
 10
190.0234709467226
 20
13.8313086912248
 10
189.9335020145008
 20
13.76018802352828
 10
189.8095274657878
 20
13.74432324142253
 10
189.663427319686
 20
13.77993797554172
 10
189.5243894320284
 20
13.90000570500276
 10
189.4102003962144
 20
14.07435682550321
 10
189.3146141301486
 20
14.29946603111241
 10
189.2318652572627
 20
14.56388246006442
 10
189.1807179256413
 20
14.88187933098544
 10
189.0770189207338
 20
15.15543728488911
 10
189.2042841208522
 20
15.56005818612868
 10
189.0357890623019
 20
15.55112367849678
 10
188.9511995787078
 20
15.55315961418363
 10
188.8189876387628
 20
15.55213937388407
 10
188.6560505094103
 20
15.55253230318429
 10
188.4733759170534
 20
15.5523569631337
 10
188.2847057373382
 20
15.55260105307468
 10
188.1014469020189
 20
15.55185657906236
 10
187.9404746832718
 20
15.55416360522425
 10
187.8029808335275
 20
15.54799804883663
 10
187.7289590372311
 20
15.5603283845821
 10
187.6613215186856
 20
15.54329323723556
 10
187.6732373719269
 20
15.59524438447527
 10
187.6655677285694
 20
15.64071424966529
 10
187.6732592225115
 20
15.68614453703705
 10
187.6613141797762
 20
15.7380239598457
 10
187.7283588305866
 20
15.72119143490264
 10
187.8017375665677
 20
15.73335409092671
 10
187.9379128305271
 20
15.72727231074958
 10
188.0973811801513
 20
15.72954834315058
 10
188.2789173085836
 20
15.72881233998961
 10
188.4658034862179
 20
15.72905954196134
 10
188.6468012316836
 20
15.72886400799253
 10
188.8080802578878
 20
15.72932234714839
 10
188.9393882124887
 20
15.72812673751206
 10
189.0225051322597
 20
15.73051347319743
 10
189.1556236547813
 20
15.72230605725464
 10
189.0645893502659
 20
15.97752868952655
 10
188.9789633074419
 20
16.24164358328246
 10
189.0990589003455
 20
16.22904442969165
 10
189.1514264948543
 20
16.22694235763075
 10
189.2214497569716
 20
16.22535399889657
 10
189.2671922337818
 20
16.21602567538113
 10
189.3220812646933
 20
16.22545966915427
 10
189.2963574785682
 20
16.17733028655173
 10
189.1825397571453
 20
16.18266829744166
 10
189.3159346621136
 20
15.95449174576777
 10
189.194365873547
 20
15.72156856595923
 10
189.3223188769413
 20
15.73087258884438
 10
189.4049048406461
 20
15.7280100175468
 10
189.5307214850824
 20
15.72923437412302
 10
189.6741469838057
 20
15.72932431888965
 10
189.8157420951728
 20
15.72746163183853
 10
189.9459127249967
 20
15.73333075937163
 10
190.0193452286191
 20
15.72070340823203
 10
190.0891112922096
 20
15.73877563110412
 10
190.0775772605396
 20
15.68612850546326
 10
190.0833184346682
 20
15.64221317686547
 10
190.0816615770911
 20
15.59089982676549
 10
190.0817757561669
 20
15.56158792021634
 10
190.0818114333289
 20
15.55242795125077
 97
        1
330
AB
 75
     1
 76
     2
 52
45.0
 41
0.1
 77
     0
 78
     1
 53
45.0
 43
0.0
 44
0.0
 45
-0.282842712474619
 46
0.0
 79
     0
 98
        1
 10
0.0
 20
0.0
  0
HATCH
  5
C9
330
48
100
AcDbEntity
  8
1
  6
Continuous
 62
     2
100
AcDbHatch
 10
0.0
 20
0.0
 30
0.0
210
0.0
220
0.0
230
1.0
  2
CUSTOM7
 70
     0
 71
     1
 91
        1
 92
        1
 93
        1
 72
     4
 94
        3
 73
     0
 74
     0
 95
       75
 96
       71
 40
0.0
 40
0.0
 40
0.0
 40
0.0
 40
0.0342546099129691
 40
0.1245622414432346
 40
0.2522385480897483
 40
0.3985991922940627
 40
0.5449598364980786
 40
0.6726361431438745
 40
0.7629437746736871
 40
0.7971983935297884
 40
1.101723623449709
 40
1.408591244036657
 40
1.433332471690364
 40
1.487763172450164
 40
1.542193873081997
 40
1.566935100592548
 40
1.923523931821858
 40
2.271755704953602
 40
2.590579755100844
 40
2.858943305581072
 40
2.889120339309114
 40
2.918305855191036
 40
2.941366645531159
 40
2.996357760973051
 40
3.061992318140596
 40
3.116983433626782
 40
3.14004422399747
 40
3.411273122936307
 40
3.732441619740972
 40
3.76106821753267
 40
3.837787499630232
 40
3.948858699125869
 40
4.080541049104244
 40
4.219093782625627
 40
4.350776132722175
 40
4.461847332405509
 40
4.538566614678239
 40
4.567193212544486
 40
4.594907573998744
 40
4.666381453557283
 40
4.764111044010865
 40
4.870592538125668
 40
4.968322128642062
 40
5.039796008286776
 40
5.067510369784206
 40
5.09426360318542
 40
5.153120716668062
 40
5.211977830150512
 40
5.238731063551518
 40
5.272290535138786
 40
5.36338052944459
 40
5.497618415781296
 40
5.66062156345351
 40
5.83800734174921
 40
6.01539311991059
 40
6.178396267038187
 40
6.312634151842167
 40
6.403724143059157
 40
6.437283612672252
 40
6.46403684626087
 40
6.522893960004491
 40
6.581751071483759
 40
6.608504301590707
 40
6.637253941280854
 40
6.711397748902734
 40
6.812778057283347
 40
6.923237199249123
 40
7.024617507623767
 40
7.098761315207477
 40
7.127510946007427
 40
7.127510946007427
 40
7.127510946007427
 40
7.127510946007427
 10
188.4418622390564
 20
14.95849128473263
 10
188.4418622819707
 20
14.94707313408719
 10
188.4418624481129
 20
14.90555257842628
 10
188.4418593081787
 20
14.82146922003771
 10
188.44187882798
 20
14.70004497322327
 10
188.4417912187737
 20
14.55980494047447
 10
188.442111623523
 20
14.42006556794576
 10
188.4411605909741
 20
14.29745038894928
 10
188.4431978595967
 20
14.21587074438043
 10
188.4349433178747
 20
14.06271267077695
 10
188.74307979409
 20
14.22560236054718
 10
189.0350645173736
 20
14.39482938688001
 10
189.0408354448707
 20
14.25973235781911
 10
189.0455471719892
 20
14.21617221160444
 10
189.0482535411917
 20
14.17211249350543
 10
189.0672545672961
 20
14.02272590363135
 10
188.6583942247302
 20
14.08681172241261
 10
188.3793710348833
 20
13.97296341411015
 10
188.1018081587166
 20
13.87364095811145
 10
187.8099837184402
 20
13.91630687596351
 10
187.7869144678658
 20
13.81321679744543
 10
187.7537474383333
 20
13.78691091244469
 10
187.7480653962739
 20
13.83455309036305
 10
187.7284214559045
 20
13.8718033611507
 10
187.7095089485624
 20
13.93007387847563
 10
187.6942849867708
 20
13.97385201007806
 10
187.6477246372935
 20
14.08759421046304
 10
187.9890897312451
 20
14.0557630112005
 10
188.2679649367385
 20
14.02161435106478
 10
188.2617753034907
 20
14.16913976479652
 10
188.2630935452773
 20
14.24013150908832
 10
188.2624831689948
 20
14.34719767958661
 10
188.2625871570725
 20
14.47398529785997
 10
188.2629987964055
 20
14.6084924349605
 10
188.2613907841969
 20
14.73395549951183
 10
188.2659902567925
 20
14.84505246719117
 10
188.256418650221
 20
14.90761886800687
 10
188.2704001783691
 20
14.96595388295
 10
188.2147384386705
 20
14.95289710582237
 10
188.1575655197822
 20
14.96136307749498
 10
188.0616048925647
 20
14.95729976080635
 10
187.9633767522822
 20
14.95970889852473
 10
187.8672582457561
 20
14.95551600613387
 10
187.8104648525812
 20
14.96429346441162
 10
187.7550356873385
 20
14.9509493685012
 10
187.7670679427918
 20
15.00036910959256
 10
187.7592003173937
 20
15.04393988030395
 10
187.766629556383
 20
15.08830469118525
 10
187.7551930564144
 20
15.13902297763992
 10
187.8232102370134
 20
15.12162460757743
 10
187.8968496879747
 20
15.13417450237189
 10
188.0325064058211
 20
15.12799677011096
 10
188.1884909024526
 20
15.13029203093085
 10
188.3615926358144
 20
15.1294096826253
 10
188.5346942964182
 20
15.13029207142408
 10
188.6906789811218
 20
15.1279966295555
 10
188.8263351889798
 20
15.13417486262431
 10
188.8999756705653
 20
15.12162394218335
 10
188.9679914174724
 20
15.13902373012143
 10
188.9565590885923
 20
15.08830130414555
 10
188.9639539458297
 20
15.04397060811107
 10
188.9562039912272
 20
15.00028307550195
 10
188.9681203741877
 20
14.95063590098476
 10
188.9108170223618
 20
14.96461411338425
 10
188.8520145789773
 20
14.95539755673252
 10
188.75252936332
 20
14.95952268164929
 10
188.649428009835
 20
14.95822760025886
 10
188.5537846354574
 20
14.9585407707764
 10
188.4857467971617
 20
14.95848776697143
 10
188.4514462213443
 20
14.95849051871655
 10
188.4418622390564
 20
14.95849128473263
 97
        1
330
AC
 75
     1
 76
     2
 52
45.0
 41
0.1
 77
     0
 78
     1
 53
45.0
 43
0.0
 44
0.0
 45
-0.282842712474619
 46
0.0
 79
     0
 98
        1
 10
0.0
 20
0.0
  0
HATCH
  5
CA
330
48
100
AcDbEntity
  8
1
  6
Continuous
 62
     2
100
AcDbHatch
 10
0.0
 20
0.0
 30
0.0
210
0.0
220
0.0
230
1.0
  2
CUSTOM8
 70
     0
 71
     1
 91
        1
 92
        1
 93
        1
 72
     4
 94
        3
 73
     0
 74
     0
 95
       15
 96
       11
 40
0.0
 40
0.0
 40
0.0
 40
0.0
 40
0.2785535985096802
 40
0.5215624748198895
 40
0.6076917376040945
 40
0.6938210001741886
 40
0.9405019146455484
 40
1.221691403489106
 40
1.300471877081008
 40
1.379252341684778
 40
1.379252341684778
 40
1.379252341684778
 40
1.379252341684778
 10
189.5681493631
 20
16.22930267330381
 10
189.6296017794178
 20
16.17691646592716
 10
189.7446649974114
 20
16.07882876798225
 10
190.0397348497245
 20
15.92889785897219
 10
189.9025147631856
 20
15.84343227515015
 10
189.8041227843778
 20
15.71085785201556
 10
189.7130033590649
 20
16.01616985781416
 10
189.3636839480657
 20
16.07967869465372
 10
189.5119258376571
 20
16.17896509880878
 10
189.5494081874237
 20
16.21252348402382
 10
189.5681493631
 20
16.22930267330381
 97
        1
330
AD
 75
     1
 76
     2
 52
45.0
 41
0.1
 77
     0
 78
     1
 53
45.0
 43
0.0
 44
0.0
 45
-0.282842712474619
 46
0.0
 79
     0
 98
        1
 10
0.0
 20
0.0
  0
HATCH
  5
CB
330
48
100
AcDbEntity
  8
1
  6
Continuous
 62
     2
100
AcDbHatch
 10
0.0
 20
0.0
 30
0.0
210
0.0
220
0.0
230
1.0
  2
CUSTOM9
 70
     0
 71
     1
 91
        1
 92
        1
 93
        1
 72
     4
 94
        3
 73
     0
 74
     0
 95
       35
 96
       31
 40
0.0
 40
0.0
 40
0.0
 40
0.0
 40
0.0335231036620315
 40
0.0713218571712236
 40
0.4278866681487281
 40
0.8116865841964517
 40
1.198190238000085
 40
1.561379546812713
 40
1.659983174622061
 40
1.759315573807169
 40
2.132719617231029
 40
2.52523336358878
 40
2.91081539777969
 40
3.265244364303316
 40
3.59260672358202
 40
3.964386154603966
 40
4.35994213173781
 40
4.758154118639342
 40
4.843846538699916
 40
4.936650065543224
 40
5.256616602537328
 40
5.581707404416038
 40
5.899719158308154
 40
6.198363494280702
 40
6.466301046615715
 40
6.493895311537037
 40
6.55969702019683
 40
6.638234543442405
 40
6.704036252154157
 40
6.731630508422963
 40
6.731630508422963
 40
6.731630508422963
 40
6.731630508422963
 10
191.9736010568669
 20
16.23463843719134
 10
191.9676006097789
 20
16.22480690542323
 10
191.9548344099157
 20
16.20388988579794
 10
191.7949362006552
 20
16.17127126532704
 10
192.2322025842337
 20
15.88206680336694
 10
192.4345394828262
 20
15.68041138358441
 10
192.6819564267973
 20
15.43749387603275
 10
193.1831513624605
 20
15.36047662757777
 10
193.012556219897
 20
15.21876939174657
 10
192.9383299463202
 20
15.01710366209105
 10
192.6131432248188
 20
15.36956287174728
 10
192.3277741670665
 20
15.53175212559563
 10
192.0337604077658
 20
15.73687130053047
 10
191.8084452691134
 20
16.21827488595455
 10
191.5993085055522
 20
15.75343046609221
 10
191.3207873674835
 20
15.54350952252912
 10
191.037138317721
 20
15.37424456359986
 10
190.7078639527831
 20
15.00142360907934
 10
190.6277012318225
 20
15.19708014459002
 10
190.4759724909745
 20
15.32491104190599
 10
190.9083395826795
 20
15.40454031765933
 10
191.0962565329766
 20
15.60026634915476
 10
191.3468477420504
 20
15.81632996916752
 10
191.571435047016
 20
15.98190992300061
 10
191.6259775409715
 20
16.26133964636827
 10
191.749466102901
 20
16.24737950408078
 10
191.8060273344521
 20
16.24521268867647
 10
191.8761870984944
 20
16.2404685988136
 10
191.9333414022105
 20
16.23709429350541
 10
191.9644190320839
 20
16.23519854711119
 10
191.9736010568669
 20
16.23463843719134
 97
        1
330
AE
 75
     1
 76
     2
 52
45.0
 41
0.1
 77
     0
 78
     1
 53
45.0
 43
0.0
 44
0.0
 45
-0.282842712474619
 46
0.0
 79
     0
 98
        1
 10
0.0
 20
0.0
  0
HATCH
  5
CC
330
48
100
AcDbEntity
  8
1
  6
Continuous
 62
     2
100
AcDbHatch
 10
0.0
 20
0.0
 30
0.0
210
0.0
220
0.0
230
1.0
  2
CUSTOM10
 70
     0
 71
     1
 91
        1
 92
        1
 93
        1
 72
     4
 94
        3
 73
     0
 74
     0
 95
       91
 96
       87
 40
0.0
 40
0.0
 40
0.0
 40
0.0
 40
0.0267532254356684
 40
0.0856103386464066
 40
0.144467452199655
 40
0.1712206856618426
 40
0.2039416005642447
 40
0.2955601971652395
 40
0.4362601844616829
 40
0.6162252844507161
 40
0.8256392189704609
 40
1.054685709844402
 40
1.293548478893522
 40
1.532411247938294
 40
1.761457738799559
 40
1.970871673298528
 40
2.150836773256724
 40
2.291536760495585
 40
2.383155356836691
 40
2.415876284101311
 40
2.442629517487954
 40
2.50148663094908
 40
2.560343744424226
 40
2.587096977826497
 40
2.617068194440924
 40
2.699247336756065
 40
2.822032643466378
 40
2.973822353257908
 40
3.14301470482335
 40
3.318007936879929
 40
3.487200288186762
 40
3.638989997548243
 40
3.761775303794741
 40
3.843954445753076
 40
3.873925662229772
 40
3.89081277350048
 40
3.907699884771658
 40
3.937960767857223
 40
3.980983618142227
 40
4.199085915228409
 40
4.4394443392372
 40
4.677588241260803
 40
5.050698317837717
 40
5.448212454763074
 40
5.8552912180446
 40
6.138575438885308
 40
6.417434507584107
 40
6.444551104393765
 40
6.504207617363039
 40
6.563864130314363
 40
6.590980727103931
 40
6.848609460381335
 40
7.109611990668312
 40
7.352910904445996
 40
7.557830220705367
 40
7.587518925913284
 40
7.652834077375726
 40
7.718149228845709
 40
7.747837934062011
 40
7.854880190300928
 40
7.976511257403507
 40
8.369487896592252
 40
8.757514959223574
 40
9.126072419331036
 40
9.460639380392156
 40
9.746695593035982
 40
9.777569943118719
 40
9.807050320931788
 40
9.83037733612891
 40
9.886003295435993
 40
9.952395569429887
 40
10.00802152870624
 40
10.03134854388216
 40
10.21356951009586
 40
10.42203479292872
 40
10.66154556731063
 40
10.91693789564303
 40
11.15832906556564
 40
11.18982674596622
 40
11.27286608520406
 40
11.39026653033354
 40
11.5248475284089
 40
11.6594285264845
 40
11.77682897161491
 40
11.8598683108569
 40
11.89136598230436
 40
11.89136598230436
 40
11.89136598230436
 40
11.89136598230436
 10
190.7027885008196
 20
14.70699600701772
 10
190.7028237765288
 20
14.71587847311985
 10
190.7029366710796
 20
14.74430237047346
 10
190.7012984568488
 20
14.79409639169802
 10
190.7069750292911
 20
14.83657564478154
 10
190.6956928731706
 20
14.88730154856846
 10
190.7632296979032
 20
14.87012900740108
 10
190.83880292107
 20
14.88290227165995
 10
190.9828357056
 20
14.87629729457381
 10
191.1569419185427
 20
14.87888462206465
 10
191.3639599611003
 20
14.87800591955552
 10
191.5894688172378
 20
14.87828207920027
 10
191.8251162293406
 20
14.87818339658661
 10
192.0607640531348
 20
14.87828184412766
 10
192.2862717580626
 20
14.87800678190788
 10
192.4932934632805
 20
14.87888186270734
 10
192.6673888915288
 20
14.87630522678445
 10
192.8114492071986
 20
14.88288290449213
 10
192.8869691915292
 20
14.87016243405603
 10
192.954577603703
 20
14.88726400191686
 10
192.9430840140675
 20
14.83674785802939
 10
192.9505104581733
 20
14.79253252226501
 10
192.9428838927986
 20
14.74867966503609
 10
192.9546489459425
 20
14.69878374479327
 10
192.8930788491983
 20
14.71393227712512
 10
192.8256791738672
 20
14.70310665350673
 10
192.7013004056221
 20
14.70852031626236
 10
192.555442823657
 20
14.70649205390785
 10
192.3893576440085
 20
14.70715777578387
 10
192.2188412621724
 20
14.70689643521242
 10
192.0519790855388
 20
14.70721553391094
 10
191.9087346827105
 20
14.70635302590762
 10
191.7773313869834
 20
14.70863300482988
 10
191.7239859134657
 20
14.70407704374202
 10
191.6485188456912
 20
14.70999914992877
 10
191.6769075779233
 20
14.70094169343353
 10
191.7033652409542
 20
14.6972591226893
 10
191.6633522907702
 20
14.66654271968273
 10
191.5713663691869
 20
14.67667591174636
 10
191.543939620707
 20
14.43032502247786
 10
191.4478793967234
 20
14.27499558764377
 10
191.1917277964475
 20
13.94525417931565
 10
191.7627537732763
 20
14.08430022210453
 10
192.0173656320517
 20
14.08291779973361
 10
192.6279647048618
 20
13.99790569242088
 10
192.3340698578083
 20
14.296854175582
 10
192.013330428652
 20
14.44330856901777
 10
192.1313543360434
 20
14.50025540818287
 10
192.1724716466262
 20
14.52420099873348
 10
192.2156812394412
 20
14.5459975881123
 10
192.3174574094449
 20
14.60928721253905
 10
192.4328867625248
 20
14.35147151408779
 10
192.6329591642278
 20
14.21616041113683
 10
192.7269077387228
 20
14.03792795138882
 10
192.9558829746395
 20
13.87997821027049
 10
192.8596031846708
 20
13.82915972576299
 10
192.816795976378
 20
13.79881292523054
 10
192.771824352878
 20
13.77466130281461
 10
192.7121720925213
 20
13.72552146747569
 10
192.6789731061326
 20
13.85997475673614
 10
192.5582013350795
 20
14.01594265286574
 10
192.1970976005979
 20
13.88569928059558
 10
191.8385061955541
 20
13.90224694409482
 10
191.4570920450079
 20
13.89331229351867
 10
191.1703455282893
 20
13.828826716724
 10
190.859205559971
 20
13.94230668192843
 10
190.8268737818788
 20
13.83122259927767
 10
190.7896178253317
 20
13.81196313850014
 10
190.7865737632754
 20
13.85874784087299
 10
190.7679892860607
 20
13.89806853919133
 10
190.7512436616779
 20
13.95765983478234
 10
190.7383730915753
 20
14.00201969871283
 10
190.704232780643
 20
14.09106331120203
 10
190.9482714457755
 20
14.02181042943768
 10
191.1441394486672
 20
14.00030369057743
 10
191.2395426381278
 20
14.28226484478464
 10
191.2945135769598
 20
14.44363045421123
 10
191.5159619357157
 20
14.71391177589738
 10
191.3849239381217
 20
14.70548446853734
 10
191.3110026555854
 20
14.70779008496969
 10
191.1977459876244
 20
14.70671378321658
 10
191.0694251807485
 20
14.7070763907651
 10
190.9404252030415
 20
14.70697724466085
 10
190.8287840946292
 20
14.70699932712572
 10
190.7514663970025
 20
14.7069957918967
 10
190.713287653201
 20
14.70699595845081
 10
190.7027885008196
 20
14.70699600701772
 97
        1
330
AF
 75
     1
 76
     2
 52
45.0
 41
0.1
 77
     0
 78
     1
 53
45.0
 43
0.0
 44
0.0
 45
-0.282842712474619
 46
0.0
 79
     0
 98
        1
 10
0.0
 20
0.0
  0
HATCH
  5
CD
330
48
100
AcDbEntity
  8
1
  6
Continuous
 62
     2
100
AcDbHatch
 10
0.0
 20
0.0
 30
0.0
210
0.0
220
0.0
230
1.0
  2
CUSTOM11
 70
     0
 71
     1
 91
        1
 92
        1
 93
        1
 72
     4
 94
        3
 73
     0
 74
     0
 95
      131
 96
      127
 40
0.0
 40
0.0
 40
0.0
 40
0.0
 40
0.019557702982624
 40
0.0426490537461544
 40
0.2863607575856668
 40
0.5344948436189347
 40
0.7842238845573245
 40
0.873731578946745
 40
0.9803832810312967
 40
1.092842274517042
 40
1.199761146656776
 40
1.289788768186478
 40
1.35157358078619
 40
1.370727117561418
 40
1.416400936017833
 40
1.470914848355978
 40
1.516588666791768
 40
1.535742203552851
 40
1.63421659229316
 40
1.760283341174932
 40
1.897966686682059
 40
2.03121638736886
 40
2.049689751137854
 40
2.10111560164679
 40
2.179502577739908
 40
2.278859318314026
 40
2.393194462258683
 40
2.516516648383797
 40
2.642834515405926
 40
2.766156701983431
 40
2.880491846754546
 40
2.979848588358588
 40
3.058235565443765
 40
3.109661416668922
 40
3.128134780704097
 40
3.146783742386414
 40
3.191254343315275
 40
3.244332157315934
 40
3.288802758225809
 40
3.30745171989508
 40
3.327717853844692
 40
3.383747753580054
 40
3.468388665924446
 40
3.574487837698757
 40
3.694892515728861
 40
3.822449946852003
 40
3.950007377920396
 40
4.070412055800488
 40
4.176511227368047
 40
4.261152139501493
 40
4.317182039076687
 40
4.337448172964607
 40
4.620011002696265
 40
4.885096638397558
 40
4.945373043518352
 40
5.01410771048869
 40
5.070481727652076
 40
5.319246955636602
 40
5.584812164506141
 40
5.859000912057012
 40
6.133746937542176
 40
6.401732212968974
 40
6.420736683995593
 40
6.472845717451187
 40
6.550702743894171
 40
6.64695119387438
 40
6.754234497930704
 40
6.865196086587511
 40
6.972479390357969
 40
7.068727839772159
 40
7.146584865451168
 40
7.198693898189398
 40
7.217698368905539
 40
7.234950401631017
 40
7.276089864270063
 40
7.325191803516177
 40
7.366331266090566
 40
7.383583298769918
 40
7.402779163492323
 40
7.453386443254726
 40
7.524934666445756
 40
7.606953361406096
 40
7.688972056429276
 40
7.760520279784527
 40
7.811127559734797
 40
7.830323424546418
 40
7.847844055300048
 40
7.89479934566709
 40
7.962779392744777
 40
8.043374293560824
 40
8.12817414514973
 40
8.208769044817535
 40
8.276749090377235
 40
8.323704379669794
 40
8.341225010056528
 40
8.358497614800676
 40
8.401679126686853
 40
8.45781509218591
 40
8.513951057728315
 40
8.557132569708214
 40
8.574405174505257
 40
8.60234066861657
 40
8.643455660540113
 40
8.66322527196678
 40
8.715345156564428
 40
8.789031889628763
 40
8.873502045520492
 40
8.957972194324116
 40
9.031658925568006
 40
9.083778811234698
 40
9.10354842300316
 40
9.119550083123697
 40
9.160817522379999
 40
9.217244429110336
 40
9.278724491644793
 40
9.335151398295578
 40
9.376418837357845
 40
9.392420497300632
 40
9.401196302734851
 40
9.417494229384326
 40
9.426270027749599
 40
9.440875075477631
 40
9.47570249699881
 40
9.517270709865972
 40
9.55209813199414
 40
9.566703169884347
 40
9.566703169884347
 40
9.566703169884347
 40
9.566703169884347
 10
194.6170254148479
 20
15.67015871511028
 10
194.6134345093371
 20
15.66453690702159
 10
194.6056039123624
 20
15.65227754419111
 10
194.5129968974547
 20
15.61601916040973
 10
194.4887622233247
 20
15.40148444212714
 10
194.3858709845937
 20
15.22197284509708
 10
194.1220492364306
 20
15.03615573798145
 10
194.2845471569179
 20
14.95959336566081
 10
194.3607225760838
 20
14.89856693195441
 10
194.4492171072758
 20
14.8351580454476
 10
194.538993023311
 20
14.7752563421956
 10
194.5883817636046
 20
14.72102154849206
 10
194.6745708157381
 20
14.69286240541836
 10
194.6411260674229
 20
14.65713309652812
 10
194.621467116631
 20
14.62550387991906
 10
194.5919888217882
 20
14.5847587279607
 10
194.5688989446031
 20
14.55504663489644
 10
194.5380205968356
 20
14.50211422668495
 10
194.4729193365741
 20
14.627403349389
 10
194.3796000122416
 20
14.68213900233939
 10
194.295063628514
 20
14.73916423939338
 10
194.1722498125743
 20
14.89675287427522
 10
194.1764450847302
 20
14.82035806766837
 10
194.1751478652679
 20
14.77361280161296
 10
194.1758126448077
 20
14.69584785812601
 10
194.1755549986958
 20
14.59902068324423
 10
194.1756431239922
 20
14.48650279078809
 10
194.1756077302282
 20
14.36524085945699
 10
194.175651175828
 20
14.24086897858961
 10
194.1755199942406
 20
14.11967683631335
 10
194.1759477562047
 20
14.00691148919743
 10
194.1746678202311
 20
13.91082913768744
 10
194.1779759851044
 20
13.83113826468699
 10
194.1715197740087
 20
13.78815175788783
 10
194.1806208705557
 20
13.74955432372042
 10
194.1447910339936
 20
13.75810887724069
 10
194.1115223815253
 20
13.75342519985446
 10
194.0604562576042
 20
13.75351298759783
 10
194.0269723972814
 20
13.7579443028382
 10
193.9907585408754
 20
13.74960793842508
 10
194.0009782568666
 20
13.79145277179283
 10
193.9936487887774
 20
13.83778560820173
 10
193.9973633136103
 20
13.92374831106014
 10
193.9959480554897
 20
14.02605142704849
 10
193.9964105554639
 20
14.14453223931511
 10
193.9962773686231
 20
14.26957683153356
 10
193.9963015910046
 20
14.3947582810705
 10
193.9963354925551
 20
14.51286645379058
 10
193.9962060293133
 20
14.61628748709516
 10
193.9965507549082
 20
14.69932036153667
 10
193.9958698278691
 20
14.75143368521244
 10
193.9994586600622
 20
14.87912907821362
 10
193.7826171386438
 20
14.58048716819624
 10
193.6021354921949
 20
14.35263981511509
 10
193.5490322295612
 20
14.49373443289817
 10
193.5200429133149
 20
14.54325767560941
 10
193.419664806282
 20
14.64641779790105
 10
193.7405127723262
 20
14.7269503502378
 10
193.868989700543
 20
14.91066283036432
 10
194.090645432536
 20
15.1193199577176
 10
194.1770224894069
 20
15.29339211228345
 10
194.4549394229075
 20
15.56967051342512
 10
194.3346247839285
 20
15.56534559551113
 10
194.2863197351349
 20
15.56614856202552
 10
194.2102377454906
 20
15.56574582146583
 10
194.116701000975
 20
15.56590275611608
 10
194.0117594788557
 20
15.56582502576223
 10
193.9033887738718
 20
15.56595464378553
 10
193.7981454235897
 20
15.56554393490691
 10
193.7056237819413
 20
15.5668207367159
 10
193.6268130800707
 20
15.56340766534849
 10
193.5839674565379
 20
15.57023350036319
 10
193.5449499586515
 20
15.56065064201123
 10
193.5526365271864
 20
15.59420779565542
 10
193.5485464404312
 20
15.62523550322232
 10
193.5485531368814
 20
15.672365292709
 10
193.5526239724911
 20
15.70340941646778
 10
193.5449495574583
 20
15.73701861635903
 10
193.5834819405495
 20
15.72748410420872
 10
193.6241228014479
 20
15.73397435498071
 10
193.6951471850463
 20
15.73100150650254
 10
193.7729318149634
 20
15.73174761399158
 10
193.8507292246474
 20
15.73247814044525
 10
193.9217232089908
 20
15.7295423551416
 10
193.9624279791821
 20
15.73595468772952
 10
194.000985348991
 20
15.72650524176004
 10
193.9927342754929
 20
15.76264692158784
 10
193.9982346669358
 20
15.80129837613227
 10
193.9955754206165
 20
15.86913528561839
 10
193.9965815471534
 20
15.9459164153874
 10
193.996017801832
 20
16.02849393582757
 10
193.9970714526593
 20
16.10517329229878
 10
193.9942675863131
 20
16.173319907767
 10
194.0000702721305
 20
16.21132399809346
 10
193.991565455116
 20
16.24758448077646
 10
194.0255610233125
 20
16.23755723771853
 10
194.0594575683099
 20
16.24073266813706
 10
194.1126669060347
 20
16.2350896564061
 10
194.1660768574483
 20
16.23434774436425
 10
194.1995914649491
 20
16.2281922348298
 10
194.2388086183039
 20
16.23346029773593
 10
194.2120263698492
 20
16.19253380793488
 10
194.1708111001725
 20
16.20371204538111
 10
194.1782641540874
 20
16.15867056192124
 10
194.1742227952185
 20
16.11412278028144
 10
194.1761714049641
 20
16.04223572621703
 10
194.1752364849759
 20
15.96168630588771
 10
194.176510719003
 20
15.88173995404994
 10
194.1732043793865
 20
15.80841837083183
 10
194.1802106179962
 20
15.76688643002568
 10
194.1701440380126
 20
15.72752418568113
 10
194.2029814803922
 20
15.73468063430981
 10
194.2364577296482
 20
15.73027243137945
 10
194.2915053476019
 20
15.73217943347897
 10
194.3489502595316
 20
15.73185366407289
 10
194.402302624831
 20
15.73106308733081
 10
194.4398540896639
 20
15.73313959118074
 10
194.4623172523237
 20
15.73022338167109
 10
194.4751678073731
 20
15.73572552644056
 10
194.4858255685888
 20
15.7380111819779
 10
194.4986635650143
 20
15.74494972588052
 10
194.5145991033071
 20
15.72853046313672
 10
194.5410623920891
 20
15.71709122319449
 10
194.5726805253757
 20
15.6964468783519
 10
194.5987255892151
 20
15.68116869628295
 10
194.6128517723973
 20
15.67266976323184
 10
194.6170254148479
 20
15.67015871511028
 97
        1
330
B0
 75
     1
 76
     2
 52
45.0
 41
0.1
 77
     0
 78
     1
 53
45.0
 43
0.0
 44
0.0
 45
-0.282842712474619
 46
0.0
 79
     0
 98
        1
 10
0.0
 20
0.0
  0
HATCH
  5
CE
330
48
100
AcDbEntity
  8
1
  6
Continuous
 62
     2
100
AcDbHatch
 10
0.0
 20
0.0
 30
0.0
210
0.0
220
0.0
230
1.0
  2
CUSTOM12
 70
     0
 71
     1
 91
        1
 92
        1
 93
        1
 72
     4
 94
        3
 73
     0
 74
     0
 95
      124
 96
      120
 40
0.0
 40
0.0
 40
0.0
 40
0.0
 40
0.027818722962451
 40
0.1011590162384269
 40
0.2048470170590523
 40
0.3237088716559245
 40
0.4425707262522284
 40
0.5462587270700116
 40
0.6195990203312934
 40
0.6474177522579513
 40
0.6750060736116077
 40
0.7357003855243611
 40
0.7963946998055345
 40
0.8239830245572637
 40
0.8540933811104015
 40
0.9373396629410127
 40
1.06309468734335
 40
1.220731268638217
 40
1.399622220914891
 40
1.589140358637933
 40
1.778658496424071
 40
1.957549448940738
 40
2.115186030873388
 40
2.24094105691472
 40
2.324187341760818
 40
2.354297700109668
 40
2.381886024672174
 40
2.442580338710763
 40
2.503274652750787
 40
2.530862977314894
 40
2.560983949278847
 40
2.640393784453221
 40
2.752662861759444
 40
2.881361560118489
 40
3.010060258455536
 40
3.122329335705712
 40
3.201739170818354
 40
3.231860142753715
 40
3.264298024030771
 40
3.352343701778643
 40
3.482095226869167
 40
3.639650650173428
 40
3.811108022565883
 40
3.982565394928392
 40
4.140120818152973
 40
4.269872343141684
 40
4.357918020802747
 40
4.390355902044376
 40
4.423256253992945
 40
4.508104530073466
 40
4.624121560637234
 40
4.750528176031991
 40
4.866545206602438
 40
4.951393482692395
 40
4.984293834645796
 40
5.011450833242708
 40
5.071196230152487
 40
5.130941627057557
 40
5.158098625649219
 40
5.19099897760191
 40
5.275847253689736
 40
5.39186428425717
 40
5.518270899648715
 40
5.634287930209754
 40
5.719136206288428
 40
5.752036558236315
 40
5.782130946283341
 40
5.862783906229514
 40
5.979550131775382
 40
6.117984316640787
 40
6.263641154588334
 40
6.402075339414538
 40
6.518841564908334
 40
6.599494524815916
 40
6.629588912849154
 40
6.654403028226731
 40
6.713575149488526
 40
6.7841999393299
 40
6.843372060494002
 40
6.868186175803248
 40
6.896246243202352
 40
6.939586233758774
 40
6.967846564565402
 40
7.043584251090344
 40
7.1532343344522
 40
7.283231855734952
 40
7.420011856035988
 40
7.55000937658034
 40
7.659659458835744
 40
7.735397144417737
 40
7.763657474851909
 40
7.796409728011566
 40
7.880876065096841
 40
7.996370852466226
 40
8.12220844641912
 40
8.237703224799715
 40
8.322169562011409
 40
8.354921815206422
 40
8.3820788133082
 40
8.4418242092075
 40
8.501569605240642
 40
8.528726603486218
 40
8.561478856696267
 40
8.645945193878317
 40
8.761439980865829
 40
8.887277580764971
 40
9.002772362001492
 40
9.087238696661712
 40
9.119990949236167
 40
9.152428830613866
 40
9.240474508639082
 40
9.370226034150033
 40
9.527781457984918
 40
9.699238830981907
 40
9.870696203979099
 40
10.02825162781452
 40
10.15800315332614
 40
10.24604883135169
 40
10.27848670378572
 40
10.27848670378572
 40
10.27848670378572
 40
10.27848670378572
 10
195.3821827564383
 20
14.01410517385757
 10
195.3914554737523
 20
14.01410498511274
 10
195.425174453686
 20
14.01410430876714
 10
195.4934706812465
 20
14.01411807243305
 10
195.592014171158
 20
14.01403224219545
 10
195.7062066464812
 20
14.0144175561225
 10
195.8185894417071
 20
14.01300835897545
 10
195.9214376600119
 20
14.01719117422243
 10
195.9806839874849
 20
14.00823089251982
 10
196.0371265937034
 20
14.0216443452606
 10
196.0246255586956
 20
13.97087198613361
 10
196.0329549635704
 20
13.92589320939067
 10
196.0248170841121
 20
13.88056752990488
 10
196.0370529214458
 20
13.82931932408465
 10
195.9747773490334
 20
13.84447955365276
 10
195.9060513026868
 20
13.83359750710742
 10
195.7782756749592
 20
13.83911304747972
 10
195.6262984511644
 20
13.83700851253699
 10
195.4502695972522
 20
13.83771002588473
 10
195.2644431934287
 20
13.83745237531292
 10
195.0786167437175
 20
13.83771005144603
 10
194.9025880142167
 20
13.83700841847731
 10
194.7506104154193
 20
13.83911332229988
 10
194.6228357664553
 20
13.8335968076764
 10
194.5541077836579
 20
13.84448077125942
 10
194.4918349042882
 20
13.8293178668421
 10
194.5040616290017
 20
13.88057510805171
 10
194.4960004462596
 20
13.92582473272425
 10
194.5040675809891
 20
13.97106357955323
 10
194.4918238487082
 20
14.02234176909958
 10
194.5525017120697
 20
14.00749577363135
 10
194.6162810745735
 20
14.01756448170735
 10
194.7277314353502
 20
14.01294644211999
 10
194.8497533443823
 20
14.01413328905469
 10
194.9719538137823
 20
14.01515863900634
 10
195.0829794287392
 20
14.01092475623402
 10
195.1476517413958
 20
14.02018584521739
 10
195.2091162810501
 20
14.00604423049683
 10
195.1930065601337
 20
14.07235527884517
 10
195.2042980327358
 20
14.14447790121976
 10
195.1987400822561
 20
14.27513760888286
 10
195.2008035061691
 20
14.42607323708242
 10
195.2000167127295
 20
14.59335873107886
 10
195.2007845215627
 20
14.76061110332304
 10
195.1988038785628
 20
14.91163289269914
 10
195.2041306156621
 20
15.04206069552996
 10
195.1933101388425
 20
15.11465442605899
 10
195.2090326429875
 20
15.18150469436799
 10
195.143270813249
 20
15.16580512490825
 10
195.0756367830764
 20
15.17609243083996
 10
194.9615885293809
 20
15.17113786847123
 10
194.8451242674902
 20
15.17414128030475
 10
194.7306554121477
 20
15.16880303143389
 10
194.6640324657812
 20
15.18001268074826
 10
194.5990769715186
 20
15.16349132665012
 10
194.6107989758707
 20
15.21473720477059
 10
194.6032830189122
 20
15.25950333784091
 10
194.6107989878835
 20
15.3042694489796
 10
194.5990769505347
 20
15.3555153612974
 10
194.66403263392
 20
15.33899381766814
 10
194.7306533339822
 20
15.35020571373943
 10
194.8451352858063
 20
15.34485436710663
 10
194.9615454436962
 20
15.34791188771116
 10
195.0757660174641
 20
15.34278499010707
 10
195.1430150439226
 20
15.35345733355597
 10
195.2083325941438
 20
15.33742082669076
 10
195.1941391448553
 20
15.39949685750052
 10
195.2036059462995
 20
15.46586761628761
 10
195.1990269004085
 20
15.58239972741965
 10
195.2007696555948
 20
15.71426685022374
 10
195.1997551495392
 20
15.85615960150272
 10
195.2017191344372
 20
15.98769050702579
 10
195.196466855385
 20
16.10524577283001
 10
195.2073408763475
 20
16.16947789001583
 10
195.1919536641853
 20
16.23108802545046
 10
195.2407591537801
 20
16.21702407382109
 10
195.2853995564726
 20
16.21954742075313
 10
195.3538643946742
 20
16.21512797401709
 10
195.3959106169103
 20
16.20613025544034
 10
195.4487544758776
 20
16.21411714866509
 10
195.4207035002013
 20
16.17113917611673
 10
195.3749142248595
 20
16.18259552043838
 10
195.3869539073264
 20
16.12173520005136
 10
195.3796086070641
 20
16.05769299468773
 10
195.3831195826162
 20
15.94909368863911
 10
195.3819806760173
 20
15.82494319144753
 10
195.3819174780263
 20
15.69189719829877
 10
195.3832872966869
 20
15.56797381249555
 10
195.3791638801313
 20
15.45868337849337
 10
195.3877763103564
 20
15.39608580094169
 10
195.3746757454402
 20
15.33740133296364
 10
195.4393884328198
 20
15.35362113810901
 10
195.5060405953156
 20
15.34270260383311
 10
195.6198779541102
 20
15.34793740173754
 10
195.7357259122097
 20
15.34485547516912
 10
195.849692426328
 20
15.35018259812511
 10
195.9160341018099
 20
15.33904208166541
 10
195.980718852548
 20
15.35546979593177
 10
195.9689820772722
 20
15.30425925210049
 10
195.9765168063041
 20
15.25950334121001
 10
195.9689820992257
 20
15.21474739010027
 10
195.9807188140736
 20
15.16353690871041
 10
195.9160344075252
 20
15.1799642779422
 10
195.8496886430824
 20
15.1688278444727
 10
195.7357459487012
 20
15.17413115893121
 10
195.6197995623054
 20
15.17114764593544
 10
195.5062756882122
 20
15.17606892268395
 10
195.4389231318804
 20
15.1658508751352
 10
195.3734285122495
 20
15.18145996138816
 10
195.3891713619218
 20
15.11463851827411
 10
195.3783275998212
 20
15.04207057815879
 10
195.3836581629793
 20
14.91162247614417
 10
195.3817136151854
 20
14.76064558185226
 10
195.3823133683214
 20
14.59322243934158
 10
195.3821506559605
 20
14.42656176118372
 10
195.3821895488135
 20
14.27360142921636
 10
195.38218164131
 20
14.14849178985705
 10
195.3821828382744
 20
14.0650789099142
 10
195.3821827716208
 20
14.02491778281976
 10
195.3821827564383
 20
14.01410517385757
 97
        1
330
B1
 75
     1
 76
     2
 52
45.0
 41
0.1
 77
     0
 78
     1
 53
45.0
 43
0.0
 44
0.0
 45
-0.282842712474619
 46
0.0
 79
     0
 98
        1
 10
0.0
 20
0.0
  0
HATCH
  5
CF
330
48
100
AcDbEntity
  8
1
  6
Continuous
 62
     2
100
AcDbHatch
 10
0.0
 20
0.0
 30
0.0
210
0.0
220
0.0
230
1.0
  2
CUSTOM13
 70
     0
 71
     1
 91
        1
 92
        1
 93
        3
 72
     4
 94
        3
 73
     0
 74
     0
 95
       24
 96
       20
 40
0.0
 40
0.0
 40
0.0
 40
0.0
 40
0.2211075008753544
 40
0.4273218586244976
 40
0.5080174679238926
 40
0.5914835907869855
 40
0.8143265690192292
 40
1.054651302686539
 40
1.295452694023128
 40
1.518109231328782
 40
1.540864321905425
 40
1.595126460622686
 40
1.659890947896028
 40
1.714153085187414
 40
1.736908174961714
 40
1.764951100735442
 40
1.80156229122106
 40
1.953914424543737
 40
2.126104167379796
 40
2.126104167379796
 40
2.126104167379796
 40
2.126104167379796
 10
185.9375369556888
 20
15.58989295113016
 10
185.9112579081811
 20
15.53097628234373
 10
185.8604698894425
 20
15.41711139679255
 10
185.8131784839111
 20
15.14441958233118
 10
185.7043482802618
 20
15.24445482575454
 10
185.5514800279637
 20
15.27118593367332
 10
185.7686155181198
 20
15.48518135017632
 10
185.7838483674381
 20
15.70332117782486
 10
185.8906889492
 20
15.88451579066427
 10
185.8305380947078
 20
16.16913226311401
 10
185.9334317395402
 20
16.14114089222451
 10
185.977993346815
 20
16.13243251602299
 10
186.0380842395397
 20
16.12139654183355
 10
186.0756619587438
 20
16.1076752305556
 10
186.1252466928607
 20
16.10756076160222
 10
186.0930158919325
 20
16.07306592398622
 10
186.0171802221882
 20
16.08404104537963
 10
186.0429447159693
 20
15.8985896958245
 10
186.0055896763851
 20
15.80702313549589
 10
185.985770496161
 20
15.75844135397704
 72
     4
 94
        3
 73
     0
 74
     0
 95
       70
 96
       66
 40
0.0
 40
0.0
 40
0.0
 40
0.0
 40
0.0241731073021472
 40
0.0846058988986729
 40
0.1631685280352999
 40
0.2417311571788903
 40
0.3021639488291898
 40
0.3263370654894688
 40
0.3533118254248028
 40
0.4228783438921294
 40
0.5179999095312621
 40
0.6216398239465285
 40
0.716761389149896
 40
0.7863279069649117
 40
0.813302679176109
 40
0.8372943998770928
 40
0.8945054261372123
 40
0.9627895541962177
 40
1.020000580349084
 40
1.043992300975182
 40
1.071934345522955
 40
1.113121768772888
 40
1.145225199332213
 40
1.225483775412751
 40
1.329819923771463
 40
1.434156071994357
 40
1.514414647795778
 40
1.546518078208386
 40
1.578974764260188
 40
1.662678849314126
 40
1.777131373668347
 40
1.901833377474737
 40
2.016285900500499
 40
2.099989982527838
 40
2.132446666570196
 40
2.15878235448592
 40
2.216720867907709
 40
2.27465938133413
 40
2.300995069256066
 40
2.333451754066038
 40
2.41715583654369
 40
2.53160835898513
 40
2.656310362283625
 40
2.770762886388729
 40
2.854466971339866
 40
2.886923657363672
 40
2.913597976833104
 40
2.98238964287491
 40
3.076451716946774
 40
3.178937260458387
 40
3.272999334739792
 40
3.341791001059013
 40
3.368465320663326
 40
3.396976080738575
 40
3.472140811845783
 40
3.578408190308473
 40
3.700226892455937
 40
3.822045594634154
 40
3.928312973256261
 40
4.003477705314658
 40
4.031988456866724
 40
4.058324144797522
 40
4.11626265823668
 40
4.174201171400474
 40
4.200536849608406
 40
4.200536849608406
 40
4.200536849608406
 40
4.200536849608406
 10
185.985770496161
 20
15.75844135397704
 10
185.993825954468
 20
15.75844359811686
 10
186.0220200663241
 20
15.75845146032796
 10
186.0765534803674
 20
15.7583075482837
 10
186.1482891808604
 20
15.75909120499897
 10
186.2236240137062
 20
15.7562757046381
 10
186.2713052366439
 20
15.76298403400956
 10
186.3195071245616
 20
15.75197563692432
 10
186.3062571799873
 20
15.80546402997032
 10
186.3151093964538
 20
15.86049583543091
 10
186.3108698036285
 20
15.95419908726108
 10
186.313348348128
 20
16.04959482218531
 10
186.309093870606
 20
16.14356821983387
 10
186.3179818665846
 20
16.19795062438012
 10
186.3046977409945
 20
16.2523399769146
 10
186.3514119277109
 20
16.23842216335358
 10
186.3943254545736
 20
16.24103877374043
 10
186.4605443456686
 20
16.23648422450754
 10
186.5013342271799
 20
16.22778162134163
 10
186.552514569082
 20
16.23531799890193
 10
186.5253720487201
 20
16.19349970223292
 10
186.4803096055708
 20
16.20284992072592
 10
186.4942065045051
 20
16.13841207371837
 10
186.4858414431656
 20
16.07378219627398
 10
186.4903632178399
 20
15.97529141193887
 10
186.4854741311169
 20
15.8759593284257
 10
186.4950258992081
 20
15.81293115552966
 10
186.4799761455202
 20
15.74964011499787
 10
186.5449159457208
 20
15.76515072944267
 10
186.6116246399498
 20
15.75499387697812
 10
186.7241435470828
 20
15.75988800099366
 10
186.8390235448954
 20
15.75691204732783
 10
186.9519871999746
 20
15.7622166418499
 10
187.0176267597679
 20
15.75107306472088
 10
187.0816276691053
 20
15.76744532319856
 10
187.070314288919
 20
15.71761689905274
 10
187.0775339871509
 20
15.67416715212121
 10
187.0703142611269
 20
15.63071745587443
 10
187.0816277175994
 20
15.58088895196875
 10
187.0176263598971
 20
15.59726166091361
 10
186.951992124046
 20
15.58611271661587
 10
186.838997431733
 20
15.59144857206853
 10
186.7242456548643
 20
15.5883434566382
 10
186.6113183686861
 20
15.59364894682588
 10
186.5455220903585
 20
15.58257300019592
 10
186.4816097975359
 20
15.59887597847617
 10
186.4936015165127
 20
15.5442352439574
 10
186.4862104613006
 20
15.48854295047841
 10
186.4892684841984
 20
15.39649689140569
 10
186.4893422785684
 20
15.30179109873099
 10
186.4860313578361
 20
15.20952782902265
 10
186.4939505989904
 20
15.15435768736138
 10
186.4815076611618
 20
15.10058169100134
 10
186.5389116551633
 20
15.11453768862779
 10
186.5994708140384
 20
15.10511457884226
 10
186.7048680855082
 20
15.10942885928703
 10
186.8204294070624
 20
15.10835504612031
 10
186.9359688877798
 20
15.10725965900994
 10
187.0414181130843
 20
15.11162525770632
 10
187.1018680471804
 20
15.10209426030669
 10
187.1592837739112
 20
15.11617289606379
 10
187.147777387671
 20
15.06707153265681
 10
187.1537566781749
 20
15.02564658018649
 10
187.1520311050804
 20
14.97651677966695
 10
187.1521500122972
 20
14.94854428447608
 10
187.1521871691834
 20
14.9398028819595
 72
     4
 94
        3
 73
     0
 74
     0
 95
       62
 96
       58
 40
0.0
 40
0.0
 40
0.0
 40
0.0
 40
0.0598250028308769
 40
0.20248464868979
 40
0.3727558389221599
 40
0.5154154847936923
 40
0.5752404975786476
 40
0.9332326775488595
 40
1.29045176283961
 40
1.602077253145985
 40
1.699931634112219
 40
1.799359756425154
 40
2.270120149657193
 40
2.804661928461616
 40
2.882342287383329
 40
3.07654318571918
 40
3.329004354835646
 40
3.581465524568474
 40
3.775666424543761
 40
3.853346784558381
 40
3.899120679595155
 40
3.984129341792181
 40
4.029903236817558
 40
4.105797496059713
 40
4.295533144152673
 40
4.542189486611909
 40
4.788845828875857
 40
4.978581476410238
 40
5.05447573524448
 40
5.621734664339475
 40
6.130867242037511
 40
6.225249780948726
 40
6.318913039727469
 40
6.663579954559085
 40
7.047498900224952
 40
7.435230791575872
 40
7.498943906668284
 40
7.650875181210278
 40
7.832212509001788
 40
7.984143783697174
 40
8.047856898903301
 40
8.091554632732805
 40
8.172707566964457
 40
8.216405300768178
 40
8.289021782161063
 40
8.462184160757436
 40
8.668861838005517
 40
8.842024215264109
 40
8.914640695475304
 40
8.989881580861509
 40
9.155411528827416
 40
9.320941477744203
 40
9.396182352487452
 40
9.454709011143999
 40
9.583467660170934
 40
9.712226309013213
 40
9.770752957989666
 40
9.770752957989666
 40
9.770752957989666
 40
9.770752957989666
 10
187.1521871691834
 20
14.9398028819595
 10
187.1322348171624
 20
14.93980875568671
 10
187.0647037716466
 20
14.93982863806157
 10
186.9410612161789
 20
14.93949362520326
 10
186.7863180150056
 20
14.94107673750512
 10
186.669734948248
 20
14.93686078860495
 10
186.455094263424
 20
14.95215205331627
 10
186.8518948407228
 20
14.59198721286192
 10
186.8945656069267
 20
14.37510503397166
 10
187.3189162146611
 20
14.19325062511448
 10
187.1439821496074
 20
14.0898519656807
 10
187.0194523925082
 20
13.87831523212726
 10
186.7666277235943
 20
14.34806081001557
 10
186.4797602893627
 20
14.99511516984523
 10
186.4906335926661
 20
14.68782672154695
 10
186.4882892777961
 20
14.5228861697178
 10
186.4861096126411
 20
14.28879670711694
 10
186.4980774396348
 20
14.04498072421784
 10
186.4687984740632
 20
13.89855796860985
 10
186.5114522625471
 20
13.75113490174537
 10
186.423981400564
 20
13.76685797306221
 10
186.3768527606744
 20
13.76694303543455
 10
186.2898973207713
 20
13.75109425482909
 10
186.3313474021722
 20
13.89527771422762
 10
186.3029875004285
 20
14.03855052698455
 10
186.3145973775299
 20
14.27674947365264
 10
186.3124175648272
 20
14.50517235240346
 10
186.3103111127993
 20
14.66705729375993
 10
186.3208035438325
 20
14.98153709333751
 10
186.0128963252893
 20
14.29229470872435
 10
185.7055258267455
 20
13.81476750243046
 10
185.5851367066275
 20
14.03741112637429
 10
185.4074607910721
 20
14.15011034955562
 10
185.8853326362894
 20
14.32548143465463
 10
185.9353959057208
 20
14.56091929252027
 10
186.3583799621717
 20
14.95322989344607
 10
186.127675427354
 20
14.93655307029066
 10
186.004968585934
 20
14.9426951894877
 10
185.8325483095662
 20
14.93312822699574
 10
185.7213224694449
 20
14.95448818489666
 10
185.6025779627447
 20
14.92136265357419
 10
185.6183169706686
 20
15.00203900606883
 10
185.6178550933762
 20
15.04645414290853
 10
185.6027881889931
 20
15.12967081778532
 10
185.7372380935443
 20
15.09062651983882
 10
185.8619755545747
 20
15.11739729328421
 10
186.062875523728
 20
15.10063949044051
 10
186.1921540949352
 20
15.12204225913003
 10
186.3328419928295
 20
15.08868778853419
 10
186.2980927452614
 20
15.22651875785067
 10
186.3222185666714
 20
15.3496325734948
 10
186.2967086182391
 20
15.47024055670334
 10
186.3333251146685
 20
15.60539865141494
 10
186.2211417027769
 20
15.58094545781889
 10
186.1280356457136
 20
15.59307749842021
 10
186.0191547579819
 20
15.58957630069992
 10
185.9569697640964
 20
15.58981755951602
 10
185.9375369557246
 20
15.58989295124143
 97
        3
330
B3
330
B4
330
B2
 75
     1
 76
     2
 52
45.0
 41
0.1
 77
     0
 78
     1
 53
45.0
 43
0.0
 44
0.0
 45
-0.282842712474619
 46
0.0
 79
     0
 98
        1
 10
0.0
 20
0.0
  0
HATCH
  5
D0
330
48
100
AcDbEntity
  8
1
  6
Continuous
 62
     2
100
AcDbHatch
 10
0.0
 20
0.0
 30
0.0
210
0.0
220
0.0
230
1.0
  2
CUSTOM14
 70
     0
 71
     1
 91
        1
 92
        1
 93
        4
 72
     1
 10
192.4578138032672
 20
15.22875434022056
 11
191.1602971697031
 21
15.22875434022056
 72
     1
 10
191.1602971697031
 20
15.22875434022056
 11
191.1602971697031
 21
15.39722336795625
 72
     1
 10
191.1602971697031
 20
15.39722336795625
 11
192.4578138032672
 21
15.39722336795625
 72
     1
 10
192.4578138032672
 20
15.39722336795625
 11
192.4578138032672
 21
15.22875434022056
 97
        1
330
B5
 75
     1
 76
     2
 52
45.0
 41
0.1
 77
     0
 78
     1
 53
45.0
 43
0.0
 44
0.0
 45
-0.282842712474619
 46
0.0
 79
     0
 98
        1
 10
0.0
 20
0.0
  0
ENDBLK
  5
4A
330
48
100
AcDbEntity
  8
0
100
AcDbBlockEnd
  0
BLOCK
  5
4D
330
4B
100
AcDbEntity
  8
0
100
AcDbBlockBegin
  2
開示A4枠
 70
     0
 10
0.0
 20
0.0
 30
0.0
  3
開示A4枠
  1

  0
INSERT
  5
4C
330
4B
100
AcDbEntity
  8
1
100
AcDbBlockReference
  2
開示A4
 10
0.0
 20
0.0
 30
0.0
  0
ENDBLK
  5
4E
330
4B
100
AcDbEntity
  8
0
100
AcDbBlockEnd
  0
BLOCK
  5
50
330
4F
100
AcDbEntity
  8
0
100
AcDbBlockBegin
  2
T24
 70
     0
 10
96.82022023830548
 20
116.0812249580943
 30
0.0
  3
T24
  1

  0
LINE
  5
D1
330
4F
100
AcDbEntity
  8
1
  6
Continuous
 62
     7
100
AcDbLine
 10
117.604829929132
 20
130.1530217278188
 30
0.0
 11
117.604829929132
 21
133.0094281883698
 31
0.0
  0
LINE
  5
D2
330
4F
100
AcDbEntity
  8
1
  6
Continuous
 62
     7
100
AcDbLine
 10
121.2388824998079
 20
126.9534105885384
 30
0.0
 11
120.9460016988565
 21
117.5812249580943
 31
0.0
  0
LINE
  5
D3
330
4F
100
AcDbEntity
  8
1
  6
Continuous
 62
     7
100
AcDbLine
 10
121.3053766988565
 20
129.0812249580943
 30
0.0
 11
122.6766266988565
 21
129.0812249580943
 31
0.0
  0
LINE
  5
D4
330
4F
100
AcDbEntity
  8
1
  6
Continuous
 62
     7
100
AcDbLine
 10
117.604829929132
 20
197.2257664428105
 30
0.0
 11
103.748423468581
 21
197.2257664428105
 31
0.0
  0
LINE
  5
D5
330
4F
100
AcDbEntity
  8
1
  6
Continuous
 62
     7
100
AcDbLine
 10
103.748423468581
 20
197.2257664428105
 30
0.0
 11
96.82022023830548
 21
185.2257664428105
 31
0.0
  0
LINE
  5
D6
330
4F
100
AcDbEntity
  8
1
  6
Continuous
 62
     7
100
AcDbLine
 10
96.82022023830548
 20
185.2257664428105
 30
0.0
 11
103.748423468581
 21
173.2257664428105
 31
0.0
  0
LINE
  5
D7
330
4F
100
AcDbEntity
  8
1
  6
Continuous
 62
     7
100
AcDbLine
 10
103.748423468581
 20
173.2257664428105
 30
0.0
 11
117.604829929132
 21
173.2257664428105
 31
0.0
  0
LINE
  5
D8
330
4F
100
AcDbEntity
  8
1
  6
Continuous
 62
     7
100
AcDbLine
 10
117.604829929132
 20
173.2257664428105
 30
0.0
 11
124.5330331594075
 21
185.2257664428105
 31
0.0
  0
LINE
  5
D9
330
4F
100
AcDbEntity
  8
1
  6
Continuous
 62
     7
100
AcDbLine
 10
124.5330331594075
 20
185.2257664428105
 30
0.0
 11
117.604829929132
 21
197.2257664428105
 31
0.0
  0
LINE
  5
DA
330
4F
100
AcDbEntity
  8
1
  6
Continuous
 62
     7
100
AcDbLine
 10
110.6766266988565
 20
134.0812249580943
 30
0.0
 11
122.6766266988565
 21
134.0812249580943
 31
0.0
  0
LINE
  5
DB
330
4F
100
AcDbEntity
  8
1
  6
Continuous
 62
     7
100
AcDbLine
 10
122.6766266988565
 20
134.0812249580943
 30
0.0
 11
124.5330331594075
 21
133.0094281883698
 31
0.0
  0
LINE
  5
DC
330
4F
100
AcDbEntity
  8
1
  6
Continuous
 62
     7
100
AcDbLine
 10
124.5330331594075
 20
133.0094281883698
 30
0.0
 11
124.5330331594075
 21
130.1530217278188
 31
0.0
  0
LINE
  5
DD
330
4F
100
AcDbEntity
  8
1
  6
Continuous
 62
     7
100
AcDbLine
 10
124.5330331594075
 20
130.1530217278188
 30
0.0
 11
122.6766266988565
 21
129.0812249580943
 31
0.0
  0
LINE
  5
DE
330
4F
100
AcDbEntity
  8
1
  6
Continuous
 62
     7
100
AcDbLine
 10
110.6766266988565
 20
116.0812249580943
 30
0.0
 11
117.6766266988565
 21
116.0812249580943
 31
0.0
  0
LINE
  5
DF
330
4F
100
AcDbEntity
  8
1
  6
Continuous
 62
     7
100
AcDbLine
 10
121.3053766988565
 20
129.0812249580943
 30
0.0
 11
121.2388824998079
 21
126.9534105885384
 31
0.0
  0
LINE
  5
E0
330
4F
100
AcDbEntity
  8
1
  6
Continuous
 62
     2
100
AcDbLine
 10
120.0768824998079
 20
126.9534105885385
 30
0.0
 11
121.3053766988565
 21
129.0812249580943
 31
0.0
  0
LINE
  5
E1
330
4F
100
AcDbEntity
  8
1
  6
Continuous
 62
     2
100
AcDbLine
 10
120.0768824998079
 20
126.9534105885385
 30
0.0
 11
119.7465178278888
 21
116.3817410871266
 31
0.0
  0
LINE
  5
E2
330
4F
100
AcDbEntity
  8
1
  6
Continuous
 62
     7
100
AcDbLine
 10
117.6766266988565
 20
116.0812249580943
 30
0.0
 11
119.4460016988565
 21
116.0812249580943
 31
0.0
  0
LINE
  5
E3
330
4F
100
AcDbEntity
  8
1
  6
Continuous
 62
     7
100
AcDbLine
 10
119.4460016988565
 20
116.0812249580943
 30
0.0
 11
120.9460016988565
 21
117.5812249580943
 31
0.0
  0
LINE
  5
E4
330
4F
100
AcDbEntity
  8
1
  6
Continuous
 62
     7
100
AcDbLine
 10
96.8202202383055
 20
133.0094281883698
 30
0.0
 11
98.67662669885651
 21
134.0812249580943
 31
0.0
  0
LINE
  5
E5
330
4F
100
AcDbEntity
  8
1
  6
Continuous
 62
     7
100
AcDbLine
 10
96.8202202383055
 20
130.1530217278188
 30
0.0
 11
96.8202202383055
 21
133.0094281883698
 31
0.0
  0
LINE
  5
E6
330
4F
100
AcDbEntity
  8
1
  6
Continuous
 62
     7
100
AcDbLine
 10
98.67662669885651
 20
129.0812249580943
 30
0.0
 11
96.8202202383055
 21
130.1530217278188
 31
0.0
  0
LINE
  5
E7
330
4F
100
AcDbEntity
  8
1
  6
Continuous
 62
     7
100
AcDbLine
 10
100.1143708979051
 20
126.9534105885385
 30
0.0
 11
100.0478766988565
 21
129.0812249580943
 31
0.0
  0
LINE
  5
E8
330
4F
100
AcDbEntity
  8
1
  6
Continuous
 62
     7
100
AcDbLine
 10
98.67662669885651
 20
129.0812249580943
 30
0.0
 11
100.0478766988565
 21
129.0812249580943
 31
0.0
  0
LINE
  5
E9
330
4F
100
AcDbEntity
  8
1
  6
Continuous
 62
     2
100
AcDbLine
 10
100.0478766988565
 20
129.0812249580943
 30
0.0
 11
101.2763708979051
 21
126.9534105885385
 31
0.0
  0
LINE
  5
EA
330
4F
100
AcDbEntity
  8
1
  6
Continuous
 62
     2
100
AcDbLine
 10
101.5692516988565
 20
117.5812249580943
 30
0.0
 11
101.2763708979051
 21
126.9534105885385
 31
0.0
  0
LINE
  5
EB
330
4F
100
AcDbEntity
  8
1
  6
Continuous
 62
     7
100
AcDbLine
 10
100.1143708979051
 20
126.9534105885385
 30
0.0
 11
101.2763708979051
 21
126.9534105885385
 31
0.0
  0
LINE
  5
EC
330
4F
100
AcDbEntity
  8
1
  6
Continuous
 62
     7
100
AcDbLine
 10
100.4072516988565
 20
117.5812249580943
 30
0.0
 11
100.1143708979051
 21
126.9534105885385
 31
0.0
  0
LINE
  5
ED
330
4F
100
AcDbEntity
  8
1
  6
Continuous
 62
     7
100
AcDbLine
 10
98.67662669885651
 20
134.0812249580943
 30
0.0
 11
110.6766266988565
 21
134.0812249580943
 31
0.0
  0
LINE
  5
EE
330
4F
100
AcDbEntity
  8
1
  6
Continuous
 62
     7
100
AcDbLine
 10
101.9072516988565
 20
116.0812249580943
 30
0.0
 11
110.6766266988565
 21
116.0812249580943
 31
0.0
  0
LINE
  5
EF
330
4F
100
AcDbEntity
  8
1
  6
Continuous
 62
     7
100
AcDbLine
 10
100.4072516988565
 20
117.5812249580943
 30
0.0
 11
101.9072516988565
 21
116.0812249580943
 31
0.0
  0
LINE
  5
F0
330
4F
100
AcDbEntity
  8
1
  6
Continuous
 62
     7
100
AcDbLine
 10
101.5692516988565
 20
117.5812249580943
 30
0.0
 11
100.4072516988565
 21
117.5812249580943
 31
0.0
  0
LINE
  5
F1
330
4F
100
AcDbEntity
  8
1
  6
Continuous
 62
     2
100
AcDbLine
 10
101.6067355698243
 20
116.3817410871266
 30
0.0
 11
101.5692516988565
 21
117.5812249580943
 31
0.0
  0
LINE
  5
F2
330
4F
100
AcDbEntity
  8
1
  6
Continuous
 62
     7
100
AcDbLine
 10
100.0478766988565
 20
129.0812249580943
 30
0.0
 11
121.3053766988565
 21
129.0812249580943
 31
0.0
  0
LINE
  5
F3
330
4F
100
AcDbEntity
  8
1
  6
Continuous
 62
     7
100
AcDbLine
 10
101.2763708979051
 20
126.9534105885385
 30
0.0
 11
121.2388824998079
 21
126.9534105885384
 31
0.0
  0
LINE
  5
F4
330
4F
100
AcDbEntity
  8
1
  6
Continuous
 62
     7
100
AcDbLine
 10
101.5692516988565
 20
117.5812249580943
 30
0.0
 11
120.9460016988565
 21
117.5812249580943
 31
0.0
  0
LINE
  5
F5
330
4F
100
AcDbEntity
  8
1
  6
Continuous
 62
     7
100
AcDbLine
 10
103.748423468581
 20
133.0094281883698
 30
0.0
 11
103.748423468581
 21
130.1530217278188
 31
0.0
  0
ARC
  5
F6
330
4F
100
AcDbEntity
  8
1
  6
Continuous
 62
     7
100
AcDbCircle
 10
121.0689315442698
 20
135.2151995543099
 30
0.0
 40
6.133974596215599
100
AcDbArc
 50
235.6157525319577
 51
296.0280189080158
  0
ARC
  5
F7
330
4F
100
AcDbEntity
  8
1
  6
Continuous
 62
     7
100
AcDbCircle
 10
110.6766266988565
 20
152.0094281883699
 30
0.0
 40
22.92820323027559
100
AcDbArc
 50
270.0
 51
287.5879537739937
  0
ARC
  5
F8
330
4F
100
AcDbEntity
  8
1
  6
Continuous
 62
     7
100
AcDbCircle
 10
110.6766266988565
 20
111.1530217278187
 30
0.0
 40
22.9282032302756
100
AcDbArc
 50
72.41204622600632
 51
90.0
  0
ARC
  5
F9
330
4F
100
AcDbEntity
  8
1
  6
Continuous
 62
     7
100
AcDbCircle
 10
121.0689315442698
 20
127.9472503618787
 30
0.0
 40
6.133974596215593
100
AcDbArc
 50
64.38424746804299
 51
124.3842474680422
  0
ARC
  5
FA
330
4F
100
AcDbEntity
  8
1
  6
Continuous
 62
     7
100
AcDbCircle
 10
100.2843218534433
 20
135.2151995543099
 30
0.0
 40
6.133974596215637
100
AcDbArc
 50
243.9719810919831
 51
304.3842474680415
  0
ARC
  5
FB
330
4F
100
AcDbEntity
  8
1
  6
Continuous
 62
     7
100
AcDbCircle
 10
110.6766266988565
 20
111.1530217278187
 30
0.0
 40
22.92820323027561
100
AcDbArc
 50
90.0
 51
107.5879537739937
  0
ARC
  5
FC
330
4F
100
AcDbEntity
  8
1
  6
Continuous
 62
     7
100
AcDbCircle
 10
110.6766266988565
 20
152.0094281883699
 30
0.0
 40
22.92820323027557
100
AcDbArc
 50
252.4120462260063
 51
270.0
  0
ARC
  5
FD
330
4F
100
AcDbEntity
  8
1
  6
Continuous
 62
     7
100
AcDbCircle
 10
100.2843218534433
 20
127.9472503618787
 30
0.0
 40
6.133974596215558
100
AcDbArc
 50
55.61575253195873
 51
115.6157525319582
  0
CIRCLE
  5
FE
330
4F
100
AcDbEntity
  8
1
  6
Continuous
 62
     7
100
AcDbCircle
 10
110.6766266988565
 20
185.2257664428105
 30
0.0
 40
12.0
  0
CIRCLE
  5
FF
330
4F
100
AcDbEntity
  8
1
  6
Continuous
 62
     7
100
AcDbCircle
 10
110.6766266988565
 20
185.2257664428105
 30
0.0
 40
7.0
  0
CIRCLE
  5
100
330
4F
100
AcDbEntity
  8
1
  6
Continuous
 62
     7
100
AcDbCircle
 10
110.6766266988565
 20
185.2257664428105
 30
0.0
 40
7.475000000000009
  0
CIRCLE
  5
101
330
4F
100
AcDbEntity
  8
1
  6
Continuous
 62
     2
100
AcDbCircle
 10
110.6766266988565
 20
185.2257664428105
 30
0.0
 40
8.331000000000003
  0
CIRCLE
  5
102
330
4F
100
AcDbEntity
  8
1
  6
Continuous
 62
     7
100
AcDbCircle
 10
110.6766266988565
 20
185.2257664428105
 30
0.0
 40
8.475000000000009
  0
ENDBLK
  5
51
330
4F
100
AcDbEntity
  8
0
100
AcDbBlockEnd
  0
BLOCK
  5
120
330
119
100
AcDbEntity
  8
0
100
AcDbBlockBegin
  2
*D4
 70
     1
 10
0.0
 20
0.0
 30
0.0
  3
*D4
  1

  0
LINE
  5
11A
330
119
100
AcDbEntity
  8
1
  6
Continuous
 62
     2
100
AcDbLine
 10
85.8202202383055
 20
116.0812249580943
 30
0.0
 11
85.8202202383055
 21
129.0812249580943
 31
0.0
  0
LINE
  5
11B
330
119
100
AcDbEntity
  8
1
  6
Continuous
 62
     2
100
AcDbLine
 10
100.0478766988565
 20
129.0812249580943
 30
0.0
 11
84.8202202383055
 21
129.0812249580943
 31
0.0
  0
LINE
  5
11C
330
119
100
AcDbEntity
  8
1
  6
Continuous
 62
     2
100
AcDbLine
 10
101.9072516988565
 20
116.0812249580943
 30
0.0
 11
84.8202202383055
 21
116.0812249580943
 31
0.0
  0
SOLID
  5
11D
330
119
100
AcDbEntity
  8
1
 62
     2
100
AcDbTrace
 10
85.35943649674961
 20
119.5812249580943
 30
0.0
 11
86.28100397986138
 21
119.5812249580943
 31
0.0
 12
85.8202202383055
 22
116.0812249580943
 32
0.0
 13
85.8202202383055
 23
116.0812249580943
 33
0.0
  0
SOLID
  5
11E
330
119
100
AcDbEntity
  8
1
 62
     2
100
AcDbTrace
 10
86.28100397986138
 20
125.5812249580943
 30
0.0
 11
85.35943649674961
 21
125.5812249580943
 31
0.0
 12
85.8202202383055
 22
129.0812249580943
 32
0.0
 13
85.8202202383055
 23
129.0812249580943
 33
0.0
  0
MTEXT
  5
11F
330
119
100
AcDbEntity
  8
1
 62
     7
100
AcDbMText
 10
84.8202202383055
 20
120.6739283615189
 30
0.0
 40
3.5
 41
0.0
 71
     7
 72
     1
  1
13
  7
CONVERTER_12
 11
0.0
 21
1.0
 31
0.0
 73
     1
 44
0.60024009603842
  0
ENDBLK
  5
121
330
119
100
AcDbEntity
  8
0
100
AcDbBlockEnd
  0
BLOCK
  5
12B
330
124
100
AcDbEntity
  8
0
100
AcDbBlockBegin
  2
*D5
 70
     1
 10
0.0
 20
0.0
 30
0.0
  3
*D5
  1

  0
LINE
  5
125
330
124
100
AcDbEntity
  8
1
  6
Continuous
 62
     2
100
AcDbLine
 10
96.82022023830548
 20
208.2257664428105
 30
0.0
 11
124.5330331594075
 21
208.2257664428105
 31
0.0
  0
LINE
  5
126
330
124
100
AcDbEntity
  8
1
  6
Continuous
 62
     2
100
AcDbLine
 10
124.5330331594075
 20
185.2257664428105
 30
0.0
 11
124.5330331594075
 21
209.2257664428105
 31
0.0
  0
LINE
  5
127
330
124
100
AcDbEntity
  8
1
  6
Continuous
 62
     2
100
AcDbLine
 10
96.82022023830548
 20
185.2257664428105
 30
0.0
 11
96.82022023830548
 21
209.2257664428105
 31
0.0
  0
SOLID
  5
128
330
124
100
AcDbEntity
  8
1
 62
     2
100
AcDbTrace
 10
100.3202202383055
 20
208.6865501843664
 30
0.0
 11
100.3202202383055
 21
207.7649827012546
 31
0.0
 12
96.82022023830548
 22
208.2257664428105
 32
0.0
 13
96.82022023830548
 23
208.2257664428105
 33
0.0
  0
SOLID
  5
129
330
124
100
AcDbEntity
  8
1
 62
     2
100
AcDbTrace
 10
121.0330331594075
 20
207.7649827012546
 30
0.0
 11
121.0330331594075
 21
208.6865501843664
 31
0.0
 12
124.5330331594075
 22
208.2257664428105
 32
0.0
 13
124.5330331594075
 23
208.2257664428105
 33
0.0
  0
MTEXT
  5
12A
330
124
100
AcDbEntity
  8
1
 62
     7
100
AcDbMText
 10
108.0516266988565
 20
209.2257664428105
 30
0.0
 40
3.5
 41
0.0
 71
     7
 72
     1
  1
28
  7
CONVERTER_12
 11
0.9999999999970619
 21
2.424068405545306E-6
 31
0.0
 73
     1
 44
0.60024009603842
  0
ENDBLK
  5
12C
330
124
100
AcDbEntity
  8
0
100
AcDbBlockEnd
  0
BLOCK
  5
136
330
12F
100
AcDbEntity
  8
0
100
AcDbBlockBegin
  2
*D6
 70
     1
 10
0.0
 20
0.0
 30
0.0
  3
*D6
  1

  0
LINE
  5
130
330
12F
100
AcDbEntity
  8
1
  6
Continuous
 62
     2
100
AcDbLine
 10
133.5330331594075
 20
197.2257664428105
 30
0.0
 11
133.5330331594075
 21
173.2257664428105
 31
0.0
  0
LINE
  5
131
330
12F
100
AcDbEntity
  8
1
  6
Continuous
 62
     2
100
AcDbLine
 10
117.604829929132
 20
173.2257664428105
 30
0.0
 11
134.5330331594075
 21
173.2257664428105
 31
0.0
  0
LINE
  5
132
330
12F
100
AcDbEntity
  8
1
  6
Continuous
 62
     2
100
AcDbLine
 10
117.604829929132
 20
197.2257664428105
 30
0.0
 11
134.5330331594075
 21
197.2257664428105
 31
0.0
  0
SOLID
  5
133
330
12F
100
AcDbEntity
  8
1
 62
     2
100
AcDbTrace
 10
133.9938169009634
 20
193.7257664428105
 30
0.0
 11
133.0722494178516
 21
193.7257664428105
 31
0.0
 12
133.5330331594075
 22
197.2257664428105
 32
0.0
 13
133.5330331594075
 23
197.2257664428105
 33
0.0
  0
SOLID
  5
134
330
12F
100
AcDbEntity
  8
1
 62
     2
100
AcDbTrace
 10
133.0722494178516
 20
176.7257664428105
 30
0.0
 11
133.9938169009634
 21
176.7257664428105
 31
0.0
 12
133.5330331594075
 22
173.2257664428105
 32
0.0
 13
133.5330331594075
 23
173.2257664428105
 33
0.0
  0
MTEXT
  5
135
330
12F
100
AcDbEntity
  8
1
 62
     7
100
AcDbMText
 10
132.5330331594075
 20
182.6007664428105
 30
0.0
 40
3.5
 41
0.0
 71
     7
 72
     1
  1
24
  7
CONVERTER_12
 11
0.0
 21
1.0
 31
0.0
 73
     1
 44
0.60024009603842
  0
ENDBLK
  5
137
330
12F
100
AcDbEntity
  8
0
100
AcDbBlockEnd
  0
BLOCK
  5
141
330
13A
100
AcDbEntity
  8
0
100
AcDbBlockBegin
  2
*D7
 70
     1
 10
0.0
 20
0.0
 30
0.0
  3
*D7
  1

  0
LINE
  5
13B
330
13A
100
AcDbEntity
  8
1
  6
Continuous
 62
     2
100
AcDbLine
 10
77.8202202383055
 20
134.0812249580943
 30
0.0
 11
77.8202202383055
 21
116.0812249580943
 31
0.0
  0
LINE
  5
13C
330
13A
100
AcDbEntity
  8
1
  6
Continuous
 62
     2
100
AcDbLine
 10
101.9072516988565
 20
116.0812249580943
 30
0.0
 11
76.8202202383055
 21
116.0812249580943
 31
0.0
  0
LINE
  5
13D
330
13A
100
AcDbEntity
  8
1
  6
Continuous
 62
     2
100
AcDbLine
 10
98.67662669885651
 20
134.0812249580943
 30
0.0
 11
76.8202202383055
 21
134.0812249580943
 31
0.0
  0
SOLID
  5
13E
330
13A
100
AcDbEntity
  8
1
 62
     2
100
AcDbTrace
 10
78.28100397986138
 20
130.5812249580943
 30
0.0
 11
77.35943649674961
 21
130.5812249580943
 31
0.0
 12
77.8202202383055
 22
134.0812249580943
 32
0.0
 13
77.8202202383055
 23
134.0812249580943
 33
0.0
  0
SOLID
  5
13F
330
13A
100
AcDbEntity
  8
1
 62
     2
100
AcDbTrace
 10
77.35943649674961
 20
119.5812249580943
 30
0.0
 11
78.28100397986138
 21
119.5812249580943
 31
0.0
 12
77.8202202383055
 22
116.0812249580943
 32
0.0
 13
77.8202202383055
 23
116.0812249580943
 33
0.0
  0
MTEXT
  5
140
330
13A
100
AcDbEntity
  8
1
 62
     7
100
AcDbMText
 10
76.8202202383055
 20
123.4654706449473
 30
0.0
 40
3.5
 41
0.0
 71
     7
 72
     1
  1
18
  7
CONVERTER_12
 11
0.0
 21
1.0
 31
0.0
 73
     1
 44
0.60024009603842
  0
ENDBLK
  5
142
330
13A
100
AcDbEntity
  8
0
100
AcDbBlockEnd
  0
ENDSEC
  0
SECTION
  2
ENTITIES
  0
INSERT
  5
52
330
1F
100
AcDbEntity
  8
0
100
AcDbBlockReference
  2
開示A4枠
 10
0.0
 20
0.0
 30
0.0
  0
INSERT
  5
53
330
1F
100
AcDbEntity
  8
1
100
AcDbBlockReference
  2
T24
 10
96.82022023830548
 20
116.0812249580943
 30
0.0
  0
LINE
  5
103
330
1F
100
AcDbEntity
  8
1
  6
DASH_CENTER
 62
     2
100
AcDbLine
 10
93.82022023830548
 20
185.2257664428105
 30
0.0
 11
127.5330331594075
 21
185.2257664428105
 31
0.0
  0
LINE
  5
104
330
1F
100
AcDbEntity
  8
1
  6
DASH_CENTER
 62
     2
100
AcDbLine
 10
110.6766266988565
 20
200.2257664428105
 30
0.0
 11
110.6766266988565
 21
170.2257664428105
 31
0.0
  0
LINE
  5
105
330
1F
100
AcDbEntity
  8
1
  6
DASH_CENTER
 62
     2
100
AcDbLine
 10
110.6766266988565
 20
137.0812249580943
 30
0.0
 11
110.6766266988565
 21
113.0812249580943
 31
0.0
  0
SOLID
  5
106
330
1F
100
AcDbEntity
  8
1
 62
     2
100
AcDbTrace
 10
123.2746717109366
 20
120.5341170249599
 30
0.0
 11
122.4765708592602
 21
120.073333283404
 31
0.0
 12
121.1256212850984
 22
123.3348140674275
 32
0.0
 13
121.1256212850984
 23
123.3348140674275
 33
0.0
  0
LEADER
  5
107
330
1F
100
AcDbEntity
  8
1
  6
Continuous
 62
     2
100
AcDbLeader
  3
Standard
 71
     0
 76
     3
 10
121.1256212850984
 20
123.3348140674275
 30
0.0
 10
131.0869856018591
 20
106.0812249580943
 30
0.0
 10
144.7380546631415
 20
106.0812249580943
 30
0.0
  0
SOLID
  5
108
330
1F
100
AcDbEntity
  8
1
 62
     2
100
AcDbTrace
 10
120.3585762730182
 20
137.3427057421178
 30
0.0
 11
121.1566771246947
 21
136.8819220005619
 31
0.0
 12
119.0076266988565
 22
134.0812249580943
 32
0.0
 13
119.0076266988565
 23
134.0812249580943
 33
0.0
  0
LEADER
  5
109
330
1F
100
AcDbEntity
  8
1
  6
Continuous
 62
     2
100
AcDbLeader
  3
Standard
 71
     0
 76
     3
 10
119.0076266988565
 20
134.0812249580943
 30
0.0
 10
124.7811293907528
 20
144.0812249580943
 30
0.0
 10
141.5523320372417
 20
144.0812249580943
 30
0.0
  0
MTEXT
  5
10B
330
1F
100
AcDbEntity
  8
1
 62
     7
100
AcDbMText
 10
157.5
 20
12.5
 30
0.0
 40
2.5
 41
0.0
 71
     5
 72
     1
  1
9
  7
CONVERTER_12
 73
     1
 44
0.7202881152461
  0
MTEXT
  5
10C
330
1F
100
AcDbEntity
  8
1
 62
     7
100
AcDbMText
 10
151.75
 20
12.5
 30
0.0
 40
2.5
 41
0.0
 71
     5
 72
     1
  1
03
  7
CONVERTER_12
 73
     1
 44
0.7202881152461
  0
MTEXT
  5
10D
330
1F
100
AcDbEntity
  8
1
 62
     7
100
AcDbMText
 10
140.5
 20
12.5
 30
0.0
 40
2.5
 41
0.0
 71
     5
 72
     1
  1
9
  7
CONVERTER_12
 73
     1
 44
0.7202881152461
  0
MTEXT
  5
10E
330
1F
100
AcDbEntity
  8
1
 62
     7
100
AcDbMText
 10
134.75
 20
12.5
 30
0.0
 40
2.5
 41
0.0
 71
     5
 72
     1
  1
03
  7
CONVERTER_12
 73
     1
 44
0.7202881152461
  0
MTEXT
  5
10F
330
1F
100
AcDbEntity
  8
1
 62
     7
100
AcDbMText
 10
123.5
 20
12.5
 30
0.0
 40
2.5
 41
0.0
 71
     5
 72
     1
  1
9
  7
CONVERTER_12
 73
     1
 44
0.7202881152461
  0
MTEXT
  5
110
330
1F
100
AcDbEntity
  8
1
 62
     7
100
AcDbMText
 10
117.75
 20
12.5
 30
0.0
 40
2.5
 41
0.0
 71
     5
 72
     1
  1
03
  7
CONVERTER_12
 73
     1
 44
0.7202881152461
  0
MTEXT
  5
111
330
1F
100
AcDbEntity
  8
1
 62
     7
100
AcDbMText
 10
100.75
 20
12.5
 30
0.0
 40
2.5
 41
0.0
 71
     5
 72
     1
  1
03
  7
CONVERTER_12
 73
     1
 44
0.7202881152461
  0
MTEXT
  5
112
330
1F
100
AcDbEntity
  8
1
 62
     7
100
AcDbMText
 10
106.5
 20
12.5
 30
0.0
 40
2.5
 41
0.0
 71
     5
 72
     1
  1
9
  7
CONVERTER_12
 73
     1
 44
0.7202881152461
  0
MTEXT
  5
113
330
1F
100
AcDbEntity
  8
1
 62
     7
100
AcDbMText
 10
137.79757133366
 20
108.9348464868976
 30
0.0
 40
3.5
 41
0.0
 71
     5
 72
     1
  1
R1/2
  7
CONVERTER_12
 73
     1
 44
1.32052821128451
  0
MTEXT
  5
114
330
1F
100
AcDbEntity
  8
1
 62
     7
100
AcDbMText
 10
133.0194550499772
 20
146.8055410392927
 30
0.0
 40
3.5
 41
0.0
 71
     5
 72
     1
  1
Rp3/8
  7
CONVERTER_12
 73
     1
 44
1.32052821128451
  0
MTEXT
  5
115
330
1F
100
AcDbEntity
  8
1
 62
     7
100
AcDbMText
 10
93.75
 20
17.0
 30
0.0
 40
3.5
 41
0.0
 71
     5
 72
     1
  1
1
  7
CONVERTER_12
 73
     1
 44
0.7202881152461
  0
MTEXT
  5
116
330
1F
100
AcDbEntity
  8
1
 62
     7
100
AcDbMText
 10
57.00000000000001
 20
14.25
 30
0.0
 40
3.5
 41
0.0
 71
     5
 72
     1
  1
T24-13X10
  7
CONVERTER_12
 73
     1
 44
0.7202881152461
  0
MTEXT
  5
117
330
1F
100
AcDbEntity
  8
1
 62
     7
100
AcDbMText
 10
57.00000000000001
 20
22.75
 30
0.0
 40
3.5
 41
0.0
 71
     5
 72
     1
  1
ブッシング
  7
CONVERTER_11
 73
     1
 44
0.54545454545455
  0
MTEXT
  5
118
330
1F
100
AcDbEntity
  8
1
 62
     7
100
AcDbMText
 10
85.25
 20
17.0
 30
0.0
 40
3.5
 41
0.0
 71
     5
 72
     1
  1
1
  7
CONVERTER_12
 73
     1
 44
0.7202881152461
  0
DIMENSION
  5
123
330
1F
100
AcDbEntity
  8
1
100
AcDbDimension
  2
*D4
 10
85.8202202383055
 20
116.0812249580943
 30
0.0
 11
83.0702202383055
 21
122.7739283615189
 31
0.0
 70
    32
  1
<>
 71
     5
 42
-1.0
 53
90.0
  3
ME10_DIM_10
100
AcDbAlignedDimension
 13
100.0478766988565
 23
129.0812249580943
 33
0.0
 14
101.9072516988565
 24
116.0812249580943
 34
0.0
 50
90.0
100
AcDbRotatedDimension
  0
DIMENSION
  5
12E
330
1F
100
AcDbEntity
  8
1
100
AcDbDimension
  2
*D5
 10
96.82022023830548
 20
208.2257664428105
 30
0.0
 11
110.6766266988565
 21
210.9757664428105
 31
0.0
 70
    32
  1
28
 71
     5
 42
-1.0
 53
0.00013888888889
  3
ME10_DIM_11
100
AcDbAlignedDimension
 13
124.5330331594075
 23
185.2257664428105
 33
0.0
 14
96.82022023830548
 24
185.2257664428105
 34
0.0
100
AcDbRotatedDimension
  0
DIMENSION
  5
139
330
1F
100
AcDbEntity
  8
1
100
AcDbDimension
  2
*D6
 10
133.5330331594075
 20
197.2257664428105
 30
0.0
 11
130.7830331594075
 21
185.2257664428105
 31
0.0
 70
    32
  1
<>
 71
     5
 42
-1.0
 53
90.0
  3
ME10_DIM_12
100
AcDbAlignedDimension
 13
117.604829929132
 23
173.2257664428105
 33
0.0
 14
117.604829929132
 24
197.2257664428105
 34
0.0
 50
90.0
100
AcDbRotatedDimension
  0
DIMENSION
  5
144
330
1F
100
AcDbEntity
  8
1
100
AcDbDimension
  2
*D7
 10
77.8202202383055
 20
134.0812249580943
 30
0.0
 11
75.0702202383055
 21
125.5654706449473
 31
0.0
 70
    32
  1
<>
 71
     5
 42
-1.0
 53
90.0
  3
ME10_DIM_13
100
AcDbAlignedDimension
 13
101.9072516988565
 23
116.0812249580943
 33
0.0
 14
98.67662669885651
 24
134.0812249580943
 34
0.0
 50
90.0
100
AcDbRotatedDimension
  0
ENDSEC
  0
SECTION
  2
OBJECTS
  0
DICTIONARY
  5
C
330
0
100
AcDbDictionary
281
     1
  3
ACAD_GROUP
350
D
  3
ACAD_LAYOUT
350
1A
  3
ACAD_MATERIAL
350
3B
  3
ACAD_MLEADERSTYLE
350
147
  3
ACAD_MLINESTYLE
350
17
  3
ACAD_PLOTSETTINGS
350
19
  3
ACAD_PLOTSTYLENAME
350
E
  3
ACAD_VISUALSTYLE
350
2A
  3
AcDbVariableDictionary
350
145
  0
DICTIONARY
  5
D
102
{ACAD_REACTORS
330
C
102
}
330
C
100
AcDbDictionary
281
     1
  0
DICTIONARY
  5
1A
102
{ACAD_REACTORS
330
C
102
}
330
C
100
AcDbDictionary
281
     1
  3
Layout1
350
1E
  3
Layout2
350
26
  3
Model
350
22
  0
DICTIONARY
  5
3B
102
{ACAD_REACTORS
330
C
102
}
330
C
100
AcDbDictionary
281
     1
  3
ByBlock
350
3D
  3
ByLayer
350
3C
  3
Global
350
3E
  0
DICTIONARY
  5
147
102
{ACAD_REACTORS
330
C
102
}
330
C
100
AcDbDictionary
281
     1
  0
DICTIONARY
  5
17
102
{ACAD_REACTORS
330
C
102
}
330
C
100
AcDbDictionary
281
     1
  3
Standard
350
18
  0
DICTIONARY
  5
19
102
{ACAD_REACTORS
330
C
102
}
330
C
100
AcDbDictionary
281
     1
  0
ACDBDICTIONARYWDFLT
  5
E
102
{ACAD_REACTORS
330
C
102
}
330
C
100
AcDbDictionary
281
     1
  3
Normal
350
F
100
AcDbDictionaryWithDefault
340
F
  0
DICTIONARY
  5
2A
102
{ACAD_REACTORS
330
C
102
}
330
C
100
AcDbDictionary
281
     1
  3
2dWireframe
350
2F
  3
3D Hidden
350
31
  3
3dWireframe
350
30
  3
Basic
350
32
  3
Brighten
350
36
  3
ColorChange
350
3A
  3
Conceptual
350
34
  3
Dim
350
35
  3
Facepattern
350
39
  3
Flat
350
2B
  3
FlatWithEdges
350
2C
  3
Gouraud
350
2D
  3
GouraudWithEdges
350
2E
  3
Linepattern
350
38
  3
Realistic
350
33
  3
Thicken
350
37
  0
DICTIONARY
  5
145
102
{ACAD_REACTORS
330
C
102
}
330
C
100
AcDbDictionary
281
     1
  3
DIMASSOC
350
148
  3
HIDETEXT
350
149
  0
LAYOUT
  5
1E
102
{ACAD_REACTORS
330
1A
102
}
330
1A
100
AcDbPlotSettings
  1

  2
none_device
  4

  6

 40
0.0
 41
0.0
 42
0.0
 43
0.0
 44
0.0
 45
0.0
 46
0.0
 47
0.0
 48
0.0
 49
0.0
140
0.0
141
0.0
142
1.0
143
1.0
 70
   688
 72
     0
 73
     0
 74
     5
  7

 75
    16
147
1.0
148
0.0
149
0.0
100
AcDbLayout
  1
Layout1
 70
     1
 71
     1
 10
0.0
 20
0.0
 11
12.0
 21
9.0
 12
0.0
 22
0.0
 32
0.0
 14
1.00000000000000E+20
 24
1.00000000000000E+20
 34
1.00000000000000E+20
 15
-1.00000000000000E+20
 25
-1.00000000000000E+20
 35
-1.00000000000000E+20
146
0.0
 13
0.0
 23
0.0
 33
0.0
 16
1.0
 26
0.0
 36
0.0
 17
0.0
 27
1.0
 37
0.0
 76
     0
330
1B
  0
LAYOUT
  5
26
102
{ACAD_REACTORS
330
1A
102
}
330
1A
100
AcDbPlotSettings
  1

  2
none_device
  4

  6

 40
0.0
 41
0.0
 42
0.0
 43
0.0
 44
0.0
 45
0.0
 46
0.0
 47
0.0
 48
0.0
 49
0.0
140
0.0
141
0.0
142
1.0
143
1.0
 70
   688
 72
     0
 73
     0
 74
     5
  7

 75
    16
147
1.0
148
0.0
149
0.0
100
AcDbLayout
  1
Layout2
 70
     1
 71
     2
 10
0.0
 20
0.0
 11
0.0
 21
0.0
 12
0.0
 22
0.0
 32
0.0
 14
0.0
 24
0.0
 34
0.0
 15
0.0
 25
0.0
 35
0.0
146
0.0
 13
0.0
 23
0.0
 33
0.0
 16
1.0
 26
0.0
 36
0.0
 17
0.0
 27
1.0
 37
0.0
 76
     0
330
23
  0
LAYOUT
  5
22
102
{ACAD_REACTORS
330
1A
102
}
330
1A
100
AcDbPlotSettings
  1

  2
none_device
  4

  6

 40
0.0
 41
0.0
 42
0.0
 43
0.0
 44
0.0
 45
0.0
 46
0.0
 47
0.0
 48
0.0
 49
0.0
140
0.0
141
0.0
142
1.0
143
1.0
 70
  1712
 72
     0
 73
     0
 74
     0
  7

 75
     0
147
1.0
148
0.0
149
0.0
100
AcDbLayout
  1
Model
 70
     1
 71
     0
 10
0.0
 20
0.0
 11
12.0
 21
9.0
 12
0.0
 22
0.0
 32
0.0
 14
0.0
 24
0.0
 34
0.0
 15
209.9999999999999
 25
297.0
 35
0.0
146
0.0
 13
0.0
 23
0.0
 33
0.0
 16
1.0
 26
0.0
 36
0.0
 17
0.0
 27
1.0
 37
0.0
 76
     0
330
1F
331
29
  0
MATERIAL
  5
3D
102
{ACAD_REACTORS
330
3B
102
}
102
{ACAD_XDICTIONARY
360
16C
102
}
330
3B
100
AcDbMaterial
  1
ByBlock
  0
MATERIAL
  5
3C
102
{ACAD_REACTORS
330
3B
102
}
102
{ACAD_XDICTIONARY
360
16A
102
}
330
3B
100
AcDbMaterial
  1
ByLayer
  0
MATERIAL
  5
3E
102
{ACAD_REACTORS
330
3B
102
}
102
{ACAD_XDICTIONARY
360
16E
102
}
330
3B
100
AcDbMaterial
  1
Global
  0
MLINESTYLE
  5
18
102
{ACAD_REACTORS
330
17
102
}
330
17
100
AcDbMlineStyle
  2
Standard
 70
     0
  3

 62
   256
 51
90.0
 52
90.0
 71
     2
 49
0.5
 62
   256
  6
BYLAYER
 49
-0.5
 62
   256
  6
BYLAYER
  0
ACDBPLACEHOLDER
  5
F
102
{ACAD_REACTORS
330
E
102
}
330
E
  0
VISUALSTYLE
  5
2F
102
{ACAD_REACTORS
330
2A
102
}
102
{ACAD_XDICTIONARY
360
152
102
}
330
2A
100
AcDbVisualStyle
  2
2dWireframe
 70
     4
 71
     0
 72
     2
 73
     0
 90
        0
 40
-0.6
 41
-30.0
 62
     5
 63
     7
 74
     1
 91
        4
 64
     7
 65
   257
 75
     1
175
     1
 42
1.0
 92
        0
 66
   257
 43
1.0
 76
     1
 77
     6
 78
     2
 67
     7
 79
     5
170
     0
171
     0
290
     0
174
     0
 93
        1
 44
0.0
173
     0
291
     0
 45
0.0
1001
ACAD
1000
AcDbSavedByObjectVersion
1070
     0
  0
VISUALSTYLE
  5
31
102
{ACAD_REACTORS
330
2A
102
}
102
{ACAD_XDICTIONARY
360
156
102
}
330
2A
100
AcDbVisualStyle
  2
3D Hidden
 70
     6
 71
     1
 72
     2
 73
     2
 90
        0
 40
-0.6
 41
-30.0
 62
     5
 63
     7
 74
     2
 91
        2
 64
     7
 65
   257
 75
     2
175
     1
 42
40.0
 92
        0
 66
   257
 43
1.0
 76
     1
 77
     6
 78
     2
 67
     7
 79
     3
170
     0
171
     0
290
     0
174
     0
 93
        1
 44
0.0
173
     0
291
     0
 45
0.0
1001
ACAD
1000
AcDbSavedByObjectVersion
1070
     0
  0
VISUALSTYLE
  5
30
102
{ACAD_REACTORS
330
2A
102
}
102
{ACAD_XDICTIONARY
360
154
102
}
330
2A
100
AcDbVisualStyle
  2
3dWireframe
 70
     5
 71
     0
 72
     2
 73
     0
 90
        0
 40
-0.6
 41
-30.0
 62
     5
 63
     7
 74
     1
 91
        4
 64
     7
 65
   257
 75
     1
175
     1
 42
1.0
 92
        0
 66
   257
 43
1.0
 76
     1
 77
     6
 78
     2
 67
     7
 79
     5
170
     0
171
     0
290
     0
174
     0
 93
        1
 44
0.0
173
     0
291
     0
 45
0.0
1001
ACAD
1000
AcDbSavedByObjectVersion
1070
     0
  0
VISUALSTYLE
  5
32
102
{ACAD_REACTORS
330
2A
102
}
102
{ACAD_XDICTIONARY
360
158
102
}
330
2A
100
AcDbVisualStyle
  2
Basic
 70
     7
 71
     1
 72
     0
 73
     1
 90
        0
 40
-0.6
 41
-30.0
 62
     5
 63
     7
 74
     0
 91
        4
 64
     7
 65
   257
 75
     1
175
     1
 42
1.0
 92
        8
 66
     7
 43
1.0
 76
     1
 77
     6
 78
     2
 67
     7
 79
     5
170
     0
171
     0
290
     0
174
     0
 93
        1
 44
0.0
173
     0
291
     1
 45
0.0
1001
ACAD
1000
AcDbSavedByObjectVersion
1070
     0
  0
VISUALSTYLE
  5
36
102
{ACAD_REACTORS
330
2A
102
}
102
{ACAD_XDICTIONARY
360
160
102
}
330
2A
100
AcDbVisualStyle
  2
Brighten
 70
    12
 71
     2
 72
     2
 73
     0
 90
        0
 40
-0.6
 41
-30.0
 62
     5
 63
     7
 74
     1
 91
        4
 64
     7
 65
   257
 75
     1
175
     1
 42
1.0
 92
        8
 66
     7
 43
1.0
 76
     1
 77
     6
 78
     2
 67
     7
 79
     5
170
     0
171
     0
290
     0
174
     0
 93
        1
 44
50.0
173
     0
291
     1
 45
0.0
1001
ACAD
1000
AcDbSavedByObjectVersion
1070
     0
  0
VISUALSTYLE
  5
3A
102
{ACAD_REACTORS
330
2A
102
}
102
{ACAD_XDICTIONARY
360
168
102
}
330
2A
100
AcDbVisualStyle
  2
ColorChange
 70
    16
 71
     2
 72
     2
 73
     3
 90
        0
 40
-0.6
 41
-30.0
 62
     5
 63
     8
 74
     1
 91
        4
 64
     7
 65
   257
 75
     1
175
     1
 42
1.0
 92
        8
 66
     8
 43
1.0
 76
     1
 77
     6
 78
     2
 67
     7
 79
     5
170
     0
171
     0
290
     0
174
     0
 93
        1
 44
0.0
173
     0
291
     1
 45
0.0
1001
ACAD
1000
AcDbSavedByObjectVersion
1070
     0
  0
VISUALSTYLE
  5
34
102
{ACAD_REACTORS
330
2A
102
}
102
{ACAD_XDICTIONARY
360
15C
102
}
330
2A
100
AcDbVisualStyle
  2
Conceptual
 70
     9
 71
     3
 72
     2
 73
     0
 90
        0
 40
-0.6
 41
-30.0
 62
     5
 63
     7
 74
     2
 91
        2
 64
     7
 65
   257
 75
     1
175
     1
 42
40.0
 92
        8
 66
     7
 43
1.0
 76
     1
 77
     6
 78
     2
 67
     7
 79
     3
170
     0
171
     0
290
     0
174
     0
 93
        1
 44
0.0
173
     0
291
     0
 45
0.0
1001
ACAD
1000
AcDbSavedByObjectVersion
1070
     0
  0
VISUALSTYLE
  5
35
102
{ACAD_REACTORS
330
2A
102
}
102
{ACAD_XDICTIONARY
360
15E
102
}
330
2A
100
AcDbVisualStyle
  2
Dim
 70
    11
 71
     2
 72
     2
 73
     0
 90
        0
 40
-0.6
 41
-30.0
 62
     5
 63
     7
 74
     1
 91
        4
 64
     7
 65
   257
 75
     1
175
     1
 42
1.0
 92
        8
 66
     7
 43
1.0
 76
     1
 77
     6
 78
     2
 67
     7
 79
     5
170
     0
171
     0
290
     0
174
     0
 93
        1
 44
-50.0
173
     0
291
     1
 45
0.0
1001
ACAD
1000
AcDbSavedByObjectVersion
1070
     0
  0
VISUALSTYLE
  5
39
102
{ACAD_REACTORS
330
2A
102
}
102
{ACAD_XDICTIONARY
360
166
102
}
330
2A
100
AcDbVisualStyle
  2
Facepattern
 70
    15
 71
     2
 72
     2
 73
     0
 90
        0
 40
-0.6
 41
-30.0
 62
     5
 63
     7
 74
     1
 91
        4
 64
     7
 65
   257
 75
     1
175
     1
 42
1.0
 92
        8
 66
     7
 43
1.0
 76
     1
 77
     6
 78
     2
 67
     7
 79
     5
170
     0
171
     0
290
     0
174
     0
 93
        1
 44
0.0
173
     0
291
     1
 45
0.0
1001
ACAD
1000
AcDbSavedByObjectVersion
1070
     0
  0
VISUALSTYLE
  5
2B
102
{ACAD_REACTORS
330
2A
102
}
102
{ACAD_XDICTIONARY
360
14A
102
}
330
2A
100
AcDbVisualStyle
  2
Flat
 70
     0
 71
     2
 72
     1
 73
     1
 90
        2
 40
-0.6
 41
30.0
 62
     5
 63
     7
 74
     0
 91
        4
 64
     7
 65
   257
 75
     1
175
     1
 42
1.0
 92
        8
 66
     7
 43
1.0
 76
     1
 77
     6
 78
     2
 67
     7
 79
     5
170
     0
171
     0
290
     0
174
     0
 93
       13
 44
0.0
173
     0
291
     1
 45
0.0
1001
ACAD
1000
AcDbSavedByObjectVersion
1070
     0
  0
VISUALSTYLE
  5
2C
102
{ACAD_REACTORS
330
2A
102
}
102
{ACAD_XDICTIONARY
360
14C
102
}
330
2A
100
AcDbVisualStyle
  2
FlatWithEdges
 70
     1
 71
     2
 72
     1
 73
     1
 90
        2
 40
-0.6
 41
30.0
 62
     5
 63
     7
 74
     1
 91
        4
 64
     7
 65
   257
 75
     1
175
     1
 42
1.0
 92
        0
 66
   257
 43
1.0
 76
     1
 77
     6
 78
     2
 67
     7
 79
     5
170
     0
171
     0
290
     0
174
     0
 93
       13
 44
0.0
173
     0
291
     1
 45
0.0
1001
ACAD
1000
AcDbSavedByObjectVersion
1070
     0
  0
VISUALSTYLE
  5
2D
102
{ACAD_REACTORS
330
2A
102
}
102
{ACAD_XDICTIONARY
360
14E
102
}
330
2A
100
AcDbVisualStyle
  2
Gouraud
 70
     2
 71
     2
 72
     2
 73
     1
 90
        2
 40
-0.6
 41
30.0
 62
     5
 63
     7
 74
     0
 91
        4
 64
     7
 65
   257
 75
     1
175
     1
 42
1.0
 92
        0
 66
     7
 43
1.0
 76
     1
 77
     6
 78
     2
 67
     7
 79
     5
170
     0
171
     0
290
     0
174
     0
 93
       13
 44
0.0
173
     0
291
     1
 45
0.0
1001
ACAD
1000
AcDbSavedByObjectVersion
1070
     0
  0
VISUALSTYLE
  5
2E
102
{ACAD_REACTORS
330
2A
102
}
102
{ACAD_XDICTIONARY
360
150
102
}
330
2A
100
AcDbVisualStyle
  2
GouraudWithEdges
 70
     3
 71
     2
 72
     2
 73
     1
 90
        2
 40
-0.6
 41
30.0
 62
     5
 63
     7
 74
     1
 91
        4
 64
     7
 65
   257
 75
     1
175
     1
 42
1.0
 92
        0
 66
   257
 43
1.0
 76
     1
 77
     6
 78
     2
 67
     7
 79
     5
170
     0
171
     0
290
     0
174
     0
 93
       13
 44
0.0
173
     0
291
     1
 45
0.0
1001
ACAD
1000
AcDbSavedByObjectVersion
1070
     0
  0
VISUALSTYLE
  5
38
102
{ACAD_REACTORS
330
2A
102
}
102
{ACAD_XDICTIONARY
360
164
102
}
330
2A
100
AcDbVisualStyle
  2
Linepattern
 70
    14
 71
     2
 72
     2
 73
     0
 90
        0
 40
-0.6
 41
-30.0
 62
     5
 63
     7
 74
     1
 91
        4
 64
     7
 65
   257
 75
     7
175
     7
 42
1.0
 92
        8
 66
     7
 43
1.0
 76
     1
 77
     6
 78
     2
 67
     7
 79
     5
170
     0
171
     0
290
     0
174
     0
 93
        1
 44
0.0
173
     0
291
     1
 45
0.0
1001
ACAD
1000
AcDbSavedByObjectVersion
1070
     0
  0
VISUALSTYLE
  5
33
102
{ACAD_REACTORS
330
2A
102
}
102
{ACAD_XDICTIONARY
360
15A
102
}
330
2A
100
AcDbVisualStyle
  2
Realistic
 70
     8
 71
     2
 72
     2
 73
     0
 90
        0
 40
-0.6
 41
-30.0
 62
     5
 63
     7
 74
     1
 91
        0
 64
     7
 65
   257
 75
     1
175
     1
 42
1.0
 92
        8
 66
     8
 43
1.0
 76
     1
 77
     6
 78
     2
 67
     7
 79
     5
170
     0
171
     0
290
     0
174
     0
 93
       13
 44
0.0
173
     0
291
     0
 45
0.0
1001
ACAD
1000
AcDbSavedByObjectVersion
1070
     0
  0
VISUALSTYLE
  5
37
102
{ACAD_REACTORS
330
2A
102
}
102
{ACAD_XDICTIONARY
360
162
102
}
330
2A
100
AcDbVisualStyle
  2
Thicken
 70
    13
 71
     2
 72
     2
 73
     0
 90
        0
 40
-0.6
 41
-30.0
 62
     5
 63
     7
 74
     1
 91
        4
 64
     7
 65
   257
 75
     1
175
     1
 42
1.0
 92
       12
 66
     7
 43
1.0
 76
     1
 77
     6
 78
     2
 67
     7
 79
     5
170
     0
171
     0
290
     0
174
     0
 93
        1
 44
0.0
173
     0
291
     1
 45
0.0
1001
ACAD
1000
AcDbSavedByObjectVersion
1070
     0
  0
DICTIONARYVAR
  5
148
102
{ACAD_REACTORS
330
145
102
}
330
145
100
DictionaryVariables
280
     0
  1
2
  0
DICTIONARYVAR
  5
149
102
{ACAD_REACTORS
330
145
102
}
330
145
100
DictionaryVariables
280
     0
  1
1
  0
DICTIONARY
  5
16C
330
3D
100
AcDbDictionary
280
     1
281
     1
  3
ACAD_XREC_ROUNDTRIP
360
16D
  0
DICTIONARY
  5
16A
330
3C
100
AcDbDictionary
280
     1
281
     1
  3
ACAD_XREC_ROUNDTRIP
360
16B
  0
DICTIONARY
  5
16E
330
3E
100
AcDbDictionary
280
     1
281
     1
  3
ACAD_XREC_ROUNDTRIP
360
16F
  0
DICTIONARY
  5
152
330
2F
100
AcDbDictionary
280
     1
281
     1
  3
ACAD_XREC_ROUNDTRIP
360
153
  0
DICTIONARY
  5
156
330
31
100
AcDbDictionary
280
     1
281
     1
  3
ACAD_XREC_ROUNDTRIP
360
157
  0
DICTIONARY
  5
154
330
30
100
AcDbDictionary
280
     1
281
     1
  3
ACAD_XREC_ROUNDTRIP
360
155
  0
DICTIONARY
  5
158
330
32
100
AcDbDictionary
280
     1
281
     1
  3
ACAD_XREC_ROUNDTRIP
360
159
  0
DICTIONARY
  5
160
330
36
100
AcDbDictionary
280
     1
281
     1
  3
ACAD_XREC_ROUNDTRIP
360
161
  0
DICTIONARY
  5
168
330
3A
100
AcDbDictionary
280
     1
281
     1
  3
ACAD_XREC_ROUNDTRIP
360
169
  0
DICTIONARY
  5
15C
330
34
100
AcDbDictionary
280
     1
281
     1
  3
ACAD_XREC_ROUNDTRIP
360
15D
  0
DICTIONARY
  5
15E
330
35
100
AcDbDictionary
280
     1
281
     1
  3
ACAD_XREC_ROUNDTRIP
360
15F
  0
DICTIONARY
  5
166
330
39
100
AcDbDictionary
280
     1
281
     1
  3
ACAD_XREC_ROUNDTRIP
360
167
  0
DICTIONARY
  5
14A
330
2B
100
AcDbDictionary
280
     1
281
     1
  3
ACAD_XREC_ROUNDTRIP
360
14B
  0
DICTIONARY
  5
14C
330
2C
100
AcDbDictionary
280
     1
281
     1
  3
ACAD_XREC_ROUNDTRIP
360
14D
  0
DICTIONARY
  5
14E
330
2D
100
AcDbDictionary
280
     1
281
     1
  3
ACAD_XREC_ROUNDTRIP
360
14F
  0
DICTIONARY
  5
150
330
2E
100
AcDbDictionary
280
     1
281
     1
  3
ACAD_XREC_ROUNDTRIP
360
151
  0
DICTIONARY
  5
164
330
38
100
AcDbDictionary
280
     1
281
     1
  3
ACAD_XREC_ROUNDTRIP
360
165
  0
DICTIONARY
  5
15A
330
33
100
AcDbDictionary
280
     1
281
     1
  3
ACAD_XREC_ROUNDTRIP
360
15B
  0
DICTIONARY
  5
162
330
37
100
AcDbDictionary
280
     1
281
     1
  3
ACAD_XREC_ROUNDTRIP
360
163
  0
XRECORD
  5
16D
102
{ACAD_REACTORS
330
16C
102
}
330
16C
100
AcDbXrecord
280
     1
102
MATERIAL
148
0.0
149
0.0
149
0.0
 93
        0
 94
      127
282
     0
 72
     1
 77
     1
171
     1
175
     1
179
     1
273
     0
  0
XRECORD
  5
16B
102
{ACAD_REACTORS
330
16A
102
}
330
16A
100
AcDbXrecord
280
     1
102
MATERIAL
148
0.0
149
0.0
149
0.0
 93
        0
 94
      127
282
     0
 72
     1
 77
     1
171
     1
175
     1
179
     1
273
     0
  0
XRECORD
  5
16F
102
{ACAD_REACTORS
330
16E
102
}
330
16E
100
AcDbXrecord
280
     1
102
MATERIAL
148
0.0
149
0.0
149
0.0
 93
        0
 94
      127
282
     0
 72
     1
 77
     1
171
     1
175
     1
179
     1
273
     0
  0
XRECORD
  5
153
102
{ACAD_REACTORS
330
152
102
}
330
152
100
AcDbXrecord
280
     1
102
RTVSPropertyOp0
 70
     1
102
RTVSPropertyOp1
 70
     1
102
RTVSPropertyOp2
 70
     1
102
RTVSPropertyOp3
 70
     1
102
RTVSPropertyOp4
 70
     1
102
RTVSPropertyOp5
 70
     1
102
RTVSPropertyOp6
 70
     1
102
RTVSPropertyOp7
 70
     1
102
RTVSPropertyOp8
 70
     1
102
RTVSPropertyOp9
 70
     1
102
RTVSPropertyOp10
 70
     1
102
RTVSPropertyOp11
 70
     1
102
RTVSPropertyOp12
 70
     1
102
RTVSPropertyOp13
 70
     1
102
RTVSPropertyOp14
 70
     1
102
RTVSPropertyOp15
 70
     1
102
RTVSPropertyOp16
 70
     1
102
RTVSPropertyOp17
 70
     1
102
RTVSPropertyOp18
 70
     1
102
RTVSPropertyOp19
 70
     1
102
RTVSPropertyOp20
 70
     1
102
RTVSPropertyOp21
 70
     1
102
RTVSPropertyOp22
 70
     1
102
RTVSPropertyOp23
 70
     1
102
RTVSPropertyOp24
 70
     1
102
RTVSPropertyOp25
 70
     1
102
RTVSPropertyOp26
 70
     1
102
RTVSPropertyOp27
 70
     1
102
RTVSPropertyOp28
 70
     1
102
RTVSPropertyOp29
 70
     1
102
RTVSPropertyOp30
 70
     1
102
RTVSPropertyOp31
 70
     1
102
RTVSPropertyOp32
 70
     1
  0
XRECORD
  5
157
102
{ACAD_REACTORS
330
156
102
}
330
156
100
AcDbXrecord
280
     1
102
RTVSPropertyOp0
 70
     1
102
RTVSPropertyOp1
 70
     1
102
RTVSPropertyOp2
 70
     1
102
RTVSPropertyOp3
 70
     1
102
RTVSPropertyOp4
 70
     1
102
RTVSPropertyOp5
 70
     1
102
RTVSPropertyOp6
 70
     1
102
RTVSPropertyOp7
 70
     1
102
RTVSPropertyOp8
 70
     1
102
RTVSPropertyOp9
 70
     1
102
RTVSPropertyOp10
 70
     1
102
RTVSPropertyOp11
 70
     1
102
RTVSPropertyOp12
 70
     1
102
RTVSPropertyOp13
 70
     1
102
RTVSPropertyOp14
 70
     1
102
RTVSPropertyOp15
 70
     1
102
RTVSPropertyOp16
 70
     1
102
RTVSPropertyOp17
 70
     1
102
RTVSPropertyOp18
 70
     1
102
RTVSPropertyOp19
 70
     1
102
RTVSPropertyOp20
 70
     1
102
RTVSPropertyOp21
 70
     1
102
RTVSPropertyOp22
 70
     1
102
RTVSPropertyOp23
 70
     1
102
RTVSPropertyOp24
 70
     1
102
RTVSPropertyOp25
 70
     1
102
RTVSPropertyOp26
 70
     1
102
RTVSPropertyOp27
 70
     1
102
RTVSPropertyOp28
 70
     1
102
RTVSPropertyOp29
 70
     1
102
RTVSPropertyOp30
 70
     1
102
RTVSPropertyOp31
 70
     1
102
RTVSPropertyOp32
 70
     1
  0
XRECORD
  5
155
102
{ACAD_REACTORS
330
154
102
}
330
154
100
AcDbXrecord
280
     1
102
RTVSPropertyOp0
 70
     1
102
RTVSPropertyOp1
 70
     1
102
RTVSPropertyOp2
 70
     1
102
RTVSPropertyOp3
 70
     1
102
RTVSPropertyOp4
 70
     1
102
RTVSPropertyOp5
 70
     1
102
RTVSPropertyOp6
 70
     1
102
RTVSPropertyOp7
 70
     1
102
RTVSPropertyOp8
 70
     1
102
RTVSPropertyOp9
 70
     1
102
RTVSPropertyOp10
 70
     1
102
RTVSPropertyOp11
 70
     1
102
RTVSPropertyOp12
 70
     1
102
RTVSPropertyOp13
 70
     1
102
RTVSPropertyOp14
 70
     1
102
RTVSPropertyOp15
 70
     1
102
RTVSPropertyOp16
 70
     1
102
RTVSPropertyOp17
 70
     1
102
RTVSPropertyOp18
 70
     1
102
RTVSPropertyOp19
 70
     1
102
RTVSPropertyOp20
 70
     1
102
RTVSPropertyOp21
 70
     1
102
RTVSPropertyOp22
 70
     1
102
RTVSPropertyOp23
 70
     1
102
RTVSPropertyOp24
 70
     1
102
RTVSPropertyOp25
 70
     1
102
RTVSPropertyOp26
 70
     1
102
RTVSPropertyOp27
 70
     1
102
RTVSPropertyOp28
 70
     1
102
RTVSPropertyOp29
 70
     1
102
RTVSPropertyOp30
 70
     1
102
RTVSPropertyOp31
 70
     1
102
RTVSPropertyOp32
 70
     1
  0
XRECORD
  5
159
102
{ACAD_REACTORS
330
158
102
}
330
158
100
AcDbXrecord
280
     1
102
RTVSPropertyOp0
 70
     1
102
RTVSPropertyOp1
 70
     1
102
RTVSPropertyOp2
 70
     1
102
RTVSPropertyOp3
 70
     1
102
RTVSPropertyOp4
 70
     1
102
RTVSPropertyOp5
 70
     1
102
RTVSPropertyOp6
 70
     1
102
RTVSPropertyOp7
 70
     1
102
RTVSPropertyOp8
 70
     1
102
RTVSPropertyOp9
 70
     1
102
RTVSPropertyOp10
 70
     1
102
RTVSPropertyOp11
 70
     1
102
RTVSPropertyOp12
 70
     1
102
RTVSPropertyOp13
 70
     1
102
RTVSPropertyOp14
 70
     1
102
RTVSPropertyOp15
 70
     1
102
RTVSPropertyOp16
 70
     1
102
RTVSPropertyOp17
 70
     1
102
RTVSPropertyOp18
 70
     1
102
RTVSPropertyOp19
 70
     1
102
RTVSPropertyOp20
 70
     1
102
RTVSPropertyOp21
 70
     1
102
RTVSPropertyOp22
 70
     1
102
RTVSPropertyOp23
 70
     1
102
RTVSPropertyOp24
 70
     1
102
RTVSPropertyOp25
 70
     1
102
RTVSPropertyOp26
 70
     1
102
RTVSPropertyOp27
 70
     1
102
RTVSPropertyOp28
 70
     1
102
RTVSPropertyOp29
 70
     1
102
RTVSPropertyOp30
 70
     1
102
RTVSPropertyOp31
 70
     1
102
RTVSPropertyOp32
 70
     1
  0
XRECORD
  5
161
102
{ACAD_REACTORS
330
160
102
}
330
160
100
AcDbXrecord
280
     1
102
RTVSPropertyOp0
 70
     1
102
RTVSPropertyOp1
 70
     1
102
RTVSPropertyOp2
 70
     1
102
RTVSPropertyOp3
 70
     1
102
RTVSPropertyOp4
 70
     1
102
RTVSPropertyOp5
 70
     1
102
RTVSPropertyOp6
 70
     1
102
RTVSPropertyOp7
 70
     1
102
RTVSPropertyOp8
 70
     1
102
RTVSPropertyOp9
 70
     1
102
RTVSPropertyOp10
 70
     1
102
RTVSPropertyOp11
 70
     1
102
RTVSPropertyOp12
 70
     1
102
RTVSPropertyOp13
 70
     1
102
RTVSPropertyOp14
 70
     1
102
RTVSPropertyOp15
 70
     1
102
RTVSPropertyOp16
 70
     1
102
RTVSPropertyOp17
 70
     1
102
RTVSPropertyOp18
 70
     1
102
RTVSPropertyOp19
 70
     1
102
RTVSPropertyOp20
 70
     1
102
RTVSPropertyOp21
 70
     1
102
RTVSPropertyOp22
 70
     1
102
RTVSPropertyOp23
 70
     1
102
RTVSPropertyOp24
 70
     1
102
RTVSPropertyOp25
 70
     1
102
RTVSPropertyOp26
 70
     1
102
RTVSPropertyOp27
 70
     1
102
RTVSPropertyOp28
 70
     1
102
RTVSPropertyOp29
 70
     1
102
RTVSPropertyOp30
 70
     1
102
RTVSPropertyOp31
 70
     1
102
RTVSPropertyOp32
 70
     1
  0
XRECORD
  5
169
102
{ACAD_REACTORS
330
168
102
}
330
168
100
AcDbXrecord
280
     1
102
RTVSPropertyOp0
 70
     1
102
RTVSPropertyOp1
 70
     1
102
RTVSPropertyOp2
 70
     1
102
RTVSPropertyOp3
 70
     1
102
RTVSPropertyOp4
 70
     1
102
RTVSPropertyOp5
 70
     1
102
RTVSPropertyOp6
 70
     1
102
RTVSPropertyOp7
 70
     1
102
RTVSPropertyOp8
 70
     1
102
RTVSPropertyOp9
 70
     1
102
RTVSPropertyOp10
 70
     1
102
RTVSPropertyOp11
 70
     1
102
RTVSPropertyOp12
 70
     1
102
RTVSPropertyOp13
 70
     1
102
RTVSPropertyOp14
 70
     1
102
RTVSPropertyOp15
 70
     1
102
RTVSPropertyOp16
 70
     1
102
RTVSPropertyOp17
 70
     1
102
RTVSPropertyOp18
 70
     1
102
RTVSPropertyOp19
 70
     1
102
RTVSPropertyOp20
 70
     1
102
RTVSPropertyOp21
 70
     1
102
RTVSPropertyOp22
 70
     1
102
RTVSPropertyOp23
 70
     1
102
RTVSPropertyOp24
 70
     1
102
RTVSPropertyOp25
 70
     1
102
RTVSPropertyOp26
 70
     1
102
RTVSPropertyOp27
 70
     1
102
RTVSPropertyOp28
 70
     1
102
RTVSPropertyOp29
 70
     1
102
RTVSPropertyOp30
 70
     1
102
RTVSPropertyOp31
 70
     1
102
RTVSPropertyOp32
 70
     1
  0
XRECORD
  5
15D
102
{ACAD_REACTORS
330
15C
102
}
330
15C
100
AcDbXrecord
280
     1
102
RTVSPropertyOp0
 70
     1
102
RTVSPropertyOp1
 70
     1
102
RTVSPropertyOp2
 70
     1
102
RTVSPropertyOp3
 70
     1
102
RTVSPropertyOp4
 70
     1
102
RTVSPropertyOp5
 70
     1
102
RTVSPropertyOp6
 70
     1
102
RTVSPropertyOp7
 70
     1
102
RTVSPropertyOp8
 70
     1
102
RTVSPropertyOp9
 70
     1
102
RTVSPropertyOp10
 70
     1
102
RTVSPropertyOp11
 70
     1
102
RTVSPropertyOp12
 70
     1
102
RTVSPropertyOp13
 70
     1
102
RTVSPropertyOp14
 70
     1
102
RTVSPropertyOp15
 70
     1
102
RTVSPropertyOp16
 70
     1
102
RTVSPropertyOp17
 70
     1
102
RTVSPropertyOp18
 70
     1
102
RTVSPropertyOp19
 70
     1
102
RTVSPropertyOp20
 70
     1
102
RTVSPropertyOp21
 70
     1
102
RTVSPropertyOp22
 70
     1
102
RTVSPropertyOp23
 70
     1
102
RTVSPropertyOp24
 70
     1
102
RTVSPropertyOp25
 70
     1
102
RTVSPropertyOp26
 70
     1
102
RTVSPropertyOp27
 70
     1
102
RTVSPropertyOp28
 70
     1
102
RTVSPropertyOp29
 70
     1
102
RTVSPropertyOp30
 70
     1
102
RTVSPropertyOp31
 70
     1
102
RTVSPropertyOp32
 70
     1
  0
XRECORD
  5
15F
102
{ACAD_REACTORS
330
15E
102
}
330
15E
100
AcDbXrecord
280
     1
102
RTVSPropertyOp0
 70
     1
102
RTVSPropertyOp1
 70
     1
102
RTVSPropertyOp2
 70
     1
102
RTVSPropertyOp3
 70
     1
102
RTVSPropertyOp4
 70
     1
102
RTVSPropertyOp5
 70
     1
102
RTVSPropertyOp6
 70
     1
102
RTVSPropertyOp7
 70
     1
102
RTVSPropertyOp8
 70
     1
102
RTVSPropertyOp9
 70
     1
102
RTVSPropertyOp10
 70
     1
102
RTVSPropertyOp11
 70
     1
102
RTVSPropertyOp12
 70
     1
102
RTVSPropertyOp13
 70
     1
102
RTVSPropertyOp14
 70
     1
102
RTVSPropertyOp15
 70
     1
102
RTVSPropertyOp16
 70
     1
102
RTVSPropertyOp17
 70
     1
102
RTVSPropertyOp18
 70
     1
102
RTVSPropertyOp19
 70
     1
102
RTVSPropertyOp20
 70
     1
102
RTVSPropertyOp21
 70
     1
102
RTVSPropertyOp22
 70
     1
102
RTVSPropertyOp23
 70
     1
102
RTVSPropertyOp24
 70
     1
102
RTVSPropertyOp25
 70
     1
102
RTVSPropertyOp26
 70
     1
102
RTVSPropertyOp27
 70
     1
102
RTVSPropertyOp28
 70
     1
102
RTVSPropertyOp29
 70
     1
102
RTVSPropertyOp30
 70
     1
102
RTVSPropertyOp31
 70
     1
102
RTVSPropertyOp32
 70
     1
  0
XRECORD
  5
167
102
{ACAD_REACTORS
330
166
102
}
330
166
100
AcDbXrecord
280
     1
102
RTVSPropertyOp0
 70
     1
102
RTVSPropertyOp1
 70
     1
102
RTVSPropertyOp2
 70
     1
102
RTVSPropertyOp3
 70
     1
102
RTVSPropertyOp4
 70
     1
102
RTVSPropertyOp5
 70
     1
102
RTVSPropertyOp6
 70
     1
102
RTVSPropertyOp7
 70
     1
102
RTVSPropertyOp8
 70
     1
102
RTVSPropertyOp9
 70
     1
102
RTVSPropertyOp10
 70
     1
102
RTVSPropertyOp11
 70
     1
102
RTVSPropertyOp12
 70
     1
102
RTVSPropertyOp13
 70
     1
102
RTVSPropertyOp14
 70
     1
102
RTVSPropertyOp15
 70
     1
102
RTVSPropertyOp16
 70
     1
102
RTVSPropertyOp17
 70
     1
102
RTVSPropertyOp18
 70
     1
102
RTVSPropertyOp19
 70
     1
102
RTVSPropertyOp20
 70
     1
102
RTVSPropertyOp21
 70
     1
102
RTVSPropertyOp22
 70
     1
102
RTVSPropertyOp23
 70
     1
102
RTVSPropertyOp24
 70
     1
102
RTVSPropertyOp25
 70
     1
102
RTVSPropertyOp26
 70
     1
102
RTVSPropertyOp27
 70
     1
102
RTVSPropertyOp28
 70
     1
102
RTVSPropertyOp29
 70
     1
102
RTVSPropertyOp30
 70
     1
102
RTVSPropertyOp31
 70
     1
102
RTVSPropertyOp32
 70
     1
  0
XRECORD
  5
14B
102
{ACAD_REACTORS
330
14A
102
}
330
14A
100
AcDbXrecord
280
     1
102
RTVSPropertyOp0
 70
     1
102
RTVSPropertyOp1
 70
     1
102
RTVSPropertyOp2
 70
     1
102
RTVSPropertyOp3
 70
     1
102
RTVSPropertyOp4
 70
     1
102
RTVSPropertyOp5
 70
     1
102
RTVSPropertyOp6
 70
     1
102
RTVSPropertyOp7
 70
     1
102
RTVSPropertyOp8
 70
     1
102
RTVSPropertyOp9
 70
     1
102
RTVSPropertyOp10
 70
     1
102
RTVSPropertyOp11
 70
     1
102
RTVSPropertyOp12
 70
     1
102
RTVSPropertyOp13
 70
     1
102
RTVSPropertyOp14
 70
     1
102
RTVSPropertyOp15
 70
     1
102
RTVSPropertyOp16
 70
     1
102
RTVSPropertyOp17
 70
     1
102
RTVSPropertyOp18
 70
     1
102
RTVSPropertyOp19
 70
     1
102
RTVSPropertyOp20
 70
     1
102
RTVSPropertyOp21
 70
     1
102
RTVSPropertyOp22
 70
     1
102
RTVSPropertyOp23
 70
     1
102
RTVSPropertyOp24
 70
     1
102
RTVSPropertyOp25
 70
     1
102
RTVSPropertyOp26
 70
     1
102
RTVSPropertyOp27
 70
     1
102
RTVSPropertyOp28
 70
     1
102
RTVSPropertyOp29
 70
     1
102
RTVSPropertyOp30
 70
     1
102
RTVSPropertyOp31
 70
     1
102
RTVSPropertyOp32
 70
     1
  0
XRECORD
  5
14D
102
{ACAD_REACTORS
330
14C
102
}
330
14C
100
AcDbXrecord
280
     1
102
RTVSPropertyOp0
 70
     1
102
RTVSPropertyOp1
 70
     1
102
RTVSPropertyOp2
 70
     1
102
RTVSPropertyOp3
 70
     1
102
RTVSPropertyOp4
 70
     1
102
RTVSPropertyOp5
 70
     1
102
RTVSPropertyOp6
 70
     1
102
RTVSPropertyOp7
 70
     1
102
RTVSPropertyOp8
 70
     1
102
RTVSPropertyOp9
 70
     1
102
RTVSPropertyOp10
 70
     1
102
RTVSPropertyOp11
 70
     1
102
RTVSPropertyOp12
 70
     1
102
RTVSPropertyOp13
 70
     1
102
RTVSPropertyOp14
 70
     1
102
RTVSPropertyOp15
 70
     1
102
RTVSPropertyOp16
 70
     1
102
RTVSPropertyOp17
 70
     1
102
RTVSPropertyOp18
 70
     1
102
RTVSPropertyOp19
 70
     1
102
RTVSPropertyOp20
 70
     1
102
RTVSPropertyOp21
 70
     1
102
RTVSPropertyOp22
 70
     1
102
RTVSPropertyOp23
 70
     1
102
RTVSPropertyOp24
 70
     1
102
RTVSPropertyOp25
 70
     1
102
RTVSPropertyOp26
 70
     1
102
RTVSPropertyOp27
 70
     1
102
RTVSPropertyOp28
 70
     1
102
RTVSPropertyOp29
 70
     1
102
RTVSPropertyOp30
 70
     1
102
RTVSPropertyOp31
 70
     1
102
RTVSPropertyOp32
 70
     1
  0
XRECORD
  5
14F
102
{ACAD_REACTORS
330
14E
102
}
330
14E
100
AcDbXrecord
280
     1
102
RTVSPropertyOp0
 70
     1
102
RTVSPropertyOp1
 70
     1
102
RTVSPropertyOp2
 70
     1
102
RTVSPropertyOp3
 70
     1
102
RTVSPropertyOp4
 70
     1
102
RTVSPropertyOp5
 70
     1
102
RTVSPropertyOp6
 70
     1
102
RTVSPropertyOp7
 70
     1
102
RTVSPropertyOp8
 70
     1
102
RTVSPropertyOp9
 70
     1
102
RTVSPropertyOp10
 70
     1
102
RTVSPropertyOp11
 70
     1
102
RTVSPropertyOp12
 70
     1
102
RTVSPropertyOp13
 70
     1
102
RTVSPropertyOp14
 70
     1
102
RTVSPropertyOp15
 70
     1
102
RTVSPropertyOp16
 70
     1
102
RTVSPropertyOp17
 70
     1
102
RTVSPropertyOp18
 70
     1
102
RTVSPropertyOp19
 70
     1
102
RTVSPropertyOp20
 70
     1
102
RTVSPropertyOp21
 70
     1
102
RTVSPropertyOp22
 70
     1
102
RTVSPropertyOp23
 70
     1
102
RTVSPropertyOp24
 70
     1
102
RTVSPropertyOp25
 70
     1
102
RTVSPropertyOp26
 70
     1
102
RTVSPropertyOp27
 70
     1
102
RTVSPropertyOp28
 70
     1
102
RTVSPropertyOp29
 70
     1
102
RTVSPropertyOp30
 70
     1
102
RTVSPropertyOp31
 70
     1
102
RTVSPropertyOp32
 70
     1
  0
XRECORD
  5
151
102
{ACAD_REACTORS
330
150
102
}
330
150
100
AcDbXrecord
280
     1
102
RTVSPropertyOp0
 70
     1
102
RTVSPropertyOp1
 70
     1
102
RTVSPropertyOp2
 70
     1
102
RTVSPropertyOp3
 70
     1
102
RTVSPropertyOp4
 70
     1
102
RTVSPropertyOp5
 70
     1
102
RTVSPropertyOp6
 70
     1
102
RTVSPropertyOp7
 70
     1
102
RTVSPropertyOp8
 70
     1
102
RTVSPropertyOp9
 70
     1
102
RTVSPropertyOp10
 70
     1
102
RTVSPropertyOp11
 70
     1
102
RTVSPropertyOp12
 70
     1
102
RTVSPropertyOp13
 70
     1
102
RTVSPropertyOp14
 70
     1
102
RTVSPropertyOp15
 70
     1
102
RTVSPropertyOp16
 70
     1
102
RTVSPropertyOp17
 70
     1
102
RTVSPropertyOp18
 70
     1
102
RTVSPropertyOp19
 70
     1
102
RTVSPropertyOp20
 70
     1
102
RTVSPropertyOp21
 70
     1
102
RTVSPropertyOp22
 70
     1
102
RTVSPropertyOp23
 70
     1
102
RTVSPropertyOp24
 70
     1
102
RTVSPropertyOp25
 70
     1
102
RTVSPropertyOp26
 70
     1
102
RTVSPropertyOp27
 70
     1
102
RTVSPropertyOp28
 70
     1
102
RTVSPropertyOp29
 70
     1
102
RTVSPropertyOp30
 70
     1
102
RTVSPropertyOp31
 70
     1
102
RTVSPropertyOp32
 70
     1
  0
XRECORD
  5
165
102
{ACAD_REACTORS
330
164
102
}
330
164
100
AcDbXrecord
280
     1
102
RTVSPropertyOp0
 70
     1
102
RTVSPropertyOp1
 70
     1
102
RTVSPropertyOp2
 70
     1
102
RTVSPropertyOp3
 70
     1
102
RTVSPropertyOp4
 70
     1
102
RTVSPropertyOp5
 70
     1
102
RTVSPropertyOp6
 70
     1
102
RTVSPropertyOp7
 70
     1
102
RTVSPropertyOp8
 70
     1
102
RTVSPropertyOp9
 70
     1
102
RTVSPropertyOp10
 70
     1
102
RTVSPropertyOp11
 70
     1
102
RTVSPropertyOp12
 70
     1
102
RTVSPropertyOp13
 70
     1
102
RTVSPropertyOp14
 70
     1
102
RTVSPropertyOp15
 70
     1
102
RTVSPropertyOp16
 70
     1
102
RTVSPropertyOp17
 70
     1
102
RTVSPropertyOp18
 70
     1
102
RTVSPropertyOp19
 70
     1
102
RTVSPropertyOp20
 70
     1
102
RTVSPropertyOp21
 70
     1
102
RTVSPropertyOp22
 70
     1
102
RTVSPropertyOp23
 70
     1
102
RTVSPropertyOp24
 70
     1
102
RTVSPropertyOp25
 70
     1
102
RTVSPropertyOp26
 70
     1
102
RTVSPropertyOp27
 70
     1
102
RTVSPropertyOp28
 70
     1
102
RTVSPropertyOp29
 70
     1
102
RTVSPropertyOp30
 70
     1
102
RTVSPropertyOp31
 70
     1
102
RTVSPropertyOp32
 70
     1
  0
XRECORD
  5
15B
102
{ACAD_REACTORS
330
15A
102
}
330
15A
100
AcDbXrecord
280
     1
102
RTVSPropertyOp0
 70
     1
102
RTVSPropertyOp1
 70
     1
102
RTVSPropertyOp2
 70
     1
102
RTVSPropertyOp3
 70
     1
102
RTVSPropertyOp4
 70
     1
102
RTVSPropertyOp5
 70
     1
102
RTVSPropertyOp6
 70
     1
102
RTVSPropertyOp7
 70
     1
102
RTVSPropertyOp8
 70
     1
102
RTVSPropertyOp9
 70
     1
102
RTVSPropertyOp10
 70
     1
102
RTVSPropertyOp11
 70
     1
102
RTVSPropertyOp12
 70
     1
102
RTVSPropertyOp13
 70
     1
102
RTVSPropertyOp14
 70
     1
102
RTVSPropertyOp15
 70
     1
102
RTVSPropertyOp16
 70
     1
102
RTVSPropertyOp17
 70
     1
102
RTVSPropertyOp18
 70
     1
102
RTVSPropertyOp19
 70
     1
102
RTVSPropertyOp20
 70
     1
102
RTVSPropertyOp21
 70
     1
102
RTVSPropertyOp22
 70
     1
102
RTVSPropertyOp23
 70
     1
102
RTVSPropertyOp24
 70
     1
102
RTVSPropertyOp25
 70
     1
102
RTVSPropertyOp26
 70
     1
102
RTVSPropertyOp27
 70
     1
102
RTVSPropertyOp28
 70
     1
102
RTVSPropertyOp29
 70
     1
102
RTVSPropertyOp30
 70
     1
102
RTVSPropertyOp31
 70
     1
102
RTVSPropertyOp32
 70
     1
  0
XRECORD
  5
163
102
{ACAD_REACTORS
330
162
102
}
330
162
100
AcDbXrecord
280
     1
102
RTVSPropertyOp0
 70
     1
102
RTVSPropertyOp1
 70
     1
102
RTVSPropertyOp2
 70
     1
102
RTVSPropertyOp3
 70
     1
102
RTVSPropertyOp4
 70
     1
102
RTVSPropertyOp5
 70
     1
102
RTVSPropertyOp6
 70
     1
102
RTVSPropertyOp7
 70
     1
102
RTVSPropertyOp8
 70
     1
102
RTVSPropertyOp9
 70
     1
102
RTVSPropertyOp10
 70
     1
102
RTVSPropertyOp11
 70
     1
102
RTVSPropertyOp12
 70
     1
102
RTVSPropertyOp13
 70
     1
102
RTVSPropertyOp14
 70
     1
102
RTVSPropertyOp15
 70
     1
102
RTVSPropertyOp16
 70
     1
102
RTVSPropertyOp17
 70
     1
102
RTVSPropertyOp18
 70
     1
102
RTVSPropertyOp19
 70
     1
102
RTVSPropertyOp20
 70
     1
102
RTVSPropertyOp21
 70
     1
102
RTVSPropertyOp22
 70
     1
102
RTVSPropertyOp23
 70
     1
102
RTVSPropertyOp24
 70
     1
102
RTVSPropertyOp25
 70
     1
102
RTVSPropertyOp26
 70
     1
102
RTVSPropertyOp27
 70
     1
102
RTVSPropertyOp28
 70
     1
102
RTVSPropertyOp29
 70
     1
102
RTVSPropertyOp30
 70
     1
102
RTVSPropertyOp31
 70
     1
102
RTVSPropertyOp32
 70
     1
  0
ENDSEC
  0
EOF
