  0
SECTION
  2
HEADER
  9
$ACADVER
  1
AC1015
  9
$ACADMAINTVER
 70
     6
  9
$DWGCODEPAGE
  3
ANSI_932
  9
$INSBASE
 10
0.0
 20
0.0
 30
0.0
  9
$EXTMIN
 10
0.0
 20
0.0
 30
0.0
  9
$EXTMAX
 10
315.0000000000003
 20
445.5000000000005
 30
0.0
  9
$LIMMIN
 10
0.0
 20
0.0
  9
$LIMMAX
 10
12.0
 20
9.0
  9
$ORTHOMODE
 70
     0
  9
$REGENMODE
 70
     1
  9
$FILLMODE
 70
     1
  9
$QTEXTMODE
 70
     0
  9
$MIRRTEXT
 70
     1
  9
$LTSCALE
 40
1.0
  9
$ATTMODE
 70
     1
  9
$TEXTSIZE
 40
0.2
  9
$TRACEWID
 40
0.05
  9
$TEXTSTYLE
  7
Standard
  9
$CLAYER
  8
0
  9
$CELTYPE
  6
ByLayer
  9
$CECOLOR
 62
   256
  9
$CELTSCALE
 40
1.0
  9
$DISPSILH
 70
     0
  9
$DIMSCALE
 40
1.0
  9
$DIMASZ
 40
0.18
  9
$DIMEXO
 40
0.0625
  9
$DIMDLI
 40
0.38
  9
$DIMRND
 40
0.0
  9
$DIMDLE
 40
0.0
  9
$DIMEXE
 40
0.18
  9
$DIMTP
 40
0.0
  9
$DIMTM
 40
0.0
  9
$DIMTXT
 40
0.18
  9
$DIMCEN
 40
0.09
  9
$DIMTSZ
 40
0.0
  9
$DIMTOL
 70
     0
  9
$DIMLIM
 70
     0
  9
$DIMTIH
 70
     1
  9
$DIMTOH
 70
     1
  9
$DIMSE1
 70
     0
  9
$DIMSE2
 70
     0
  9
$DIMTAD
 70
     0
  9
$DIMZIN
 70
     0
  9
$DIMBLK
  1

  9
$DIMASO
 70
     1
  9
$DIMSHO
 70
     1
  9
$DIMPOST
  1

  9
$DIMAPOST
  1

  9
$DIMALT
 70
     0
  9
$DIMALTD
 70
     2
  9
$DIMALTF
 40
25.4
  9
$DIMLFAC
 40
1.0
  9
$DIMTOFL
 70
     0
  9
$DIMTVP
 40
0.0
  9
$DIMTIX
 70
     0
  9
$DIMSOXD
 70
     0
  9
$DIMSAH
 70
     0
  9
$DIMBLK1
  1

  9
$DIMBLK2
  1

  9
$DIMSTYLE
  2
Standard
  9
$DIMCLRD
 70
     0
  9
$DIMCLRE
 70
     0
  9
$DIMCLRT
 70
     0
  9
$DIMTFAC
 40
1.0
  9
$DIMGAP
 40
0.09
  9
$DIMJUST
 70
     0
  9
$DIMSD1
 70
     0
  9
$DIMSD2
 70
     0
  9
$DIMTOLJ
 70
     1
  9
$DIMTZIN
 70
     0
  9
$DIMALTZ
 70
     0
  9
$DIMALTTZ
 70
     0
  9
$DIMUPT
 70
     0
  9
$DIMDEC
 70
     4
  9
$DIMTDEC
 70
     4
  9
$DIMALTU
 70
     2
  9
$DIMALTTD
 70
     2
  9
$DIMTXSTY
  7
Standard
  9
$DIMAUNIT
 70
     0
  9
$DIMADEC
 70
     0
  9
$DIMALTRND
 40
0.0
  9
$DIMAZIN
 70
     0
  9
$DIMDSEP
 70
    46
  9
$DIMATFIT
 70
     3
  9
$DIMFRAC
 70
     0
  9
$DIMLDRBLK
  1

  9
$DIMLUNIT
 70
     2
  9
$DIMLWD
 70
    -2
  9
$DIMLWE
 70
    -2
  9
$DIMTMOVE
 70
     0
  9
$LUNITS
 70
     2
  9
$LUPREC
 70
     4
  9
$SKETCHINC
 40
0.1
  9
$FILLETRAD
 40
0.5
  9
$AUNITS
 70
     0
  9
$AUPREC
 70
     0
  9
$MENU
  1
.
  9
$ELEVATION
 40
0.0
  9
$PELEVATION
 40
0.0
  9
$THICKNESS
 40
0.0
  9
$LIMCHECK
 70
     0
  9
$CHAMFERA
 40
0.5
  9
$CHAMFERB
 40
0.5
  9
$CHAMFERC
 40
1.0
  9
$CHAMFERD
 40
0.0
  9
$SKPOLY
 70
     0
  9
$TDCREATE
 40
2456673.489342998
  9
$TDUCREATE
 40
2456673.114342998
  9
$TDUPDATE
 40
2456673.489344618
  9
$TDUUPDATE
 40
2456673.114344618
  9
$TDINDWG
 40
0.0000000116
  9
$TDUSRTIMER
 40
0.0000000116
  9
$USRTIMER
 70
     1
  9
$ANGBASE
 50
0.0
  9
$ANGDIR
 70
     0
  9
$PDMODE
 70
     0
  9
$PDSIZE
 40
0.0
  9
$PLINEWID
 40
0.0
  9
$SPLFRAME
 70
     0
  9
$SPLINETYPE
 70
     6
  9
$SPLINESEGS
 70
     8
  9
$HANDSEED
  5
695
  9
$SURFTAB1
 70
     6
  9
$SURFTAB2
 70
     6
  9
$SURFTYPE
 70
     6
  9
$SURFU
 70
     6
  9
$SURFV
 70
     6
  9
$UCSBASE
  2

  9
$UCSNAME
  2

  9
$UCSORG
 10
0.0
 20
0.0
 30
0.0
  9
$UCSXDIR
 10
1.0
 20
0.0
 30
0.0
  9
$UCSYDIR
 10
0.0
 20
1.0
 30
0.0
  9
$UCSORTHOREF
  2

  9
$UCSORTHOVIEW
 70
     0
  9
$UCSORGTOP
 10
0.0
 20
0.0
 30
0.0
  9
$UCSORGBOTTOM
 10
0.0
 20
0.0
 30
0.0
  9
$UCSORGLEFT
 10
0.0
 20
0.0
 30
0.0
  9
$UCSORGRIGHT
 10
0.0
 20
0.0
 30
0.0
  9
$UCSORGFRONT
 10
0.0
 20
0.0
 30
0.0
  9
$UCSORGBACK
 10
0.0
 20
0.0
 30
0.0
  9
$PUCSBASE
  2

  9
$PUCSNAME
  2

  9
$PUCSORG
 10
0.0
 20
0.0
 30
0.0
  9
$PUCSXDIR
 10
1.0
 20
0.0
 30
0.0
  9
$PUCSYDIR
 10
0.0
 20
1.0
 30
0.0
  9
$PUCSORTHOREF
  2

  9
$PUCSORTHOVIEW
 70
     0
  9
$PUCSORGTOP
 10
0.0
 20
0.0
 30
0.0
  9
$PUCSORGBOTTOM
 10
0.0
 20
0.0
 30
0.0
  9
$PUCSORGLEFT
 10
0.0
 20
0.0
 30
0.0
  9
$PUCSORGRIGHT
 10
0.0
 20
0.0
 30
0.0
  9
$PUCSORGFRONT
 10
0.0
 20
0.0
 30
0.0
  9
$PUCSORGBACK
 10
0.0
 20
0.0
 30
0.0
  9
$USERI1
 70
     0
  9
$USERI2
 70
     0
  9
$USERI3
 70
     0
  9
$USERI4
 70
     0
  9
$USERI5
 70
     0
  9
$USERR1
 40
18.1
  9
$USERR2
 40
0.0
  9
$USERR3
 40
0.0
  9
$USERR4
 40
0.0
  9
$USERR5
 40
0.0
  9
$WORLDVIEW
 70
     1
  9
$SHADEDGE
 70
     3
  9
$SHADEDIF
 70
    70
  9
$TILEMODE
 70
     1
  9
$MAXACTVP
 70
    64
  9
$PINSBASE
 10
0.0
 20
0.0
 30
0.0
  9
$PLIMCHECK
 70
     0
  9
$PEXTMIN
 10
1.00000000000000E+20
 20
1.00000000000000E+20
 30
1.00000000000000E+20
  9
$PEXTMAX
 10
-1.00000000000000E+20
 20
-1.00000000000000E+20
 30
-1.00000000000000E+20
  9
$PLIMMIN
 10
0.0
 20
0.0
  9
$PLIMMAX
 10
12.0
 20
9.0
  9
$UNITMODE
 70
     0
  9
$VISRETAIN
 70
     1
  9
$PLINEGEN
 70
     0
  9
$PSLTSCALE
 70
     1
  9
$TREEDEPTH
 70
  3020
  9
$CMLSTYLE
  2
Standard
  9
$CMLJUST
 70
     0
  9
$CMLSCALE
 40
1.0
  9
$PROXYGRAPHICS
 70
     1
  9
$MEASUREMENT
 70
     1
  9
$CELWEIGHT
370
    -1
  9
$ENDCAPS
280
     0
  9
$JOINSTYLE
280
     0
  9
$LWDISPLAY
290
     0
  9
$INSUNITS
 70
     4
  9
$HYPERLINKBASE
  1

  9
$STYLESHEET
  1

  9
$XEDIT
290
     1
  9
$CEPSNTYPE
380
     0
  9
$PSTYLEMODE
290
     1
  9
$FINGERPRINTGUID
  2
{B5AF5D04-E58B-44C7-8225-FBBE20BF0761}
  9
$VERSIONGUID
  2
{FAEB1C32-E019-11D5-929B-00C0DF256EC4}
  9
$EXTNAMES
290
     1
  9
$PSVPSCALE
 40
0.0
  9
$OLESTARTUP
290
     0
  0
ENDSEC
  0
SECTION
  2
CLASSES
  0
CLASS
  1
ACDBDICTIONARYWDFLT
  2
AcDbDictionaryWithDefault
  3
ObjectDBX Classes
 90
        0
280
     0
281
     0
  0
CLASS
  1
VISUALSTYLE
  2
AcDbVisualStyle
  3
ObjectDBX Classes
 90
     4095
280
     0
281
     0
  0
CLASS
  1
MATERIAL
  2
AcDbMaterial
  3
ObjectDBX Classes
 90
     1153
280
     0
281
     0
  0
CLASS
  1
DICTIONARYVAR
  2
AcDbDictionaryVar
  3
ObjectDBX Classes
 90
        0
280
     0
281
     0
  0
CLASS
  1
ACDBPLACEHOLDER
  2
AcDbPlaceHolder
  3
ObjectDBX Classes
 90
        0
280
     0
281
     0
  0
CLASS
  1
LAYOUT
  2
AcDbLayout
  3
ObjectDBX Classes
 90
        0
280
     0
281
     0
  0
ENDSEC
  0
SECTION
  2
TABLES
  0
TABLE
  2
VPORT
  5
8
330
0
100
AcDbSymbolTable
 70
     1
  0
VPORT
  5
29
330
8
100
AcDbSymbolTableRecord
100
AcDbViewportTableRecord
  2
*Active
 70
     0
 10
0.0
 20
0.0
 11
1.0
 21
1.0
 12
157.5000000000001
 22
222.7500000000003
 13
0.0
 23
0.0
 14
0.5
 24
0.5
 15
0.5
 25
0.5
 16
0.0
 26
0.0
 36
1.0
 17
0.0
 27
0.0
 37
0.0
 40
490.0500000000006
 41
1.60267857142857
 42
50.0
 43
0.0
 44
0.0
 50
0.0
 51
0.0
 71
     0
 72
   100
 73
     1
 74
     3
 75
     0
 76
     0
 77
     0
 78
     0
281
     0
 65
     1
110
0.0
120
0.0
130
0.0
111
1.0
121
0.0
131
0.0
112
0.0
122
1.0
132
0.0
 79
     0
146
0.0
  0
ENDTAB
  0
TABLE
  2
LTYPE
  5
5
330
0
100
AcDbSymbolTable
 70
     8
  0
LTYPE
  5
14
330
5
100
AcDbSymbolTableRecord
100
AcDbLinetypeTableRecord
  2
ByBlock
 70
     0
  3

 72
    65
 73
     0
 40
0.0
  0
LTYPE
  5
15
330
5
100
AcDbSymbolTableRecord
100
AcDbLinetypeTableRecord
  2
ByLayer
 70
     0
  3

 72
    65
 73
     0
 40
0.0
  0
LTYPE
  5
16
330
5
100
AcDbSymbolTableRecord
100
AcDbLinetypeTableRecord
  2
Continuous
 70
     0
  3
Solid line
 72
    65
 73
     0
 40
0.0
  0
LTYPE
  5
3F
330
5
100
AcDbSymbolTableRecord
100
AcDbLinetypeTableRecord
  2
DASHED
 70
     0
  3
Dashed
 72
    65
 73
     2
 40
15.0
 49
7.0
 74
     0
 49
-8.0
 74
     0
  0
LTYPE
  5
40
330
5
100
AcDbSymbolTableRecord
100
AcDbLinetypeTableRecord
  2
DOTTED
 70
     0
  3
Dotted
 72
    65
 73
     2
 40
1.0
 49
0.0
 74
     0
 49
-1.0
 74
     0
  0
LTYPE
  5
41
330
5
100
AcDbSymbolTableRecord
100
AcDbLinetypeTableRecord
  2
DOT_CENTER
 70
     0
  3
Dot_Center
 72
    65
 73
     4
 40
14.0
 49
12.0
 74
     0
 49
-1.0
 74
     0
 49
0.0
 74
     0
 49
-1.0
 74
     0
  0
LTYPE
  5
42
330
5
100
AcDbSymbolTableRecord
100
AcDbLinetypeTableRecord
  2
LONG_DASHED
 70
     0
  3
Long_Dashed
 72
    65
 73
     2
 40
15.0
 49
10.0
 74
     0
 49
-5.0
 74
     0
  0
LTYPE
  5
43
330
5
100
AcDbSymbolTableRecord
100
AcDbLinetypeTableRecord
  2
DASH_CENTER
 70
     0
  3
Dash_Center
 72
    65
 73
     4
 40
14.0
 49
11.0
 74
     0
 49
-1.0
 74
     0
 49
1.0
 74
     0
 49
-1.0
 74
     0
  0
LTYPE
  5
44
330
5
100
AcDbSymbolTableRecord
100
AcDbLinetypeTableRecord
  2
PHANTOM
 70
     0
  3
Phantom
 72
    65
 73
     6
 40
13.0
 49
10.0
 74
     0
 49
-1.0
 74
     0
 49
0.0
 74
     0
 49
-1.0
 74
     0
 49
0.0
 74
     0
 49
-1.0
 74
     0
  0
LTYPE
  5
45
330
5
100
AcDbSymbolTableRecord
100
AcDbLinetypeTableRecord
  2
CENTER_DASH_DASH
 70
     0
  3
Center_Dash_Dash
 72
    65
 73
     6
 40
14.0
 49
9.0
 74
     0
 49
-1.0
 74
     0
 49
1.0
 74
     0
 49
-1.0
 74
     0
 49
1.0
 74
     0
 49
-1.0
 74
     0
  0
ENDTAB
  0
TABLE
  2
LAYER
  5
2
330
0
100
AcDbSymbolTable
 70
     3
  0
LAYER
  5
10
330
2
100
AcDbSymbolTableRecord
100
AcDbLayerTableRecord
  2
0
 70
     0
 62
     7
  6
Continuous
370
    -3
390
F
  0
LAYER
  5
46
330
2
100
AcDbSymbolTableRecord
100
AcDbLayerTableRecord
  2
1
 70
     0
 62
     7
  6
Continuous
370
    -3
390
F
  0
LAYER
  5
47
330
2
100
AcDbSymbolTableRecord
100
AcDbLayerTableRecord
  2
中心線
 70
     0
 62
     7
  6
Continuous
370
    -3
390
F
  0
ENDTAB
  0
TABLE
  2
STYLE
  5
3
330
0
100
AcDbSymbolTable
 70
     3
  0
STYLE
  5
11
330
3
100
AcDbSymbolTableRecord
100
AcDbTextStyleTableRecord
  2
Standard
 70
     0
 40
0.0
 41
1.0
 50
0.0
 71
     0
 42
0.2
  3
txt
  4

  0
STYLE
  5
5ED
330
3
100
AcDbSymbolTableRecord
100
AcDbTextStyleTableRecord
  2
CONVERTER_11
 70
     0
 40
0.0
 41
0.89
 50
0.0
 71
     0
 42
0.2
  3
MS Mincho.ttf
  4

1001
ACAD
1000
MS Mincho
1071
    32785
  0
STYLE
  5
60A
330
3
100
AcDbSymbolTableRecord
100
AcDbTextStyleTableRecord
  2
CONVERTER_12
 70
     0
 40
0.0
 41
0.9
 50
0.0
 71
     0
 42
0.2
  3
txt.shx
  4

  0
ENDTAB
  0
TABLE
  2
VIEW
  5
6
330
0
100
AcDbSymbolTable
 70
     0
  0
ENDTAB
  0
TABLE
  2
UCS
  5
7
330
0
100
AcDbSymbolTable
 70
     0
  0
ENDTAB
  0
TABLE
  2
APPID
  5
9
330
0
100
AcDbSymbolTable
 70
     1
  0
APPID
  5
12
330
9
100
AcDbSymbolTableRecord
100
AcDbRegAppTableRecord
  2
ACAD
 70
     0
  0
ENDTAB
  0
TABLE
  2
DIMSTYLE
  5
A
330
0
100
AcDbSymbolTable
 70
     9
100
AcDbDimStyleTable
  0
DIMSTYLE
105
27
330
A
100
AcDbSymbolTableRecord
100
AcDbDimStyleTableRecord
  2
Standard
 70
     0
178
     0
340
11
  0
DIMSTYLE
105
61A
102
{ACAD_REACTORS
330
61B
102
}
330
A
100
AcDbSymbolTableRecord
100
AcDbDimStyleTableRecord
  2
ME10_DIM_10
 70
     0
 41
5.25000000000001
 42
0.0
 44
1.5
 73
     0
 74
     0
 77
     1
 78
     8
140
5.25000000000001
147
1.5
172
     1
173
     1
174
     1
175
     1
176
     2
177
     2
271
     2
178
     7
271
     2
340
60A
  0
DIMSTYLE
105
625
102
{ACAD_REACTORS
330
626
102
}
330
A
100
AcDbSymbolTableRecord
100
AcDbDimStyleTableRecord
  2
ME10_DIM_11
 70
     0
 41
5.25000000000001
 42
0.0
 44
1.5
 73
     0
 74
     0
 77
     1
 78
     8
140
5.25000000000001
147
1.5
172
     1
173
     1
174
     1
175
     1
176
     2
177
     2
271
     2
178
     7
271
     2
340
5ED
  0
DIMSTYLE
105
630
102
{ACAD_REACTORS
330
631
102
}
330
A
100
AcDbSymbolTableRecord
100
AcDbDimStyleTableRecord
  2
ME10_DIM_12
 70
     0
 41
5.25000000000001
 42
0.0
 44
1.5
 73
     0
 74
     0
 77
     1
 78
     8
140
5.25000000000001
147
1.5
172
     1
173
     1
174
     1
175
     1
176
     2
177
     2
271
     2
178
     7
271
     2
340
60A
  0
DIMSTYLE
105
63B
102
{ACAD_REACTORS
330
63C
102
}
330
A
100
AcDbSymbolTableRecord
100
AcDbDimStyleTableRecord
  2
ME10_DIM_13
 70
     0
 41
5.25000000000001
 42
0.0
 44
1.5
 73
     0
 74
     0
 77
     1
 78
     8
140
5.25000000000001
147
1.5
172
     1
173
     1
174
     1
175
     1
176
     2
177
     2
271
     2
178
     7
271
     2
340
60A
  0
DIMSTYLE
105
646
102
{ACAD_REACTORS
330
647
102
}
330
A
100
AcDbSymbolTableRecord
100
AcDbDimStyleTableRecord
  2
ME10_DIM_14
 70
     0
  3
{\Fgdt;n}<>
 41
5.25
 42
0.0
 44
1.5
 73
     0
 74
     0
 77
     1
 78
     8
140
5.25000000000001
147
1.5
172
     1
173
     1
174
     1
175
     1
176
     2
177
     2
271
     2
178
     7
271
     2
340
60A
  0
DIMSTYLE
105
651
102
{ACAD_REACTORS
330
652
102
}
330
A
100
AcDbSymbolTableRecord
100
AcDbDimStyleTableRecord
  2
ME10_DIM_15
 70
     0
  3
{\Fgdt;n}<>
 41
5.25000000000001
 42
0.0
 44
1.5
 73
     0
 74
     0
 77
     1
 78
     8
140
5.25000000000001
147
1.5
172
     1
173
     1
174
     1
175
     1
176
     2
177
     2
271
     2
178
     7
271
     2
340
60A
  0
DIMSTYLE
105
65D
102
{ACAD_REACTORS
330
65E
102
}
330
A
100
AcDbSymbolTableRecord
100
AcDbDimStyleTableRecord
  2
ME10_DIM_16
 70
     0
  3
{\Fgdt;n}<>
 41
5.25000000000001
 42
0.0
 44
1.5
 73
     0
 74
     0
 77
     1
 78
     8
140
5.25000000000001
147
1.5
172
     1
173
     1
174
     1
175
     1
176
     2
177
     2
271
     2
178
     7
271
     2
340
60A
  0
DIMSTYLE
105
668
102
{ACAD_REACTORS
330
669
102
}
330
A
100
AcDbSymbolTableRecord
100
AcDbDimStyleTableRecord
  2
ME10_DIM_17
 70
     0
 41
5.25000000000001
 42
0.0
 44
1.5
 73
     0
 74
     0
 77
     1
 78
     8
140
5.25000000000001
147
1.5
172
     1
173
     1
174
     1
175
     1
176
     2
177
     2
271
     2
178
     7
271
     2
340
60A
  0
ENDTAB
  0
TABLE
  2
BLOCK_RECORD
  5
1
330
0
100
AcDbSymbolTable
 70
    18
  0
BLOCK_RECORD
  5
1F
330
1
100
AcDbSymbolTableRecord
100
AcDbBlockTableRecord
  2
*Model_Space
340
22
  0
BLOCK_RECORD
  5
1B
330
1
100
AcDbSymbolTableRecord
100
AcDbBlockTableRecord
  2
*Paper_Space
340
1E
  0
BLOCK_RECORD
  5
23
330
1
100
AcDbSymbolTableRecord
100
AcDbBlockTableRecord
  2
*Paper_Space0
340
26
  0
BLOCK_RECORD
  5
48
330
1
100
AcDbSymbolTableRecord
100
AcDbBlockTableRecord
  2
81-93
340
0
102
{BLKREFS
331
65
102
}
  0
BLOCK_RECORD
  5
4B
330
1
100
AcDbSymbolTableRecord
100
AcDbBlockTableRecord
  2
Y143-0B
340
0
102
{BLKREFS
331
66
102
}
  0
BLOCK_RECORD
  5
4E
330
1
100
AcDbSymbolTableRecord
100
AcDbBlockTableRecord
  2
89-107
340
0
102
{BLKREFS
331
67
102
}
  0
BLOCK_RECORD
  5
51
330
1
100
AcDbSymbolTableRecord
100
AcDbBlockTableRecord
  2
84-35-B
340
0
102
{BLKREFS
331
68
102
}
  0
BLOCK_RECORD
  5
54
330
1
100
AcDbSymbolTableRecord
100
AcDbBlockTableRecord
  2
38-134-M1
340
0
102
{BLKREFS
331
69
102
}
  0
BLOCK_RECORD
  5
57
330
1
100
AcDbSymbolTableRecord
100
AcDbBlockTableRecord
  2
81-93AK
340
0
102
{BLKREFS
331
5E
102
}
  0
BLOCK_RECORD
  5
5A
330
1
100
AcDbSymbolTableRecord
100
AcDbBlockTableRecord
  2
T3360-H1AK
340
0
102
{BLKREFS
331
5F
102
}
  0
BLOCK_RECORD
  5
5D
330
1
100
AcDbSymbolTableRecord
100
AcDbBlockTableRecord
  2
T3360F
340
0
102
{BLKREFS
331
6A
102
}
  0
BLOCK_RECORD
  5
62
330
1
100
AcDbSymbolTableRecord
100
AcDbBlockTableRecord
  2
開示A4
340
0
102
{BLKREFS
331
6B
102
}
  0
BLOCK_RECORD
  5
611
330
1
100
AcDbSymbolTableRecord
100
AcDbBlockTableRecord
  2
*D10
340
0
  0
BLOCK_RECORD
  5
61C
330
1
100
AcDbSymbolTableRecord
100
AcDbBlockTableRecord
  2
*D11
340
0
  0
BLOCK_RECORD
  5
627
330
1
100
AcDbSymbolTableRecord
100
AcDbBlockTableRecord
  2
*D12
340
0
  0
BLOCK_RECORD
  5
632
330
1
100
AcDbSymbolTableRecord
100
AcDbBlockTableRecord
  2
*D13
340
0
  0
BLOCK_RECORD
  5
63D
330
1
100
AcDbSymbolTableRecord
100
AcDbBlockTableRecord
  2
*D14
340
0
  0
BLOCK_RECORD
  5
648
330
1
100
AcDbSymbolTableRecord
100
AcDbBlockTableRecord
  2
*D15
340
0
  0
BLOCK_RECORD
  5
653
330
1
100
AcDbSymbolTableRecord
100
AcDbBlockTableRecord
  2
*D16
340
0
  0
BLOCK_RECORD
  5
65F
330
1
100
AcDbSymbolTableRecord
100
AcDbBlockTableRecord
  2
*D17
340
0
  0
ENDTAB
  0
ENDSEC
  0
SECTION
  2
BLOCKS
  0
BLOCK
  5
20
330
1F
100
AcDbEntity
  8
0
100
AcDbBlockBegin
  2
*Model_Space
 70
     0
 10
0.0
 20
0.0
 30
0.0
  3
*Model_Space
  1

  0
ENDBLK
  5
21
330
1F
100
AcDbEntity
  8
0
100
AcDbBlockEnd
  0
BLOCK
  5
1C
330
1B
100
AcDbEntity
 67
     1
  8
0
100
AcDbBlockBegin
  2
*Paper_Space
 70
     0
 10
0.0
 20
0.0
 30
0.0
  3
*Paper_Space
  1

  0
ENDBLK
  5
1D
330
1B
100
AcDbEntity
 67
     1
  8
0
100
AcDbBlockEnd
  0
BLOCK
  5
24
330
23
100
AcDbEntity
  8
0
100
AcDbBlockBegin
  2
*Paper_Space0
 70
     0
 10
0.0
 20
0.0
 30
0.0
  3
*Paper_Space0
  1

  0
ENDBLK
  5
25
330
23
100
AcDbEntity
  8
0
100
AcDbBlockEnd
  0
BLOCK
  5
49
330
48
100
AcDbEntity
  8
0
100
AcDbBlockBegin
  2
81-93
 70
     0
 10
315.0000000000003
 20
445.5000000000005
 30
0.0
  3
81-93
  1

  0
LINE
  5
6C
330
48
100
AcDbEntity
  8
0
  6
Continuous
 62
     7
100
AcDbLine
 10
108.0243354784271
 20
101.1258932852367
 30
0.0
 11
108.0243354784271
 21
111.6302592852366
 31
0.0
  0
LINE
  5
6D
330
48
100
AcDbEntity
  8
0
  6
Continuous
 62
     7
100
AcDbLine
 10
104.4243354784269
 20
101.1258932852367
 30
0.0
 11
104.4243354784269
 21
111.6302592852366
 31
0.0
  0
LINE
  5
6E
330
48
100
AcDbEntity
  8
0
  6
Continuous
 62
     7
100
AcDbLine
 10
108.9243354784273
 20
105.5175441496278
 30
0.0
 11
108.2243354784271
 21
105.5175441496278
 31
0.0
  0
LINE
  5
6F
330
48
100
AcDbEntity
  8
0
  6
Continuous
 62
     7
100
AcDbLine
 10
108.9243354784273
 20
102.4192414089622
 30
0.0
 11
108.2243354784271
 21
102.4192414089622
 31
0.0
  0
LINE
  5
70
330
48
100
AcDbEntity
  8
0
  6
Continuous
 62
     7
100
AcDbLine
 10
103.5243354784269
 20
105.5175441496278
 30
0.0
 11
104.224335478427
 21
105.5175441496278
 31
0.0
  0
LINE
  5
71
330
48
100
AcDbEntity
  8
0
  6
Continuous
 62
     7
100
AcDbLine
 10
103.5243354784269
 20
102.4192414089622
 30
0.0
 11
104.224335478427
 21
102.4192414089622
 31
0.0
  0
LINE
  5
72
330
48
100
AcDbEntity
  8
0
  6
Continuous
 62
     7
100
AcDbLine
 10
103.5243354784268
 20
111.6302592852366
 30
0.0
 11
103.5243354784269
 21
102.4192414089622
 31
0.0
  0
LINE
  5
73
330
48
100
AcDbEntity
  8
0
  6
Continuous
 62
     7
100
AcDbLine
 10
105.724335478427
 20
104.9119322545579
 30
0.0
 11
104.224335478427
 21
104.9119322545579
 31
0.0
  0
LINE
  5
74
330
48
100
AcDbEntity
  8
0
  6
Continuous
 62
     7
100
AcDbLine
 10
108.224335478427
 20
104.9119322545579
 30
0.0
 11
106.724335478427
 21
104.9119322545579
 31
0.0
  0
LINE
  5
75
330
48
100
AcDbEntity
  8
0
  6
Continuous
 62
     7
100
AcDbLine
 10
106.724335478427
 20
104.6497895485207
 30
0.0
 11
105.724335478427
 21
104.6497895485207
 31
0.0
  0
LINE
  5
76
330
48
100
AcDbEntity
  8
0
  6
Continuous
 62
     7
100
AcDbLine
 10
106.724335478427
 20
101.1258932852367
 30
0.0
 11
106.724335478427
 21
111.6302592852366
 31
0.0
  0
LINE
  5
77
330
48
100
AcDbEntity
  8
0
  6
Continuous
 62
     7
100
AcDbLine
 10
105.724335478427
 20
101.1258932852367
 30
0.0
 11
105.724335478427
 21
111.6302592852366
 31
0.0
  0
LINE
  5
78
330
48
100
AcDbEntity
  8
0
  6
Continuous
 62
     7
100
AcDbLine
 10
104.4243354784269
 20
101.1258932852367
 30
0.0
 11
104.224335478427
 21
101.3258932852367
 31
0.0
  0
LINE
  5
79
330
48
100
AcDbEntity
  8
0
  6
Continuous
 62
     7
100
AcDbLine
 10
108.224335478427
 20
101.3258932852367
 30
0.0
 11
108.0243354784271
 21
101.1258932852367
 31
0.0
  0
LINE
  5
7A
330
48
100
AcDbEntity
  8
0
  6
Continuous
 62
     7
100
AcDbLine
 10
108.0243354784271
 20
101.1258932852367
 30
0.0
 11
104.4243354784269
 21
101.1258932852367
 31
0.0
  0
LINE
  5
7B
330
48
100
AcDbEntity
  8
0
  6
Continuous
 62
     7
100
AcDbLine
 10
108.224335478427
 20
101.3258932852367
 30
0.0
 11
108.224335478427
 21
111.6302592852366
 31
0.0
  0
LINE
  5
7C
330
48
100
AcDbEntity
  8
0
  6
Continuous
 62
     7
100
AcDbLine
 10
104.224335478427
 20
101.3258932852367
 30
0.0
 11
104.224335478427
 21
111.6302592852366
 31
0.0
  0
LINE
  5
7D
330
48
100
AcDbEntity
  8
0
  6
PHANTOM
 62
     4
100
AcDbLine
 10
106.224335478427
 20
99.74573369044094
 30
0.0
 11
106.224335478427
 21
130.2824039885832
 31
0.0
  0
LINE
  5
7E
330
48
100
AcDbEntity
  8
0
  6
Continuous
 62
     7
100
AcDbLine
 10
108.9243354784273
 20
111.6302592852366
 30
0.0
 11
108.9243354784273
 21
102.4192414089622
 31
0.0
  0
ENDBLK
  5
4A
330
48
100
AcDbEntity
  8
0
100
AcDbBlockEnd
  0
BLOCK
  5
4C
330
4B
100
AcDbEntity
  8
0
100
AcDbBlockBegin
  2
Y143-0B
 70
     0
 10
438.9184797446813
 20
46.30176690675238
 30
0.0
  3
Y143-0B
  1

  0
LINE
  5
7F
330
4B
100
AcDbEntity
  8
1
  6
Continuous
 62
     7
100
AcDbLine
 10
228.724335478427
 20
201.6680005294429
 30
0.0
 11
227.7306879527796
 21
201.6680005294429
 31
0.0
  0
LINE
  5
80
330
4B
100
AcDbEntity
  8
1
  6
Continuous
 62
     7
100
AcDbLine
 10
228.724335478427
 20
180.6680005294429
 30
0.0
 11
221.7243354784273
 21
180.6680005294429
 31
0.0
  0
LINE
  5
81
330
4B
100
AcDbEntity
  8
1
  6
Continuous
 62
     7
100
AcDbLine
 10
256.724335478427
 20
180.6905005294429
 30
0.0
 11
269.562335478427
 21
180.6905005294429
 31
0.0
  0
LINE
  5
82
330
4B
100
AcDbEntity
  8
1
  6
Continuous
 62
     2
100
AcDbLine
 10
256.724335478427
 20
200.4835005294428
 30
0.0
 11
270.7243354784273
 21
200.4835005294428
 31
0.0
  0
LINE
  5
83
330
4B
100
AcDbEntity
  8
1
  6
Continuous
 62
     7
100
AcDbLine
 10
193.9088354784271
 20
169.1680005294429
 30
0.0
 11
212.5398354784273
 21
169.1680005294429
 31
0.0
  0
LINE
  5
84
330
4B
100
AcDbEntity
  8
1
  6
Continuous
 62
     2
100
AcDbLine
 10
193.9088354784271
 20
166.6302592852366
 30
0.0
 11
193.9088354784271
 21
169.1680005294429
 31
0.0
  0
LINE
  5
85
330
4B
100
AcDbEntity
  8
1
  6
Continuous
 62
     7
100
AcDbLine
 10
210.0941328618684
 20
214.3220691603462
 30
0.0
 11
216.563066473066
 21
208.7298628886281
 31
0.0
  0
LINE
  5
86
330
4B
100
AcDbEntity
  8
1
  6
Continuous
 62
     7
100
AcDbLine
 10
192.7243354784273
 20
171.180643567838
 30
0.0
 11
192.7243354784273
 21
192.7398084831789
 31
0.0
  0
LINE
  5
87
330
4B
100
AcDbEntity
  8
1
  6
Continuous
 62
     7
100
AcDbLine
 10
213.7243354784273
 20
171.180643567838
 30
0.0
 11
213.7243354784273
 21
172.6680005294429
 31
0.0
  0
LINE
  5
88
330
4B
100
AcDbEntity
  8
1
  6
Continuous
 62
     7
100
AcDbLine
 10
192.7243354784273
 20
171.180643567838
 30
0.0
 11
192.7468354784273
 21
171.180643567838
 31
0.0
  0
LINE
  5
89
330
4B
100
AcDbEntity
  8
1
  6
Continuous
 62
     7
100
AcDbLine
 10
193.9088354784271
 20
169.1680005294429
 30
0.0
 11
192.7468354784273
 21
169.1680005294429
 31
0.0
  0
LINE
  5
8A
330
4B
100
AcDbEntity
  8
1
  6
Continuous
 62
     7
100
AcDbLine
 10
192.7468354784273
 20
171.180643567838
 30
0.0
 11
192.7468354784273
 21
166.6302592852366
 31
0.0
  0
LINE
  5
8B
330
4B
100
AcDbEntity
  8
1
  6
Continuous
 62
     2
100
AcDbLine
 10
193.9088354784271
 20
169.1680005294429
 30
0.0
 11
192.7468354784273
 21
171.180643567838
 31
0.0
  0
LINE
  5
8C
330
4B
100
AcDbEntity
  8
1
  6
Continuous
 62
     7
100
AcDbLine
 10
213.7243354784273
 20
171.180643567838
 30
0.0
 11
213.7018354784271
 21
171.180643567838
 31
0.0
  0
LINE
  5
8D
330
4B
100
AcDbEntity
  8
1
  6
Continuous
 62
     7
100
AcDbLine
 10
213.7018354784271
 20
171.180643567838
 30
0.0
 11
213.7018354784271
 21
166.6302592852366
 31
0.0
  0
LINE
  5
8E
330
4B
100
AcDbEntity
  8
1
  6
Continuous
 62
     7
100
AcDbLine
 10
213.7018354784271
 20
169.1680005294429
 30
0.0
 11
212.5398354784273
 21
169.1680005294429
 31
0.0
  0
LINE
  5
8F
330
4B
100
AcDbEntity
  8
1
  6
Continuous
 62
     2
100
AcDbLine
 10
213.7018354784271
 20
171.180643567838
 30
0.0
 11
212.5398354784273
 21
169.1680005294429
 31
0.0
  0
LINE
  5
90
330
4B
100
AcDbEntity
  8
1
  6
Continuous
 62
     2
100
AcDbLine
 10
212.5398354784273
 20
169.1680005294429
 30
0.0
 11
212.5398354784273
 21
166.6302592852366
 31
0.0
  0
LINE
  5
91
330
4B
100
AcDbEntity
  8
1
  6
Continuous
 62
     7
100
AcDbLine
 10
269.562335478427
 20
201.6455005294429
 30
0.0
 11
256.724335478427
 21
201.6455005294429
 31
0.0
  0
LINE
  5
92
330
4B
100
AcDbEntity
  8
1
  6
Continuous
 62
     7
100
AcDbLine
 10
270.7243354784273
 20
200.4835005294428
 30
0.0
 11
269.562335478427
 21
201.6455005294429
 31
0.0
  0
LINE
  5
93
330
4B
100
AcDbEntity
  8
1
  6
Continuous
 62
     7
100
AcDbLine
 10
269.562335478427
 20
180.6905005294429
 30
0.0
 11
270.7243354784273
 21
181.8525005294429
 31
0.0
  0
LINE
  5
94
330
4B
100
AcDbEntity
  8
1
  6
Continuous
 62
     2
100
AcDbLine
 10
270.7243354784273
 20
181.8525005294429
 30
0.0
 11
256.724335478427
 21
181.8525005294429
 31
0.0
  0
LINE
  5
95
330
4B
100
AcDbEntity
  8
1
  6
Continuous
 62
     7
100
AcDbLine
 10
270.7243354784273
 20
191.1680005294429
 30
0.0
 11
270.7243354784273
 21
181.8525005294429
 31
0.0
  0
LINE
  5
96
330
4B
100
AcDbEntity
  8
1
  6
Continuous
 62
     7
100
AcDbLine
 10
270.7243354784273
 20
200.4835005294428
 30
0.0
 11
270.7243354784273
 21
191.1680005294429
 31
0.0
  0
LINE
  5
97
330
4B
100
AcDbEntity
  8
1
  6
Continuous
 62
     2
100
AcDbLine
 10
96.90883547842701
 20
166.6680005294429
 30
0.0
 11
96.90883547842701
 21
169.1680005294429
 31
0.0
  0
LINE
  5
98
330
4B
100
AcDbEntity
  8
1
  6
Continuous
 62
     2
100
AcDbLine
 10
115.539835478427
 20
169.1680005294429
 30
0.0
 11
115.539835478427
 21
166.6680005294429
 31
0.0
  0
LINE
  5
99
330
4B
100
AcDbEntity
  8
1
  6
Continuous
 62
     2
100
AcDbLine
 10
116.701835478427
 20
171.180643567838
 30
0.0
 11
115.539835478427
 21
169.1680005294429
 31
0.0
  0
LINE
  5
9A
330
4B
100
AcDbEntity
  8
1
  6
Continuous
 62
     2
100
AcDbLine
 10
96.90883547842701
 20
169.1680005294429
 30
0.0
 11
95.746835478427
 21
171.180643567838
 31
0.0
  0
LINE
  5
9B
330
4B
100
AcDbEntity
  8
1
  6
Continuous
 62
     7
100
AcDbLine
 10
95.746835478427
 20
171.180643567838
 30
0.0
 11
95.746835478427
 21
166.6680005294429
 31
0.0
  0
LINE
  5
9C
330
4B
100
AcDbEntity
  8
1
  6
Continuous
 62
     7
100
AcDbLine
 10
116.701835478427
 20
171.180643567838
 30
0.0
 11
116.701835478427
 21
166.6680005294429
 31
0.0
  0
LINE
  5
9D
330
4B
100
AcDbEntity
  8
1
  6
Continuous
 62
     7
100
AcDbLine
 10
116.701835478427
 20
169.1680005294429
 30
0.0
 11
95.746835478427
 21
169.1680005294429
 31
0.0
  0
LINE
  5
9E
330
4B
100
AcDbEntity
  8
1
  6
Continuous
 62
     7
100
AcDbLine
 10
116.724335478427
 20
171.180643567838
 30
0.0
 11
116.701835478427
 21
171.180643567838
 31
0.0
  0
LINE
  5
9F
330
4B
100
AcDbEntity
  8
1
  6
Continuous
 62
     7
100
AcDbLine
 10
95.72433547842701
 20
171.180643567838
 30
0.0
 11
95.746835478427
 21
171.180643567838
 31
0.0
  0
LINE
  5
A0
330
4B
100
AcDbEntity
  8
1
  6
Continuous
 62
     7
100
AcDbLine
 10
116.724335478427
 20
171.180643567838
 30
0.0
 11
116.724335478427
 21
184.1931281167736
 31
0.0
  0
LINE
  5
A1
330
4B
100
AcDbEntity
  8
1
  6
Continuous
 62
     7
100
AcDbLine
 10
95.72433547842701
 20
171.180643567838
 30
0.0
 11
95.72433547842701
 21
184.1931281167736
 31
0.0
  0
LINE
  5
A2
330
4B
100
AcDbEntity
  8
1
  6
Continuous
 62
     7
100
AcDbLine
 10
96.90883547842711
 20
397.2646410503691
 30
0.0
 11
106.224335478427
 21
397.2646410503691
 31
0.0
  0
LINE
  5
A3
330
4B
100
AcDbEntity
  8
1
  6
Continuous
 62
     7
100
AcDbLine
 10
106.224335478427
 20
397.2646410503691
 30
0.0
 11
115.539835478427
 21
397.2646410503691
 31
0.0
  0
LINE
  5
A4
330
4B
100
AcDbEntity
  8
1
  6
Continuous
 62
     2
100
AcDbLine
 10
115.539835478427
 20
397.2646410503691
 30
0.0
 11
115.539835478427
 21
383.2646410503688
 31
0.0
  0
LINE
  5
A5
330
4B
100
AcDbEntity
  8
1
  6
Continuous
 62
     7
100
AcDbLine
 10
116.701835478427
 20
396.1026410503689
 30
0.0
 11
115.539835478427
 21
397.2646410503691
 31
0.0
  0
LINE
  5
A6
330
4B
100
AcDbEntity
  8
1
  6
Continuous
 62
     7
100
AcDbLine
 10
96.90883547842711
 20
397.2646410503691
 30
0.0
 11
95.746835478427
 21
396.1026410503689
 31
0.0
  0
LINE
  5
A7
330
4B
100
AcDbEntity
  8
1
  6
Continuous
 62
     7
100
AcDbLine
 10
95.746835478427
 20
396.1026410503689
 30
0.0
 11
95.746835478427
 21
383.2646410503688
 31
0.0
  0
LINE
  5
A8
330
4B
100
AcDbEntity
  8
1
  6
Continuous
 62
     2
100
AcDbLine
 10
96.90883547842711
 20
383.2646410503688
 30
0.0
 11
96.90883547842711
 21
397.2646410503691
 31
0.0
  0
LINE
  5
A9
330
4B
100
AcDbEntity
  8
1
  6
Continuous
 62
     7
100
AcDbLine
 10
116.701835478427
 20
383.2646410503688
 30
0.0
 11
116.701835478427
 21
396.1026410503689
 31
0.0
  0
LINE
  5
AA
330
4B
100
AcDbEntity
  8
1
  6
Continuous
 62
     7
100
AcDbLine
 10
95.746835478427
 20
339.2667522313518
 30
0.0
 11
95.746835478427
 21
355.2646410503688
 31
0.0
  0
LINE
  5
AB
330
4B
100
AcDbEntity
  8
1
  6
Continuous
 62
     7
100
AcDbLine
 10
116.701835478427
 20
339.2667539059729
 30
0.0
 11
116.701835478427
 21
355.2646410503688
 31
0.0
  0
LINE
  5
AC
330
4B
100
AcDbEntity
  8
1
  6
Continuous
 62
     7
100
AcDbLine
 10
95.746835478427
 20
396.1026410503689
 30
0.0
 11
116.701835478427
 21
396.1026410503689
 31
0.0
  0
LINE
  5
AD
330
4B
100
AcDbEntity
  8
1
  6
Continuous
 62
     7
100
AcDbLine
 10
269.562335478427
 20
201.6455005294429
 30
0.0
 11
269.562335478427
 21
180.6905005294429
 31
0.0
  0
ARC
  5
AE
330
4B
100
AcDbEntity
  8
1
  6
Continuous
 62
     7
100
AcDbCircle
 10
184.7243354784273
 20
192.7398084831789
 30
0.0
 40
8.0
100
AcDbArc
 50
0.0
 51
25.44119765179286
  0
ARC
  5
AF
330
4B
100
AcDbEntity
  8
1
  6
Continuous
 62
     7
100
AcDbCircle
 10
221.7243354784273
 20
172.6680005294429
 30
0.0
 40
8.0
100
AcDbArc
 50
90.0
 51
180.0
  0
ARC
  5
B0
330
4B
100
AcDbEntity
  8
1
  6
Continuous
 62
     7
100
AcDbCircle
 10
207.7997142759724
 20
198.5926217319048
 30
0.0
 40
13.39999999999515
100
AcDbArc
 50
35.22997850694242
 51
49.1575325152069
  0
ARC
  5
B1
330
4B
100
AcDbEntity
  8
1
  6
Continuous
 62
     7
100
AcDbCircle
 10
227.7306879527795
 20
212.6680005294429
 30
0.0
 40
10.99999999999998
100
AcDbArc
 50
215.2299785069438
 51
270.0000000000005
  0
ARC
  5
B2
330
4B
100
AcDbEntity
  8
1
  6
Continuous
 62
     7
100
AcDbCircle
 10
106.2243354784287
 20
198.592621731901
 30
0.0
 40
13.39999999999828
100
AcDbArc
 50
337.2263624783688
 51
343.5120936857277
  0
ARC
  5
B3
330
4B
100
AcDbEntity
  8
1
  6
Continuous
 62
     7
100
AcDbCircle
 10
140.5235451977567
 20
184.1931281167736
 30
0.0
 40
23.79920971932962
100
AcDbArc
 50
157.2263624783693
 51
180.0
  0
ARC
  5
B4
330
4B
100
AcDbEntity
  8
1
  6
Continuous
 62
     7
100
AcDbCircle
 10
106.2243354784253
 20
198.592621731901
 30
0.0
 40
13.39999999999819
100
AcDbArc
 50
196.4879063142723
 51
202.7736375216313
  0
ARC
  5
B5
330
4B
100
AcDbEntity
  8
1
  6
Continuous
 62
     7
100
AcDbCircle
 10
71.92512575909738
 20
184.1931281167736
 30
0.0
 40
23.79920971932962
100
AcDbArc
 50
0.0
 51
22.77363752163069
  0
ENDBLK
  5
4D
330
4B
100
AcDbEntity
  8
0
100
AcDbBlockEnd
  0
BLOCK
  5
4F
330
4E
100
AcDbEntity
  8
0
100
AcDbBlockBegin
  2
89-107
 70
     0
 10
171.2329574497786
 20
190.4608937482562
 30
0.0
  3
89-107
  1

  0
LINE
  5
B6
330
4E
100
AcDbEntity
  8
1
  6
Continuous
 62
     7
100
AcDbLine
 10
214.706697388222
 20
221.3841234294829
 30
0.0
 11
185.008212578387
 21
191.6856386196479
 31
0.0
  0
LINE
  5
B7
330
4E
100
AcDbEntity
  8
1
  6
Continuous
 62
     7
100
AcDbLine
 10
163.605540451809
 20
227.2304463699568
 30
0.0
 11
171.383715044861
 21
235.0086209630088
 31
0.0
  0
LINE
  5
B8
330
4E
100
AcDbEntity
  8
1
  6
Continuous
 62
     7
100
AcDbLine
 10
171.383715044861
 20
235.0086209630088
 30
0.0
 11
179.1618896379131
 21
242.7867955560609
 31
0.0
  0
LINE
  5
B9
330
4E
100
AcDbEntity
  8
1
  6
Continuous
 62
     7
100
AcDbLine
 10
201.0821998546962
 20
205.310136153174
 30
0.0
 11
213.8101219160539
 21
218.0380582145317
 31
0.0
  0
LINE
  5
BA
330
4E
100
AcDbEntity
  8
1
  6
Continuous
 62
     7
100
AcDbLine
 10
85.22433547842702
 20
206.5348810245654
 30
0.0
 11
85.22433547842702
 21
227.9375531511434
 31
0.0
  0
LINE
  5
BB
330
4E
100
AcDbEntity
  8
1
  6
Continuous
 62
     7
100
AcDbLine
 10
127.224335478427
 20
206.5348810245654
 30
0.0
 11
127.224335478427
 21
227.9375526338617
 31
0.0
  0
LINE
  5
BC
330
4E
100
AcDbEntity
  8
1
  6
Continuous
 62
     7
100
AcDbLine
 10
213.8101219160539
 20
218.0380582145317
 30
0.0
 11
214.706697388222
 21
221.3841234294829
 31
0.0
  0
LINE
  5
BD
330
4E
100
AcDbEntity
  8
1
  6
Continuous
 62
     7
100
AcDbLine
 10
193.304025261644
 20
242.7867955560609
 30
0.0
 11
214.706697388222
 21
221.3841234294829
 31
0.0
  0
LINE
  5
BE
330
4E
100
AcDbEntity
  8
1
  6
Continuous
 62
     7
100
AcDbLine
 10
188.3542777933382
 20
192.582214091816
 30
0.0
 11
201.0821998546962
 21
205.310136153174
 31
0.0
  0
LINE
  5
BF
330
4E
100
AcDbEntity
  8
1
  6
Continuous
 62
     7
100
AcDbLine
 10
185.008212578387
 20
191.6856386196479
 30
0.0
 11
188.3542777933382
 21
192.582214091816
 31
0.0
  0
LINE
  5
C0
330
4E
100
AcDbEntity
  8
1
  6
Continuous
 62
     7
100
AcDbLine
 10
185.008212578387
 20
191.6856386196479
 30
0.0
 11
163.605540451809
 21
213.0883107462259
 31
0.0
  0
LINE
  5
C1
330
4E
100
AcDbEntity
  8
1
  6
Continuous
 62
     7
100
AcDbLine
 10
127.224335478427
 20
304.9950889459502
 30
0.0
 11
127.224335478427
 21
326.3977605552464
 31
0.0
  0
LINE
  5
C2
330
4E
100
AcDbEntity
  8
1
  6
Continuous
 62
     7
100
AcDbLine
 10
85.22433547842695
 20
304.9950884286685
 30
0.0
 11
85.22433547842695
 21
326.3977605552464
 31
0.0
  0
ARC
  5
C3
330
4E
100
AcDbEntity
  8
1
  6
Continuous
 62
     7
100
AcDbCircle
 10
220.4736201572251
 20
226.6108640161877
 30
0.0
 40
135.2557914108944
100
AcDbArc
 50
179.4379914803197
 51
187.0902946171493
  0
ARC
  5
C4
330
4E
100
AcDbEntity
  8
1
  6
Continuous
 62
     7
100
AcDbCircle
 10
87.23362826266093
 20
227.9179847965125
 30
0.0
 40
2.009388064320337
100
AcDbArc
 50
30.17050910918565
 51
179.4420330073023
  0
ARC
  5
C5
330
4E
100
AcDbEntity
  8
1
  6
Continuous
 62
     7
100
AcDbCircle
 10
4.26696585339489
 20
218.9005033284265
 30
0.0
 40
85.29530616245228
100
AcDbArc
 50
0.00000000000013
 51
6.75132675523835
  0
ARC
  5
C6
330
4E
100
AcDbEntity
  8
1
  6
Continuous
 62
     7
100
AcDbCircle
 10
75.71352898907578
 20
218.9005033284267
 30
0.0
 40
13.84874302677141
100
AcDbArc
 50
319.5506891252695
 51
0.0
  0
ARC
  5
C7
330
4E
100
AcDbEntity
  8
1
  6
Continuous
 62
     7
100
AcDbCircle
 10
125.2150426941931
 20
227.9179847965125
 30
0.0
 40
2.009388064320307
100
AcDbArc
 50
0.55796699269768
 51
149.829490890815
  0
ARC
  5
C8
330
4E
100
AcDbEntity
  8
1
  6
Continuous
 62
     7
100
AcDbCircle
 10
-8.0249492003711
 20
226.6108640161877
 30
0.0
 40
135.2557914108945
100
AcDbArc
 50
352.9097053828507
 51
0.5620085196803
  0
ARC
  5
C9
330
4E
100
AcDbEntity
  8
1
  6
Continuous
 62
     7
100
AcDbCircle
 10
208.1817051034591
 20
218.9005033284265
 30
0.0
 40
85.29530616245229
100
AcDbArc
 50
173.2486732447616
 51
179.9999999999999
  0
ARC
  5
CA
330
4E
100
AcDbEntity
  8
1
  6
Continuous
 62
     7
100
AcDbCircle
 10
136.7351419677783
 20
218.9005033284267
 30
0.0
 40
13.8487430267715
100
AcDbArc
 50
180.0
 51
220.4493108747305
  0
ARC
  5
CB
330
4E
100
AcDbEntity
  8
1
  6
Continuous
 62
     7
100
AcDbCircle
 10
136.7351419677782
 20
314.0321382513851
 30
0.0
 40
13.84874302677149
100
AcDbArc
 50
139.5506891252698
 51
180.0
  0
ARC
  5
CC
330
4E
100
AcDbEntity
  8
1
  6
Continuous
 62
     7
100
AcDbCircle
 10
208.181705103459
 20
314.0321382513855
 30
0.0
 40
85.29530616245229
100
AcDbArc
 50
180.0000000000002
 51
186.7513267552386
  0
ARC
  5
CD
330
4E
100
AcDbEntity
  8
1
  6
Continuous
 62
     7
100
AcDbCircle
 10
-8.02494920037129
 20
306.3217775636241
 30
0.0
 40
135.2557914108946
100
AcDbArc
 50
359.4379914803197
 51
7.09029461714926
  0
ARC
  5
CE
330
4E
100
AcDbEntity
  8
1
  6
Continuous
 62
     7
100
AcDbCircle
 10
125.215042694193
 20
305.0146567832994
 30
0.0
 40
2.009388064320503
100
AcDbArc
 50
210.1705091091913
 51
359.4420330073024
  0
ARC
  5
CF
330
4E
100
AcDbEntity
  8
1
  6
Continuous
 62
     7
100
AcDbCircle
 10
75.71352898907571
 20
314.0321382513851
 30
0.0
 40
13.84874302677133
100
AcDbArc
 50
0.0
 51
40.44931087473066
  0
ARC
  5
D0
330
4E
100
AcDbEntity
  8
1
  6
Continuous
 62
     7
100
AcDbCircle
 10
4.26696585339482
 20
314.0321382513853
 30
0.0
 40
85.29530616245233
100
AcDbArc
 50
353.2486732447616
 51
359.9999999999999
  0
ARC
  5
D1
330
4E
100
AcDbEntity
  8
1
  6
Continuous
 62
     7
100
AcDbCircle
 10
87.23362826266083
 20
305.0146567832994
 30
0.0
 40
2.009388064320293
100
AcDbArc
 50
180.5579669926977
 51
329.829490890809
  0
ARC
  5
D2
330
4E
100
AcDbEntity
  8
1
  6
Continuous
 62
     7
100
AcDbCircle
 10
220.4736201572249
 20
306.3217775636242
 30
0.0
 40
135.2557914108943
100
AcDbArc
 50
172.9097053828508
 51
180.5620085196803
  0
SPLINE
  5
D3
330
4E
100
AcDbEntity
  8
1
  6
Continuous
 62
     7
100
AcDbSpline
210
0.0
220
0.0
230
1.0
 70
     8
 71
     3
 72
    43
 73
    39
 74
    37
 42
0.000000001
 43
0.0000000001
 44
0.00000001
 40
0.0
 40
0.0
 40
0.0
 40
0.0
 40
1.168059975248083
 40
2.33534210711593
 40
3.476169357714666
 40
4.617594114456598
 40
5.706724830990299
 40
6.795579382365964
 40
7.810208272784116
 40
8.824897762980864
 40
9.747817113259948
 40
10.67066241647884
 40
11.4916762064755
 40
12.31260748438487
 40
13.03231771288619
 40
13.75186625620336
 40
14.38630055990311
 40
15.02020005909339
 40
15.60412869041128
 40
16.1875618701297
 40
16.77099504984804
 40
17.35492368116583
 40
17.98882318035619
 40
18.62325748405594
 40
19.34280602737311
 40
20.0625162558743
 40
20.88344753378377
 40
21.70446132378038
 40
22.62730662699938
 40
23.55022597727846
 40
24.56491546747517
 40
25.57954435789319
 40
26.66839890926896
 40
27.75752962580268
 40
28.89895438254463
 40
30.03978163314338
 40
31.20706376501117
 40
32.3751237402593
 40
32.3751237402593
 40
32.3751237402593
 40
32.3751237402593
 10
99.63034879629011
 20
319.844330833586
 30
0.0
 10
99.63986698066245
 20
320.2335667208949
 30
0.0
 10
99.6588970218015
 20
321.0117792922736
 30
0.0
 10
99.71930927231246
 20
322.1693134220356
 30
0.0
 10
99.84211745573569
 20
323.3131658366355
 30
0.0
 10
100.0169685587074
 20
324.4236564949194
 30
0.0
 10
100.2364873769253
 20
325.5085024935918
 30
0.0
 10
100.498118947701
 20
326.5405443891071
 30
0.0
 10
100.8066147190448
 20
327.5336227027354
 30
0.0
 10
101.1522729873338
 20
328.4556480345082
 30
0.0
 10
101.5411823886363
 20
329.3268928838222
 30
0.0
 10
101.9591626204083
 20
330.112367437187
 30
0.0
 10
102.417242621387
 20
330.8352364624239
 30
0.0
 10
102.8959233621092
 20
331.4617410398378
 30
0.0
 10
103.4103703325974
 20
332.0138649601998
 30
0.0
 10
103.9375191789752
 20
332.4638800191712
 30
0.0
 10
104.4943374070138
 20
332.8265351541971
 30
0.0
 10
105.0578140228933
 20
333.0856235768247
 30
0.0
 10
105.6400918421163
 20
333.2427973263413
 30
0.0
 10
106.2243354784269
 20
333.2976330771326
 30
0.0
 10
106.8085791147377
 20
333.2427973263412
 30
0.0
 10
107.3908569339606
 20
333.0856235768247
 30
0.0
 10
107.9543335498401
 20
332.8265351541971
 30
0.0
 10
108.5111517778787
 20
332.4638800191713
 30
0.0
 10
109.0383006242564
 20
332.0138649601997
 30
0.0
 10
109.5527475947448
 20
331.4617410398381
 30
0.0
 10
110.0314283354668
 20
330.8352364624241
 30
0.0
 10
110.4895083364457
 20
330.1123674371869
 30
0.0
 10
110.9074885682176
 20
329.3268928838222
 30
0.0
 10
111.2963979695201
 20
328.4556480345082
 30
0.0
 10
111.642056237809
 20
327.5336227027356
 30
0.0
 10
111.9505520091528
 20
326.5405443891072
 30
0.0
 10
112.2121835799283
 20
325.5085024935918
 30
0.0
 10
112.4317023981464
 20
324.4236564949193
 30
0.0
 10
112.6065535011182
 20
323.3131658366356
 30
0.0
 10
112.7293616845416
 20
322.1693134220354
 30
0.0
 10
112.7897739350526
 20
321.0117792922737
 30
0.0
 10
112.8088039761915
 20
320.2335667208949
 30
0.0
 10
112.8183221605638
 20
319.844330833586
 30
0.0
 11
99.63034879629011
 21
319.844330833586
 31
0.0
 11
99.66429589469612
 21
321.0118974125637
 31
0.0
 11
99.73052627059951
 21
322.1772991089965
 31
0.0
 11
99.85136978054743
 21
323.311708057782
 31
0.0
 11
100.0280148516624
 21
324.4393813238975
 31
0.0
 11
100.2451201899473
 21
325.506654011853
 31
0.0
 11
100.5137754994801
 21
326.5618452548582
 31
0.0
 11
100.8158155393068
 21
327.5304750087539
 31
0.0
 11
101.1730486225755
 21
328.480200909355
 31
0.0
 11
101.5507797996218
 21
329.3222812413191
 31
0.0
 11
101.9858025407113
 21
330.1361600215605
 31
0.0
 11
102.427145061215
 21
330.8284608401482
 31
0.0
 11
102.9273421373585
 21
331.4794071118062
 31
0.0
 11
103.4199787286472
 21
332.0040898753759
 31
0.0
 11
103.9690592083149
 21
332.4691282969711
 31
0.0
 11
104.5021365375333
 21
332.8131274935517
 31
0.0
 11
105.0793017075138
 21
333.0752513996665
 31
0.0
 11
105.6433016230082
 21
333.2265019939809
 31
0.0
 11
106.224335478427
 21
333.2793596761306
 31
0.0
 11
106.8053693338457
 21
333.2265019939809
 31
0.0
 11
107.36936924934
 21
333.0752513996665
 31
0.0
 11
107.9465344193206
 21
332.8131274935517
 31
0.0
 11
108.479611748539
 21
332.4691282969711
 31
0.0
 11
109.0286922282067
 21
332.0040898753759
 31
0.0
 11
109.5213288194954
 21
331.4794071118064
 31
0.0
 11
110.0215258956389
 21
330.8284608401483
 31
0.0
 11
110.4628684161426
 21
330.1361600215606
 31
0.0
 11
110.8978911572321
 21
329.3222812413191
 31
0.0
 11
111.2756223342784
 21
328.480200909355
 31
0.0
 11
111.632855417547
 21
327.5304750087539
 31
0.0
 11
111.9348954573736
 21
326.5618452548583
 31
0.0
 11
112.2035507669064
 21
325.506654011853
 31
0.0
 11
112.4206561051914
 21
324.4393813238975
 31
0.0
 11
112.5973011763065
 21
323.311708057782
 31
0.0
 11
112.7181446862545
 21
322.1772991089965
 31
0.0
 11
112.7843750621579
 21
321.0118974125638
 31
0.0
 11
112.8183221605638
 21
319.844330833586
 31
0.0
  0
SPLINE
  5
D4
330
4E
100
AcDbEntity
  8
1
  6
Continuous
 62
     7
100
AcDbSpline
210
0.0
220
0.0
230
1.0
 70
     8
 71
     3
 72
    43
 73
    39
 74
    37
 42
0.000000001
 43
0.0000000001
 44
0.00000001
 40
0.0
 40
0.0
 40
0.0
 40
0.0
 40
0.6082923978785663
 40
1.215068533845932
 40
1.820517897868748
 40
2.427166004467453
 40
3.029768812190149
 40
3.631841464849505
 40
4.229257713629408
 40
4.826856408317296
 40
5.418815720357049
 40
6.010704128854231
 40
6.596995701382343
 40
7.18329801978421
 40
7.764606685387651
 40
8.3459022218844
 40
8.923471381822505
 40
9.501037103554372
 40
10.07660871380063
 40
10.6521779404807
 40
11.22774716716066
 40
11.80331877740685
 40
12.38088449913875
 40
12.95845365907693
 40
13.53974919557362
 40
14.1210578611771
 40
14.70736017957893
 40
15.2936517521071
 40
15.88554016060427
 40
16.47749947264403
 40
17.07509816733181
 40
17.67251441611172
 40
18.27458706877107
 40
18.87718987649381
 40
19.48383798309254
 40
20.08928734711538
 40
20.69606348308275
 40
21.30435588096131
 40
21.30435588096131
 40
21.30435588096131
 40
21.30435588096131
 10
99.63034879629011
 20
319.844330833586
 30
0.0
 10
99.63999959150382
 20
319.6417992728004
 30
0.0
 10
99.65927713840114
 20
319.2372409928588
 30
0.0
 10
99.71994542076209
 20
318.6327020493516
 30
0.0
 10
99.84365917688471
 20
318.0380335634028
 30
0.0
 10
100.0201577010297
 20
317.4587778659752
 30
0.0
 10
100.2407493280772
 20
316.8960763906779
 30
0.0
 10
100.5054481150378
 20
316.3560332160172
 30
0.0
 10
100.8148642276613
 20
315.8422371560128
 30
0.0
 10
101.1651901436912
 20
315.359581631275
 30
0.0
 10
101.554503373233
 20
314.9102223348277
 30
0.0
 10
101.9786497651434
 20
314.4989400133177
 30
0.0
 10
102.4359274986236
 20
314.1278238707315
 30
0.0
 10
102.9213605044231
 20
313.8006132097046
 30
0.0
 10
103.4327341364696
 20
313.5190769538389
 30
0.0
 10
103.9647285870078
 20
313.2858844369449
 30
0.0
 10
104.5145842990239
 20
313.1025589722325
 30
0.0
 10
105.077020866069
 20
312.9705718256309
 30
0.0
 10
105.6485649007229
 20
312.8910520950728
 30
0.0
 10
106.224335478427
 20
312.8643760197691
 30
0.0
 10
106.8001060561309
 20
312.891052095073
 30
0.0
 10
107.3716500907848
 20
312.970571825631
 30
0.0
 10
107.9340866578299
 20
313.1025589722325
 30
0.0
 10
108.4839423698461
 20
313.2858844369449
 30
0.0
 10
109.0159368203844
 20
313.5190769538389
 30
0.0
 10
109.5273104524307
 20
313.8006132097046
 30
0.0
 10
110.0127434582303
 20
314.1278238707314
 30
0.0
 10
110.4700211917105
 20
314.4989400133177
 30
0.0
 10
110.894167583621
 20
314.9102223348277
 30
0.0
 10
111.2834808131626
 20
315.359581631275
 30
0.0
 10
111.6338067291925
 20
315.8422371560127
 30
0.0
 10
111.9432228418159
 20
316.3560332160172
 30
0.0
 10
112.2079216287764
 20
316.896076390678
 30
0.0
 10
112.4285132558241
 20
317.4587778659752
 30
0.0
 10
112.6050117799692
 20
318.0380335634028
 30
0.0
 10
112.728725536092
 20
318.6327020493515
 30
0.0
 10
112.7893938184528
 20
319.2372409928588
 30
0.0
 10
112.8086713653501
 20
319.6417992728005
 30
0.0
 10
112.8183221605638
 20
319.844330833586
 30
0.0
 11
99.63034879629011
 21
319.844330833586
 31
0.0
 11
99.66461800456702
 21
319.2370045051698
 31
0.0
 11
99.73052627059951
 21
318.6338184800557
 31
0.0
 11
99.85242168279275
 21
318.040766676039
 31
0.0
 11
100.0280148516624
 21
317.4600869318388
 31
0.0
 11
100.2483797071002
 21
316.8992219970456
 31
0.0
 11
100.5137754994801
 21
316.3587994280908
 31
0.0
 11
100.8219612178265
 21
315.8470106652127
 31
0.0
 11
101.1730486225755
 21
315.3634180323348
 31
0.0
 11
101.5607567608381
 21
314.9160946291283
 31
0.0
 11
101.9858025407113
 21
314.5041869045935
 31
0.0
 11
102.4410887767453
 21
314.1347924654265
 31
0.0
 11
102.9273421373585
 21
313.8072133478914
 31
0.0
 11
103.4366087400328
 21
313.5269147704972
 31
0.0
 11
103.9690592083149
 21
313.2936745510634
 31
0.0
 11
104.5169870650695
 21
313.1110240687603
 31
0.0
 11
105.0793017075138
 21
312.9791741305878
 31
0.0
 11
105.6493801295734
 21
312.8998439874754
 31
0.0
 11
106.224335478427
 21
312.8732680225957
 31
0.0
 11
106.7992908272805
 21
312.8998439874754
 31
0.0
 11
107.36936924934
 21
312.9791741305878
 31
0.0
 11
107.9316838917843
 21
313.1110240687603
 31
0.0
 11
108.479611748539
 21
313.2936745510634
 31
0.0
 11
109.0120622168211
 21
313.5269147704972
 31
0.0
 11
109.5213288194954
 21
313.8072133478914
 31
0.0
 11
110.0075821801086
 21
314.1347924654265
 31
0.0
 11
110.4628684161426
 21
314.5041869045935
 31
0.0
 11
110.8879141960159
 21
314.9160946291283
 31
0.0
 11
111.2756223342784
 21
315.3634180323348
 31
0.0
 11
111.6267097390273
 21
315.8470106652127
 31
0.0
 11
111.9348954573736
 21
316.3587994280908
 31
0.0
 11
112.2002912497535
 21
316.8992219970456
 31
0.0
 11
112.4206561051914
 21
317.4600869318388
 31
0.0
 11
112.5962492740612
 21
318.040766676039
 31
0.0
 11
112.7181446862545
 21
318.6338184800557
 31
0.0
 11
112.784052952287
 21
319.2370045051698
 31
0.0
 11
112.8183221605638
 21
319.844330833586
 31
0.0
  0
SPLINE
  5
D5
330
4E
100
AcDbEntity
  8
1
  6
Continuous
 62
     7
100
AcDbSpline
210
0.0
220
0.0
230
1.0
 70
     8
 71
     3
 72
    43
 73
    39
 74
    37
 42
0.000000001
 43
0.0000000001
 44
0.00000001
 40
0.0
 40
0.0
 40
0.0
 40
0.0
 40
1.555639283703959
 40
3.105210030222
 40
4.674970953561619
 40
6.249670704275092
 40
7.855707058701854
 40
9.459663810341645
 40
11.10810366270678
 40
12.75741835189338
 40
14.45477627371108
 40
16.15193528219181
 40
17.89620583690902
 40
19.64061295845169
 40
21.42532207965951
 40
23.21004295599364
 40
25.02413525774234
 40
26.83825664221706
 40
28.66781001127012
 40
30.49736799404739
 40
32.32692339638604
 40
34.15647418321856
 40
35.97059556653381
 40
37.78468786942378
 40
39.56940874604498
 40
41.35411786697406
 40
43.09852498846283
 40
44.84279554323107
 40
46.53995455167171
 40
48.23731247352801
 40
49.88662716289228
 40
51.53506701509256
 40
53.13902376618506
 40
54.74506012110112
 40
56.31975987335441
 40
57.88952079543675
 40
59.43909262463382
 40
60.99473300451549
 40
60.99473300451549
 40
60.99473300451549
 40
60.99473300451549
 10
85.22433401482323
 20
304.9950906154757
 30
0.0
 10
85.25539916569062
 20
304.47748849391
 30
0.0
 10
85.31740829536618
 20
303.4443034136922
 30
0.0
 10
85.51118533597781
 20
301.8951551247235
 30
0.0
 10
85.90712204153799
 20
300.3768725407305
 30
0.0
 10
86.47261786356431
 20
298.8952716152211
 30
0.0
 10
87.17659895273762
 20
297.4616283599126
 30
0.0
 10
88.0246429650992
 20
296.0790912064176
 30
0.0
 10
89.0098859710871
 20
294.7725644834495
 30
0.0
 10
90.1311961641616
 20
293.5387583686705
 30
0.0
 10
91.36886163567644
 20
292.3976313255725
 30
0.0
 10
92.7246941468384
 20
291.3475182378554
 30
0.0
 10
94.1767658976978
 20
290.4059641099288
 30
0.0
 10
95.72615946034722
 20
289.5718432911649
 30
0.0
 10
97.3491559153467
 20
288.8577888201119
 30
0.0
 10
99.04453750586707
 20
288.2643100286211
 30
0.0
 10
100.7896797014801
 20
287.7992111873117
 30
0.0
 10
102.5794792364706
 20
287.4639011266603
 30
0.0
 10
104.3943628905204
 20
287.2618960051855
 30
0.0
 10
106.2243346183875
 20
287.1944227693406
 30
0.0
 10
108.0543054835045
 20
287.2618958776944
 30
0.0
 10
109.869187451744
 20
287.4639005261673
 30
0.0
 10
111.658986210047
 20
287.7992100557303
 30
0.0
 10
113.4041285026299
 20
288.2643085331513
 30
0.0
 10
115.0995102171836
 20
288.8577869715941
 30
0.0
 10
116.7225068207994
 20
289.5718411047985
 30
0.0
 10
118.2719005570734
 20
290.4059616008458
 30
0.0
 10
119.7239725040528
 20
291.3475154262894
 30
0.0
 10
121.0798052339121
 20
292.3976282316713
 30
0.0
 10
122.3174709431134
 20
293.5387550170541
 30
0.0
 10
123.438781393314
 20
294.7725608981678
 30
0.0
 10
124.4240246713007
 20
296.0790874158319
 30
0.0
 10
125.2720689707594
 20
297.4616243931517
 30
0.0
 10
125.9760503588433
 20
298.8952675021199
 30
0.0
 10
126.5415464931712
 20
300.37686830864
 30
0.0
 10
126.937483605747
 20
301.8951511611039
 30
0.0
 10
127.1312609731351
 20
303.44430014688
 30
0.0
 10
127.1932702524843
 20
304.4774859456082
 30
0.0
 10
127.224335478427
 20
304.9950884286685
 30
0.0
 11
85.22433401482323
 21
304.9950906154757
 31
0.0
 11
85.33427008595042
 21
303.4433407461757
 31
0.0
 11
85.54337089120861
 21
301.9079429619252
 31
0.0
 11
85.93389044641373
 21
300.3875338595343
 31
0.0
 11
86.49078838926812
 21
298.9145966612105
 31
0.0
 11
87.19893714959689
 21
297.473111972501
 31
0.0
 11
88.03779970773962
 21
296.1060030259731
 31
0.0
 11
89.02905905122037
 21
294.7889005764669
 31
0.0
 11
90.13739969053682
 21
293.5674997526022
 31
0.0
 11
91.38457872976491
 21
292.4161664559484
 31
0.0
 11
92.72579305463142
 21
291.3762179785146
 31
0.0
 11
94.18876834390815
 21
290.4263847975118
 31
0.0
 11
95.72433277744561
 21
289.5987386915741
 31
0.0
 11
97.35762267781664
 21
288.8793286909101
 31
0.0
 11
99.04190974683591
 21
288.2890697004661
 31
0.0
 11
100.7946898717906
 21
287.8214237735555
 31
0.0
 11
102.5777210653624
 21
287.4870046347613
 31
0.0
 11
104.3960230677529
 21
287.2844130300871
 31
0.0
 11
106.224335478427
 21
287.2169138356165
 31
0.0
 11
108.0526453139361
 21
287.2844128396262
 31
0.0
 11
109.8709447815255
 21
287.4870038752914
 31
0.0
 11
111.6539760435697
 21
287.8214226427195
 31
0.0
 11
113.4067562670959
 21
288.289068204602
 31
0.0
 11
115.0910434593496
 21
288.879326844268
 31
0.0
 11
116.7243335092475
 21
289.5987365047668
 31
0.0
 11
118.2598981150942
 21
290.4263822908986
 31
0.0
 11
119.7228736022523
 21
291.3762151672094
 31
0.0
 11
121.0640881436644
 21
292.4161633653003
 31
0.0
 11
122.3112674227193
 21
293.5674964022192
 31
0.0
 11
123.4196083166305
 21
294.7888969952958
 31
0.0
 11
124.4108679342039
 21
296.1059992383119
 31
0.0
 11
125.2497307762767
 21
297.4731080099772
 31
0.0
 11
125.9578798376137
 21
298.9145925513575
 31
0.0
 11
126.5147780901066
 21
300.3875296342572
 31
0.0
 11
126.9052979590894
 21
301.9079386547557
 31
0.0
 11
127.1143991574443
 21
303.4433374781447
 31
0.0
 11
127.224335478427
 21
304.9950884286685
 31
0.0
  0
SPLINE
  5
D6
330
4E
100
AcDbEntity
  8
1
  6
Continuous
 62
     7
100
AcDbSpline
210
0.0
220
0.0
230
1.0
 70
     8
 71
     3
 72
    43
 73
    39
 74
    37
 42
0.000000001
 43
0.0000000001
 44
0.00000001
 40
0.0
 40
0.0
 40
0.0
 40
0.0
 40
1.303691589210042
 40
2.600085687871734
 40
3.936543629430841
 40
5.279179014082329
 40
6.687269534181839
 40
8.092871038062484
 40
9.585902207361201
 40
11.08008618667659
 40
12.66660617152734
 40
14.25288622290214
 40
15.92691867230107
 40
17.60112826094924
 40
19.34876299172415
 40
21.0964082214658
 40
22.89666882453414
 40
24.6969629400082
 40
26.52462983128408
 40
28.35230243087965
 40
30.17997721177976
 40
32.00764160908211
 40
33.80792358615434
 40
35.60819716582982
 40
37.35589203571935
 40
39.103474446653
 40
40.77749169191694
 40
42.45172475649501
 40
44.26257862629388
 40
46.07303663579625
 40
47.34271025459383
 40
48.61153378591906
 40
50.01705552024469
 40
51.42523534731435
 40
52.7678956871972
 40
54.10432632218614
 40
55.40071100485179
 40
56.70441229768613
 40
56.70441229768613
 40
56.70441229768613
 40
56.70441229768613
 10
127.224335478427
 20
326.3977605552464
 30
0.0
 10
127.1928644951736
 20
326.8311653388759
 30
0.0
 10
127.1300986763291
 20
327.6955488961841
 30
0.0
 10
126.9357010198127
 20
328.9967060858281
 30
0.0
 10
126.5377128088931
 20
330.266148359719
 30
0.0
 10
125.9686671916104
 20
331.5067842758889
 30
0.0
 10
125.2637862190883
 20
332.7023523703764
 30
0.0
 10
124.4113446316498
 20
333.8604212133269
 30
0.0
 10
123.4272675743568
 20
334.9479981630053
 30
0.0
 10
122.3020088295322
 20
335.9795282763961
 30
0.0
 10
121.067146112721
 20
336.9288330125771
 30
0.0
 10
119.7084336966613
 20
337.8059932170172
 30
0.0
 10
118.260192962632
 20
338.5892326681329
 30
0.0
 10
116.709208598155
 20
339.2853513389464
 30
0.0
 10
115.0902497331882
 20
339.8795747066767
 30
0.0
 10
113.3945624869872
 20
340.3745263099956
 30
0.0
 10
111.6531122561525
 20
340.7617994488671
 30
0.0
 10
109.864217110937
 20
341.0412391741393
 30
0.0
 10
108.0522990111347
 20
341.2095981356159
 30
0.0
 10
106.2243347023762
 20
341.2657071221586
 30
0.0
 10
104.3963715180612
 20
341.2095912414093
 30
0.0
 10
102.5844576098162
 20
341.0412365847481
 30
0.0
 10
100.795559740215
 20
340.7618178961418
 30
0.0
 10
99.05409362365114
 20
340.3745333880947
 30
0.0
 10
97.35842054502933
 20
339.8795168402496
 30
0.0
 10
95.73952151932515
 20
339.2853419294925
 30
0.0
 10
94.18846152104695
 20
338.5893997231877
 30
0.0
 10
92.67437541285362
 20
337.7704537785547
 30
0.0
 10
91.19481105215806
 20
336.8034325247474
 30
0.0
 10
89.91837703557268
 20
335.7846288206447
 30
0.0
 10
88.86881572936555
 20
334.7827396010143
 30
0.0
 10
87.99291373689174
 20
333.8002453980789
 30
0.0
 10
87.18478992282805
 20
332.7024326215472
 30
0.0
 10
86.48003301586247
 20
331.5067941326856
 30
0.0
 10
85.91097687780422
 20
330.2661323686227
 30
0.0
 10
85.51296526390713
 20
328.9967015626421
 30
0.0
 10
85.31856813776076
 20
327.6955523964388
 30
0.0
 10
85.25580523186875
 20
326.8311686244752
 30
0.0
 10
85.22433547842695
 20
326.3977605552464
 30
0.0
 11
127.224335478427
 21
326.3977605552464
 31
0.0
 11
127.1134218483669
 21
327.6967255043817
 31
0.0
 11
126.9052982916832
 21
328.9763044385948
 31
0.0
 11
126.5122528809705
 21
330.2536591824055
 31
0.0
 11
125.957880514931
 21
331.476500570854
 31
0.0
 11
125.24339346071
 21
332.6898542560966
 31
0.0
 11
124.4108689579001
 21
333.8223817577052
 31
0.0
 11
123.4111038860265
 21
334.9312604143091
 31
0.0
 11
122.3112687839254
 21
335.9426695863593
 31
0.0
 11
121.0546001081656
 21
336.9110855623552
 31
0.0
 11
119.7228752818442
 21
337.7729401840603
 31
0.0
 11
118.2511478476946
 21
338.5706888923696
 31
0.0
 11
116.724335478427
 21
339.2575817048581
 31
0.0
 11
115.0841060374289
 21
339.8608018410425
 31
0.0
 11
113.4067584882659
 21
340.3514840674087
 31
0.0
 11
111.6495764302846
 21
340.7429549499107
 31
0.0
 11
109.8709472094324
 21
341.0214096019668
 31
0.0
 11
108.0511421469406
 21
341.190748890004
 31
0.0
 11
106.224335478427
 21
341.2470029601639
 31
0.0
 11
104.3975267870517
 21
341.1907437113434
 31
0.0
 11
102.5777237474213
 21
341.0214096019668
 31
0.0
 11
100.7991044291457
 21
340.7429701759854
 31
0.0
 11
99.04191246858801
 21
340.3514840674087
 31
0.0
 11
97.36452885522695
 21
339.8607483230591
 31
0.0
 11
95.72433547842701
 21
339.2575817048581
 31
0.0
 11
94.19764971557429
 21
338.5708762956606
 31
0.0
 11
92.72579567500964
 21
337.7729401840603
 31
0.0
 11
91.2113812259343
 21
336.7800954756572
 31
0.0
 11
89.79814542096165
 21
335.6484936177013
 31
0.0
 11
88.88083706023426
 21
334.7706459826026
 31
0.0
 11
88.03780199895363
 21
333.8223817577052
 31
0.0
 11
87.20524584332185
 21
332.6899765319353
 31
0.0
 11
86.49079044192285
 21
331.476500570854
 31
0.0
 11
85.93642611175254
 21
330.253628139592
 31
0.0
 11
85.54337266517052
 21
328.9763044385948
 31
0.0
 11
85.33524653044442
 21
327.6967354634402
 31
0.0
 11
85.22433547842695
 21
326.3977605552464
 31
0.0
  0
SPLINE
  5
D7
330
4E
100
AcDbEntity
  8
1
  6
Continuous
 62
     7
100
AcDbSpline
210
0.0
220
0.0
230
1.0
 70
     8
 71
     3
 72
    43
 73
    39
 74
    37
 42
0.000000001
 43
0.0000000001
 44
0.00000001
 40
0.0
 40
0.0
 40
0.0
 40
0.0
 40
1.303691589209888
 40
2.600085687871684
 40
3.936543629430843
 40
5.279179014082285
 40
6.687269534181718
 40
8.092871038062405
 40
9.585902207361116
 40
11.08008618667652
 40
12.66660617152724
 40
14.25288622290205
 40
15.9269186723011
 40
17.60112826094935
 40
19.34876299172419
 40
21.09640822146578
 40
22.89666882453407
 40
24.69696294000811
 40
26.52462983128404
 40
28.35230243087975
 40
30.17997721177977
 40
32.00764160908201
 40
33.80792358615437
 40
35.60819716582994
 40
37.35589203571947
 40
39.10347444665307
 40
40.77749169191699
 40
42.45172475649512
 40
44.26257862629392
 40
46.07303663579629
 40
47.34271025459378
 40
48.61153378591904
 40
50.01705552024477
 40
51.42523534731435
 40
52.76789568719725
 40
54.10432632218605
 40
55.4007110048517
 40
56.70441229768605
 40
56.70441229768605
 40
56.70441229768605
 40
56.70441229768605
 10
127.224335478427
 20
206.5348810245654
 30
0.0
 10
127.1928644951737
 20
206.1014762409359
 30
0.0
 10
127.1300986763292
 20
205.2370926836279
 30
0.0
 10
126.9357010198129
 20
203.9359354939838
 30
0.0
 10
126.5377128088932
 20
202.6664932200928
 30
0.0
 10
125.9686671916106
 20
201.4258573039231
 30
0.0
 10
125.2637862190883
 20
200.2302892094355
 30
0.0
 10
124.4113446316499
 20
199.072220366485
 30
0.0
 10
123.427267574357
 20
197.9846434168065
 30
0.0
 10
122.3020088295324
 20
196.9531133034158
 30
0.0
 10
121.0671461127213
 20
196.0038085672347
 30
0.0
 10
119.7084336966615
 20
195.1266483627946
 30
0.0
 10
118.2601929626321
 20
194.3434089116789
 30
0.0
 10
116.709208598155
 20
193.6472902408654
 30
0.0
 10
115.0902497331883
 20
193.053066873135
 30
0.0
 10
113.3945624869874
 20
192.5581152698164
 30
0.0
 10
111.6531122561527
 20
192.1708421309448
 30
0.0
 10
109.8642171109373
 20
191.8914024056723
 30
0.0
 10
108.0522990111348
 20
191.7230434441959
 30
0.0
 10
106.2243347023762
 20
191.6669344576533
 30
0.0
 10
104.3963715180613
 20
191.7230503384025
 30
0.0
 10
102.5844576098163
 20
191.8914049950638
 30
0.0
 10
100.7955597402152
 20
192.1708236836701
 30
0.0
 10
99.05409362365116
 20
192.5581081917172
 30
0.0
 10
97.35842054502928
 20
193.0531247395623
 30
0.0
 10
95.73952151932517
 20
193.6472996503192
 30
0.0
 10
94.18846152104692
 20
194.343241856624
 30
0.0
 10
92.67437541285379
 20
195.1621878012574
 30
0.0
 10
91.19481105215807
 20
196.1292090550643
 30
0.0
 10
89.9183770355728
 20
197.1480127591673
 30
0.0
 10
88.86881572936562
 20
198.1499019787975
 30
0.0
 10
87.99291373689192
 20
199.1323961817331
 30
0.0
 10
87.18478992282823
 20
200.2302089582647
 30
0.0
 10
86.48003301586253
 20
201.4258474471264
 30
0.0
 10
85.91097687780436
 20
202.6665092111892
 30
0.0
 10
85.51296526390723
 20
203.9359400171697
 30
0.0
 10
85.3185681377609
 20
205.2370891833731
 30
0.0
 10
85.25580523186883
 20
206.1014729553366
 30
0.0
 10
85.22433547842702
 20
206.5348810245654
 30
0.0
 11
127.224335478427
 21
206.5348810245654
 31
0.0
 11
127.113421848367
 21
205.2359160754302
 31
0.0
 11
126.9052982916834
 21
203.956337141217
 31
0.0
 11
126.5122528809706
 21
202.6789823974063
 31
0.0
 11
125.9578805149311
 21
201.4561410089579
 31
0.0
 11
125.24339346071
 21
200.2427873237154
 31
0.0
 11
124.4108689579002
 21
199.1102598221067
 31
0.0
 11
123.4111038860267
 21
198.0013811655028
 31
0.0
 11
122.3112687839256
 21
196.9899719934525
 31
0.0
 11
121.0546001081659
 21
196.0215560174566
 31
0.0
 11
119.7228752818444
 21
195.1597013957515
 31
0.0
 11
118.2511478476946
 21
194.3619526874422
 31
0.0
 11
116.724335478427
 21
193.6750598749537
 31
0.0
 11
115.084106037429
 21
193.0718397387693
 31
0.0
 11
113.406758488266
 21
192.5811575124032
 31
0.0
 11
111.6495764302848
 21
192.1896866299012
 31
0.0
 11
109.8709472094326
 21
191.911231977845
 31
0.0
 11
108.0511421469408
 21
191.7418926898078
 31
0.0
 11
106.224335478427
 21
191.6856386196479
 31
0.0
 11
104.3975267870518
 21
191.7418978684684
 31
0.0
 11
102.5777237474215
 21
191.911231977845
 31
0.0
 11
100.7991044291458
 21
192.1896714038265
 31
0.0
 11
99.04191246858801
 21
192.5811575124032
 31
0.0
 11
97.36452885522692
 21
193.0718932567528
 31
0.0
 11
95.72433547842701
 21
193.6750598749537
 31
0.0
 11
94.19764971557433
 21
194.3617652841513
 31
0.0
 11
92.7257956750097
 21
195.1597013957517
 31
0.0
 11
91.21138122593437
 21
196.1525461041547
 31
0.0
 11
89.79814542096173
 21
197.2841479621106
 31
0.0
 11
88.88083706023438
 21
198.1619955972093
 31
0.0
 11
88.03780199895381
 21
199.1102598221067
 31
0.0
 11
87.20524584332198
 21
200.2426650478767
 31
0.0
 11
86.49079044192295
 21
201.4561410089579
 31
0.0
 11
85.93642611175264
 21
202.6790134402199
 31
0.0
 11
85.54337266517065
 21
203.956337141217
 31
0.0
 11
85.33524653044454
 21
205.2359061163716
 31
0.0
 11
85.22433547842702
 21
206.5348810245654
 31
0.0
  0
SPLINE
  5
D8
330
4E
100
AcDbEntity
  8
1
  6
Continuous
 62
     7
100
AcDbSpline
210
0.0
220
0.0
230
1.0
 70
     8
 71
     3
 72
    43
 73
    39
 74
    37
 42
0.000000001
 43
0.0000000001
 44
0.00000001
 40
0.0
 40
0.0
 40
0.0
 40
0.0
 40
1.555639283703928
 40
3.105210030221853
 40
4.674970953561389
 40
6.249670704274771
 40
7.855707058701744
 40
9.459663810341617
 40
11.10810366270673
 40
12.75741835189339
 40
14.45477627371106
 40
16.15193528219176
 40
17.89620583690901
 40
19.64061295845168
 40
21.42532207965948
 40
23.21004295599352
 40
25.02413525774221
 40
26.83825664221693
 40
28.66781001126996
 40
30.49736799404717
 40
32.3269233963859
 40
34.15647418321852
 40
35.97059556653374
 40
37.78468786942368
 40
39.56940874604481
 40
41.35411786697393
 40
43.0985249884628
 40
44.84279554323109
 40
46.5399545516717
 40
48.23731247352798
 40
49.88662716289227
 40
51.53506701509255
 40
53.13902376618508
 40
54.74506012110113
 40
56.31975987335447
 40
57.88952079543679
 40
59.43909262463366
 40
60.99473300451537
 40
60.99473300451537
 40
60.99473300451537
 40
60.99473300451537
 10
85.22433401482341
 20
227.9375509643362
 30
0.0
 10
85.2553991656908
 20
228.4551530859019
 30
0.0
 10
85.31740829536636
 20
229.4883381661197
 30
0.0
 10
85.51118533597791
 20
231.0374864550882
 30
0.0
 10
85.90712204153817
 20
232.5557690390812
 30
0.0
 10
86.47261786356444
 20
234.0373699645906
 30
0.0
 10
87.17659895273769
 20
235.4710132198992
 30
0.0
 10
88.0246429650993
 20
236.8535503733943
 30
0.0
 10
89.00988597108721
 20
238.1600770963624
 30
0.0
 10
90.13119616416176
 20
239.3938832111415
 30
0.0
 10
91.36886163567665
 20
240.5350102542392
 30
0.0
 10
92.72469414683864
 20
241.5851233419565
 30
0.0
 10
94.17676589769795
 20
242.526677469883
 30
0.0
 10
95.72615946034745
 20
243.360798288647
 30
0.0
 10
97.34915591534678
 20
244.0748527597001
 30
0.0
 10
99.04453750586725
 20
244.6683315511906
 30
0.0
 10
100.7896797014801
 20
245.1334303925001
 30
0.0
 10
102.5794792364707
 20
245.4687404531513
 30
0.0
 10
104.3943628905204
 20
245.6707455746264
 30
0.0
 10
106.2243346183875
 20
245.738218810471
 30
0.0
 10
108.0543054835046
 20
245.6707457021176
 30
0.0
 10
109.8691874517441
 20
245.4687410536447
 30
0.0
 10
111.6589862100472
 20
245.1334315240817
 30
0.0
 10
113.4041285026299
 20
244.6683330466606
 30
0.0
 10
115.0995102171837
 20
244.0748546082178
 30
0.0
 10
116.7225068207994
 20
243.3608004750133
 30
0.0
 10
118.2719005570735
 20
242.526679978966
 30
0.0
 10
119.723972504053
 20
241.5851261535224
 30
0.0
 10
121.0798052339123
 20
240.5350133481406
 30
0.0
 10
122.3174709431137
 20
239.3938865627579
 30
0.0
 10
123.4387813933141
 20
238.160080681644
 30
0.0
 10
124.4240246713009
 20
236.85355416398
 30
0.0
 10
125.2720689707594
 20
235.47101718666
 30
0.0
 10
125.9760503588435
 20
234.0373740776919
 30
0.0
 10
126.5415464931713
 20
232.5557732711717
 30
0.0
 10
126.9374836057472
 20
231.037490418708
 30
0.0
 10
127.1312609731353
 20
229.4883414329319
 30
0.0
 10
127.1932702524843
 20
228.4551556342038
 30
0.0
 10
127.224335478427
 20
227.9375531511434
 30
0.0
 11
85.22433401482341
 21
227.9375509643362
 31
0.0
 11
85.33427008595058
 21
229.4893008336362
 31
0.0
 11
85.54337089120874
 21
231.0246986178866
 31
0.0
 11
85.93389044641386
 21
232.5451077202774
 31
0.0
 11
86.49078838926822
 21
234.0180449186011
 31
0.0
 11
87.198937149597
 21
235.4595296073108
 31
0.0
 11
88.03779970773975
 21
236.8266385538388
 31
0.0
 11
89.0290590512205
 21
238.143741003345
 31
0.0
 11
90.13739969053701
 21
239.3651418272097
 31
0.0
 11
91.38457872976511
 21
240.5164751238635
 31
0.0
 11
92.72579305463161
 21
241.5564236012972
 31
0.0
 11
94.18876834390835
 21
242.5062567823001
 31
0.0
 11
95.72433277744581
 21
243.3339028882378
 31
0.0
 11
97.35762267781679
 21
244.0533128889017
 31
0.0
 11
99.04190974683601
 21
244.6435718793457
 31
0.0
 11
100.7946898717907
 21
245.1112178062563
 31
0.0
 11
102.5777210653625
 21
245.4456369450504
 31
0.0
 11
104.396023067753
 21
245.6482285497247
 31
0.0
 11
106.224335478427
 21
245.7157277441953
 31
0.0
 11
108.0526453139362
 21
245.6482287401858
 31
0.0
 11
109.8709447815257
 21
245.4456377045206
 31
0.0
 11
111.6539760435699
 21
245.1112189370926
 31
0.0
 11
113.406756267096
 21
244.6435733752099
 31
0.0
 11
115.0910434593496
 21
244.0533147355439
 31
0.0
 11
116.7243335092475
 21
243.333905075045
 31
0.0
 11
118.2598981150943
 21
242.5062592889132
 31
0.0
 11
119.7228736022525
 21
241.5564264126024
 31
0.0
 11
121.0640881436647
 21
240.5164782145116
 31
0.0
 11
122.3112674227195
 21
239.3651451775927
 31
0.0
 11
123.4196083166306
 21
238.143744584516
 31
0.0
 11
124.410867934204
 21
236.8266423414999
 31
0.0
 11
125.2497307762768
 21
235.4595335698345
 31
0.0
 11
125.9578798376138
 21
234.0180490284543
 31
0.0
 11
126.5147780901067
 21
232.5451119455545
 31
0.0
 11
126.9052979590896
 21
231.0247029250561
 31
0.0
 11
127.1143991574445
 21
229.4893041016673
 31
0.0
 11
127.224335478427
 21
227.9375531511434
 31
0.0
  0
SPLINE
  5
D9
330
4E
100
AcDbEntity
  8
1
  6
Continuous
 62
     7
100
AcDbSpline
210
0.0
220
0.0
230
1.0
 70
     8
 71
     3
 72
    43
 73
    39
 74
    37
 42
0.000000001
 43
0.0000000001
 44
0.00000001
 40
0.0
 40
0.0
 40
0.0
 40
0.0
 40
0.6082923978784488
 40
1.215068533845755
 40
1.820517897868605
 40
2.427166004467357
 40
3.029768812190047
 40
3.631841464849441
 40
4.229257713629371
 40
4.826856408317164
 40
5.418815720356973
 40
6.010704128854134
 40
6.596995701382283
 40
7.183298019784118
 40
7.764606685387586
 40
8.345902221884357
 40
8.923471381822566
 40
9.501037103554461
 40
10.07660871380063
 40
10.65217794048057
 40
11.22774716716057
 40
11.80331877740679
 40
12.38088449913869
 40
12.9584536590768
 40
13.53974919557355
 40
14.12105786117703
 40
14.70736017957888
 40
15.29365175210702
 40
15.88554016060425
 40
16.47749947264406
 40
17.07509816733184
 40
17.67251441611172
 40
18.27458706877109
 40
18.87718987649381
 40
19.48383798309261
 40
20.08928734711544
 40
20.69606348308272
 40
21.30435588096119
 40
21.30435588096119
 40
21.30435588096119
 40
21.30435588096119
 10
99.6303487962902
 20
213.0883107462259
 30
0.0
 10
99.63999959150395
 20
213.2908423070114
 30
0.0
 10
99.65927713840117
 20
213.695400586953
 30
0.0
 10
99.71994542076207
 20
214.2999395304603
 30
0.0
 10
99.8436591768847
 20
214.8946080164088
 30
0.0
 10
100.0201577010298
 20
215.4738637138366
 30
0.0
 10
100.2407493280776
 20
216.0365651891338
 30
0.0
 10
100.505448115038
 20
216.5766083637946
 30
0.0
 10
100.8148642276614
 20
217.090404423799
 30
0.0
 10
101.1651901436913
 20
217.5730599485367
 30
0.0
 10
101.5545033732331
 20
218.0224192449841
 30
0.0
 10
101.9786497651435
 20
218.4337015664942
 30
0.0
 10
102.4359274986236
 20
218.8048177090803
 30
0.0
 10
102.9213605044233
 20
219.1320283701071
 30
0.0
 10
103.4327341364696
 20
219.413564625973
 30
0.0
 10
103.9647285870079
 20
219.646757142867
 30
0.0
 10
104.5145842990241
 20
219.8300826075794
 30
0.0
 10
105.0770208660692
 20
219.9620697541811
 30
0.0
 10
105.6485649007231
 20
220.0415894847391
 30
0.0
 10
106.224335478427
 20
220.0682655600427
 30
0.0
 10
106.8001060561309
 20
220.0415894847391
 30
0.0
 10
107.3716500907849
 20
219.9620697541811
 30
0.0
 10
107.93408665783
 20
219.8300826075794
 30
0.0
 10
108.4839423698461
 20
219.646757142867
 30
0.0
 10
109.0159368203843
 20
219.413564625973
 30
0.0
 10
109.5273104524307
 20
219.1320283701071
 30
0.0
 10
110.0127434582303
 20
218.8048177090803
 30
0.0
 10
110.4700211917105
 20
218.4337015664942
 30
0.0
 10
110.894167583621
 20
218.0224192449842
 30
0.0
 10
111.2834808131627
 20
217.5730599485368
 30
0.0
 10
111.6338067291926
 20
217.090404423799
 30
0.0
 10
111.943222841816
 20
216.5766083637947
 30
0.0
 10
112.2079216287765
 20
216.0365651891337
 30
0.0
 10
112.4285132558242
 20
215.4738637138365
 30
0.0
 10
112.6050117799693
 20
214.894608016409
 30
0.0
 10
112.728725536092
 20
214.2999395304602
 30
0.0
 10
112.7893938184529
 20
213.695400586953
 30
0.0
 10
112.8086713653501
 20
213.2908423070114
 30
0.0
 10
112.8183221605638
 20
213.0883107462259
 30
0.0
 11
99.6303487962902
 21
213.0883107462259
 31
0.0
 11
99.66461800456705
 21
213.695637074642
 31
0.0
 11
99.73052627059951
 21
214.298823099756
 31
0.0
 11
99.85242168279278
 21
214.8918749037727
 31
0.0
 11
100.0280148516625
 21
215.472554647973
 31
0.0
 11
100.2483797071004
 21
216.0334195827662
 31
0.0
 11
100.5137754994803
 21
216.573842151721
 31
0.0
 11
100.8219612178266
 21
217.0856309145991
 31
0.0
 11
101.1730486225756
 21
217.569223547477
 31
0.0
 11
101.5607567608382
 21
218.0165469506835
 31
0.0
 11
101.9858025407114
 21
218.4284546752183
 31
0.0
 11
102.4410887767454
 21
218.7978491143853
 31
0.0
 11
102.9273421373586
 21
219.1254282319204
 31
0.0
 11
103.4366087400329
 21
219.4057268093147
 31
0.0
 11
103.969059208315
 21
219.6389670287485
 31
0.0
 11
104.5169870650697
 21
219.8216175110517
 31
0.0
 11
105.079301707514
 21
219.9534674492242
 31
0.0
 11
105.6493801295735
 21
220.0327975923365
 31
0.0
 11
106.224335478427
 21
220.0593735572161
 31
0.0
 11
106.7992908272805
 21
220.0327975923365
 31
0.0
 11
107.3693692493401
 21
219.9534674492242
 31
0.0
 11
107.9316838917844
 21
219.8216175110517
 31
0.0
 11
108.479611748539
 21
219.6389670287485
 31
0.0
 11
109.0120622168211
 21
219.4057268093147
 31
0.0
 11
109.5213288194954
 21
219.1254282319204
 31
0.0
 11
110.0075821801086
 21
218.7978491143853
 31
0.0
 11
110.4628684161426
 21
218.4284546752183
 31
0.0
 11
110.8879141960159
 21
218.0165469506835
 31
0.0
 11
111.2756223342785
 21
217.569223547477
 31
0.0
 11
111.6267097390274
 21
217.0856309145991
 31
0.0
 11
111.9348954573737
 21
216.573842151721
 31
0.0
 11
112.2002912497536
 21
216.0334195827662
 31
0.0
 11
112.4206561051915
 21
215.472554647973
 31
0.0
 11
112.5962492740613
 21
214.8918749037727
 31
0.0
 11
112.7181446862546
 21
214.298823099756
 31
0.0
 11
112.784052952287
 21
213.695637074642
 31
0.0
 11
112.8183221605638
 21
213.0883107462259
 31
0.0
  0
SPLINE
  5
DA
330
4E
100
AcDbEntity
  8
1
  6
Continuous
 62
     7
100
AcDbSpline
210
0.0
220
0.0
230
1.0
 70
     8
 71
     3
 72
    43
 73
    39
 74
    37
 42
0.000000001
 43
0.0000000001
 44
0.00000001
 40
0.0
 40
0.0
 40
0.0
 40
0.0
 40
1.168059975248109
 40
2.335342107115983
 40
3.476169357714751
 40
4.617594114456722
 40
5.706724830990304
 40
6.795579382365996
 40
7.810208272784175
 40
8.82489776298084
 40
9.747817113259975
 40
10.67066241647881
 40
11.49167620647551
 40
12.31260748438491
 40
13.03231771288623
 40
13.75186625620335
 40
14.38630055990312
 40
15.02020005909347
 40
15.60412869041128
 40
16.18756187012961
 40
16.77099504984803
 40
17.35492368116585
 40
17.98882318035615
 40
18.62325748405588
 40
19.34280602737297
 40
20.06251625587423
 40
20.88344753378365
 40
21.70446132378033
 40
22.62730662699924
 40
23.55022597727845
 40
24.56491546747509
 40
25.57954435789311
 40
26.66839890926887
 40
27.75752962580256
 40
28.89895438254454
 40
30.03978163314331
 40
31.20706376501118
 40
32.37512374025929
 40
32.37512374025929
 40
32.37512374025929
 40
32.37512374025929
 10
99.6303487962902
 20
213.0883107462259
 30
0.0
 10
99.63986698066253
 20
212.6990748589171
 30
0.0
 10
99.65889702180151
 20
211.9208622875382
 30
0.0
 10
99.7193092723124
 20
210.7633281577763
 30
0.0
 10
99.84211745573575
 20
209.6194757431763
 30
0.0
 10
100.0169685587074
 20
208.5089850848925
 30
0.0
 10
100.2364873769256
 20
207.4241390862201
 30
0.0
 10
100.4981189477011
 20
206.3920971907048
 30
0.0
 10
100.806614719045
 20
205.3990188770764
 30
0.0
 10
101.1522729873339
 20
204.4769935453037
 30
0.0
 10
101.5411823886364
 20
203.6057486959897
 30
0.0
 10
101.9591626204084
 20
202.820274142625
 30
0.0
 10
102.4172426213871
 20
202.0974051173879
 30
0.0
 10
102.8959233621093
 20
201.4709005399741
 30
0.0
 10
103.4103703325975
 20
200.9187766196119
 30
0.0
 10
103.9375191789754
 20
200.4687615606406
 30
0.0
 10
104.4943374070139
 20
200.1061064256149
 30
0.0
 10
105.0578140228934
 20
199.8470180029872
 30
0.0
 10
105.6400918421164
 20
199.6898442534706
 30
0.0
 10
106.224335478427
 20
199.635008502679
 30
0.0
 10
106.8085791147377
 20
199.6898442534707
 30
0.0
 10
107.3908569339607
 20
199.8470180029872
 30
0.0
 10
107.9543335498401
 20
200.1061064256149
 30
0.0
 10
108.5111517778787
 20
200.4687615606407
 30
0.0
 10
109.0383006242565
 20
200.9187766196119
 30
0.0
 10
109.5527475947447
 20
201.4709005399739
 30
0.0
 10
110.0314283354669
 20
202.0974051173878
 30
0.0
 10
110.4895083364456
 20
202.8202741426249
 30
0.0
 10
110.9074885682178
 20
203.6057486959897
 30
0.0
 10
111.2963979695201
 20
204.4769935453037
 30
0.0
 10
111.6420562378092
 20
205.3990188770763
 30
0.0
 10
111.950552009153
 20
206.3920971907046
 30
0.0
 10
112.2121835799284
 20
207.42413908622
 30
0.0
 10
112.4317023981466
 20
208.5089850848926
 30
0.0
 10
112.6065535011184
 20
209.6194757431763
 30
0.0
 10
112.7293616845418
 20
210.7633281577764
 30
0.0
 10
112.7897739350525
 20
211.9208622875382
 30
0.0
 10
112.8088039761915
 20
212.6990748589171
 30
0.0
 10
112.8183221605638
 20
213.0883107462259
 30
0.0
 11
99.6303487962902
 21
213.0883107462259
 31
0.0
 11
99.66429589469615
 21
211.9207441672481
 31
0.0
 11
99.73052627059951
 21
210.7553424708153
 31
0.0
 11
99.85136978054746
 21
209.6209335220299
 31
0.0
 11
100.0280148516625
 21
208.4932602559143
 31
0.0
 11
100.2451201899475
 21
207.425987567959
 31
0.0
 11
100.5137754994803
 21
206.3707963249537
 31
0.0
 11
100.815815539307
 21
205.402166571058
 31
0.0
 11
101.1730486225756
 21
204.4524406704569
 31
0.0
 11
101.5507797996219
 21
203.6103603384928
 31
0.0
 11
101.9858025407114
 21
202.7964815582514
 31
0.0
 11
102.427145061215
 21
202.1041807396636
 31
0.0
 11
102.9273421373586
 21
201.4532344680056
 31
0.0
 11
103.4199787286473
 21
200.928551704436
 31
0.0
 11
103.969059208315
 21
200.4635132828408
 31
0.0
 11
104.5021365375334
 21
200.1195140862602
 31
0.0
 11
105.079301707514
 21
199.8573901801454
 31
0.0
 11
105.6433016230083
 21
199.7061395858309
 31
0.0
 11
106.224335478427
 21
199.6532819036812
 31
0.0
 11
106.8053693338458
 21
199.7061395858309
 31
0.0
 11
107.3693692493401
 21
199.8573901801454
 31
0.0
 11
107.9465344193206
 21
200.1195140862602
 31
0.0
 11
108.479611748539
 21
200.4635132828408
 31
0.0
 11
109.0286922282067
 21
200.928551704436
 31
0.0
 11
109.5213288194954
 21
201.4532344680055
 31
0.0
 11
110.0215258956389
 21
202.1041807396635
 31
0.0
 11
110.4628684161426
 21
202.7964815582513
 31
0.0
 11
110.8978911572321
 21
203.6103603384927
 31
0.0
 11
111.2756223342785
 21
204.4524406704569
 31
0.0
 11
111.6328554175472
 21
205.402166571058
 31
0.0
 11
111.9348954573738
 21
206.3707963249535
 31
0.0
 11
112.2035507669065
 21
207.4259875679589
 31
0.0
 11
112.4206561051915
 21
208.4932602559143
 31
0.0
 11
112.5973011763066
 21
209.6209335220299
 31
0.0
 11
112.7181446862546
 21
210.7553424708153
 31
0.0
 11
112.7843750621579
 21
211.9207441672481
 31
0.0
 11
112.8183221605638
 21
213.0883107462259
 31
0.0
  0
SPLINE
  5
DB
330
4E
100
AcDbEntity
  8
1
  6
Continuous
 62
     7
100
AcDbSpline
210
0.0
220
0.0
230
1.0
 70
    11
 71
     3
 72
   215
 73
   211
 74
   209
 42
0.000000001
 43
0.0000000001
 44
0.00000001
 40
0.0
 40
0.0
 40
0.0
 40
0.0
 40
0.6593704203548534
 40
1.31845659470924
 40
1.799786112454581
 40
2.281026483718938
 40
2.675254559558794
 40
3.06943280915079
 40
3.412737282466385
 40
3.756019349070503
 40
4.067047302465257
 40
4.378063811982737
 40
4.667718932462892
 40
4.957363356384429
 40
5.232508774221602
 40
5.507660526449974
 40
5.772893882640139
 40
6.038097757880045
 40
6.296525412221
 40
6.555016517731269
 40
6.809115013923323
 40
7.063088744241867
 40
7.314090269072653
 40
7.565224603875675
 40
7.815503076795569
 40
8.065700469165686
 40
8.315861988451067
 40
8.566024165432466
 40
8.817071119762
 40
9.068142562704631
 40
9.319078843989276
 40
9.570013697413092
 40
9.821091354148813
 40
10.07217242535214
 40
10.32341011641568
 40
10.57464605764055
 40
10.82605656356209
 40
11.07746776946444
 40
11.32906996056101
 40
11.58067190089523
 40
11.83248418693076
 40
12.08429655851744
 40
12.33634005815769
 40
12.58838353077044
 40
12.84068125220958
 40
13.09297898320709
 40
13.34555651545515
 40
13.59813404588997
 40
13.85101980495577
 40
14.1039055659606
 40
14.3571312724149
 40
14.61035697993533
 40
14.86395816726799
 40
15.1175593562724
 40
15.37157599845041
 40
15.62559264254436
 40
15.88006990507581
 40
16.13454716998712
 40
16.38953632441342
 40
16.64452548176419
 40
16.90008502553639
 40
17.15564457294774
 40
17.41184161378909
 40
17.66803865919523
 40
17.92495064264201
 40
18.18186263187239
 40
18.43957951982578
 40
18.69729641518681
 40
18.95592346495241
 40
19.21455052432058
 40
19.47421187891256
 40
19.73387324611963
 40
19.99471663843697
 40
20.25556004757969
 40
20.5177630618098
 40
20.7799660988514
 40
21.04374465344863
 40
21.30752323962122
 40
21.57314331355809
 40
21.83876343196936
 40
22.10655765040291
 40
22.37435193394059
 40
22.64474366371282
 40
22.91513548809748
 40
23.18867493435436
 40
23.46221453797693
 40
23.73963493240448
 40
24.01705553448899
 40
24.29936429687404
 40
24.58167361009275
 40
24.87031002927727
 40
25.15894659413719
 40
25.45606857930425
 40
25.75319462049044
 40
26.06227809094787
 40
26.37135342451871
 40
26.69849093133264
 40
27.02568897795222
 40
27.38367091268048
 40
27.74142967436845
 40
28.16389146199501
 40
28.58791049000242
 40
29.47870729135267
 40
30.36369502267047
 40
31.2486827539627
 40
32.13947955525176
 40
32.56349858322361
 40
32.98596037081297
 40
33.34371913246861
 40
33.70170106716451
 40
34.02889911375489
 40
34.35603662054012
 40
34.66511195408451
 40
34.97419542451629
 40
35.27132146567836
 40
35.56844345082182
 40
35.85708001565935
 40
36.1457164348219
 40
36.42802574801986
 40
36.71033451038477
 40
36.98775511245017
 40
37.26517550685895
 40
37.53871511046332
 40
37.81225455670243
 40
38.08264638107016
 40
38.35303811082591
 40
38.62083239434779
 40
38.88862661276568
 40
39.15424673116161
 40
39.41986680508345
 40
39.68364539124174
 40
39.94742394582498
 40
40.20962698285292
 40
40.47182999706948
 40
40.73267340619905
 40
40.99351679850341
 40
41.25317816569769
 40
41.51283952027694
 40
41.7714665796326
 40
42.0300936293856
 40
42.28781052473414
 40
42.54552741267506
 40
42.80243940189301
 40
43.05935138532723
 40
43.31554843072087
 40
43.5717454715497
 40
43.82730501894821
 40
44.08286456270731
 40
44.33785372004477
 40
44.59284287445741
 40
44.84732013935461
 40
45.10179740187148
 40
45.35581404595042
 40
45.60983068811272
 40
45.86343187710076
 40
46.11703306441635
 40
46.37025877191886
 40
46.62348447835429
 40
46.87637023933924
 40
47.12925599838385
 40
47.38183352879611
 40
47.6344110610201
 40
47.88670879199208
 40
48.13900651340391
 40
48.39104998598743
 40
48.64309348559623
 40
48.89490585714926
 40
49.14671814314848
 40
49.39832008344352
 40
49.64992227449783
 40
49.90133348035452
 40
50.15274398622677
 40
50.40397992739839
 40
50.65521761840407
 40
50.90629868954461
 40
51.15737634621271
 40
51.4083111995638
 40
51.65924748076849
 40
51.91031892362243
 40
52.16136587785823
 40
52.41152805474476
 40
52.66168957393485
 40
52.91188696620868
 40
53.16216543902858
 40
53.41329977372529
 40
53.66430129844655
 40
53.91827502865495
 40
54.17237352473632
 40
54.4308646301308
 40
54.68929228435292
 40
54.9544961594685
 40
55.21972951553192
 40
55.49488126762577
 40
55.77002668532536
 40
56.05967110909887
 40
56.34932622942781
 40
56.66034273877969
 40
56.97137069200486
 40
57.31465275841644
 40
57.65795723153236
 40
58.05213548088361
 40
58.44636355646166
 40
58.92760392735366
 40
59.40893344459199
 40
60.06801961748651
 40
60.72739004667138
 40
62.45448660562911
 40
64.18978880121497
 40
65.92509099739424
 40
67.652187546907
 40
67.652187546907
 40
67.652187546907
 40
67.652187546907
 10
176.2737646353836
 20
234.9489230852885
 30
0.0
 10
176.4713909368911
 20
235.0453468502753
 30
0.0
 10
176.8665583431555
 20
235.2381528186782
 30
0.0
 10
177.4305844930765
 20
235.4458667087937
 30
0.0
 10
177.9508353180496
 20
235.593815661761
 30
0.0
 10
178.3943034394166
 20
235.6850305022058
 30
0.0
 10
178.8141246067378
 20
235.7407067123098
 30
0.0
 10
179.1908693068901
 20
235.7652453113639
 30
0.0
 10
179.5513406360772
 20
235.7652293067676
 30
0.0
 10
179.883469987625
 20
235.744817589265
 30
0.0
 10
180.2030675598184
 20
235.7060351044271
 30
0.0
 10
180.5023845707848
 20
235.6525262885835
 30
0.0
 10
180.7914010351592
 20
235.5845510597898
 30
0.0
 10
181.0650568402797
 20
235.5051558773196
 30
0.0
 10
181.3298622334119
 20
235.4139100116163
 30
0.0
 10
181.5825254676145
 20
235.3133438447353
 30
0.0
 10
181.8273757992445
 20
235.2028798775988
 30
0.0
 10
182.0621756678006
 20
235.0843082285957
 30
0.0
 10
182.2896873676714
 20
234.9568513563122
 30
0.0
 10
182.5088871790986
 20
234.8225670268738
 30
0.0
 10
182.7219905536078
 20
234.6814727908087
 30
0.0
 10
182.9267329218058
 20
234.532614796924
 30
0.0
 10
183.1225756433796
 20
234.3738306775805
 30
0.0
 10
183.3120713988499
 20
234.2095100112695
 30
0.0
 10
183.4990620965811
 20
234.0427500246264
 30
0.0
 10
183.6812848653449
 20
233.8712067613345
 30
0.0
 10
183.8564925190937
 20
233.692535820911
 30
0.0
 10
184.0245946072757
 20
233.5067712955812
 30
0.0
 10
184.1852104899196
 20
233.3141579895912
 30
0.0
 10
184.3436125904407
 20
233.1194324880946
 30
0.0
 10
184.5051362351076
 20
232.9273235120046
 30
0.0
 10
184.6674091763303
 20
232.7358571242411
 30
0.0
 10
184.8281092525913
 20
232.5430002653943
 30
0.0
 10
184.9878819239472
 20
232.3492477133992
 30
0.0
 10
185.1473240780747
 20
232.155154512862
 30
0.0
 10
185.3062910270672
 20
231.9605297982837
 30
0.0
 10
185.4645673865183
 20
231.7652684417478
 30
0.0
 10
185.6222271334552
 20
231.5693522930011
 30
0.0
 10
185.7792677962971
 20
231.3728578584233
 30
0.0
 10
185.9357075214998
 20
231.1757138913422
 30
0.0
 10
186.0914809568105
 20
230.9779538114099
 30
0.0
 10
186.2466247530947
 20
230.7795125170644
 30
0.0
 10
186.4010845175165
 20
230.5804407614633
 30
0.0
 10
186.5548955494472
 20
230.3806630983207
 30
0.0
 10
186.7079940032119
 20
230.1802321542808
 30
0.0
 10
186.8604195014197
 20
229.9790655363313
 30
0.0
 10
187.0121036395025
 20
229.7772226130111
 30
0.0
 10
187.1630891639283
 20
229.5746120380392
 30
0.0
 10
187.3133011069486
 20
229.3712994861204
 30
0.0
 10
187.4627860375975
 20
229.1671839044545
 30
0.0
 10
187.6114621835168
 20
228.9623383852854
 30
0.0
 10
187.7593801629435
 20
228.7566508780199
 30
0.0
 10
187.906450570959
 20
228.5502027509609
 30
0.0
 10
188.0527284759264
 20
228.3428695575546
 30
0.0
 10
188.1981160392102
 20
228.1347420587394
 30
0.0
 10
188.3426731847273
 20
227.9256817415073
 30
0.0
 10
188.4862926762812
 20
227.7157900372241
 30
0.0
 10
188.6290397549273
 20
227.5049124019081
 30
0.0
 10
188.7707966815447
 20
227.2931624513767
 30
0.0
 10
188.9116345240789
 20
227.0803672748913
 30
0.0
 10
189.051423750609
 20
226.8666544653764
 30
0.0
 10
189.1902418221376
 20
226.6518299521169
 30
0.0
 10
189.3279459042623
 20
226.4360374448889
 30
0.0
 10
189.464620477099
 20
226.2190583468578
 30
0.0
 10
189.6001076242482
 20
226.0010550562794
 30
0.0
 10
189.734499534441
 20
225.7817803601639
 30
0.0
 10
189.8676210969827
 20
225.5614184607534
 30
0.0
 10
189.9995729630305
 20
225.3396885136014
 30
0.0
 10
190.1301603002028
 20
225.116800332451
 30
0.0
 10
190.2594930365663
 20
224.8924332287631
 30
0.0
 10
190.3873535670844
 20
224.6668273263422
 30
0.0
 10
190.5138619598286
 20
224.4396143090557
 30
0.0
 10
190.6387741173107
 20
224.2110704717664
 30
0.0
 10
190.7622211320647
 20
223.9807699944225
 30
0.0
 10
190.8839278277098
 20
223.7490327426346
 30
0.0
 10
191.0040371729082
 20
223.5153626795039
 30
0.0
 10
191.1222371850438
 20
223.2801327113588
 30
0.0
 10
191.2386834243679
 20
223.042759950486
 30
0.0
 10
191.3530198441258
 20
222.8036826507894
 30
0.0
 10
191.4654149858396
 20
222.5622088988965
 30
0.0
 10
191.5754593865498
 20
222.3188585734534
 30
0.0
 10
191.6833342701373
 20
222.0728005196567
 30
0.0
 10
191.7885644561217
 20
221.8246582064129
 30
0.0
 10
191.8913422196889
 20
221.5734190177847
 30
0.0
 10
191.9911101294826
 20
221.3198403676313
 30
0.0
 10
192.0880671556024
 20
221.0626672973225
 30
0.0
 10
192.1815506087664
 20
220.8028342756582
 30
0.0
 10
192.2717568687069
 20
220.5387531448972
 30
0.0
 10
192.3578853323322
 20
220.2715987788091
 30
0.0
 10
192.440108677655
 20
219.9993069259997
 30
0.0
 10
192.5174377688713
 20
219.7233897743486
 30
0.0
 10
192.5899820353151
 20
219.4410720531032
 30
0.0
 10
192.656488680242
 20
219.1543589706955
 30
0.0
 10
192.7168942382396
 20
218.8593329388902
 30
0.0
 10
192.769527906768
 20
218.5587637995077
 30
0.0
 10
192.8139737971406
 20
218.2467586898754
 30
0.0
 10
192.8479295849446
 20
217.9273396182596
 30
0.0
 10
192.8697603623963
 20
217.5905052044263
 30
0.0
 10
192.8756131279351
 20
217.2427388738407
 30
0.0
 10
192.8610756826777
 20
216.8634363003941
 30
0.0
 10
192.819185136359
 20
216.4637322257054
 30
0.0
 10
192.7066624141027
 20
215.8949317039973
 30
0.0
 10
192.4471791475799
 20
215.2017662265538
 30
0.0
 10
191.9251642802086
 20
214.4671717304387
 30
0.0
 10
191.1905697841518
 20
213.9451568630186
 30
0.0
 10
190.4974043067566
 20
213.6856735964765
 30
0.0
 10
189.928603785094
 20
213.5731508742194
 30
0.0
 10
189.52889971044
 20
213.5312603279047
 30
0.0
 10
189.1495971370271
 20
213.5167228826546
 30
0.0
 10
188.8018308064727
 20
213.5225756482025
 30
0.0
 10
188.4649963926703
 20
213.5444064256649
 30
0.0
 10
188.1455773210841
 20
213.5783622134808
 30
0.0
 10
187.8335722114807
 20
213.6228081038664
 30
0.0
 10
187.5330030721263
 20
213.6754417724083
 30
0.0
 10
187.2379770403491
 20
213.7358473304206
 30
0.0
 10
186.9512639579689
 20
213.802353975363
 30
0.0
 10
186.6689462367512
 20
213.8748982418236
 30
0.0
 10
186.3930290851275
 20
213.9522273330573
 30
0.0
 10
186.1207372323455
 20
214.0344506783984
 30
0.0
 10
185.8535828662844
 20
214.1205791420421
 30
0.0
 10
185.5895017355503
 20
214.2107854020018
 30
0.0
 10
185.3296687139129
 20
214.3042688551853
 30
0.0
 10
185.0724956436315
 20
214.401225881326
 30
0.0
 10
184.8189169935056
 20
214.5009937911414
 30
0.0
 10
184.5676778049047
 20
214.6037715547303
 30
0.0
 10
184.319535491688
 20
214.7090017407365
 30
0.0
 10
184.0734774379185
 20
214.8168766243463
 30
0.0
 10
183.830127112503
 20
214.9269210250799
 30
0.0
 10
183.5886533606384
 20
215.0393161668181
 30
0.0
 10
183.3495760609703
 20
215.1536525866009
 30
0.0
 10
183.1122033001256
 20
215.2700988259496
 30
0.0
 10
182.8769733320085
 20
215.38829883811
 30
0.0
 10
182.6433032689067
 20
215.5084081833343
 30
0.0
 10
182.4115660171477
 20
215.6301148790057
 30
0.0
 10
182.1812655398332
 20
215.7535618937863
 30
0.0
 10
181.9527217025732
 20
215.8784740512952
 30
0.0
 10
181.7255086853169
 20
216.0049824440671
 30
0.0
 10
181.4999027829262
 20
216.132842974613
 30
0.0
 10
181.2755356792695
 20
216.2621757110051
 30
0.0
 10
181.0526474981503
 20
216.392763048206
 30
0.0
 10
180.8309175510304
 20
216.5247149142832
 30
0.0
 10
180.6105556516521
 20
216.6578364768542
 30
0.0
 10
180.3912809555699
 20
216.7922283870774
 30
0.0
 10
180.1732776650249
 20
216.9277155342567
 30
0.0
 10
179.9562985670277
 20
217.0643901071235
 30
0.0
 10
179.740506059834
 20
217.2020941892787
 30
0.0
 10
179.5256815466099
 20
217.3409122608385
 30
0.0
 10
179.3119687371313
 20
217.4807014874001
 30
0.0
 10
179.0991735606825
 20
217.6215393299655
 30
0.0
 10
178.8874236101885
 20
217.7632962566141
 30
0.0
 10
178.6765459749112
 20
217.9060433352922
 30
0.0
 10
178.4666542706674
 20
218.0496628268778
 30
0.0
 10
178.2575939534757
 20
218.1942199724267
 30
0.0
 10
178.0494664547017
 20
218.3396075357423
 30
0.0
 10
177.8421332613379
 20
218.4858854407413
 30
0.0
 10
177.6356851343221
 20
218.6329558487881
 30
0.0
 10
177.429997627101
 20
218.7808738282459
 30
0.0
 10
177.2251521079774
 20
218.9295499741955
 30
0.0
 10
177.0210365263582
 20
219.0790349048743
 30
0.0
 10
176.8177239744873
 20
219.2292468479238
 30
0.0
 10
176.6151133995656
 20
219.3802323723792
 30
0.0
 10
176.4132704762968
 20
219.5319165104903
 30
0.0
 10
176.2121038583995
 20
219.6843420087248
 30
0.0
 10
176.0116729144132
 20
219.8374404625143
 30
0.0
 10
175.811895251326
 20
219.9912514944689
 30
0.0
 10
175.6128234957819
 20
220.1457112589129
 30
0.0
 10
175.414382201495
 20
220.3008550552172
 30
0.0
 10
175.2166221216231
 20
220.4566284905457
 30
0.0
 10
175.0194781546041
 20
220.6130682157635
 30
0.0
 10
174.8229837200899
 20
220.7701088786173
 30
0.0
 10
174.6270675714086
 20
220.9277686255626
 30
0.0
 10
174.4318062149397
 20
221.0860449850178
 30
0.0
 10
174.2371815004297
 20
221.2450119340095
 30
0.0
 10
174.0430882999624
 20
221.4044540881305
 30
0.0
 10
173.849335748038
 20
221.5642267594737
 30
0.0
 10
173.6564788892631
 20
221.7249268357151
 30
0.0
 10
173.4650125015727
 20
221.8871997769105
 30
0.0
 10
173.2729035255548
 20
222.0487234215383
 30
0.0
 10
173.0781780241251
 20
222.2071255220029
 30
0.0
 10
172.8855647181997
 20
222.36774140458
 30
0.0
 10
172.6998001929362
 20
222.5358434926944
 30
0.0
 10
172.5211292525797
 20
222.7110511463749
 30
0.0
 10
172.3495859893549
 20
222.8932739150685
 30
0.0
 10
172.182826002777
 20
223.0802646127227
 30
0.0
 10
172.0185053365244
 20
223.2697603681041
 30
0.0
 10
171.8597212172357
 20
223.4656030895825
 30
0.0
 10
171.710863223408
 20
223.6703454576859
 30
0.0
 10
171.5697689873993
 20
223.8834488320979
 30
0.0
 10
171.4354846580124
 20
224.1026486434211
 30
0.0
 10
171.3080277857742
 20
224.3301603431816
 30
0.0
 10
171.1894561368195
 20
224.5649602116183
 30
0.0
 10
171.0789921696989
 20
224.8098105431351
 30
0.0
 10
170.9784260029342
 20
225.0624737771647
 30
0.0
 10
170.8871801369295
 20
225.3272791703186
 30
0.0
 10
170.8077849557487
 20
225.6009349746576
 30
0.0
 10
170.7398097220332
 20
225.8899514413229
 30
0.0
 10
170.6863009258768
 20
226.1892684423298
 30
0.0
 10
170.6475183638654
 20
226.5088660527008
 30
0.0
 10
170.6271069632287
 20
226.8409952464887
 30
0.0
 10
170.627089692755
 20
227.201467204823
 30
0.0
 10
170.6516336984171
 20
227.5782092165163
 30
0.0
 10
170.7072876517541
 20
227.9980414495792
 30
0.0
 10
170.7986035535806
 20
228.4414593225688
 30
0.0
 10
170.9461125527714
 20
228.9619288923872
 30
0.0
 10
171.1560714889845
 20
229.5248388037405
 30
0.0
 10
171.58778872388
 20
230.4444391710202
 30
0.0
 10
172.3299353359632
 20
231.6105070782469
 30
0.0
 10
173.480943330043
 20
232.9096604867314
 30
0.0
 10
174.7762758488758
 20
234.074866210124
 30
0.0
 10
175.7753909853286
 20
234.6580314794723
 30
0.0
 10
176.2737646353837
 20
234.9489230852885
 30
0.0
 11
176.2737646353836
 21
234.9489230852885
 31
0.0
 11
176.8711498008502
 21
235.2280293856429
 31
0.0
 11
177.4891207261823
 21
235.4571723949005
 31
0.0
 11
177.9523163570434
 21
235.5880460427295
 31
0.0
 11
178.42375142202
 21
235.6846963095517
 31
0.0
 11
178.8145823688887
 21
235.7363387973361
 31
0.0
 11
179.2079389348918
 21
235.7617770412369
 31
0.0
 11
179.5512434032267
 21
235.7617196330207
 31
0.0
 11
179.8938756131251
 21
235.7406069382837
 31
0.0
 11
180.2026404902359
 21
235.7031551242993
 31
0.0
 11
180.5088043496087
 21
235.6484288935808
 31
0.0
 11
180.7907746278385
 21
235.5821503076436
 31
0.0
 11
181.0689567886986
 21
235.5014745514841
 31
0.0
 11
181.3291102233867
 21
235.4118911192507
 31
0.0
 11
181.5847752393064
 21
235.3101862209054
 31
0.0
 11
181.8265496554571
 21
235.2011272235881
 31
0.0
 11
182.0632855677157
 21
235.0815897681282
 31
0.0
 11
182.2888174287022
 21
234.9554143656871
 31
0.0
 11
182.5093146348901
 21
234.8205120541161
 31
0.0
 11
182.7209740593238
 21
234.6799192598668
 31
0.0
 11
182.9261662051416
 21
234.530256843181
 31
0.0
 11
183.1216424758148
 21
234.3728059204932
 31
0.0
 11
183.3119016259583
 21
234.2088854828111
 31
0.0
 11
183.4983276356051
 21
234.0418984865438
 31
0.0
 11
183.6801289054041
 21
233.8700059810703
 31
0.0
 11
183.8552764929024
 21
233.6913887693689
 31
0.0
 11
184.0231203476713
 21
233.5058906421511
 31
0.0
 11
184.184808731505
 21
233.3138452313603
 31
0.0
 11
184.3441655444598
 21
233.1198290577529
 31
0.0
 11
184.5052611846872
 21
232.9274304819788
 31
0.0
 11
184.6671112389757
 21
232.7356679710822
 31
0.0
 11
184.8279432286357
 21
232.5428648051067
 31
0.0
 11
184.987788078167
 21
232.349238029087
 31
0.0
 11
185.1472336557258
 21
232.1550796267315
 31
0.0
 11
185.3061331249908
 21
231.9604762947243
 31
0.0
 11
185.464451693117
 21
231.7651753129744
 31
0.0
 11
185.6220774754454
 21
231.5693138639924
 31
0.0
 11
185.7791538178217
 21
231.3727669606099
 31
0.0
 11
185.9355457517517
 21
231.1756753591122
 31
0.0
 11
186.0913608619468
 21
230.9778595891824
 31
0.0
 11
186.2464555205805
 21
230.7794783467545
 31
0.0
 11
186.4009599187257
 21
230.5803444303447
 31
0.0
 11
186.5547166235035
 21
230.3806326684909
 31
0.0
 11
186.7078638850542
 21
230.1801331509771
 31
0.0
 11
186.8602304040486
 21
229.9790396678493
 31
0.0
 11
187.0119676388285
 21
229.7771208193523
 31
0.0
 11
187.162888812203
 21
229.5745912948173
 31
0.0
 11
187.313158608757
 21
229.3711946493617
 31
0.0
 11
187.4625733627581
 21
229.1671690641858
 31
0.0
 11
187.6113125550485
 21
228.9622302657928
 31
0.0
 11
187.7591539181456
 21
228.7566428383868
 31
0.0
 11
187.9062930830274
 21
228.5500910812531
 31
0.0
 11
188.0524872590896
 21
228.3428693981441
 31
0.0
 11
188.1979498695637
 21
228.1346265508289
 31
0.0
 11
188.3424153967989
 21
227.9256907546669
 31
0.0
 11
188.4861168865246
 21
227.7156703770925
 31
0.0
 11
188.6287635678431
 21
227.5049321445245
 31
0.0
 11
188.7706101960544
 21
227.2930382962412
 31
0.0
 11
188.911337836161
 21
227.080399631656
 31
0.0
 11
189.0512253281653
 21
226.8665254396789
 31
0.0
 11
189.1899222042028
 21
226.6518772185112
 31
0.0
 11
189.3277341028712
 21
226.4359031359895
 31
0.0
 11
189.4642751046969
 21
226.2191233378188
 31
0.0
 11
189.5998807562049
 21
226.0009150095697
 31
0.0
 11
189.7341251024952
 21
225.7818665544305
 31
0.0
 11
189.8673771710621
 21
225.56127217427
 31
0.0
 11
189.9991655771279
 21
225.3398002478766
 31
0.0
 11
190.1298969462993
 21
225.1166472510691
 31
0.0
 11
190.2590480731305
 21
224.8925759626926
 31
0.0
 11
190.3870679366459
 21
224.6666668358009
 31
0.0
 11
190.5133738842862
 21
224.4397949926617
 31
0.0
 11
190.6384627497807
 21
224.2109018930636
 31
0.0
 11
190.761683259562
 21
223.9809975867511
 31
0.0
 11
190.8835864683592
 21
223.7488553278777
 31
0.0
 11
191.0034413495094
 21
223.5156488955119
 31
0.0
 11
191.1218605316489
 21
223.2799456431687
 31
0.0
 11
191.2380195962934
 21
223.0431203611095
 31
0.0
 11
191.3526011874949
 21
222.8034850493665
 31
0.0
 11
191.4646706102289
 21
222.5626645938585
 31
0.0
 11
191.5749900861589
 21
222.3186495192112
 31
0.0
 11
191.6824934933684
 21
222.0733806958114
 31
0.0
 11
191.788033159618
 21
221.8244367937467
 31
0.0
 11
191.8903847310217
 21
221.5741651522781
 31
0.0
 11
191.9905015474477
 21
221.3196058237801
 31
0.0
 11
192.0869665111598
 21
221.0636401512296
 31
0.0
 11
192.1808436108384
 21
220.8025862001036
 31
0.0
 11
192.2704782576848
 21
220.540045116568
 31
0.0
 11
192.3570494720024
 21
220.2713377252117
 31
0.0
 11
192.4386051584727
 21
220.0010652361694
 31
0.0
 11
192.5164280913104
 21
219.7231181663824
 31
0.0
 11
192.5881919556936
 21
219.4435452522038
 31
0.0
 11
192.6552317040857
 21
219.1540851578816
 31
0.0
 11
192.7147308735335
 21
218.8629773888572
 31
0.0
 11
192.7679076356275
 21
218.5585027204782
 31
0.0
 11
192.8113569031009
 21
218.2524966372378
 31
0.0
 11
192.8456900049669
 21
217.9271657495489
 31
0.0
 11
192.866603817547
 21
217.6006367704975
 31
0.0
 11
192.8723227749158
 21
217.2427005204092
 31
0.0
 11
192.8582908703814
 21
216.8852170421455
 31
0.0
 11
192.8129174845279
 21
216.465198926009
 31
0.0
 11
192.7296223304947
 21
216.0494417210721
 31
0.0
 11
192.4115356440243
 21
215.2173721318057
 31
0.0
 11
191.8898116992398
 21
214.5025243086306
 31
0.0
 11
191.1749638760649
 21
213.9808003638464
 31
0.0
 11
190.3428942867986
 21
213.662713677376
 31
0.0
 11
189.9271370818617
 21
213.5794185233426
 31
0.0
 11
189.5071189657248
 21
213.5340451374888
 31
0.0
 11
189.1496354874612
 21
213.5200132329545
 31
0.0
 11
188.7916992373729
 21
213.5257321903235
 31
0.0
 11
188.4651702583215
 21
213.5466460029037
 31
0.0
 11
188.1398393706327
 21
213.5809791047698
 31
0.0
 11
187.8338332873922
 21
213.624428372243
 31
0.0
 11
187.529358619013
 21
213.6776051343366
 31
0.0
 11
187.2382508499882
 21
213.7371043037842
 31
0.0
 11
186.948790755666
 21
213.8041440521762
 31
0.0
 11
186.6692178414875
 21
213.8759079165594
 31
0.0
 11
186.3912707717007
 21
213.9537308493974
 31
0.0
 11
186.1209982826585
 21
214.0352865358678
 31
0.0
 11
185.8522908913021
 21
214.1218577501853
 31
0.0
 11
185.5897498077663
 21
214.2114923970315
 31
0.0
 11
185.3286958566402
 21
214.30536949671
 31
0.0
 11
185.07273018409
 21
214.4018344604224
 31
0.0
 11
184.8181708555923
 21
214.5019512768487
 31
0.0
 11
184.5678992141238
 21
214.6043028482524
 31
0.0
 11
184.3189553120588
 21
214.7098425145017
 31
0.0
 11
184.0736864886588
 21
214.817345921711
 31
0.0
 11
183.8296714140116
 21
214.9276653976411
 31
0.0
 11
183.5888509585041
 21
215.0397348203756
 31
0.0
 11
183.3492156467616
 21
215.1543164115776
 31
0.0
 11
183.1123903647022
 21
215.270475476222
 31
0.0
 11
182.8766871123588
 21
215.3888946583612
 31
0.0
 11
182.6434806799928
 21
215.5087495395113
 31
0.0
 11
182.4113384211195
 21
215.6306527483086
 31
0.0
 11
182.1814341148067
 21
215.7538732580897
 31
0.0
 11
181.9525410152084
 21
215.8789621235841
 31
0.0
 11
181.7256691720692
 21
216.0052680712244
 31
0.0
 11
181.4997600451774
 21
216.1332879347397
 31
0.0
 11
181.2756887568009
 21
216.2624390615709
 31
0.0
 11
181.0525357599935
 21
216.3931704307423
 31
0.0
 11
180.8310638336001
 21
216.5249588368081
 31
0.0
 11
180.6104694534398
 21
216.6582109053751
 31
0.0
 11
180.3914209983007
 21
216.7924552516656
 31
0.0
 11
180.1732126700517
 21
216.9280609031736
 31
0.0
 11
179.9564328718807
 21
217.0646019049989
 31
0.0
 11
179.7404587893586
 21
217.2024138036671
 31
0.0
 11
179.525810568191
 21
217.3411106797046
 31
0.0
 11
179.311936376214
 21
217.480998171709
 31
0.0
 11
179.0992977116287
 21
217.6217258118155
 31
0.0
 11
178.8874038633452
 21
217.7635724400266
 31
0.0
 11
178.6766656307774
 21
217.9062191213452
 31
0.0
 11
178.4666452532031
 21
218.0499206110711
 31
0.0
 11
178.2577094570412
 21
218.1943861383064
 31
0.0
 11
178.0494666097261
 21
218.3398487487806
 31
0.0
 11
177.8422449266172
 21
218.4860429248428
 31
0.0
 11
177.6356931694835
 21
218.6331820897247
 31
0.0
 11
177.4301057420773
 21
218.7810234528217
 31
0.0
 11
177.2251669436843
 21
218.9297626451119
 31
0.0
 11
177.021141358508
 21
219.0791773991129
 31
0.0
 11
176.8177447130525
 21
219.2294471956668
 31
0.0
 11
176.615215188518
 21
219.3803683690418
 31
0.0
 11
176.4132963400215
 21
219.5321056038223
 31
0.0
 11
176.2122028568937
 21
219.6844721228166
 31
0.0
 11
176.0117033393796
 21
219.8376193843668
 31
0.0
 11
175.8119915775257
 21
219.9913760891445
 31
0.0
 11
175.6128576611159
 21
220.1458804872896
 31
0.0
 11
175.4144764186879
 21
220.3009751459233
 31
0.0
 11
175.216660648758
 21
220.4567902561184
 31
0.0
 11
175.0195690472604
 21
220.6131821900484
 31
0.0
 11
174.8230221438778
 21
220.7702585324247
 31
0.0
 11
174.6271606948958
 21
220.927884314753
 31
0.0
 11
174.4318597131458
 21
221.0862028828792
 31
0.0
 11
174.2372563811384
 21
221.2451023521441
 31
0.0
 11
174.0430979787828
 21
221.4045479297027
 31
0.0
 11
173.8494712027632
 21
221.5643927792342
 31
0.0
 11
173.6566680367878
 21
221.7252247688944
 31
0.0
 11
173.4649055258914
 21
221.887074823183
 31
0.0
 11
173.2725069501171
 21
222.0481704634103
 31
0.0
 11
173.0784907765093
 21
222.2075272763645
 31
0.0
 11
172.8864453657182
 21
222.3692156601979
 31
0.0
 11
172.7009472385006
 21
222.5370595149671
 31
0.0
 11
172.5223300267995
 21
222.7122071024657
 31
0.0
 11
172.350437521326
 21
222.8940083722647
 31
0.0
 11
172.1834505250585
 21
223.0804343819113
 31
0.0
 11
172.0195300873764
 21
223.2706935320547
 31
0.0
 11
171.8620791646886
 21
223.4661698027279
 31
0.0
 11
171.7124167480031
 21
223.671361948546
 31
0.0
 11
171.571823953754
 21
223.88302137298
 31
0.0
 11
171.436921642183
 21
224.1035185791679
 31
0.0
 11
171.310746239742
 21
224.3290504401544
 31
0.0
 11
171.1912087842821
 21
224.5657863524129
 31
0.0
 11
171.0821497869647
 21
224.8075607685638
 31
0.0
 11
170.9804448886194
 21
225.0632257844835
 31
0.0
 11
170.8908614563859
 21
225.3233792191715
 31
0.0
 11
170.8101857002263
 21
225.6015613800314
 31
0.0
 11
170.743907114289
 21
225.8835316582609
 31
0.0
 11
170.6891808835706
 21
226.1896955176339
 31
0.0
 11
170.6517290695863
 21
226.4984603947448
 31
0.0
 11
170.6306163748491
 21
226.8410926046431
 31
0.0
 11
170.6305589666327
 21
227.1843970729778
 31
0.0
 11
170.6559972105335
 21
227.5777536389807
 31
0.0
 11
170.7076396983178
 21
227.9685845858495
 31
0.0
 11
170.8042899651402
 21
228.4400196508263
 31
0.0
 11
170.9351636129695
 21
228.9032152816877
 31
0.0
 11
171.1643066222272
 21
229.5211862070198
 31
0.0
 11
171.4434129225816
 21
230.1185713724864
 31
0.0
 11
172.3641156303065
 21
231.5797931377794
 31
0.0
 11
173.5050353883892
 21
232.8873006194805
 31
0.0
 11
174.8125428700903
 21
234.0282203775632
 31
0.0
 11
176.2737646353837
 21
234.9489230852885
 31
0.0
  0
SPLINE
  5
DC
330
4E
100
AcDbEntity
  8
1
  6
Continuous
 62
     7
100
AcDbSpline
210
0.0
220
0.0
230
1.0
 70
    11
 71
     3
 72
    15
 73
    11
 74
     9
 42
0.000000001
 43
0.0000000001
 44
0.00000001
 40
0.0
 40
0.0
 40
0.0
 40
0.0
 40
4.47165754651974
 40
6.749422778751859
 40
10.01562429102746
 40
14.43217456826558
 40
26.1292800530416
 40
33.75297112683338
 40
39.8184968009791
 40
53.55771225588548
 40
53.55771225588548
 40
53.55771225588548
 40
53.55771225588548
 10
166.7300120560922
 20
216.9198891317583
 30
0.0
 10
165.8533561174776
 20
217.9832521654127
 30
0.0
 10
164.5301506859647
 20
219.5882692330337
 30
0.0
 10
160.4384076904587
 20
221.5345551217851
 30
0.0
 10
161.2942704217319
 20
216.4958676912842
 30
0.0
 10
164.3920527273612
 20
211.4826364168048
 30
0.0
 10
169.3688190202036
 20
207.5478055352864
 30
0.0
 10
179.6482968440508
 20
197.5357050772461
 30
0.0
 10
173.4583141677001
 20
210.1323316326059
 30
0.0
 10
169.4858465421682
 20
214.1397843262474
 30
0.0
 10
166.7300120560922
 20
216.9198891317583
 30
0.0
 11
166.7300120560922
 21
216.9198891317583
 31
0.0
 11
163.470528675943
 21
219.9811779768202
 31
0.0
 11
161.3049517652732
 21
220.6872169963647
 31
0.0
 11
161.2980694101748
 21
217.4210227252688
 31
0.0
 11
163.2885902258382
 21
213.4784673015044
 31
0.0
 11
171.6056197499034
 21
205.2535480506963
 31
0.0
 11
177.601879365316
 21
200.5455191400212
 31
0.0
 11
175.2367139452886
 21
206.1309102848613
 31
0.0
 11
166.7300120560922
 21
216.9198891317583
 31
0.0
  0
SPLINE
  5
DD
330
4E
100
AcDbEntity
  8
1
  6
Continuous
 62
     7
100
AcDbSpline
210
0.0
220
0.0
230
1.0
 70
    11
 71
     3
 72
    15
 73
    11
 74
     9
 42
0.000000001
 43
0.0000000001
 44
0.00000001
 40
0.0
 40
0.0
 40
0.0
 40
0.0
 40
4.471657546519759
 40
6.749422778751867
 40
10.01562429102753
 40
14.43217456826558
 40
26.12928005304147
 40
33.75297112683335
 40
39.81849680097898
 40
53.55771225588532
 40
53.55771225588532
 40
53.55771225588532
 40
53.55771225588532
 10
189.472446876112
 20
239.6623239517781
 30
0.0
 10
188.4090838424576
 20
240.5389798903926
 30
0.0
 10
186.8040667748365
 20
241.8621853219053
 30
0.0
 10
184.8577808860851
 20
245.9539283174116
 30
0.0
 10
189.8964683165861
 20
245.0980655861384
 30
0.0
 10
194.9096995910653
 20
242.0002832805089
 30
0.0
 10
198.8445304725838
 20
237.0235169876667
 30
0.0
 10
208.856630930624
 20
226.7440391638193
 30
0.0
 10
196.2600043752645
 20
232.9340218401702
 30
0.0
 10
192.252551681623
 20
236.9064894657021
 30
0.0
 10
189.472446876112
 20
239.6623239517781
 30
0.0
 11
189.472446876112
 21
239.6623239517781
 31
0.0
 11
186.41115803105
 21
242.9218073319272
 31
0.0
 11
185.7051190115055
 21
245.087384242597
 31
0.0
 11
188.9713132826014
 21
245.0942665976954
 31
0.0
 11
192.9138687063657
 21
243.103745782032
 31
0.0
 11
201.1387879571738
 21
234.7867162579668
 31
0.0
 11
205.8468168678489
 21
228.7904566425542
 31
0.0
 11
200.261425723009
 21
231.1556220625817
 31
0.0
 11
189.472446876112
 21
239.6623239517781
 31
0.0
  0
ARC
  5
DE
330
4E
100
AcDbEntity
  8
1
  6
Continuous
 62
     7
100
AcDbCircle
 10
170.6766082636745
 20
220.1593785580913
 30
0.0
 40
10.00000000000004
100
AcDbArc
 50
135.0
 51
159.5737456902523
  0
ARC
  5
DF
330
4E
100
AcDbEntity
  8
1
  6
Continuous
 62
     7
100
AcDbCircle
 10
186.2329574497786
 20
235.7157277441953
 30
0.0
 40
10.00000000000002
100
AcDbArc
 50
45.00000000000081
 51
134.9999999999997
  0
ARC
  5
E0
330
4E
100
AcDbEntity
  8
1
  6
Continuous
 62
     7
100
AcDbCircle
 10
170.6766082636745
 20
220.1593785580913
 30
0.0
 40
10.0
100
AcDbArc
 50
180.0
 51
224.9999999999996
  0
ARC
  5
E1
330
4E
100
AcDbEntity
  8
1
  6
Continuous
 62
     7
100
AcDbCircle
 10
170.6766082636745
 20
220.1593785580913
 30
0.0
 40
10.0
100
AcDbArc
 50
159.5737456902523
 51
180.0
  0
ENDBLK
  5
50
330
4E
100
AcDbEntity
  8
0
100
AcDbBlockEnd
  0
BLOCK
  5
52
330
51
100
AcDbEntity
  8
0
100
AcDbBlockBegin
  2
84-35-B
 70
     0
 10
249.5073880971829
 20
326.3892321010264
 30
0.0
  3
84-35-B
  1

  0
LINE
  5
E2
330
51
100
AcDbEntity
  8
1
  6
Continuous
 62
     7
100
AcDbLine
 10
96.22817676515241
 20
235.0086209630086
 30
0.0
 11
96.22817676515241
 21
235.7157277441953
 31
0.0
  0
LINE
  5
E3
330
51
100
AcDbEntity
  8
1
  6
Continuous
 62
     7
100
AcDbLine
 10
116.2204941917016
 20
235.0086209630086
 30
0.0
 11
116.2204941917016
 21
235.7157277441953
 31
0.0
  0
LINE
  5
E4
330
51
100
AcDbEntity
  8
1
  6
Continuous
 62
     7
100
AcDbLine
 10
164.3126472329956
 20
227.9375531511434
 30
0.0
 11
163.6939426144543
 21
228.5562577696848
 31
0.0
  0
LINE
  5
E5
330
51
100
AcDbEntity
  8
1
  6
Continuous
 62
     7
100
AcDbLine
 10
164.3126472329956
 20
227.9375531511434
 30
0.0
 11
165.1611753704195
 21
228.7860812885673
 31
0.0
  0
LINE
  5
E6
330
51
100
AcDbEntity
  8
1
  6
Continuous
 62
     7
100
AcDbLine
 10
177.8360782381852
 20
242.6983933934157
 30
0.0
 11
178.4547828567266
 21
242.0796887748744
 31
0.0
  0
LINE
  5
E7
330
51
100
AcDbEntity
  8
1
  6
Continuous
 62
     7
100
AcDbLine
 10
177.6062547193027
 20
241.2311606374505
 30
0.0
 11
178.4547828567266
 21
242.0796887748744
 31
0.0
  0
LINE
  5
E8
330
51
100
AcDbEntity
  8
1
  6
Continuous
 62
     7
100
AcDbLine
 10
96.22817676515251
 20
297.9240206168032
 30
0.0
 11
96.22817676515251
 21
297.2169138356163
 31
0.0
  0
LINE
  5
E9
330
51
100
AcDbEntity
  8
1
  6
Continuous
 62
     7
100
AcDbLine
 10
116.2204941917015
 20
297.9240206168032
 30
0.0
 11
116.2204941917015
 21
297.2169138356163
 31
0.0
  0
ARC
  5
EA
330
51
100
AcDbEntity
  8
1
  6
Continuous
 62
     7
100
AcDbCircle
 10
453.5193207382935
 20
-47.12698473042364
 30
0.0
 40
400.0
100
AcDbArc
 50
133.5674562624335
 51
135.0
  0
ARC
  5
EB
330
51
100
AcDbEntity
  8
1
  6
Continuous
 62
     7
100
AcDbCircle
 10
453.5193207382935
 20
-47.12698473042364
 30
0.0
 40
399.9999999999999
100
AcDbArc
 50
135.0
 51
136.4325437375665
  0
SPLINE
  5
EC
330
51
100
AcDbEntity
  8
1
  6
Continuous
 62
     7
100
AcDbSpline
210
0.0
220
0.0
230
1.0
 70
     8
 71
     3
 72
    43
 73
    39
 74
    37
 42
0.000000001
 43
0.0000000001
 44
0.00000001
 40
0.0
 40
0.0
 40
0.0
 40
0.0
 40
0.6208001892624806
 40
1.238128262783921
 40
1.874506879773866
 40
2.513823931516718
 40
3.18426326862295
 40
3.853520789522928
 40
4.564357964063235
 40
5.275733783613672
 40
6.031006967035982
 40
6.7862036642101
 40
7.6380778074422
 40
8.49003881144716
 40
9.267017147190106
 40
10.0439542507819
 40
10.93289345197605
 40
11.82189568440211
 40
12.65988334357249
 40
13.49783950434487
 40
14.36781385307934
 40
15.23781163661892
 40
16.0947802629038
 40
16.95172644933143
 40
17.78364965349423
 40
18.61556938637526
 40
19.41256651849701
 40
20.20947901516853
 40
20.96465720842201
 40
21.7199496090035
 40
22.43133028027907
 40
23.14216248262368
 40
23.81141876313253
 40
24.48185934808134
 40
25.12117671512296
 40
25.75755502331024
 40
26.37488300179997
 40
26.99568328307851
 40
26.99568328307851
 40
26.99568328307851
 40
26.99568328307851
 10
96.22817676515251
 20
297.9240206168032
 30
0.0
 10
96.24315667441273
 20
298.1304025309794
 30
0.0
 10
96.27303272379865
 20
298.542012070724
 30
0.0
 10
96.36556682639116
 20
299.1616022402902
 30
0.0
 10
96.55501004268453
 20
299.7660972339634
 30
0.0
 10
96.82587580994567
 20
300.3568728284511
 30
0.0
 10
97.16140377887791
 20
300.9261933431407
 30
0.0
 10
97.56716908085808
 20
301.4776528144856
 30
0.0
 10
98.03559807697448
 20
301.995552294612
 30
0.0
 10
98.57122093333598
 20
302.486752600135
 30
0.0
 10
99.15903601701962
 20
302.9387965298829
 30
0.0
 10
99.82118827495808
 20
303.3664381337453
 30
0.0
 10
100.5439675183643
 20
303.7550106502201
 30
0.0
 10
101.3015526026964
 20
304.088472479082
 30
0.0
 10
102.056769427781
 20
304.3598917804441
 30
0.0
 10
102.8393935786788
 20
304.5865604040007
 30
0.0
 10
103.6715623924368
 20
304.7706219503539
 30
0.0
 10
104.5341578887468
 20
304.9023273316573
 30
0.0
 10
105.3862433448321
 20
304.9785760062344
 30
0.0
 10
106.2350075125762
 20
305.0036646614684
 30
0.0
 10
107.0944574895334
 20
304.9772703556923
 30
0.0
 10
107.9569475710593
 20
304.8971067851006
 30
0.0
 10
108.8084808572159
 20
304.764040126903
 30
0.0
 10
109.6374267152203
 20
304.5796207168404
 30
0.0
 10
110.4445853506167
 20
304.3439287768075
 30
0.0
 10
111.2152261180557
 20
304.0609640521417
 30
0.0
 10
111.9535054853283
 20
303.7294782780756
 30
0.0
 10
112.6428827767536
 20
303.3565037920018
 30
0.0
 10
113.2896377038077
 20
302.9388082333008
 30
0.0
 10
113.877444928944
 20
302.4867544073505
 30
0.0
 10
114.4130730098302
 20
301.9955500806624
 30
0.0
 10
114.8815028227727
 20
301.4776520160796
 30
0.0
 10
115.2872669880827
 20
300.9261936987962
 30
0.0
 10
115.6227949962796
 20
300.3568731070078
 30
0.0
 10
115.8936610313298
 20
299.7660971656967
 30
0.0
 10
116.0831041325853
 20
299.1616021642742
 30
0.0
 10
116.1756381710394
 20
298.5420120955791
 30
0.0
 10
116.2055142602275
 20
298.1304025599892
 30
0.0
 10
116.2204941917015
 20
297.9240206168032
 30
0.0
 11
96.22817676515251
 21
297.9240206168032
 31
0.0
 11
96.28097125224154
 21
298.5425718459992
 31
0.0
 11
96.3800408772536
 21
299.1518986564929
 31
0.0
 11
96.56713073877228
 21
299.7601544671044
 31
0.0
 11
96.831018899358
 21
300.3424682432827
 31
0.0
 11
97.17111256642099
 21
300.9202443279012
 31
0.0
 11
97.56740809247
 21
301.4595545227357
 31
0.0
 11
98.04329762598327
 21
301.9875873259994
 31
0.0
 11
98.5668336435876
 21
302.4692153935233
 31
0.0
 11
99.16499790725865
 21
302.9303412935534
 31
0.0
 11
99.7989285130739
 21
303.3407728209999
 31
0.0
 11
100.5488184296585
 21
303.7449444047637
 31
0.0
 11
101.3282503528868
 21
304.0889261330817
 31
0.0
 11
102.0592950793785
 21
304.3521160680977
 31
0.0
 11
102.8054478426066
 21
304.5686508606896
 31
0.0
 11
103.6733328881004
 21
304.7609746763686
 31
0.0
 11
104.5521041033097
 21
304.8954593173006
 31
0.0
 11
105.3867475195985
 21
304.9702502398889
 31
0.0
 11
106.224335478427
 21
304.9950884286684
 31
0.0
 11
107.0938971973295
 21
304.9682969884076
 31
0.0
 11
107.9601502226565
 21
304.887663020003
 31
0.0
 11
108.8067984361535
 21
304.755065782975
 31
0.0
 11
109.6432231142473
 21
304.5686508606896
 31
0.0
 11
110.4416584491802
 21
304.3349903526068
 31
0.0
 11
111.2224148350642
 21
304.0477449737608
 31
0.0
 11
111.949197310515
 21
303.7206491743032
 31
0.0
 11
112.64974244378
 21
303.3407728209999
 31
0.0
 11
113.2836626522577
 21
302.9303592818251
 31
0.0
 11
113.8818373132663
 21
302.4692153935233
 31
0.0
 11
114.4053758746619
 21
301.9875829250258
 31
0.0
 11
114.8812628643839
 21
301.4595545227357
 31
0.0
 11
115.2775577659604
 21
300.9202454082914
 31
0.0
 11
115.6176520574959
 21
300.3424682432827
 31
0.0
 11
115.8815403766355
 21
299.7601541927929
 31
0.0
 11
116.0686300796003
 21
299.1518986564929
 31
0.0
 11
116.1676996537428
 21
298.542571934008
 31
0.0
 11
116.2204941917015
 21
297.9240206168032
 31
0.0
  0
SPLINE
  5
ED
330
51
100
AcDbEntity
  8
1
  6
Continuous
 62
     7
100
AcDbSpline
210
0.0
220
0.0
230
1.0
 70
    11
 71
     3
 72
    79
 73
    75
 74
    73
 42
0.000000001
 43
0.0000000001
 44
0.00000001
 40
0.0
 40
0.0
 40
0.0
 40
0.0
 40
0.8702823402253017
 40
1.739386876430548
 40
2.59558980403955
 40
3.452706020182417
 40
4.283792022086526
 40
5.114459832508992
 40
5.909403990632994
 40
6.704456806162275
 40
7.456599204131966
 40
8.208647374690596
 40
8.915295623813584
 40
9.621886074065346
 40
10.28601701691565
 40
10.95004703115967
 40
11.58077183717807
 40
12.21139541900953
 40
12.82358550886751
 40
13.43572490814355
 40
14.04786131199188
 40
14.66005450907038
 40
15.29069381753127
 40
15.9214030968631
 40
16.58537139470529
 40
17.24956179502126
 40
18.09214688476794
 40
18.9348957273347
 40
19.55101160254069
 40
20.16692902925904
 40
20.96179734202499
 40
21.75691014063926
 40
22.58782500623511
 40
23.41870615694617
 40
24.27527150866752
 40
25.13186153515974
 40
26.0017959836318
 40
26.87173099440583
 40
27.7416671216277
 40
28.61160026953994
 40
29.46818396657589
 40
30.32475615047193
 40
31.15566360746958
 40
31.98655051969568
 40
32.78155994311269
 40
33.57653687404217
 40
34.32865796021334
 40
35.08073009985755
 40
35.78738484982652
 40
36.49396816229291
 40
37.15809715941199
 40
37.82212926335559
 40
38.45285484696591
 40
39.08347760557675
 40
39.69566654091396
 40
40.30780714659348
 40
40.91994764238191
 40
41.5321366860442
 40
42.16275999214815
 40
42.79348505253765
 40
43.45751513365989
 40
44.12164601686966
 40
44.82823645176506
 40
45.53488471405937
 40
46.28693288785661
 40
47.03907528320493
 40
47.83412809814563
 40
48.62907225668901
 40
49.45974006718459
 40
50.29082606905953
 40
51.14794228520601
 40
52.00414521279822
 40
52.87324974899315
 40
53.74353208923118
 40
53.74353208923118
 40
53.74353208923118
 40
53.74353208923118
 10
106.224335478427
 20
290.234248186396
 30
0.0
 10
105.934420190451
 20
290.2443800808235
 30
0.0
 10
105.3549819737892
 20
290.2646301565061
 30
0.0
 10
104.4915799633555
 20
290.3287092869987
 30
0.0
 10
103.6398269887258
 20
290.4591340325326
 30
0.0
 10
102.8117478003668
 20
290.6449916232494
 30
0.0
 10
102.0045489665294
 20
290.877961263076
 30
0.0
 10
101.2337442497413
 20
291.1564244962926
 30
0.0
 10
100.4954623244736
 20
291.4836937796878
 30
0.0
 10
99.80628504274772
 20
291.8521153484524
 30
0.0
 10
99.15938797190077
 20
292.264531743244
 30
0.0
 10
98.5717239848404
 20
292.7107267742273
 30
0.0
 10
98.03625102386039
 20
293.1960539254952
 30
0.0
 10
97.56772044587217
 20
293.7074422225796
 30
0.0
 10
97.1605534837589
 20
294.251278200182
 30
0.0
 10
96.825422820659
 20
294.8132382390798
 30
0.0
 10
96.55987698908675
 20
295.398991848088
 30
0.0
 10
96.36918719401882
 20
295.9952932076517
 30
0.0
 10
96.25418322598568
 20
296.604383257612
 30
0.0
 10
96.21517452410076
 20
297.2169127855914
 30
0.0
 10
96.25418158750904
 20
297.8294436075398
 30
0.0
 10
96.36918851431594
 20
298.4385384468354
 30
0.0
 10
96.55987778843496
 20
299.0348412210319
 30
0.0
 10
96.82541089614634
 20
299.6205770403993
 30
0.0
 10
97.16056845382572
 20
300.1825226871989
 30
0.0
 10
97.59492750233933
 20
300.7626820560415
 30
0.0
 10
98.13067864984401
 20
301.3363972030182
 30
0.0
 10
98.71302131210577
 20
301.837899224726
 30
0.0
 10
99.27365435694207
 20
302.2437199229451
 30
0.0
 10
99.84632048962172
 20
302.6030742698709
 30
0.0
 10
100.4955439827282
 20
302.9498512717147
 30
0.0
 10
101.2338033017267
 20
303.2772982903449
 30
0.0
 10
102.0043452648839
 20
303.5566864965355
 30
0.0
 10
102.8115201965568
 20
303.7893660788288
 30
0.0
 10
103.640355097008
 20
303.9714385884413
 30
0.0
 10
104.4918555069817
 20
304.1028377613269
 30
0.0
 10
105.3542645383882
 20
304.1819971444454
 30
0.0
 10
106.2243358790334
 20
304.2083716724493
 30
0.0
 10
107.0944066156973
 20
304.1819930505674
 30
0.0
 10
107.9568134446613
 20
304.102836154808
 30
0.0
 10
108.8083155366966
 20
303.9714496761735
 30
0.0
 10
109.6371588856115
 20
303.7893707389859
 30
0.0
 10
110.4443248499088
 20
303.5566512202397
 30
0.0
 10
111.2148344607624
 20
303.2772905196936
 30
0.0
 10
111.9531420584349
 20
302.9499545179983
 30
0.0
 10
112.6424162386071
 20
302.581731779529
 30
0.0
 10
113.2893020417248
 20
302.1693344036183
 30
0.0
 10
113.8769383262742
 20
301.7230988725121
 30
0.0
 10
114.4124150925952
 20
301.2377660466886
 30
0.0
 10
114.8809526708436
 20
300.7263851013781
 30
0.0
 10
115.2881185872187
 20
300.1825509330686
 30
0.0
 10
115.62324774737
 20
299.6205896796741
 30
0.0
 10
115.8887935908304
 20
299.0348353812085
 30
0.0
 10
116.0794836551303
 20
298.4385345520413
 30
0.0
 10
116.1944883008365
 20
297.8294448805176
 30
0.0
 10
116.2334966143505
 20
297.2169138647941
 30
0.0
 10
116.1944882982596
 20
296.6043828097477
 30
0.0
 10
116.0794835754491
 20
295.9952929732047
 30
0.0
 10
115.8887937570876
 20
295.3989920320909
 30
0.0
 10
115.6232482149707
 20
294.8132382746159
 30
0.0
 10
115.2881175395159
 20
294.2512781269829
 30
0.0
 10
114.8809504854548
 20
293.7074422224815
 30
0.0
 10
114.4124199142637
 20
293.1960539522858
 30
0.0
 10
113.876946979079
 20
292.7107267715952
 30
0.0
 10
113.2892829897841
 20
292.2645317341692
 30
0.0
 10
112.6423859123867
 20
291.8521153498144
 30
0.0
 10
111.9532086312385
 20
291.4836937825667
 30
0.0
 10
111.2149267074751
 20
291.1564244957852
 30
0.0
 10
110.4441219905681
 20
290.8779612622115
 30
0.0
 10
109.6369231564262
 20
290.644991623411
 30
0.0
 10
108.8088439680826
 20
290.4591340327837
 30
0.0
 10
107.957090993504
 20
290.3287092869555
 30
0.0
 10
107.0936889830725
 20
290.2646301564212
 30
0.0
 10
106.5142507664081
 20
290.2443800807952
 30
0.0
 10
106.224335478427
 20
290.234248186396
 30
0.0
 11
106.224335478427
 21
290.234248186396
 31
0.0
 11
105.3548011916671
 21
290.2703243996823
 31
0.0
 11
104.4885207341974
 21
290.3403305675721
 31
0.0
 11
103.6420005685667
 21
290.4687325225939
 31
0.0
 11
102.8054478426066
 21
290.6553544516288
 31
0.0
 11
102.0072015658944
 21
290.8866698728967
 31
0.0
 11
101.2262561217896
 21
291.1697479972586
 31
0.0
 11
100.499764097555
 21
291.4924638989185
 31
0.0
 11
99.7989285130739
 21
291.8678816168733
 31
0.0
 11
99.16520661750418
 21
292.2729923990966
 31
0.0
 11
98.5668336435876
 21
292.7285428737137
 31
0.0
 11
98.04392485803012
 21
293.2038513524894
 31
0.0
 11
97.56740809247
 21
293.7255810110061
 31
0.0
 11
97.1701719469416
 21
294.2578153146825
 31
0.0
 11
96.831018899358
 21
294.8287015294747
 31
0.0
 11
96.57126057071105
 21
295.4034531208251
 31
0.0
 11
96.3800408772536
 21
296.0043866703718
 31
0.0
 11
96.26665615122556
 21
296.605985049882
 31
0.0
 11
96.22817676515251
 21
297.2169138356163
 31
0.0
 11
96.26665487074851
 21
297.8278397006683
 31
0.0
 11
96.3800408772536
 21
298.429441000861
 31
0.0
 11
96.57126456930209
 21
299.0303897818212
 31
0.0
 11
96.831018899358
 21
299.6051261417578
 31
0.0
 11
97.1701561467626
 21
300.1759499573051
 31
0.0
 11
97.56740809247
 21
300.7082466602265
 31
0.0
 11
98.14117579631738
 21
301.3252881954437
 31
0.0
 11
98.7787307395597
 21
301.8764227585741
 31
0.0
 11
99.27750380167885
 21
302.2381190462791
 31
0.0
 11
99.7989285130739
 21
302.5659460543593
 31
0.0
 11
100.4997002485164
 21
302.9410921725598
 31
0.0
 11
101.2262561217896
 21
303.264079673974
 31
0.0
 11
102.0072198078767
 21
303.5478317408365
 31
0.0
 11
102.8054478426066
 21
303.7784732196039
 31
0.0
 11
103.6419954634889
 21
303.9625717810718
 31
0.0
 11
104.4885207341974
 21
304.0934971036605
 31
0.0
 11
105.3548025885806
 21
304.1731318571984
 31
0.0
 11
106.224335478427
 21
304.1995794848367
 31
0.0
 11
107.0938693917316
 21
304.173128783128
 31
0.0
 11
107.9601502226565
 21
304.0934971036605
 31
0.0
 11
108.8066704857983
 21
303.9625808148531
 31
0.0
 11
109.6432231142473
 21
303.7784732196039
 31
0.0
 11
110.4414693662001
 21
303.5478000224451
 31
0.0
 11
111.2224148350642
 21
303.264079673974
 31
0.0
 11
111.948906864979
 21
302.9412030499681
 31
0.0
 11
112.64974244378
 21
302.5659460543593
 31
0.0
 11
113.2834643397268
 21
302.1608748416364
 31
0.0
 11
113.8818373132663
 21
301.7052847975189
 31
0.0
 11
114.4047460926915
 21
301.2299666466593
 31
0.0
 11
114.8812628643839
 21
300.7082466602265
 31
0.0
 11
115.2784990319478
 21
300.1760148005724
 31
0.0
 11
115.6176520574959
 21
299.6051261417578
 31
0.0
 11
115.8774103098502
 21
299.0303736623937
 31
0.0
 11
116.0686300796003
 21
298.429441000861
 31
0.0
 11
116.1820150771222
 21
297.8278438472759
 31
0.0
 11
116.2204941917015
 21
297.2169138356163
 31
0.0
 11
116.1820150771296
 21
296.6059839340963
 31
0.0
 11
116.0686300796003
 21
296.0043866703718
 31
0.0
 11
115.877410309827
 21
295.4034534344594
 31
0.0
 11
115.6176520574959
 21
294.8287015294747
 31
0.0
 11
115.2784990320393
 21
294.2578152237474
 31
0.0
 11
114.8812628643839
 21
293.7255810110061
 31
0.0
 11
114.4047460923172
 21
293.2038513792297
 31
0.0
 11
113.8818373132663
 21
292.7285428737137
 31
0.0
 11
113.2834643412618
 21
292.2729923912386
 31
0.0
 11
112.64974244378
 21
291.8678816168733
 31
0.0
 11
111.948906858743
 21
291.4924639012027
 31
0.0
 11
111.2224148350642
 21
291.1697479972586
 31
0.0
 11
110.4414693911185
 21
290.8866698722433
 31
0.0
 11
109.6432231142473
 21
290.6553544516288
 31
0.0
 11
108.8066703882419
 21
290.46873252278
 31
0.0
 11
107.9601502226565
 21
290.3403305675721
 31
0.0
 11
107.0938697652023
 21
290.270324399619
 31
0.0
 11
106.224335478427
 21
290.234248186396
 31
0.0
  0
SPLINE
  5
EE
330
51
100
AcDbEntity
  8
1
  6
Continuous
 62
     7
100
AcDbSpline
210
0.0
220
0.0
230
1.0
 70
    11
 71
     3
 72
    79
 73
    75
 74
    73
 42
0.000000001
 43
0.0000000001
 44
0.00000001
 40
0.0
 40
0.0
 40
0.0
 40
0.0
 40
0.8702823402253159
 40
1.739386876430539
 40
2.595589804039544
 40
3.452706020182317
 40
4.283792022086454
 40
5.114459832508892
 40
5.909403990632993
 40
6.704456806162338
 40
7.456599204132003
 40
8.208647374690678
 40
8.915295623813668
 40
9.62188607406541
 40
10.28601701691566
 40
10.95004703115958
 40
11.58077183717795
 40
12.21139541900945
 40
12.82358550886748
 40
13.4357249081436
 40
14.0478613119919
 40
14.66005450907027
 40
15.29069381753126
 40
15.92140309686321
 40
16.58537139470533
 40
17.24956179502132
 40
18.09214688476803
 40
18.93489572733485
 40
19.55101160254074
 40
20.16692902925899
 40
20.96179734202503
 40
21.75691014063934
 40
22.58782500623517
 40
23.41870615694627
 40
24.27527150866757
 40
25.13186153515974
 40
26.0017959836318
 40
26.87173099440583
 40
27.7416671216277
 40
28.61160026953993
 40
29.46818396657586
 40
30.32475615047189
 40
31.15566360746958
 40
31.98655051969575
 40
32.78155994311272
 40
33.57653687404218
 40
34.32865796021332
 40
35.08073009985747
 40
35.78738484982646
 40
36.4939681622929
 40
37.15809715941194
 40
37.82212926335553
 40
38.45285484696594
 40
39.08347760557687
 40
39.695666540914
 40
40.30780714659343
 40
40.91994764238196
 40
41.53213668604429
 40
42.16275999214822
 40
42.7934850525377
 40
43.45751513365995
 40
44.12164601686963
 40
44.82823645176504
 40
45.53488471405932
 40
46.28693288785659
 40
47.0390752832049
 40
47.83412809814556
 40
48.62907225668896
 40
49.4597400671846
 40
50.29082606905958
 40
51.14794228520605
 40
52.00414521279826
 40
52.87324974899319
 40
53.74353208923122
 40
53.74353208923122
 40
53.74353208923122
 40
53.74353208923122
 10
106.224335478427
 20
242.6983933934157
 30
0.0
 10
106.514250766403
 20
242.6882614989881
 30
0.0
 10
107.0936889830648
 20
242.6680114233056
 30
0.0
 10
107.9570909934985
 20
242.6039322928131
 30
0.0
 10
108.8088439681281
 20
242.473507547279
 30
0.0
 10
109.6369231564871
 20
242.2876499565623
 30
0.0
 10
110.4441219903245
 20
242.0546803167358
 30
0.0
 10
111.2149267071126
 20
241.7762170835191
 30
0.0
 10
111.9532086323804
 20
241.448947800124
 30
0.0
 10
112.6423859141062
 20
241.0805262313592
 30
0.0
 10
113.2892829849533
 20
240.6681098365676
 30
0.0
 10
113.8769469720135
 20
240.2219148055842
 30
0.0
 10
114.4124199329937
 20
239.7365876543165
 30
0.0
 10
114.8809505109818
 20
239.2251993572319
 30
0.0
 10
115.288117473095
 20
238.6813633796298
 30
0.0
 10
115.6232481361949
 20
238.1194033407319
 30
0.0
 10
115.8887939677672
 20
237.5336497317238
 30
0.0
 10
116.0794837628352
 20
236.93734837216
 30
0.0
 10
116.1944877308684
 20
236.3282583221996
 30
0.0
 10
116.2334964327534
 20
235.7157287942203
 30
0.0
 10
116.194489369345
 20
235.1031979722719
 30
0.0
 10
116.0794824425381
 20
234.4941031329764
 30
0.0
 10
115.888793168419
 20
233.8978003587798
 30
0.0
 10
115.6232600607076
 20
233.3120645394125
 30
0.0
 10
115.2881025030282
 20
232.7501188926127
 30
0.0
 10
114.8537434545147
 20
232.1699595237702
 30
0.0
 10
114.3179923070099
 20
231.5962443767933
 30
0.0
 10
113.7356496447482
 20
231.0947423550857
 30
0.0
 10
113.1750165999118
 20
230.6889216568666
 30
0.0
 10
112.6023504672322
 20
230.3295673099408
 30
0.0
 10
111.9531269741258
 20
229.982790308097
 30
0.0
 10
111.2148676551272
 20
229.6553432894668
 30
0.0
 10
110.4443256919701
 20
229.3759550832762
 30
0.0
 10
109.6371507602971
 20
229.1432755009828
 30
0.0
 10
108.8083158598459
 20
228.9612029913703
 30
0.0
 10
107.9568154498723
 20
228.8298038184849
 30
0.0
 10
107.0944064184658
 20
228.7506444353663
 30
0.0
 10
106.2243350778206
 20
228.7242699073626
 30
0.0
 10
105.3542643411567
 20
228.7506485292442
 30
0.0
 10
104.4918575121927
 20
228.8298054250038
 30
0.0
 10
103.6403554201573
 20
228.9611919036381
 30
0.0
 10
102.8115120712425
 20
229.1432708408258
 30
0.0
 10
102.0043461069451
 20
229.3759903595719
 30
0.0
 10
101.2338364960915
 20
229.6553510601181
 30
0.0
 10
100.4955288984191
 20
229.9826870618136
 30
0.0
 10
99.80625471824686
 20
230.3509098002827
 30
0.0
 10
99.15936891512928
 20
230.7633071761935
 30
0.0
 10
98.5717326305798
 20
231.2095427072995
 30
0.0
 10
98.03625586425869
 20
231.6948755331229
 30
0.0
 10
97.56771828601033
 20
232.2062564784335
 30
0.0
 10
97.1605523696353
 20
232.7500906467431
 30
0.0
 10
96.82542320948392
 20
233.3120519001375
 30
0.0
 10
96.55987736602364
 20
233.8978061986033
 30
0.0
 10
96.3691873017237
 20
234.4941070277703
 30
0.0
 10
96.25418265601746
 20
235.103196699294
 30
0.0
 10
96.21517434250342
 20
235.7157277150176
 30
0.0
 10
96.2541826585944
 20
236.3282587700642
 30
0.0
 10
96.36918738140491
 20
236.9373486066069
 30
0.0
 10
96.55987719976643
 20
237.5336495477209
 30
0.0
 10
96.82542274188333
 20
238.1194033051959
 30
0.0
 10
97.16055341733805
 20
238.6813634528288
 30
0.0
 10
97.56772047139924
 20
239.2251993573301
 30
0.0
 10
98.03625104259032
 20
239.7365876275259
 30
0.0
 10
98.57172397777506
 20
240.2219148082164
 30
0.0
 10
99.15938796706992
 20
240.6681098456424
 30
0.0
 10
99.80628504446733
 20
241.0805262299971
 30
0.0
 10
100.4954623256155
 20
241.448947797245
 30
0.0
 10
101.2337442493788
 20
241.7762170840267
 30
0.0
 10
102.0045489662858
 20
242.0546803176003
 30
0.0
 10
102.8117478004277
 20
242.2876499564008
 30
0.0
 10
103.6398269887714
 20
242.473507547028
 30
0.0
 10
104.49157996335
 20
242.6039322928563
 30
0.0
 10
105.3549819737815
 20
242.6680114233906
 30
0.0
 10
105.9344201904458
 20
242.6882614990164
 30
0.0
 10
106.224335478427
 20
242.6983933934157
 30
0.0
 11
106.224335478427
 21
242.6983933934157
 31
0.0
 11
107.0938697651869
 21
242.6623171801294
 31
0.0
 11
107.9601502226566
 21
242.5923110122397
 31
0.0
 11
108.8066703882872
 21
242.4639090572178
 31
0.0
 11
109.6432231142473
 21
242.277287128183
 31
0.0
 11
110.4414693909595
 21
242.0459717069151
 31
0.0
 11
111.2224148350643
 21
241.7628935825532
 31
0.0
 11
111.9489068592989
 21
241.4401776808932
 31
0.0
 11
112.6497424437801
 21
241.0647599629383
 31
0.0
 11
113.2834643393498
 21
240.659649180715
 31
0.0
 11
113.8818373132664
 21
240.2040987060979
 31
0.0
 11
114.4047460988239
 21
239.7287902273222
 31
0.0
 11
114.881262864384
 21
239.2070605688055
 31
0.0
 11
115.2784990099124
 21
238.6748262651292
 31
0.0
 11
115.6176520574959
 21
238.103940050337
 31
0.0
 11
115.8774103861429
 21
237.5291884589866
 31
0.0
 11
116.0686300796004
 21
236.92825490944
 31
0.0
 11
116.1820148056285
 21
236.3266565299297
 31
0.0
 11
116.2204941917016
 21
235.7157277441953
 31
0.0
 11
116.1820160861055
 21
235.1048018791433
 31
0.0
 11
116.0686300796004
 21
234.5032005789508
 31
0.0
 11
115.8774063875519
 21
233.9022517979905
 31
0.0
 11
115.6176520574959
 21
233.3275154380538
 31
0.0
 11
115.2785148100914
 21
232.7566916225066
 31
0.0
 11
114.881262864384
 21
232.2243949195851
 31
0.0
 11
114.3074951605366
 21
231.6073533843679
 31
0.0
 11
113.6699402172942
 21
231.0562188212375
 31
0.0
 11
113.1711671551751
 21
230.6945225335327
 31
0.0
 11
112.6497424437801
 21
230.3666955254525
 31
0.0
 11
111.9489707083376
 21
229.991549407252
 31
0.0
 11
111.2224148350643
 21
229.6685619058377
 31
0.0
 11
110.4414511489773
 21
229.3848098389752
 31
0.0
 11
109.6432231142473
 21
229.1541683602078
 31
0.0
 11
108.806675493365
 21
228.97006979874
 31
0.0
 11
107.9601502226566
 21
228.8391444761512
 31
0.0
 11
107.0938683682734
 21
228.7595097226134
 31
0.0
 11
106.224335478427
 21
228.7330620949751
 31
0.0
 11
105.3548015651224
 21
228.7595127966837
 31
0.0
 11
104.4885207341975
 21
228.8391444761512
 31
0.0
 11
103.6420004710557
 21
228.9700607649586
 31
0.0
 11
102.8054478426067
 21
229.1541683602078
 31
0.0
 11
102.0072015906538
 21
229.3848415573665
 31
0.0
 11
101.2262561217897
 21
229.6685619058377
 31
0.0
 11
100.499764091875
 21
229.9914385298437
 31
0.0
 11
99.798928513074
 21
230.3666955254525
 31
0.0
 11
99.16520661712724
 21
230.7717667381753
 31
0.0
 11
98.5668336435877
 21
231.2273567822927
 31
0.0
 11
98.04392486416246
 21
231.7026749331523
 31
0.0
 11
97.56740809247
 21
232.2243949195851
 31
0.0
 11
97.17017192490617
 21
232.7566267792393
 31
0.0
 11
96.8310188993581
 21
233.3275154380538
 31
0.0
 11
96.57126064700385
 21
233.902267917418
 31
0.0
 11
96.3800408772537
 21
234.5032005789508
 31
0.0
 11
96.26665587973173
 21
235.1047977325359
 31
0.0
 11
96.22817676515241
 21
235.7157277441953
 31
0.0
 11
96.2666558797243
 21
236.3266576457154
 31
0.0
 11
96.3800408772537
 21
236.92825490944
 31
0.0
 11
96.57126064702702
 21
237.5291881453523
 31
0.0
 11
96.8310188993581
 21
238.103940050337
 31
0.0
 11
97.17017192481468
 21
238.6748263560643
 31
0.0
 11
97.5674080924701
 21
239.2070605688055
 31
0.0
 11
98.04392486453685
 21
239.728790200582
 31
0.0
 11
98.5668336435877
 21
240.2040987060979
 31
0.0
 11
99.1652066155922
 21
240.6596491885731
 31
0.0
 11
99.798928513074
 21
241.0647599629383
 31
0.0
 11
100.499764098111
 21
241.440177678609
 31
0.0
 11
101.2262561217897
 21
241.7628935825532
 31
0.0
 11
102.0072015657355
 21
242.0459717075685
 31
0.0
 11
102.8054478426067
 21
242.277287128183
 31
0.0
 11
103.642000568612
 21
242.4639090570318
 31
0.0
 11
104.4885207341975
 21
242.5923110122397
 31
0.0
 11
105.3548011916517
 21
242.6623171801927
 31
0.0
 11
106.224335478427
 21
242.6983933934157
 31
0.0
  0
SPLINE
  5
EF
330
51
100
AcDbEntity
  8
1
  6
Continuous
 62
     7
100
AcDbSpline
210
0.0
220
0.0
230
1.0
 70
     8
 71
     3
 72
    43
 73
    39
 74
    37
 42
0.000000001
 43
0.0000000001
 44
0.00000001
 40
0.0
 40
0.0
 40
0.0
 40
0.0
 40
0.6208001892624558
 40
1.238128262783852
 40
1.874506879773863
 40
2.513823931516868
 40
3.184263268623121
 40
3.853520789523027
 40
4.564357964063346
 40
5.275733783613852
 40
6.031006967036137
 40
6.786203664210274
 40
7.638077807442336
 40
8.490038811447334
 40
9.267017147190293
 40
10.04395425078216
 40
10.93289345197622
 40
11.82189568440222
 40
12.65988334357262
 40
13.497839504345
 40
14.36781385307947
 40
15.23781163661904
 40
16.0947802629039
 40
16.95172644933152
 40
17.78364965349436
 40
18.61556938637544
 40
19.41256651849711
 40
20.20947901516861
 40
20.9646572084221
 40
21.71994960900356
 40
22.43133028027917
 40
23.14216248262389
 40
23.81141876313274
 40
24.4818593480815
 40
25.12117671512321
 40
25.75755502331058
 40
26.37488300180026
 40
26.99568328307877
 40
26.99568328307877
 40
26.99568328307877
 40
26.99568328307877
 10
116.2204941917016
 20
235.0086209630086
 30
0.0
 10
116.2055142824414
 20
234.8022390488325
 30
0.0
 10
116.1756382330555
 20
234.3906295090879
 30
0.0
 10
116.0831041304628
 20
233.7710393395215
 30
0.0
 10
115.8936609141694
 20
233.1665443458484
 30
0.0
 10
115.6227951469083
 20
232.5757687513606
 30
0.0
 10
115.2872671779761
 20
232.006448236671
 30
0.0
 10
114.8815018759959
 20
231.4549887653262
 30
0.0
 10
114.4130728798795
 20
230.9370892851996
 30
0.0
 10
113.8774500235181
 20
230.4458889796766
 30
0.0
 10
113.2896349398343
 20
229.9938450499288
 30
0.0
 10
112.627482681896
 20
229.5662034460663
 30
0.0
 10
111.9047034384897
 20
229.1776309295915
 30
0.0
 10
111.1471183541576
 20
228.8441691007295
 30
0.0
 10
110.391901529073
 20
228.5727497993676
 30
0.0
 10
109.6092773781751
 20
228.3460811758108
 30
0.0
 10
108.7771085644172
 20
228.1620196294581
 30
0.0
 10
107.9145130681072
 20
228.0303142481545
 30
0.0
 10
107.0624276120219
 20
227.9540655735774
 30
0.0
 10
106.2136634442778
 20
227.9289769183434
 30
0.0
 10
105.3542134673206
 20
227.9553712241195
 30
0.0
 10
104.4917233857947
 20
228.0355347947112
 30
0.0
 10
103.6401900996381
 20
228.1686014529085
 30
0.0
 10
102.8112442416337
 20
228.3530208629712
 30
0.0
 10
102.0040856062372
 20
228.5887128030042
 30
0.0
 10
101.2334448387982
 20
228.8716775276699
 30
0.0
 10
100.4951654715257
 20
229.2031633017361
 30
0.0
 10
99.8057881801004
 20
229.5761377878097
 30
0.0
 10
99.15903325304643
 20
229.9938333465109
 30
0.0
 10
98.57122602790994
 20
230.445887172461
 30
0.0
 10
98.03559794702379
 20
230.9370914991493
 30
0.0
 10
97.56716813408119
 20
231.4549895637321
 30
0.0
 10
97.16140396877121
 20
232.0064478810155
 30
0.0
 10
96.82587596057434
 20
232.5757684728039
 30
0.0
 10
96.55500992552427
 20
233.166544414115
 30
0.0
 10
96.3655668242687
 20
233.7710394155377
 30
0.0
 10
96.27303278581456
 20
234.3906294842328
 30
0.0
 10
96.24315669662644
 20
234.8022390198226
 30
0.0
 10
96.22817676515241
 20
235.0086209630086
 30
0.0
 11
116.2204941917016
 21
235.0086209630086
 31
0.0
 11
116.1676997046125
 21
234.3900697338127
 31
0.0
 11
116.0686300796004
 21
233.780742923319
 31
0.0
 11
115.8815402180817
 21
233.1724871127074
 31
0.0
 11
115.6176520574959
 21
232.590173336529
 31
0.0
 11
115.277558390433
 21
232.0123972519105
 31
0.0
 11
114.881262864384
 21
231.473087057076
 31
0.0
 11
114.4053733308707
 21
230.9450542538123
 31
0.0
 11
113.8818373132664
 21
230.4634261862883
 31
0.0
 11
113.2836730495953
 21
230.0023002862583
 31
0.0
 11
112.6497424437801
 21
229.5918687588117
 31
0.0
 11
111.8998525271955
 21
229.187697175048
 31
0.0
 11
111.1204206039672
 21
228.8437154467299
 31
0.0
 11
110.3893758774755
 21
228.5805255117139
 31
0.0
 11
109.6432231142473
 21
228.363990719122
 31
0.0
 11
108.7753380687535
 21
228.1716669034433
 31
0.0
 11
107.8965668535443
 21
228.0371822625113
 31
0.0
 11
107.0619234372555
 21
227.962391339923
 31
0.0
 11
106.224335478427
 21
227.9375531511434
 31
0.0
 11
105.3547737595244
 21
227.9643445914042
 31
0.0
 11
104.4885207341975
 21
228.0449785598087
 31
0.0
 11
103.6418725207005
 21
228.1775757968367
 31
0.0
 11
102.8054478426067
 21
228.363990719122
 31
0.0
 11
102.0070125076737
 21
228.5976512272048
 31
0.0
 11
101.2262561217897
 21
228.8848966060508
 31
0.0
 11
100.499473646339
 21
229.2119924055085
 31
0.0
 11
99.798928513074
 21
229.5918687588117
 31
0.0
 11
99.16500830459631
 21
230.0022822979865
 31
0.0
 11
98.5668336435877
 21
230.4634261862883
 31
0.0
 11
98.04329508219207
 21
230.9450586547858
 31
0.0
 11
97.56740809247
 21
231.473087057076
 31
0.0
 11
97.17111319089351
 21
232.0123961715204
 31
0.0
 11
96.8310188993581
 21
232.590173336529
 31
0.0
 11
96.56713058021857
 21
233.172487387019
 31
0.0
 11
96.3800408772537
 21
233.780742923319
 31
0.0
 11
96.2809713031112
 21
234.3900696458039
 31
0.0
 11
96.22817676515241
 21
235.0086209630086
 31
0.0
  0
ENDBLK
  5
53
330
51
100
AcDbEntity
  8
0
100
AcDbBlockEnd
  0
BLOCK
  5
55
330
54
100
AcDbEntity
  8
0
100
AcDbBlockBegin
  2
38-134-M1
 70
     0
 10
292.7643104025775
 20
244.5740171654183
 30
0.0
  3
38-134-M1
  1

  0
LINE
  5
F0
330
54
100
AcDbEntity
  8
1
  6
Continuous
 62
     7
100
AcDbLine
 10
229.224335478427
 20
203.1680005294429
 30
0.0
 11
229.224335478427
 21
179.1680005294429
 31
0.0
  0
LINE
  5
F1
330
54
100
AcDbEntity
  8
1
  6
Continuous
 62
     7
100
AcDbLine
 10
256.724335478427
 20
170.1680005294429
 30
0.0
 11
256.724335478427
 21
191.1680005294429
 31
0.0
  0
LINE
  5
F2
330
54
100
AcDbEntity
  8
1
  6
Continuous
 62
     7
100
AcDbLine
 10
256.724335478427
 20
212.1680005294429
 30
0.0
 11
256.724335478427
 21
191.1680005294429
 31
0.0
  0
LINE
  5
F3
330
54
100
AcDbEntity
  8
0
  6
Continuous
 62
     7
100
AcDbLine
 10
244.724335478427
 20
179.1680005294429
 30
0.0
 11
229.224335478427
 21
179.1680005294429
 31
0.0
  0
LINE
  5
F4
330
54
100
AcDbEntity
  8
0
  6
Continuous
 62
     7
100
AcDbLine
 10
246.724335478427
 20
174.1680005294429
 30
0.0
 11
246.724335478427
 21
191.1680005294429
 31
0.0
  0
LINE
  5
F5
330
54
100
AcDbEntity
  8
0
  6
Continuous
 62
     7
100
AcDbLine
 10
256.724335478427
 20
168.1680005294429
 30
0.0
 11
252.724335478427
 21
168.1680005294429
 31
0.0
  0
LINE
  5
F6
330
54
100
AcDbEntity
  8
0
  6
Continuous
 62
     7
100
AcDbLine
 10
256.724335478427
 20
170.1680005294429
 30
0.0
 11
256.724335478427
 21
168.1680005294429
 31
0.0
  0
LINE
  5
F7
330
54
100
AcDbEntity
  8
0
  6
Continuous
 62
     7
100
AcDbLine
 10
228.724335478427
 20
179.6680005294429
 30
0.0
 11
229.224335478427
 21
179.1680005294429
 31
0.0
  0
LINE
  5
F8
330
54
100
AcDbEntity
  8
0
  6
Continuous
 62
     7
100
AcDbLine
 10
228.724335478427
 20
179.6680005294429
 30
0.0
 11
228.724335478427
 21
191.1680005294429
 31
0.0
  0
LINE
  5
F9
330
54
100
AcDbEntity
  8
0
  6
Continuous
 62
     7
100
AcDbLine
 10
229.224335478427
 20
203.1680005294429
 30
0.0
 11
244.724335478427
 21
203.1680005294429
 31
0.0
  0
LINE
  5
FA
330
54
100
AcDbEntity
  8
0
  6
Continuous
 62
     7
100
AcDbLine
 10
246.724335478427
 20
191.1680005294429
 30
0.0
 11
246.724335478427
 21
208.1680005294429
 31
0.0
  0
LINE
  5
FB
330
54
100
AcDbEntity
  8
0
  6
Continuous
 62
     7
100
AcDbLine
 10
252.724335478427
 20
214.1680005294429
 30
0.0
 11
256.724335478427
 21
214.1680005294429
 31
0.0
  0
LINE
  5
FC
330
54
100
AcDbEntity
  8
0
  6
Continuous
 62
     7
100
AcDbLine
 10
256.724335478427
 20
214.1680005294429
 30
0.0
 11
256.724335478427
 21
212.1680005294429
 31
0.0
  0
LINE
  5
FD
330
54
100
AcDbEntity
  8
0
  6
Continuous
 62
     7
100
AcDbLine
 10
229.224335478427
 20
203.1680005294429
 30
0.0
 11
228.724335478427
 21
202.6680005294429
 31
0.0
  0
LINE
  5
FE
330
54
100
AcDbEntity
  8
0
  6
Continuous
 62
     7
100
AcDbLine
 10
228.724335478427
 20
191.1680005294429
 30
0.0
 11
228.724335478427
 21
202.6680005294429
 31
0.0
  0
LINE
  5
FF
330
54
100
AcDbEntity
  8
0
  6
Continuous
 62
     7
100
AcDbLine
 10
106.2243354784269
 20
355.2646410503687
 30
0.0
 11
94.72433547842691
 21
355.2646410503687
 31
0.0
  0
LINE
  5
100
330
54
100
AcDbEntity
  8
0
  6
Continuous
 62
     7
100
AcDbLine
 10
94.22433547842691
 20
355.7646410503687
 30
0.0
 11
94.72433547842691
 21
355.2646410503687
 31
0.0
  0
LINE
  5
101
330
54
100
AcDbEntity
  8
0
  6
Continuous
 62
     7
100
AcDbLine
 10
83.2243354784269
 20
383.2646410503687
 30
0.0
 11
85.2243354784269
 21
383.2646410503687
 31
0.0
  0
LINE
  5
102
330
54
100
AcDbEntity
  8
0
  6
Continuous
 62
     7
100
AcDbLine
 10
83.2243354784269
 20
379.2646410503687
 30
0.0
 11
83.2243354784269
 21
383.2646410503687
 31
0.0
  0
LINE
  5
103
330
54
100
AcDbEntity
  8
0
  6
Continuous
 62
     7
100
AcDbLine
 10
106.2243354784269
 20
373.2646410503687
 30
0.0
 11
89.2243354784269
 21
373.2646410503687
 31
0.0
  0
LINE
  5
104
330
54
100
AcDbEntity
  8
0
  6
Continuous
 62
     7
100
AcDbLine
 10
94.22433547842691
 20
355.7646410503687
 30
0.0
 11
94.22433547842691
 21
371.2646410503687
 31
0.0
  0
LINE
  5
105
330
54
100
AcDbEntity
  8
0
  6
Continuous
 62
     7
100
AcDbLine
 10
117.7243354784269
 20
355.2646410503687
 30
0.0
 11
106.2243354784269
 21
355.2646410503687
 31
0.0
  0
LINE
  5
106
330
54
100
AcDbEntity
  8
0
  6
Continuous
 62
     7
100
AcDbLine
 10
117.7243354784269
 20
355.2646410503687
 30
0.0
 11
118.2243354784269
 21
355.7646410503687
 31
0.0
  0
LINE
  5
107
330
54
100
AcDbEntity
  8
0
  6
Continuous
 62
     7
100
AcDbLine
 10
127.2243354784269
 20
383.2646410503687
 30
0.0
 11
129.2243354784269
 21
383.2646410503687
 31
0.0
  0
LINE
  5
108
330
54
100
AcDbEntity
  8
0
  6
Continuous
 62
     7
100
AcDbLine
 10
129.2243354784269
 20
383.2646410503687
 30
0.0
 11
129.2243354784269
 21
379.2646410503687
 31
0.0
  0
LINE
  5
109
330
54
100
AcDbEntity
  8
0
  6
Continuous
 62
     7
100
AcDbLine
 10
123.2243354784269
 20
373.2646410503687
 30
0.0
 11
106.2243354784269
 21
373.2646410503687
 31
0.0
  0
LINE
  5
10A
330
54
100
AcDbEntity
  8
0
  6
Continuous
 62
     7
100
AcDbLine
 10
118.2243354784269
 20
371.2646410503687
 30
0.0
 11
118.2243354784269
 21
355.7646410503687
 31
0.0
  0
LINE
  5
10B
330
54
100
AcDbEntity
  8
1
  6
Continuous
 62
     7
100
AcDbLine
 10
85.2243354784269
 20
383.2646410503687
 30
0.0
 11
106.2243354784269
 21
383.2646410503687
 31
0.0
  0
LINE
  5
10C
330
54
100
AcDbEntity
  8
1
  6
Continuous
 62
     7
100
AcDbLine
 10
127.2243354784269
 20
383.2646410503687
 30
0.0
 11
106.2243354784269
 21
383.2646410503687
 31
0.0
  0
LINE
  5
10D
330
54
100
AcDbEntity
  8
1
  6
Continuous
 62
     7
100
AcDbLine
 10
94.22433547842691
 20
355.7646410503687
 30
0.0
 11
118.2243354784269
 21
355.7646410503687
 31
0.0
  0
ARC
  5
10E
330
54
100
AcDbEntity
  8
1
  6
Continuous
 62
     7
100
AcDbCircle
 10
106.224335478427
 20
191.1680005294429
 30
0.0
 40
11.49999999999997
100
AcDbArc
 50
180.7569316595085
 51
202.2322224435613
  0
ARC
  5
10F
330
54
100
AcDbEntity
  8
1
  6
Continuous
 62
     7
100
AcDbCircle
 10
106.224335478427
 20
191.1680005294429
 30
0.0
 40
11.49999999999999
100
AcDbArc
 50
337.7677775564393
 51
359.2430683404905
  0
ARC
  5
110
330
54
100
AcDbEntity
  8
1
  6
Continuous
 62
     7
100
AcDbCircle
 10
106.224335478427
 20
191.1680005294429
 30
0.0
 40
11.99999999999999
100
AcDbArc
 50
331.3564035283597
 51
0.0
  0
ARC
  5
111
330
54
100
AcDbEntity
  8
1
  6
Continuous
 62
     7
100
AcDbCircle
 10
106.224335478427
 20
191.1680005294429
 30
0.0
 40
11.99999999999998
100
AcDbArc
 50
174.3455576314294
 51
208.643596471641
  0
ARC
  5
112
330
54
100
AcDbEntity
  8
1
  6
Continuous
 62
     7
100
AcDbCircle
 10
106.224335478427
 20
191.1680005294429
 30
0.0
 40
12.0
100
AcDbArc
 50
0.0
 51
5.65444236857054
  0
ARC
  5
113
330
54
100
AcDbEntity
  8
1
  6
Continuous
 62
     7
100
AcDbCircle
 10
106.224335478427
 20
191.1680005294429
 30
0.0
 40
23.0
100
AcDbArc
 50
151.0746582198804
 51
242.900091971344
  0
ARC
  5
114
330
54
100
AcDbEntity
  8
1
  6
Continuous
 62
     7
100
AcDbCircle
 10
106.224335478427
 20
191.1680005294429
 30
0.0
 40
23.0
100
AcDbArc
 50
297.099908028656
 51
0.0
  0
ARC
  5
115
330
54
100
AcDbEntity
  8
1
  6
Continuous
 62
     7
100
AcDbCircle
 10
106.224335478427
 20
191.1680005294429
 30
0.0
 40
23.00000000000001
100
AcDbArc
 50
0.0
 51
28.92527612915671
  0
ARC
  5
116
330
54
100
AcDbEntity
  8
0
  6
Continuous
 62
     7
100
AcDbCircle
 10
252.724335478427
 20
174.1680005294429
 30
0.0
 40
6.0
100
AcDbArc
 50
180.0
 51
270.0
  0
ARC
  5
117
330
54
100
AcDbEntity
  8
0
  6
Continuous
 62
     7
100
AcDbCircle
 10
244.724335478427
 20
177.1680005294429
 30
0.0
 40
2.0
100
AcDbArc
 50
0.0
 51
90.0
  0
ARC
  5
118
330
54
100
AcDbEntity
  8
0
  6
Continuous
 62
     7
100
AcDbCircle
 10
252.724335478427
 20
208.1680005294429
 30
0.0
 40
6.0
100
AcDbArc
 50
90.0
 51
180.0
  0
ARC
  5
119
330
54
100
AcDbEntity
  8
0
  6
Continuous
 62
     7
100
AcDbCircle
 10
244.724335478427
 20
205.1680005294429
 30
0.0
 40
2.0
100
AcDbArc
 50
270.0
 51
0.0
  0
ARC
  5
11A
330
54
100
AcDbEntity
  8
0
  6
Continuous
 62
     7
100
AcDbCircle
 10
92.2243354784269
 20
371.2646410503687
 30
0.0
 40
2.000000000000014
100
AcDbArc
 50
0.0
 51
90.0
  0
ARC
  5
11B
330
54
100
AcDbEntity
  8
0
  6
Continuous
 62
     7
100
AcDbCircle
 10
89.2243354784269
 20
379.2646410503687
 30
0.0
 40
6.0
100
AcDbArc
 50
180.0
 51
270.0
  0
ARC
  5
11C
330
54
100
AcDbEntity
  8
0
  6
Continuous
 62
     7
100
AcDbCircle
 10
120.2243354784269
 20
371.2646410503687
 30
0.0
 40
2.0
100
AcDbArc
 50
90.0
 51
180.0
  0
ARC
  5
11D
330
54
100
AcDbEntity
  8
0
  6
Continuous
 62
     7
100
AcDbCircle
 10
123.2243354784269
 20
379.2646410503687
 30
0.0
 40
6.0
100
AcDbArc
 50
270.0
 51
0.0
  0
ENDBLK
  5
56
330
54
100
AcDbEntity
  8
0
100
AcDbBlockEnd
  0
BLOCK
  5
58
330
57
100
AcDbEntity
  8
0
100
AcDbBlockBegin
  2
81-93AK
 70
     0
 10
225.2322688658748
 20
99.97416009275508
 30
0.0
  3
81-93AK
  1

  0
LINE
  5
11E
330
57
100
AcDbEntity
  8
1
  6
PHANTOM
 62
     4
100
AcDbLine
 10
203.2243354784271
 20
105.7147611044249
 30
0.0
 11
203.2243354784271
 21
114.8866751669374
 31
0.0
  0
LINE
  5
11F
330
57
100
AcDbEntity
  8
0
  6
Continuous
 62
     7
100
AcDbLine
 10
200.524335478427
 20
111.6302592852366
 30
0.0
 11
200.524335478427
 21
104.6497902852366
 31
0.0
  0
LINE
  5
120
330
57
100
AcDbEntity
  8
0
  6
Continuous
 62
     7
100
AcDbLine
 10
208.4035804784271
 20
104.1258932852367
 30
0.0
 11
210.774335478427
 21
104.1258932852367
 31
0.0
  0
LINE
  5
121
330
57
100
AcDbEntity
  8
0
  6
Continuous
 62
     7
100
AcDbLine
 10
204.774335478427
 20
101.1258932852367
 30
0.0
 11
209.774335478427
 21
102.5758932852365
 31
0.0
  0
LINE
  5
122
330
57
100
AcDbEntity
  8
0
  6
Continuous
 62
     7
100
AcDbLine
 10
210.4743354784271
 20
102.5758932852365
 30
0.0
 11
209.774335478427
 21
102.5758932852365
 31
0.0
  0
LINE
  5
123
330
57
100
AcDbEntity
  8
0
  6
Continuous
 62
     7
100
AcDbLine
 10
210.774335478427
 20
104.1258932852367
 30
0.0
 11
210.774335478427
 21
102.8758932852367
 31
0.0
  0
LINE
  5
124
330
57
100
AcDbEntity
  8
0
  6
Continuous
 62
     7
100
AcDbLine
 10
203.8163964784271
 20
101.1258932852367
 30
0.0
 11
200.524335478427
 21
104.6497902852366
 31
0.0
  0
LINE
  5
125
330
57
100
AcDbEntity
  8
0
  6
Continuous
 62
     7
100
AcDbLine
 10
208.4035804784271
 20
104.1258932852367
 30
0.0
 11
207.3514374784271
 21
105.2521302852367
 31
0.0
  0
LINE
  5
126
330
57
100
AcDbEntity
  8
0
  6
Continuous
 62
     7
100
AcDbLine
 10
204.774335478427
 20
101.1258932852367
 30
0.0
 11
203.8163964784271
 21
101.1258932852367
 31
0.0
  0
LINE
  5
127
330
57
100
AcDbEntity
  8
0
  6
Continuous
 62
     7
100
AcDbLine
 10
205.9243354784271
 20
108.8702322852366
 30
0.0
 11
205.9243354784271
 21
111.6302592852366
 31
0.0
  0
LINE
  5
128
330
57
100
AcDbEntity
  8
0
  6
Continuous
 62
     7
100
AcDbLine
 10
203.7243354784271
 20
111.6302592852366
 30
0.0
 11
203.7243354784271
 21
105.911978059222
 31
0.0
  0
LINE
  5
129
330
57
100
AcDbEntity
  8
0
  6
Continuous
 62
     7
100
AcDbLine
 10
202.7243354784271
 20
111.6302592852366
 30
0.0
 11
202.7243354784271
 21
105.5175441496277
 31
0.0
  0
LINE
  5
12A
330
57
100
AcDbEntity
  8
0
  6
Continuous
 62
     7
100
AcDbLine
 10
201.4243354784269
 20
111.6302592852366
 30
0.0
 11
201.4243354784269
 21
105.0047800671554
 31
0.0
  0
LINE
  5
12B
330
57
100
AcDbEntity
  8
0
  6
PHANTOM
 62
     4
100
AcDbLine
 10
207.50742827936
 20
101.1300420499052
 30
0.0
 11
203.2243354784271
 21
105.7147611044249
 31
0.0
  0
LINE
  5
12C
330
57
100
AcDbEntity
  8
0
  6
Continuous
 62
     7
100
AcDbLine
 10
209.774335478427
 20
102.5758932852365
 30
0.0
 11
209.774335478427
 21
104.1258932852367
 31
0.0
  0
LINE
  5
12D
330
57
100
AcDbEntity
  8
0
  6
Continuous
 62
     7
100
AcDbLine
 10
209.774335478427
 20
103.9258932852367
 30
0.0
 11
207.3587863838021
 21
103.9258932852367
 31
0.0
  0
LINE
  5
12E
330
57
100
AcDbEntity
  8
0
  6
Continuous
 62
     7
100
AcDbLine
 10
207.3587863838021
 20
103.9258932852367
 30
0.0
 11
207.4456411405949
 21
104.1258932852367
 31
0.0
  0
LINE
  5
12F
330
57
100
AcDbEntity
  8
0
  6
Continuous
 62
     7
100
AcDbLine
 10
207.3587863838021
 20
103.9258932852367
 30
0.0
 11
206.6399227709277
 21
104.6953810962008
 31
0.0
  0
LINE
  5
130
330
57
100
AcDbEntity
  8
0
  6
Continuous
 62
     7
100
AcDbLine
 10
207.4456411405949
 20
104.1258932852367
 30
0.0
 11
206.8399227709278
 21
104.7742678781198
 31
0.0
  0
LINE
  5
131
330
57
100
AcDbEntity
  8
0
  6
Continuous
 62
     7
100
AcDbLine
 10
205.2243354784271
 20
108.8702323811787
 30
0.0
 11
205.2243354784272
 21
111.6302592852366
 31
0.0
  0
LINE
  5
132
330
57
100
AcDbEntity
  8
0
  6
Continuous
 62
     7
100
AcDbLine
 10
205.0243354784269
 20
108.8702323811787
 30
0.0
 11
205.0243354784273
 21
111.6302592852366
 31
0.0
  0
LINE
  5
133
330
57
100
AcDbEntity
  8
0
  6
Continuous
 62
     7
100
AcDbLine
 10
205.6188025124702
 20
102.4192414089623
 30
0.0
 11
206.34953796372
 21
103.1019021594719
 31
0.0
  0
LINE
  5
134
330
57
100
AcDbEntity
  8
0
  6
Continuous
 62
     7
100
AcDbLine
 10
206.34953796372
 20
103.1019021594719
 30
0.0
 11
203.7243354784271
 21
105.911978059222
 31
0.0
  0
LINE
  5
135
330
57
100
AcDbEntity
  8
0
  6
Continuous
 62
     7
100
AcDbLine
 10
205.6188025124702
 20
102.4192414089623
 30
0.0
 11
202.7243354784271
 21
105.5175441496277
 31
0.0
  0
LINE
  5
136
330
57
100
AcDbEntity
  8
0
  6
Continuous
 62
     7
100
AcDbLine
 10
204.9896886362718
 20
101.1883457010117
 30
0.0
 11
201.4243354784269
 21
105.0047800671554
 31
0.0
  0
LINE
  5
137
330
57
100
AcDbEntity
  8
0
  6
Continuous
 62
     7
100
AcDbLine
 10
204.774335478427
 20
101.1258932852367
 30
0.0
 11
201.224335478427
 21
104.9258932852367
 31
0.0
  0
LINE
  5
138
330
57
100
AcDbEntity
  8
0
  6
Continuous
 62
     7
100
AcDbLine
 10
201.224335478427
 20
104.9258932852367
 30
0.0
 11
201.4243354784269
 21
105.0047800671554
 31
0.0
  0
LINE
  5
139
330
57
100
AcDbEntity
  8
0
  6
Continuous
 62
     7
100
AcDbLine
 10
201.224335478427
 20
104.9258932852367
 30
0.0
 11
201.224335478427
 21
111.6302592852366
 31
0.0
  0
LINE
  5
13A
330
57
100
AcDbEntity
  8
0
  6
Continuous
 62
     7
100
AcDbLine
 10
207.4456411405949
 20
104.1258932852367
 30
0.0
 11
210.774335478427
 21
104.1258932852367
 31
0.0
  0
ARC
  5
13B
330
57
100
AcDbEntity
  8
0
  6
Continuous
 62
     7
100
AcDbCircle
 10
211.2243354784271
 20
108.8702322852366
 30
0.0
 40
5.299999999999983
100
AcDbArc
 50
180.0
 51
223.0519149999991
  0
ARC
  5
13C
330
57
100
AcDbEntity
  8
0
  6
Continuous
 62
     7
100
AcDbCircle
 10
210.4743354784271
 20
102.8758932852367
 30
0.0
 40
0.3000000000001961
100
AcDbArc
 50
270.0
 51
0.0
  0
ARC
  5
13D
330
57
100
AcDbEntity
  8
1
  6
Continuous
 62
     7
100
AcDbCircle
 10
211.2243354784271
 20
108.8702323811787
 30
0.0
 40
6.200000000000188
100
AcDbArc
 50
180.0
 51
223.0519149934889
  0
ARC
  5
13E
330
57
100
AcDbEntity
  8
1
  6
Continuous
 62
     7
100
AcDbCircle
 10
211.2243354784271
 20
108.8702323811787
 30
0.0
 40
6.0
100
AcDbArc
 50
180.0
 51
223.0519149934875
  0
ENDBLK
  5
59
330
57
100
AcDbEntity
  8
0
100
AcDbBlockEnd
  0
BLOCK
  5
5B
330
5A
100
AcDbEntity
  8
0
100
AcDbBlockBegin
  2
T3360-H1AK
 70
     0
 10
195.9322688658747
 20
-88.3697407147633
 30
0.0
  3
T3360-H1AK
  1

  0
LINE
  5
13F
330
5A
100
AcDbEntity
  8
0
  6
Continuous
 62
     7
100
AcDbLine
 10
113.0743354784272
 20
111.6302592852366
 30
0.0
 11
99.37433547842716
 21
111.6302592852366
 31
0.0
  0
LINE
  5
140
330
5A
100
AcDbEntity
  8
0
  6
Continuous
 62
     7
100
AcDbLine
 10
96.72433547842707
 20
134.6302592852366
 30
0.0
 11
96.72433547842707
 21
154.1302592852366
 31
0.0
  0
LINE
  5
141
330
5A
100
AcDbEntity
  8
0
  6
Continuous
 62
     7
100
AcDbLine
 10
106.2243354784271
 20
134.1302592852366
 30
0.0
 11
84.72433547842707
 21
134.1302592852366
 31
0.0
  0
LINE
  5
142
330
5A
100
AcDbEntity
  8
0
  6
Continuous
 62
     7
100
AcDbLine
 10
84.22433547842707
 20
132.8802592852366
 30
0.0
 11
84.22433547842707
 21
133.6302592852366
 31
0.0
  0
LINE
  5
143
330
5A
100
AcDbEntity
  8
0
  6
Continuous
 62
     7
100
AcDbLine
 10
97.8243354784272
 20
130.0586854099843
 30
0.0
 11
97.8243354784272
 21
131.3302592852367
 31
0.0
  0
LINE
  5
144
330
5A
100
AcDbEntity
  8
0
  6
Continuous
 62
     7
100
AcDbLine
 10
98.37433547842716
 20
122.6302592852366
 30
0.0
 11
98.37433547842716
 21
112.6302592852366
 31
0.0
  0
LINE
  5
145
330
5A
100
AcDbEntity
  8
0
  6
Continuous
 62
     7
100
AcDbLine
 10
114.0743354784272
 20
122.6302592852366
 30
0.0
 11
114.0743354784272
 21
112.6302592852366
 31
0.0
  0
LINE
  5
146
330
5A
100
AcDbEntity
  8
0
  6
Continuous
 62
     7
100
AcDbLine
 10
126.974335478427
 20
131.6302592852366
 30
0.0
 11
114.9243354784272
 21
131.6302592852367
 31
0.0
  0
LINE
  5
147
330
5A
100
AcDbEntity
  8
0
  6
Continuous
 62
     7
100
AcDbLine
 10
106.2243354784271
 20
134.1302592852366
 30
0.0
 11
127.724335478427
 21
134.1302592852366
 31
0.0
  0
LINE
  5
148
330
5A
100
AcDbEntity
  8
0
  6
Continuous
 62
     7
100
AcDbLine
 10
99.42433547842711
 20
125.6302592852366
 30
0.0
 11
97.8243354784272
 21
124.0302592852364
 31
0.0
  0
LINE
  5
149
330
5A
100
AcDbEntity
  8
0
  6
Continuous
 62
     7
100
AcDbLine
 10
99.42433547842711
 20
127.6302592852366
 30
0.0
 11
98.4101226132517
 21
128.6444711504133
 31
0.0
  0
LINE
  5
14A
330
5A
100
AcDbEntity
  8
0
  6
Continuous
 62
     7
100
AcDbLine
 10
106.2243354784271
 20
129.1802592852366
 30
0.0
 11
98.3243354784272
 21
129.1802592852366
 31
0.0
  0
LINE
  5
14B
330
5A
100
AcDbEntity
  8
0
  6
Continuous
 62
     7
100
AcDbLine
 10
106.2243354784271
 20
124.0302592852364
 30
0.0
 11
97.8243354784272
 21
124.0302592852364
 31
0.0
  0
LINE
  5
14C
330
5A
100
AcDbEntity
  8
0
  6
Continuous
 62
     7
100
AcDbLine
 10
106.2243354784271
 20
122.6302592852366
 30
0.0
 11
98.37433547842716
 21
122.6302592852366
 31
0.0
  0
LINE
  5
14D
330
5A
100
AcDbEntity
  8
0
  6
Continuous
 62
     7
100
AcDbLine
 10
106.2243354784271
 20
123.1302592852367
 30
0.0
 11
97.8243354784272
 21
123.1302592852367
 31
0.0
  0
LINE
  5
14E
330
5A
100
AcDbEntity
  8
0
  6
Continuous
 62
     7
100
AcDbLine
 10
106.2243354784271
 20
122.6302592852366
 30
0.0
 11
98.37433547842716
 21
122.6302592852366
 31
0.0
  0
LINE
  5
14F
330
5A
100
AcDbEntity
  8
0
  6
Continuous
 62
     7
100
AcDbLine
 10
97.8243354784272
 20
123.1302592852367
 30
0.0
 11
97.8243354784272
 21
124.0302592852364
 31
0.0
  0
LINE
  5
150
330
5A
100
AcDbEntity
  8
0
  6
Continuous
 62
     7
100
AcDbLine
 10
97.8243354784272
 20
123.1302592852367
 30
0.0
 11
98.37433547842716
 21
122.6302592852366
 31
0.0
  0
LINE
  5
151
330
5A
100
AcDbEntity
  8
0
  6
Continuous
 62
     7
100
AcDbLine
 10
114.6243354784272
 20
123.1302592852367
 30
0.0
 11
114.6243354784272
 21
124.0302592852364
 31
0.0
  0
LINE
  5
152
330
5A
100
AcDbEntity
  8
0
  6
Continuous
 62
     7
100
AcDbLine
 10
106.2243354784271
 20
123.1302592852367
 30
0.0
 11
114.6243354784272
 21
123.1302592852367
 31
0.0
  0
LINE
  5
153
330
5A
100
AcDbEntity
  8
0
  6
Continuous
 62
     7
100
AcDbLine
 10
106.2243354784271
 20
122.6302592852366
 30
0.0
 11
114.0743354784272
 21
122.6302592852366
 31
0.0
  0
LINE
  5
154
330
5A
100
AcDbEntity
  8
0
  6
Continuous
 62
     7
100
AcDbLine
 10
114.6243354784272
 20
123.1302592852367
 30
0.0
 11
114.0743354784272
 21
122.6302592852366
 31
0.0
  0
LINE
  5
155
330
5A
100
AcDbEntity
  8
0
  6
Continuous
 62
     7
100
AcDbLine
 10
106.2243354784271
 20
124.0302592852364
 30
0.0
 11
114.6243354784272
 21
124.0302592852364
 31
0.0
  0
LINE
  5
156
330
5A
100
AcDbEntity
  8
0
  6
Continuous
 62
     7
100
AcDbLine
 10
106.2243354784271
 20
129.1802592852366
 30
0.0
 11
114.1243354784269
 21
129.1802592852366
 31
0.0
  0
LINE
  5
157
330
5A
100
AcDbEntity
  8
0
  6
Continuous
 62
     7
100
AcDbLine
 10
106.2243354784271
 20
125.6302592852366
 30
0.0
 11
113.0243354784271
 21
125.6302592852366
 31
0.0
  0
LINE
  5
158
330
5A
100
AcDbEntity
  8
0
  6
Continuous
 62
     7
100
AcDbLine
 10
106.2243354784271
 20
127.6302592852366
 30
0.0
 11
113.0243354784271
 21
127.6302592852366
 31
0.0
  0
LINE
  5
159
330
5A
100
AcDbEntity
  8
0
  6
Continuous
 62
     7
100
AcDbLine
 10
106.2243354784271
 20
125.6302592852366
 30
0.0
 11
99.42433547842711
 21
125.6302592852366
 31
0.0
  0
LINE
  5
15A
330
5A
100
AcDbEntity
  8
0
  6
Continuous
 62
     7
100
AcDbLine
 10
106.2243354784271
 20
127.6302592852366
 30
0.0
 11
99.42433547842711
 21
127.6302592852366
 31
0.0
  0
LINE
  5
15B
330
5A
100
AcDbEntity
  8
0
  6
Continuous
 62
     7
100
AcDbLine
 10
99.42433547842711
 20
127.6302592852366
 30
0.0
 11
99.42433547842711
 21
125.6302592852366
 31
0.0
  0
LINE
  5
15C
330
5A
100
AcDbEntity
  8
0
  6
Continuous
 62
     7
100
AcDbLine
 10
113.0243354784271
 20
127.6302592852366
 30
0.0
 11
114.0385483436039
 21
128.6444711504147
 31
0.0
  0
LINE
  5
15D
330
5A
100
AcDbEntity
  8
0
  6
Continuous
 62
     7
100
AcDbLine
 10
113.0243354784271
 20
127.6302592852366
 30
0.0
 11
113.0243354784271
 21
125.6302592852366
 31
0.0
  0
LINE
  5
15E
330
5A
100
AcDbEntity
  8
0
  6
Continuous
 62
     7
100
AcDbLine
 10
113.0243354784271
 20
125.6302592852366
 30
0.0
 11
114.6243354784272
 21
124.0302592852364
 31
0.0
  0
LINE
  5
15F
330
5A
100
AcDbEntity
  8
0
  6
Continuous
 62
     7
100
AcDbLine
 10
114.6243354784272
 20
130.0586854099818
 30
0.0
 11
114.6243354784272
 21
131.3302592852367
 31
0.0
  0
LINE
  5
160
330
5A
100
AcDbEntity
  8
0
  6
Continuous
 62
     7
100
AcDbLine
 10
128.224335478427
 20
132.8802592852366
 30
0.0
 11
128.224335478427
 21
133.6302592852366
 31
0.0
  0
LINE
  5
161
330
5A
100
AcDbEntity
  8
0
  6
Continuous
 62
     7
100
AcDbLine
 10
105.2243354784268
 20
134.1302592852366
 30
0.0
 11
105.2243354784271
 21
140.6302592852366
 31
0.0
  0
LINE
  5
162
330
5A
100
AcDbEntity
  8
0
  6
Continuous
 62
     7
100
AcDbLine
 10
107.2243354784268
 20
140.6302592852366
 30
0.0
 11
107.2243354784268
 21
134.1213882852366
 31
0.0
  0
LINE
  5
163
330
5A
100
AcDbEntity
  8
0
  6
Continuous
 62
     7
100
AcDbLine
 10
115.7243354784271
 20
134.6302592852366
 30
0.0
 11
115.7243354784271
 21
154.1302592852366
 31
0.0
  0
LINE
  5
164
330
5A
100
AcDbEntity
  8
0
  6
Continuous
 62
     7
100
AcDbLine
 10
85.47433547842707
 20
131.6302592852366
 30
0.0
 11
114.9243354784272
 21
131.6302592852367
 31
0.0
  0
LINE
  5
165
330
5A
100
AcDbEntity
  8
0
  6
Continuous
 62
     7
100
AcDbLine
 10
90.22433547842707
 20
154.6302592852366
 30
0.0
 11
106.2243354784271
 21
154.6302592852366
 31
0.0
  0
LINE
  5
166
330
5A
100
AcDbEntity
  8
0
  6
Continuous
 62
     7
100
AcDbLine
 10
122.224335478427
 20
154.6302592852366
 30
0.0
 11
106.2243354784271
 21
154.6302592852366
 31
0.0
  0
LINE
  5
167
330
5A
100
AcDbEntity
  8
0
  6
Continuous
 62
     7
100
AcDbLine
 10
105.2243354784271
 20
154.6302592852366
 30
0.0
 11
105.2243354784271
 21
148.1302592852366
 31
0.0
  0
LINE
  5
168
330
5A
100
AcDbEntity
  8
0
  6
Continuous
 62
     7
100
AcDbLine
 10
107.2243354784271
 20
154.6302592852366
 30
0.0
 11
107.2243354784268
 21
148.1302592852366
 31
0.0
  0
LINE
  5
208
330
5A
100
AcDbEntity
  8
0
  6
Continuous
 62
     7
100
AcDbLine
 10
106.2243354784271
 20
166.6302592852366
 30
0.0
 11
124.224335478427
 21
166.6302592852366
 31
0.0
  0
LINE
  5
209
330
5A
100
AcDbEntity
  8
0
  6
Continuous
 62
     7
100
AcDbLine
 10
106.2243354784271
 20
166.6302592852366
 30
0.0
 11
88.22433547842707
 21
166.6302592852366
 31
0.0
  0
LINE
  5
20A
330
5A
100
AcDbEntity
  8
0
  6
Continuous
 62
     7
100
AcDbLine
 10
104.0045384784272
 20
154.6302592852366
 30
0.0
 11
104.0045384784272
 21
166.6302592852366
 31
0.0
  0
LINE
  5
20B
330
5A
100
AcDbEntity
  8
0
  6
Continuous
 62
     7
100
AcDbLine
 10
108.444132478427
 20
154.6302592852366
 30
0.0
 11
108.444132478427
 21
166.6302592852366
 31
0.0
  0
LINE
  5
20C
330
5A
100
AcDbEntity
  8
0
  6
Continuous
 62
     7
100
AcDbLine
 10
116.2158974784271
 20
154.6302592852366
 30
0.0
 11
116.2158974784271
 21
166.6302592852366
 31
0.0
  0
LINE
  5
20D
330
5A
100
AcDbEntity
  8
0
  6
Continuous
 62
     7
100
AcDbLine
 10
119.3915974784271
 20
154.6302592852366
 30
0.0
 11
119.3915974784271
 21
166.6302592852366
 31
0.0
  0
LINE
  5
20E
330
5A
100
AcDbEntity
  8
0
  6
Continuous
 62
     7
100
AcDbLine
 10
118.9582424784271
 20
156.6302592852366
 30
0.0
 11
118.9582424784271
 21
166.6302592852366
 31
0.0
  0
LINE
  5
20F
330
5A
100
AcDbEntity
  8
0
  6
Continuous
 62
     7
100
AcDbLine
 10
122.5690964784926
 20
154.6601984098234
 30
0.0
 11
122.575386478427
 21
166.6302582852367
 31
0.0
  0
LINE
  5
210
330
5A
100
AcDbEntity
  8
0
  6
Continuous
 62
     7
100
AcDbLine
 10
124.224335478427
 20
156.6302592852366
 30
0.0
 11
124.224335478427
 21
166.6302592852366
 31
0.0
  0
LINE
  5
211
330
5A
100
AcDbEntity
  8
0
  6
Continuous
 62
     7
100
AcDbLine
 10
96.23277347842713
 20
154.6302592852366
 30
0.0
 11
96.23277347842713
 21
166.6302592852366
 31
0.0
  0
LINE
  5
212
330
5A
100
AcDbEntity
  8
0
  6
Continuous
 62
     7
100
AcDbLine
 10
93.05707347842713
 20
154.6302592852366
 30
0.0
 11
93.05707347842713
 21
166.6302592852366
 31
0.0
  0
LINE
  5
213
330
5A
100
AcDbEntity
  8
0
  6
Continuous
 62
     7
100
AcDbLine
 10
93.49042847842725
 20
156.6302592852366
 30
0.0
 11
93.49042847842702
 21
166.6302592852366
 31
0.0
  0
LINE
  5
214
330
5A
100
AcDbEntity
  8
0
  6
Continuous
 62
     7
100
AcDbLine
 10
88.22433547842707
 20
156.6302592852366
 30
0.0
 11
88.22433547842707
 21
166.6302592852366
 31
0.0
  0
LINE
  5
215
330
5A
100
AcDbEntity
  8
0
  6
Continuous
 62
     7
100
AcDbLine
 10
89.87433547842716
 20
154.6611224184851
 30
0.0
 11
89.87433547842716
 21
166.6302592852366
 31
0.0
  0
LINE
  5
354
330
5A
100
AcDbEntity
  8
0
  6
Continuous
 62
     7
100
AcDbLine
 10
193.7243354784271
 20
134.6302592852366
 30
0.0
 11
193.7243354784271
 21
154.1302592852366
 31
0.0
  0
LINE
  5
355
330
5A
100
AcDbEntity
  8
0
  6
Continuous
 62
     7
100
AcDbLine
 10
203.2243354784271
 20
134.1302592852366
 30
0.0
 11
181.7243354784271
 21
134.1302592852366
 31
0.0
  0
LINE
  5
356
330
5A
100
AcDbEntity
  8
0
  6
Continuous
 62
     7
100
AcDbLine
 10
181.2243354784271
 20
132.8802592852366
 30
0.0
 11
181.2243354784271
 21
133.6302592852366
 31
0.0
  0
LINE
  5
357
330
5A
100
AcDbEntity
  8
0
  6
Continuous
 62
     7
100
AcDbLine
 10
194.8243354784272
 20
130.0586854099843
 30
0.0
 11
194.8243354784272
 21
131.3302592852368
 31
0.0
  0
LINE
  5
358
330
5A
100
AcDbEntity
  8
0
  6
Continuous
 62
     7
100
AcDbLine
 10
203.2243354784271
 20
111.6302592852366
 30
0.0
 11
196.3743354784271
 21
111.6302592852366
 31
0.0
  0
LINE
  5
359
330
5A
100
AcDbEntity
  8
0
  6
Continuous
 62
     7
100
AcDbLine
 10
195.3743354784271
 20
122.6302592852366
 30
0.0
 11
195.3743354784271
 21
112.6302592852366
 31
0.0
  0
LINE
  5
35A
330
5A
100
AcDbEntity
  8
0
  6
Continuous
 62
     7
100
AcDbLine
 10
203.2243354784271
 20
111.6302592852366
 30
0.0
 11
210.0743354784272
 21
111.6302592852366
 31
0.0
  0
LINE
  5
35B
330
5A
100
AcDbEntity
  8
0
  6
Continuous
 62
     7
100
AcDbLine
 10
211.0743354784272
 20
122.6302592852366
 30
0.0
 11
211.0743354784272
 21
112.6302592852366
 31
0.0
  0
LINE
  5
35C
330
5A
100
AcDbEntity
  8
0
  6
Continuous
 62
     7
100
AcDbLine
 10
223.9743354784271
 20
131.6302592852366
 30
0.0
 11
211.9243354784272
 21
131.6302592852367
 31
0.0
  0
LINE
  5
35D
330
5A
100
AcDbEntity
  8
0
  6
Continuous
 62
     7
100
AcDbLine
 10
203.2243354784271
 20
134.1302592852366
 30
0.0
 11
224.7243354784271
 21
134.1302592852366
 31
0.0
  0
LINE
  5
35E
330
5A
100
AcDbEntity
  8
0
  6
Continuous
 62
     7
100
AcDbLine
 10
196.4243354784271
 20
125.6302592852366
 30
0.0
 11
194.8243354784272
 21
124.0302592852366
 31
0.0
  0
LINE
  5
35F
330
5A
100
AcDbEntity
  8
0
  6
Continuous
 62
     7
100
AcDbLine
 10
196.4243354784271
 20
127.6302592852366
 30
0.0
 11
195.4101226132517
 21
128.6444711504133
 31
0.0
  0
LINE
  5
360
330
5A
100
AcDbEntity
  8
0
  6
Continuous
 62
     7
100
AcDbLine
 10
203.2243354784271
 20
129.1802592852366
 30
0.0
 11
195.3243354784272
 21
129.1802592852366
 31
0.0
  0
LINE
  5
361
330
5A
100
AcDbEntity
  8
0
  6
Continuous
 62
     7
100
AcDbLine
 10
203.2243354784271
 20
124.0302592852366
 30
0.0
 11
194.8243354784272
 21
124.0302592852366
 31
0.0
  0
LINE
  5
362
330
5A
100
AcDbEntity
  8
0
  6
Continuous
 62
     7
100
AcDbLine
 10
203.2243354784271
 20
122.6302592852366
 30
0.0
 11
195.3743354784271
 21
122.6302592852366
 31
0.0
  0
LINE
  5
363
330
5A
100
AcDbEntity
  8
0
  6
Continuous
 62
     7
100
AcDbLine
 10
203.2243354784271
 20
123.1302592852367
 30
0.0
 11
194.8243354784272
 21
123.1302592852367
 31
0.0
  0
LINE
  5
364
330
5A
100
AcDbEntity
  8
0
  6
Continuous
 62
     7
100
AcDbLine
 10
203.2243354784271
 20
122.6302592852366
 30
0.0
 11
195.3743354784271
 21
122.6302592852366
 31
0.0
  0
LINE
  5
365
330
5A
100
AcDbEntity
  8
0
  6
Continuous
 62
     7
100
AcDbLine
 10
194.8243354784272
 20
123.1302592852367
 30
0.0
 11
194.8243354784272
 21
124.0302592852366
 31
0.0
  0
LINE
  5
366
330
5A
100
AcDbEntity
  8
0
  6
Continuous
 62
     7
100
AcDbLine
 10
194.8243354784272
 20
123.1302592852367
 30
0.0
 11
195.3743354784271
 21
122.6302592852366
 31
0.0
  0
LINE
  5
367
330
5A
100
AcDbEntity
  8
0
  6
Continuous
 62
     7
100
AcDbLine
 10
211.6243354784271
 20
123.1302592852367
 30
0.0
 11
211.6243354784271
 21
124.0302592852366
 31
0.0
  0
LINE
  5
368
330
5A
100
AcDbEntity
  8
0
  6
Continuous
 62
     7
100
AcDbLine
 10
203.2243354784271
 20
123.1302592852367
 30
0.0
 11
211.6243354784271
 21
123.1302592852367
 31
0.0
  0
LINE
  5
369
330
5A
100
AcDbEntity
  8
0
  6
Continuous
 62
     7
100
AcDbLine
 10
203.2243354784271
 20
122.6302592852366
 30
0.0
 11
211.0743354784272
 21
122.6302592852366
 31
0.0
  0
LINE
  5
36A
330
5A
100
AcDbEntity
  8
0
  6
Continuous
 62
     7
100
AcDbLine
 10
211.6243354784271
 20
123.1302592852367
 30
0.0
 11
211.0743354784272
 21
122.6302592852366
 31
0.0
  0
LINE
  5
36B
330
5A
100
AcDbEntity
  8
0
  6
Continuous
 62
     7
100
AcDbLine
 10
203.2243354784271
 20
124.0302592852366
 30
0.0
 11
211.6243354784271
 21
124.0302592852366
 31
0.0
  0
LINE
  5
36C
330
5A
100
AcDbEntity
  8
0
  6
Continuous
 62
     7
100
AcDbLine
 10
203.2243354784271
 20
129.1802592852366
 30
0.0
 11
211.1243354784271
 21
129.1802592852366
 31
0.0
  0
LINE
  5
36D
330
5A
100
AcDbEntity
  8
0
  6
Continuous
 62
     7
100
AcDbLine
 10
203.2243354784271
 20
125.6302592852366
 30
0.0
 11
210.0243354784273
 21
125.6302592852366
 31
0.0
  0
LINE
  5
36E
330
5A
100
AcDbEntity
  8
0
  6
Continuous
 62
     7
100
AcDbLine
 10
203.2243354784271
 20
127.6302592852366
 30
0.0
 11
210.0243354784273
 21
127.6302592852366
 31
0.0
  0
LINE
  5
36F
330
5A
100
AcDbEntity
  8
0
  6
Continuous
 62
     7
100
AcDbLine
 10
203.2243354784271
 20
125.6302592852366
 30
0.0
 11
196.4243354784271
 21
125.6302592852366
 31
0.0
  0
LINE
  5
370
330
5A
100
AcDbEntity
  8
0
  6
Continuous
 62
     7
100
AcDbLine
 10
203.2243354784271
 20
127.6302592852366
 30
0.0
 11
196.4243354784271
 21
127.6302592852366
 31
0.0
  0
LINE
  5
371
330
5A
100
AcDbEntity
  8
0
  6
Continuous
 62
     7
100
AcDbLine
 10
196.4243354784271
 20
127.6302592852366
 30
0.0
 11
196.4243354784271
 21
125.6302592852366
 31
0.0
  0
LINE
  5
372
330
5A
100
AcDbEntity
  8
0
  6
Continuous
 62
     7
100
AcDbLine
 10
210.0243354784273
 20
127.6302592852366
 30
0.0
 11
211.0385483436039
 21
128.6444711504146
 31
0.0
  0
LINE
  5
373
330
5A
100
AcDbEntity
  8
0
  6
Continuous
 62
     7
100
AcDbLine
 10
210.0243354784273
 20
127.6302592852366
 30
0.0
 11
210.0243354784273
 21
125.6302592852366
 31
0.0
  0
LINE
  5
374
330
5A
100
AcDbEntity
  8
0
  6
Continuous
 62
     7
100
AcDbLine
 10
210.0243354784273
 20
125.6302592852366
 30
0.0
 11
211.6243354784271
 21
124.0302592852366
 31
0.0
  0
LINE
  5
375
330
5A
100
AcDbEntity
  8
0
  6
Continuous
 62
     7
100
AcDbLine
 10
211.6243354784271
 20
130.0586854099818
 30
0.0
 11
211.6243354784271
 21
131.3302592852368
 31
0.0
  0
LINE
  5
376
330
5A
100
AcDbEntity
  8
0
  6
Continuous
 62
     7
100
AcDbLine
 10
225.2243354784271
 20
132.8802592852366
 30
0.0
 11
225.2243354784271
 21
133.6302592852366
 31
0.0
  0
LINE
  5
377
330
5A
100
AcDbEntity
  8
0
  6
Continuous
 62
     7
100
AcDbLine
 10
202.2243354784271
 20
134.1302592852366
 30
0.0
 11
202.2243354784271
 21
140.6302592852366
 31
0.0
  0
LINE
  5
378
330
5A
100
AcDbEntity
  8
0
  6
Continuous
 62
     7
100
AcDbLine
 10
204.224335478427
 20
140.6302592852366
 30
0.0
 11
204.224335478427
 21
134.1213882852366
 31
0.0
  0
LINE
  5
379
330
5A
100
AcDbEntity
  8
0
  6
Continuous
 62
     7
100
AcDbLine
 10
212.7243354784271
 20
134.6302592852366
 30
0.0
 11
212.7243354784271
 21
154.1302592852366
 31
0.0
  0
LINE
  5
37A
330
5A
100
AcDbEntity
  8
0
  6
Continuous
 62
     7
100
AcDbLine
 10
182.4743354784271
 20
131.6302592852366
 30
0.0
 11
211.9243354784272
 21
131.6302592852367
 31
0.0
  0
LINE
  5
37B
330
5A
100
AcDbEntity
  8
0
  6
Continuous
 62
     7
100
AcDbLine
 10
187.2243354784271
 20
154.6302592852366
 30
0.0
 11
203.2243354784271
 21
154.6302592852366
 31
0.0
  0
LINE
  5
37C
330
5A
100
AcDbEntity
  8
0
  6
Continuous
 62
     7
100
AcDbLine
 10
219.2243354784271
 20
154.6302592852366
 30
0.0
 11
203.2243354784271
 21
154.6302592852366
 31
0.0
  0
LINE
  5
37D
330
5A
100
AcDbEntity
  8
0
  6
Continuous
 62
     7
100
AcDbLine
 10
202.2243354784271
 20
154.6302592852366
 30
0.0
 11
202.2243354784271
 21
148.1302592852366
 31
0.0
  0
LINE
  5
37E
330
5A
100
AcDbEntity
  8
0
  6
Continuous
 62
     7
100
AcDbLine
 10
204.2243354784271
 20
154.6302592852366
 30
0.0
 11
204.224335478427
 21
148.1302592852366
 31
0.0
  0
LINE
  5
41E
330
5A
100
AcDbEntity
  8
0
  6
Continuous
 62
     7
100
AcDbLine
 10
203.2243354784271
 20
166.6302592852366
 30
0.0
 11
221.2243354784271
 21
166.6302592852366
 31
0.0
  0
LINE
  5
41F
330
5A
100
AcDbEntity
  8
0
  6
Continuous
 62
     7
100
AcDbLine
 10
203.2243354784271
 20
166.6302592852366
 30
0.0
 11
185.2243354784271
 21
166.6302592852366
 31
0.0
  0
LINE
  5
420
330
5A
100
AcDbEntity
  8
0
  6
Continuous
 62
     7
100
AcDbLine
 10
201.0045384784272
 20
154.6302592852366
 30
0.0
 11
201.0045384784272
 21
166.6302592852366
 31
0.0
  0
LINE
  5
421
330
5A
100
AcDbEntity
  8
0
  6
Continuous
 62
     7
100
AcDbLine
 10
205.4441324784272
 20
154.6302592852366
 30
0.0
 11
205.4441324784272
 21
166.6302592852366
 31
0.0
  0
LINE
  5
422
330
5A
100
AcDbEntity
  8
0
  6
Continuous
 62
     7
100
AcDbLine
 10
213.2158974784271
 20
154.6302592852366
 30
0.0
 11
213.2158974784271
 21
166.6302592852366
 31
0.0
  0
LINE
  5
423
330
5A
100
AcDbEntity
  8
0
  6
Continuous
 62
     7
100
AcDbLine
 10
216.3915974784271
 20
154.6302592852366
 30
0.0
 11
216.3915974784271
 21
166.6302592852366
 31
0.0
  0
LINE
  5
424
330
5A
100
AcDbEntity
  8
0
  6
Continuous
 62
     7
100
AcDbLine
 10
215.9582424784271
 20
156.6302592852366
 30
0.0
 11
215.9582424784271
 21
166.6302592852366
 31
0.0
  0
LINE
  5
425
330
5A
100
AcDbEntity
  8
0
  6
Continuous
 62
     7
100
AcDbLine
 10
219.5690964784926
 20
154.6601984098234
 30
0.0
 11
219.575386478427
 21
166.6302582852367
 31
0.0
  0
LINE
  5
426
330
5A
100
AcDbEntity
  8
0
  6
Continuous
 62
     7
100
AcDbLine
 10
221.2243354784271
 20
156.6302592852366
 30
0.0
 11
221.2243354784271
 21
166.6302592852366
 31
0.0
  0
LINE
  5
427
330
5A
100
AcDbEntity
  8
0
  6
Continuous
 62
     7
100
AcDbLine
 10
193.2327734784273
 20
154.6302592852366
 30
0.0
 11
193.2327734784273
 21
166.6302592852366
 31
0.0
  0
LINE
  5
428
330
5A
100
AcDbEntity
  8
0
  6
Continuous
 62
     7
100
AcDbLine
 10
190.0570734784271
 20
154.6302592852366
 30
0.0
 11
190.0570734784271
 21
166.6302592852366
 31
0.0
  0
LINE
  5
429
330
5A
100
AcDbEntity
  8
0
  6
Continuous
 62
     7
100
AcDbLine
 10
190.4904284784274
 20
156.6302592852366
 30
0.0
 11
190.4904284784274
 21
166.6302592852366
 31
0.0
  0
LINE
  5
42A
330
5A
100
AcDbEntity
  8
0
  6
Continuous
 62
     7
100
AcDbLine
 10
185.2243354784271
 20
156.6302592852366
 30
0.0
 11
185.2243354784271
 21
166.6302592852366
 31
0.0
  0
LINE
  5
42B
330
5A
100
AcDbEntity
  8
0
  6
Continuous
 62
     7
100
AcDbLine
 10
186.8743354784271
 20
154.6611224184852
 30
0.0
 11
186.8743354784271
 21
166.6302592852366
 31
0.0
  0
ARC
  5
56A
330
5A
100
AcDbEntity
  8
1
  6
Continuous
 62
     7
100
AcDbCircle
 10
106.2243354784268
 20
329.7646410503687
 30
0.0
 40
21.99999999999995
100
AcDbArc
 50
118.4407686454673
 51
197.341442802759
  0
ARC
  5
56B
330
5A
100
AcDbEntity
  8
1
  6
Continuous
 62
     7
100
AcDbCircle
 10
106.2243354784268
 20
329.7646410503687
 30
0.0
 40
17.99999999999994
100
AcDbArc
 50
125.5972070090106
 51
163.5914805807845
  0
ARC
  5
56C
330
5A
100
AcDbEntity
  8
1
  6
Continuous
 62
     7
100
AcDbCircle
 10
106.2243354784268
 20
329.7646410503687
 30
0.0
 40
22.0
100
AcDbArc
 50
342.6585571972411
 51
61.55923135453197
  0
ARC
  5
56D
330
5A
100
AcDbEntity
  8
1
  6
Continuous
 62
     7
100
AcDbCircle
 10
106.2243354784268
 20
329.7646410503687
 30
0.0
 40
18.00000000000004
100
AcDbArc
 50
16.4117282440697
 51
54.40279299098849
  0
ARC
  5
56E
330
5A
100
AcDbEntity
  8
1
  6
Continuous
 62
     7
100
AcDbCircle
 10
99.82433547842857
 20
130.0586854099843
 30
0.0
 40
2.000000000001364
100
AcDbArc
 50
180.0
 51
225.0000282464053
  0
ARC
  5
56F
330
5A
100
AcDbEntity
  8
1
  6
Continuous
 62
     7
100
AcDbCircle
 10
112.6243354784309
 20
130.0586854099818
 30
0.0
 40
1.999999999995948
100
AcDbArc
 50
314.9999717535956
 51
0.0
  0
ARC
  5
570
330
5A
100
AcDbEntity
  8
0
  6
Continuous
 62
     7
100
AcDbCircle
 10
84.72433547842707
 20
133.6302592852366
 30
0.0
 40
0.5
100
AcDbArc
 50
90.0
 51
180.0
  0
ARC
  5
571
330
5A
100
AcDbEntity
  8
0
  6
Continuous
 62
     7
100
AcDbCircle
 10
90.22433547842707
 20
156.6302592852366
 30
0.0
 40
2.0
100
AcDbArc
 50
180.0
 51
259.9213418922149
  0
ARC
  5
572
330
5A
100
AcDbEntity
  8
0
  6
Continuous
 62
     7
100
AcDbCircle
 10
122.224335478427
 20
156.6302592852366
 30
0.0
 40
2.0
100
AcDbArc
 50
270.0
 51
279.9262552949434
  0
ARC
  5
573
330
5A
100
AcDbEntity
  8
0
  6
Continuous
 62
     7
100
AcDbCircle
 10
90.22433547842707
 20
140.6302592852366
 30
0.0
 40
6.5
100
AcDbArc
 50
269.999999999998
 51
0.0
  0
ARC
  5
574
330
5A
100
AcDbEntity
  8
0
  6
Continuous
 62
     7
100
AcDbCircle
 10
85.47433547842707
 20
132.8802592852366
 30
0.0
 40
1.25
100
AcDbArc
 50
180.0
 51
270.0
  0
ARC
  5
575
330
5A
100
AcDbEntity
  8
0
  6
Continuous
 62
     7
100
AcDbCircle
 10
97.52433547842713
 20
131.3302592852367
 30
0.0
 40
0.3000000000000682
100
AcDbArc
 50
0.0
 51
90.0
  0
ARC
  5
576
330
5A
100
AcDbEntity
  8
0
  6
Continuous
 62
     7
100
AcDbCircle
 10
96.22433547842707
 20
134.6302592852366
 30
0.0
 40
0.5
100
AcDbArc
 50
270.0
 51
0.0
  0
ARC
  5
577
330
5A
100
AcDbEntity
  8
0
  6
Continuous
 62
     7
100
AcDbCircle
 10
114.9243354784272
 20
131.3302592852367
 30
0.0
 40
0.2999999999999829
100
AcDbArc
 50
90.0
 51
180.0
  0
ARC
  5
578
330
5A
100
AcDbEntity
  8
0
  6
Continuous
 62
     7
100
AcDbCircle
 10
116.2243354784271
 20
134.6302592852366
 30
0.0
 40
0.5
100
AcDbArc
 50
180.0
 51
270.0
  0
ARC
  5
579
330
5A
100
AcDbEntity
  8
0
  6
Continuous
 62
     7
100
AcDbCircle
 10
126.974335478427
 20
132.8802592852366
 30
0.0
 40
1.25
100
AcDbArc
 50
270.0
 51
0.0
  0
ARC
  5
57A
330
5A
100
AcDbEntity
  8
0
  6
Continuous
 62
     7
100
AcDbCircle
 10
127.724335478427
 20
133.6302592852366
 30
0.0
 40
0.5000000000000142
100
AcDbArc
 50
0.0
 51
90.0
  0
ARC
  5
57B
330
5A
100
AcDbEntity
  8
0
  6
Continuous
 62
     7
100
AcDbCircle
 10
122.224335478427
 20
140.6302592852366
 30
0.0
 40
6.499999999999901
100
AcDbArc
 50
180.0
 51
270.0
  0
ARC
  5
57C
330
5A
100
AcDbEntity
  8
0
  6
Continuous
 62
     7
100
AcDbCircle
 10
122.224335478427
 20
156.6302592852366
 30
0.0
 40
2.000000000000011
100
AcDbArc
 50
279.9262552949434
 51
0.0
  0
ARC
  5
57D
330
5A
100
AcDbEntity
  8
0
  6
Continuous
 62
     7
100
AcDbCircle
 10
90.22433547842707
 20
148.1302592852366
 30
0.0
 40
6.5
100
AcDbArc
 50
0.0
 51
90.0
  0
ARC
  5
57E
330
5A
100
AcDbEntity
  8
0
  6
Continuous
 62
     7
100
AcDbCircle
 10
122.2243354784269
 20
148.1302592852366
 30
0.0
 40
6.5
100
AcDbArc
 50
89.99999999999912
 51
180.0
  0
ARC
  5
57F
330
5A
100
AcDbEntity
  8
0
  6
Continuous
 62
     7
100
AcDbCircle
 10
116.2243354784271
 20
154.1302592852366
 30
0.0
 40
0.5
100
AcDbArc
 50
90.0
 51
180.0
  0
ARC
  5
580
330
5A
100
AcDbEntity
  8
0
  6
Continuous
 62
     7
100
AcDbCircle
 10
96.22433547842707
 20
154.1302592852366
 30
0.0
 40
0.5
100
AcDbArc
 50
0.0
 51
90.0
  0
ARC
  5
581
330
5A
100
AcDbEntity
  8
0
  6
Continuous
 62
     7
100
AcDbCircle
 10
90.22433547842707
 20
156.6302592852366
 30
0.0
 40
1.999999999999975
100
AcDbArc
 50
259.9213418922149
 51
270.0
  0
ARC
  5
582
330
5A
100
AcDbEntity
  8
1
  6
Continuous
 62
     7
100
AcDbCircle
 10
196.8243354784286
 20
130.0586854099843
 30
0.0
 40
2.000000000001393
100
AcDbArc
 50
180.0
 51
225.0000282464047
  0
ARC
  5
583
330
5A
100
AcDbEntity
  8
1
  6
Continuous
 62
     7
100
AcDbCircle
 10
209.6243354784309
 20
130.0586854099818
 30
0.0
 40
1.999999999995999
100
AcDbArc
 50
314.9999717535936
 51
0.0
  0
ARC
  5
584
330
5A
100
AcDbEntity
  8
0
  6
Continuous
 62
     7
100
AcDbCircle
 10
181.7243354784271
 20
133.6302592852366
 30
0.0
 40
0.5
100
AcDbArc
 50
90.0
 51
180.0
  0
ARC
  5
585
330
5A
100
AcDbEntity
  8
0
  6
Continuous
 62
     7
100
AcDbCircle
 10
187.2243354784271
 20
156.6302592852366
 30
0.0
 40
2.0
100
AcDbArc
 50
180.0
 51
259.9213418922118
  0
ARC
  5
586
330
5A
100
AcDbEntity
  8
0
  6
Continuous
 62
     7
100
AcDbCircle
 10
219.2243354784271
 20
156.6302592852366
 30
0.0
 40
2.0
100
AcDbArc
 50
270.0
 51
279.926255294941
  0
ARC
  5
587
330
5A
100
AcDbEntity
  8
0
  6
Continuous
 62
     7
100
AcDbCircle
 10
187.2243354784271
 20
140.6302592852366
 30
0.0
 40
6.5
100
AcDbArc
 50
269.9999999999993
 51
0.0
  0
ARC
  5
588
330
5A
100
AcDbEntity
  8
0
  6
Continuous
 62
     7
100
AcDbCircle
 10
182.4743354784271
 20
132.8802592852366
 30
0.0
 40
1.25
100
AcDbArc
 50
180.0
 51
270.0
  0
ARC
  5
589
330
5A
100
AcDbEntity
  8
0
  6
Continuous
 62
     7
100
AcDbCircle
 10
194.5243354784273
 20
131.3302592852368
 30
0.0
 40
0.2999999999998977
100
AcDbArc
 50
0.0
 51
90.0
  0
ARC
  5
58A
330
5A
100
AcDbEntity
  8
0
  6
Continuous
 62
     7
100
AcDbCircle
 10
193.2243354784271
 20
134.6302592852366
 30
0.0
 40
0.5
100
AcDbArc
 50
270.0
 51
0.0
  0
ARC
  5
58B
330
5A
100
AcDbEntity
  8
0
  6
Continuous
 62
     7
100
AcDbCircle
 10
211.9243354784272
 20
131.3302592852368
 30
0.0
 40
0.2999999999998977
100
AcDbArc
 50
90.0
 51
180.0
  0
ARC
  5
58C
330
5A
100
AcDbEntity
  8
0
  6
Continuous
 62
     7
100
AcDbCircle
 10
213.2243354784271
 20
134.6302592852366
 30
0.0
 40
0.5
100
AcDbArc
 50
180.0
 51
270.0
  0
ARC
  5
58D
330
5A
100
AcDbEntity
  8
0
  6
Continuous
 62
     7
100
AcDbCircle
 10
223.9743354784271
 20
132.8802592852366
 30
0.0
 40
1.25
100
AcDbArc
 50
270.0
 51
0.0
  0
ARC
  5
58E
330
5A
100
AcDbEntity
  8
0
  6
Continuous
 62
     7
100
AcDbCircle
 10
224.7243354784271
 20
133.6302592852366
 30
0.0
 40
0.5
100
AcDbArc
 50
0.0
 51
90.0
  0
ARC
  5
58F
330
5A
100
AcDbEntity
  8
0
  6
Continuous
 62
     7
100
AcDbCircle
 10
219.2243354784271
 20
140.6302592852366
 30
0.0
 40
6.5
100
AcDbArc
 50
180.0
 51
270.0
  0
ARC
  5
590
330
5A
100
AcDbEntity
  8
0
  6
Continuous
 62
     7
100
AcDbCircle
 10
219.2243354784271
 20
156.6302592852366
 30
0.0
 40
1.999999999999996
100
AcDbArc
 50
279.926255294941
 51
0.0
  0
ARC
  5
591
330
5A
100
AcDbEntity
  8
0
  6
Continuous
 62
     7
100
AcDbCircle
 10
187.2243354784271
 20
148.1302592852366
 30
0.0
 40
6.5
100
AcDbArc
 50
0.0
 51
90.0
  0
ARC
  5
592
330
5A
100
AcDbEntity
  8
0
  6
Continuous
 62
     7
100
AcDbCircle
 10
219.2243354784269
 20
148.1302592852366
 30
0.0
 40
6.5
100
AcDbArc
 50
89.99999999999824
 51
180.0
  0
ARC
  5
593
330
5A
100
AcDbEntity
  8
0
  6
Continuous
 62
     7
100
AcDbCircle
 10
213.2243354784271
 20
154.1302592852366
 30
0.0
 40
0.5
100
AcDbArc
 50
90.0
 51
180.0
  0
ARC
  5
594
330
5A
100
AcDbEntity
  8
0
  6
Continuous
 62
     7
100
AcDbCircle
 10
193.2243354784271
 20
154.1302592852366
 30
0.0
 40
0.5
100
AcDbArc
 50
0.0
 51
90.0
  0
ARC
  5
595
330
5A
100
AcDbEntity
  8
0
  6
Continuous
 62
     7
100
AcDbCircle
 10
187.2243354784271
 20
156.6302592852366
 30
0.0
 40
1.999999999999878
100
AcDbArc
 50
259.9213418922118
 51
270.0
  0
ARC
  5
596
330
5A
100
AcDbEntity
  8
1
  6
Continuous
 62
     7
100
AcDbCircle
 10
99.37433547842716
 20
112.6302592852366
 30
0.0
 40
1.0
100
AcDbArc
 50
180.0
 51
270.0
  0
ARC
  5
597
330
5A
100
AcDbEntity
  8
1
  6
Continuous
 62
     7
100
AcDbCircle
 10
113.0743354784272
 20
112.6302592852366
 30
0.0
 40
1.0
100
AcDbArc
 50
270.0
 51
0.0
  0
ARC
  5
598
330
5A
100
AcDbEntity
  8
1
  6
Continuous
 62
     7
100
AcDbCircle
 10
196.3743354784271
 20
112.6302592852366
 30
0.0
 40
1.0
100
AcDbArc
 50
180.0
 51
270.0
  0
ARC
  5
599
330
5A
100
AcDbEntity
  8
1
  6
Continuous
 62
     7
100
AcDbCircle
 10
210.0743354784272
 20
112.6302592852366
 30
0.0
 40
1.0
100
AcDbArc
 50
270.0
 51
0.0
  0
LWPOLYLINE
  5
59A
330
5A
100
AcDbEntity
  8
0
  6
Continuous
 62
     7
100
AcDbPolyline
 90
      160
 70
     0
 43
0.0
 10
104.0050234784271
 20
154.6299462852367
 10
104.0320234784272
 20
154.6679462852367
 10
104.060023478427
 20
154.7059462852367
 10
104.0880234784272
 20
154.7429462852367
 10
104.1160234784271
 20
154.7809462852367
 10
104.1440234784271
 20
154.8189462852366
 10
104.172023478427
 20
154.8559462852367
 10
104.2000234784271
 20
154.8939462852367
 10
104.2280234784271
 20
154.9309462852366
 10
104.2560234784271
 20
154.9679462852366
 10
104.2840234784271
 20
155.0059462852367
 10
104.3120234784271
 20
155.0429462852367
 10
104.3400234784272
 20
155.0799462852367
 10
104.368023478427
 20
155.1169462852366
 10
104.3950234784271
 20
155.1529462852366
 10
104.4230234784271
 20
155.1899462852366
 10
104.451023478427
 20
155.2259462852367
 10
104.4790234784271
 20
155.2619462852367
 10
104.5070234784271
 20
155.2979462852367
 10
104.535023478427
 20
155.3339462852366
 10
104.5630234784271
 20
155.3689462852367
 10
104.5910234784271
 20
155.4039462852367
 10
104.6190234784272
 20
155.4389462852365
 10
104.647023478427
 20
155.4739462852367
 10
104.675023478427
 20
155.5079462852366
 10
104.7030234784271
 20
155.5429462852367
 10
104.730023478427
 20
155.5759462852365
 10
104.7580234784271
 20
155.6099462852367
 10
104.7860234784271
 20
155.6429462852366
 10
104.814023478427
 20
155.6759462852367
 10
104.8420234784271
 20
155.7089462852366
 10
104.8700234784271
 20
155.7409462852367
 10
104.8980234784272
 20
155.7729462852367
 10
104.9260234784269
 20
155.8039462852366
 10
104.954023478427
 20
155.8349462852366
 10
104.9820234784271
 20
155.8659462852367
 10
105.0100234784271
 20
155.8959462852366
 10
105.0380234784271
 20
155.9259462852367
 10
105.066023478427
 20
155.9549462852367
 10
105.093023478427
 20
155.9839462852367
 10
105.1210234784271
 20
156.0119462852367
 10
105.1490234784271
 20
156.0399462852365
 10
105.1770234784272
 20
156.0679462852367
 10
105.2050234784269
 20
156.0949462852366
 10
105.233023478427
 20
156.1209462852367
 10
105.2610234784272
 20
156.1469462852367
 10
105.2890234784271
 20
156.1719462852366
 10
105.3170234784271
 20
156.1969462852367
 10
105.345023478427
 20
156.2219462852366
 10
105.3730234784271
 20
156.2449462852367
 10
105.4010234784271
 20
156.2679462852366
 10
105.4290234784271
 20
156.2909462852367
 10
105.4560234784271
 20
156.3129462852367
 10
105.4840234784272
 20
156.3339462852366
 10
105.512023478427
 20
156.3549462852366
 10
105.5400234784272
 20
156.3749462852367
 10
105.5680234784271
 20
156.3939462852367
 10
105.5960234784271
 20
156.4129462852367
 10
105.624023478427
 20
156.4309462852366
 10
105.6520234784271
 20
156.4479462852366
 10
105.6800234784271
 20
156.4649462852367
 10
105.7080234784271
 20
156.4799462852366
 10
105.7360234784271
 20
156.4959462852367
 10
105.7640234784271
 20
156.5099462852367
 10
105.7920234784272
 20
156.5239462852367
 10
105.8190234784272
 20
156.5369462852366
 10
105.8470234784271
 20
156.5489462852366
 10
105.8750234784271
 20
156.5599462852367
 10
105.903023478427
 20
156.5709462852367
 10
105.9310234784271
 20
156.5799462852367
 10
105.9590234784271
 20
156.5889462852367
 10
105.987023478427
 20
156.5969462852366
 10
106.0150234784271
 20
156.6039462852366
 10
106.0430234784271
 20
156.6109462852367
 10
106.0710234784272
 20
156.6159462852367
 10
106.0990234784269
 20
156.6209462852367
 10
106.127023478427
 20
156.6249462852367
 10
106.1550234784271
 20
156.6269462852368
 10
106.182023478427
 20
156.6289462852367
 10
106.2100234784271
 20
156.6299462852367
 10
106.2380234784271
 20
156.6299462852367
 10
106.266023478427
 20
156.6289462852367
 10
106.2940234784271
 20
156.6269462852368
 10
106.3220234784271
 20
156.6249462852367
 10
106.3500234784272
 20
156.6209462852367
 10
106.3780234784269
 20
156.6159462852367
 10
106.406023478427
 20
156.6109462852367
 10
106.434023478427
 20
156.6039462852366
 10
106.4620234784271
 20
156.5969462852366
 10
106.4900234784271
 20
156.5889462852367
 10
106.5170234784271
 20
156.5799462852367
 10
106.545023478427
 20
156.5709462852367
 10
106.5730234784271
 20
156.5599462852367
 10
106.6010234784271
 20
156.5489462852366
 10
106.6290234784271
 20
156.5369462852366
 10
106.6570234784272
 20
156.5239462852367
 10
106.685023478427
 20
156.5099462852367
 10
106.7130234784272
 20
156.4959462852367
 10
106.7410234784271
 20
156.4799462852366
 10
106.7690234784271
 20
156.4649462852367
 10
106.797023478427
 20
156.4479462852366
 10
106.8250234784271
 20
156.4309462852366
 10
106.8530234784271
 20
156.4129462852367
 10
106.8800234784271
 20
156.3939462852367
 10
106.9080234784271
 20
156.3749462852367
 10
106.9360234784272
 20
156.3549462852366
 10
106.964023478427
 20
156.3339462852366
 10
106.9920234784272
 20
156.3129462852367
 10
107.0200234784271
 20
156.2909462852367
 10
107.0480234784271
 20
156.2679462852366
 10
107.076023478427
 20
156.2449462852367
 10
107.1040234784271
 20
156.2219462852366
 10
107.1320234784271
 20
156.1969462852367
 10
107.160023478427
 20
156.1719462852366
 10
107.1880234784271
 20
156.1469462852367
 10
107.2160234784271
 20
156.1209462852367
 10
107.243023478427
 20
156.0949462852366
 10
107.2710234784272
 20
156.0679462852367
 10
107.2990234784271
 20
156.0399462852365
 10
107.3270234784271
 20
156.0119462852367
 10
107.355023478427
 20
155.9839462852367
 10
107.3830234784271
 20
155.9549462852367
 10
107.4110234784271
 20
155.9259462852367
 10
107.439023478427
 20
155.8959462852366
 10
107.4670234784271
 20
155.8659462852367
 10
107.4950234784271
 20
155.8349462852366
 10
107.5230234784272
 20
155.8039462852366
 10
107.5510234784269
 20
155.7729462852367
 10
107.579023478427
 20
155.7409462852367
 10
107.6060234784271
 20
155.7089462852366
 10
107.634023478427
 20
155.6759462852367
 10
107.6620234784271
 20
155.6429462852366
 10
107.6900234784271
 20
155.6099462852367
 10
107.718023478427
 20
155.5759462852365
 10
107.7460234784271
 20
155.5429462852367
 10
107.7740234784271
 20
155.5079462852366
 10
107.8020234784272
 20
155.4739462852367
 10
107.8300234784269
 20
155.4389462852365
 10
107.858023478427
 20
155.4039462852367
 10
107.8860234784272
 20
155.3689462852367
 10
107.9140234784271
 20
155.3339462852366
 10
107.9420234784271
 20
155.2979462852367
 10
107.9690234784271
 20
155.2619462852367
 10
107.997023478427
 20
155.2259462852367
 10
108.0250234784271
 20
155.1899462852366
 10
108.0530234784271
 20
155.1529462852366
 10
108.0810234784271
 20
155.1169462852366
 10
108.1090234784272
 20
155.0799462852367
 10
108.137023478427
 20
155.0429462852367
 10
108.1650234784272
 20
155.0059462852367
 10
108.1930234784271
 20
154.9679462852366
 10
108.2210234784271
 20
154.9309462852366
 10
108.249023478427
 20
154.8939462852367
 10
108.2770234784271
 20
154.8559462852367
 10
108.3040234784271
 20
154.8189462852366
 10
108.3320234784271
 20
154.7809462852367
 10
108.3600234784271
 20
154.7429462852367
 10
108.3880234784272
 20
154.7059462852367
 10
108.416023478427
 20
154.6679462852367
 10
108.4440234784272
 20
154.6299462852367
  0
LWPOLYLINE
  5
59B
330
5A
100
AcDbEntity
  8
0
  6
Continuous
 62
     7
100
AcDbPolyline
 90
      160
 70
     0
 43
0.0
 10
119.392023478427
 20
154.6299462852367
 10
119.3880234784271
 20
154.6739462852366
 10
119.3850234784271
 20
154.7169462852367
 10
119.3810234784271
 20
154.7609462852367
 10
119.378023478427
 20
154.8039462852366
 10
119.3740234784271
 20
154.8469462852366
 10
119.3710234784271
 20
154.8909462852366
 10
119.3670234784272
 20
154.9339462852367
 10
119.3640234784271
 20
154.9769462852366
 10
119.3600234784271
 20
155.0199462852367
 10
119.3560234784271
 20
155.0619462852367
 10
119.353023478427
 20
155.1049462852366
 10
119.349023478427
 20
155.1469462852367
 10
119.3450234784271
 20
155.1889462852365
 10
119.3410234784271
 20
155.2309462852367
 10
119.3370234784271
 20
155.2729462852367
 10
119.3330234784271
 20
155.3149462852366
 10
119.3280234784272
 20
155.3559462852367
 10
119.324023478427
 20
155.3969462852367
 10
119.320023478427
 20
155.4369462852367
 10
119.315023478427
 20
155.4779462852366
 10
119.3100234784269
 20
155.5179462852366
 10
119.305023478427
 20
155.5569462852366
 10
119.3000234784269
 20
155.5959462852367
 10
119.295023478427
 20
155.6349462852367
 10
119.2900234784272
 20
155.6739462852366
 10
119.2840234784271
 20
155.7119462852367
 10
119.2790234784271
 20
155.7489462852366
 10
119.2730234784271
 20
155.7859462852366
 10
119.267023478427
 20
155.8229462852366
 10
119.2610234784272
 20
155.8589462852367
 10
119.2540234784271
 20
155.8949462852367
 10
119.248023478427
 20
155.9299462852366
 10
119.2410234784271
 20
155.9639462852367
 10
119.2340234784271
 20
155.9979462852366
 10
119.2270234784271
 20
156.0319462852367
 10
119.219023478427
 20
156.0649462852366
 10
119.2110234784271
 20
156.0969462852366
 10
119.2040234784269
 20
156.1279462852367
 10
119.195023478427
 20
156.1589462852367
 10
119.1870234784271
 20
156.1899462852366
 10
119.1780234784271
 20
156.2189462852366
 10
119.1690234784271
 20
156.2479462852366
 10
119.160023478427
 20
156.2769462852366
 10
119.151023478427
 20
156.3039462852366
 10
119.141023478427
 20
156.3309462852367
 10
119.1310234784271
 20
156.3569462852367
 10
119.1210234784271
 20
156.3819462852366
 10
119.1100234784271
 20
156.4069462852367
 10
119.099023478427
 20
156.4299462852366
 10
119.0880234784272
 20
156.4529462852366
 10
119.0760234784271
 20
156.4749462852367
 10
119.064023478427
 20
156.4959462852367
 10
119.0520234784271
 20
156.5159462852366
 10
119.0390234784271
 20
156.5359462852366
 10
119.026023478427
 20
156.5539462852366
 10
119.0130234784271
 20
156.5719462852367
 10
119.0000234784271
 20
156.5879462852366
 10
118.9860234784271
 20
156.6039462852366
 10
118.9710234784271
 20
156.6179462852367
 10
118.9560234784271
 20
156.6319462852366
 10
118.9410234784271
 20
156.6439462852367
 10
118.926023478427
 20
156.6559462852367
 10
118.910023478427
 20
156.6669462852367
 10
118.8940234784271
 20
156.6759462852367
 10
118.8770234784269
 20
156.6849462852367
 10
118.8600234784271
 20
156.6929462852367
 10
118.843023478427
 20
156.6989462852366
 10
118.825023478427
 20
156.7049462852367
 10
118.8070234784271
 20
156.7099462852366
 10
118.7880234784271
 20
156.7139462852367
 10
118.7700234784272
 20
156.7169462852367
 10
118.7510234784272
 20
156.7189462852366
 10
118.7310234784271
 20
156.7209462852367
 10
118.7110234784271
 20
156.7209462852367
 10
118.6910234784271
 20
156.7209462852367
 10
118.671023478427
 20
156.7189462852366
 10
118.6500234784271
 20
156.7169462852367
 10
118.6290234784271
 20
156.7139462852367
 10
118.6080234784269
 20
156.7099462852366
 10
118.5860234784271
 20
156.7059462852367
 10
118.564023478427
 20
156.6999462852366
 10
118.5420234784271
 20
156.6939462852366
 10
118.5190234784271
 20
156.6869462852367
 10
118.4960234784271
 20
156.6789462852366
 10
118.4730234784272
 20
156.6699462852366
 10
118.450023478427
 20
156.6609462852366
 10
118.426023478427
 20
156.6509462852366
 10
118.402023478427
 20
156.6399462852367
 10
118.378023478427
 20
156.6289462852367
 10
118.353023478427
 20
156.6159462852367
 10
118.3280234784272
 20
156.6039462852366
 10
118.3030234784271
 20
156.5899462852367
 10
118.2780234784271
 20
156.5759462852365
 10
118.2520234784269
 20
156.5609462852366
 10
118.2260234784271
 20
156.5449462852366
 10
118.200023478427
 20
156.5289462852367
 10
118.1740234784272
 20
156.5119462852367
 10
118.147023478427
 20
156.4939462852367
 10
118.1200234784271
 20
156.4759462852367
 10
118.093023478427
 20
156.4569462852367
 10
118.0660234784271
 20
156.4379462852367
 10
118.0380234784271
 20
156.4179462852367
 10
118.0110234784272
 20
156.3969462852367
 10
117.983023478427
 20
156.3759462852367
 10
117.9550234784269
 20
156.3539462852366
 10
117.9260234784269
 20
156.3319462852367
 10
117.8980234784272
 20
156.3089462852367
 10
117.8690234784272
 20
156.2859462852366
 10
117.8400234784272
 20
156.2619462852367
 10
117.8110234784272
 20
156.2369462852367
 10
117.781023478427
 20
156.2119462852367
 10
117.752023478427
 20
156.1869462852367
 10
117.7220234784272
 20
156.1609462852366
 10
117.6920234784271
 20
156.1349462852367
 10
117.6620234784271
 20
156.1079462852367
 10
117.6320234784271
 20
156.0809462852367
 10
117.6010234784271
 20
156.0529462852367
 10
117.5710234784272
 20
156.0249462852367
 10
117.5400234784272
 20
155.9969462852366
 10
117.509023478427
 20
155.9679462852366
 10
117.4780234784271
 20
155.9379462852367
 10
117.4470234784271
 20
155.9089462852367
 10
117.4150234784272
 20
155.8789462852367
 10
117.384023478427
 20
155.8479462852368
 10
117.3520234784271
 20
155.8169462852366
 10
117.3210234784272
 20
155.7859462852366
 10
117.2890234784271
 20
155.7549462852367
 10
117.2570234784271
 20
155.7229462852368
 10
117.2250234784272
 20
155.6909462852366
 10
117.1920234784271
 20
155.6579462852367
 10
117.160023478427
 20
155.6259462852367
 10
117.1280234784269
 20
155.5929462852366
 10
117.095023478427
 20
155.5589462852367
 10
117.0620234784271
 20
155.5259462852366
 10
117.0300234784272
 20
155.4919462852366
 10
116.997023478427
 20
155.4579462852367
 10
116.964023478427
 20
155.4239462852366
 10
116.9310234784271
 20
155.3889462852367
 10
116.8980234784272
 20
155.3539462852366
 10
116.864023478427
 20
155.3189462852366
 10
116.8310234784271
 20
155.2839462852367
 10
116.7980234784271
 20
155.2489462852366
 10
116.7640234784271
 20
155.2129462852366
 10
116.7310234784271
 20
155.1779462852367
 10
116.6970234784271
 20
155.1419462852366
 10
116.6640234784271
 20
155.1059462852367
 10
116.6300234784271
 20
155.0699462852367
 10
116.5970234784272
 20
155.0339462852367
 10
116.5630234784271
 20
154.9969462852366
 10
116.5290234784271
 20
154.9609462852367
 10
116.4950234784271
 20
154.9239462852366
 10
116.4620234784271
 20
154.8879462852367
 10
116.4280234784271
 20
154.8509462852367
 10
116.3940234784271
 20
154.8139462852365
 10
116.3600234784271
 20
154.7779462852366
 10
116.326023478427
 20
154.7409462852367
 10
116.2920234784272
 20
154.7039462852366
 10
116.2580234784271
 20
154.6669462852367
 10
116.2240234784269
 20
154.6299462852367
  0
LWPOLYLINE
  5
59C
330
5A
100
AcDbEntity
  8
0
  6
Continuous
 62
     7
100
AcDbPolyline
 90
      160
 70
     0
 43
0.0
 10
93.05702347842714
 20
154.6299462852367
 10
93.06002347842707
 20
154.6739462852366
 10
93.06402347842709
 20
154.7169462852367
 10
93.06702347842702
 20
154.7609462852367
 10
93.07102347842715
 20
154.8039462852366
 10
93.07402347842708
 20
154.8469462852366
 10
93.07802347842699
 20
154.8909462852366
 10
93.08102347842714
 20
154.9339462852367
 10
93.08502347842716
 20
154.9769462852366
 10
93.0880234784272
 20
155.0199462852367
 10
93.09202347842711
 20
155.0619462852367
 10
93.09602347842701
 20
155.1049462852366
 10
93.10002347842715
 20
155.1469462852367
 10
93.10402347842705
 20
155.1889462852365
 10
93.10802347842696
 20
155.2309462852367
 10
93.11202347842709
 20
155.2729462852367
 10
93.11602347842711
 20
155.3149462852366
 10
93.12002347842713
 20
155.3559462852367
 10
93.12502347842701
 20
155.3969462852367
 10
93.12902347842714
 20
155.4369462852367
 10
93.13402347842703
 20
155.4779462852366
 10
93.13802347842716
 20
155.5179462852366
 10
93.14302347842704
 20
155.5569462852366
 10
93.14802347842715
 20
155.5959462852367
 10
93.15402347842712
 20
155.6349462852367
 10
93.15902347842712
 20
155.6739462852366
 10
93.164023478427
 20
155.7119462852367
 10
93.17002347842708
 20
155.7489462852366
 10
93.17602347842694
 20
155.7859462852366
 10
93.18202347842714
 20
155.8229462852366
 10
93.18802347842711
 20
155.8589462852367
 10
93.1940234784272
 20
155.8949462852367
 10
93.20102347842703
 20
155.9299462852366
 10
93.2080234784271
 20
155.9639462852367
 10
93.21502347842716
 20
155.9979462852366
 10
93.22202347842699
 20
156.0319462852367
 10
93.23002347842703
 20
156.0649462852366
 10
93.23702347842709
 20
156.0969462852366
 10
93.24502347842713
 20
156.1279462852367
 10
93.25302347842694
 20
156.1589462852367
 10
93.26202347842695
 20
156.1899462852366
 10
93.27002347842699
 20
156.2189462852366
 10
93.27902347842712
 20
156.2479462852366
 10
93.28802347842702
 20
156.2769462852366
 10
93.29802347842701
 20
156.3039462852366
 10
93.308023478427
 20
156.3309462852367
 10
93.318023478427
 20
156.3569462852367
 10
93.32802347842699
 20
156.3819462852366
 10
93.33902347842695
 20
156.4069462852367
 10
93.35002347842715
 20
156.4299462852366
 10
93.36102347842711
 20
156.4529462852366
 10
93.37202347842708
 20
156.4749462852367
 10
93.38402347842703
 20
156.4959462852367
 10
93.39702347842695
 20
156.5159462852366
 10
93.40902347842712
 20
156.5359462852366
 10
93.42202347842715
 20
156.5539462852366
 10
93.43502347842707
 20
156.5719462852367
 10
93.44902347842708
 20
156.5879462852366
 10
93.4630234784272
 20
156.6039462852366
 10
93.4770234784271
 20
156.6179462852367
 10
93.4920234784272
 20
156.6319462852366
 10
93.5070234784273
 20
156.6439462852367
 10
93.52302347842715
 20
156.6559462852367
 10
93.539023478427
 20
156.6669462852367
 10
93.5550234784273
 20
156.6759462852367
 10
93.57202347842713
 20
156.6849462852367
 10
93.58902347842695
 20
156.6929462852367
 10
93.606023478427
 20
156.6989462852366
 10
93.62402347842703
 20
156.7049462852367
 10
93.64202347842706
 20
156.7099462852366
 10
93.66002347842709
 20
156.7139462852367
 10
93.6790234784271
 20
156.7169462852367
 10
93.6980234784271
 20
156.7189462852366
 10
93.71702347842711
 20
156.7209462852367
 10
93.73702347842709
 20
156.7209462852367
 10
93.7570234784273
 20
156.7209462852367
 10
93.77802347842703
 20
156.7189462852366
 10
93.79802347842701
 20
156.7169462852367
 10
93.82002347842706
 20
156.7139462852367
 10
93.84102347842713
 20
156.7099462852366
 10
93.8630234784273
 20
156.7059462852367
 10
93.885023478427
 20
156.6999462852366
 10
93.90702347842716
 20
156.6939462852366
 10
93.9290234784271
 20
156.6869462852367
 10
93.95202347842712
 20
156.6789462852366
 10
93.97602347842712
 20
156.6699462852366
 10
93.99902347842703
 20
156.6609462852366
 10
94.02302347842715
 20
156.6509462852366
 10
94.04702347842704
 20
156.6399462852367
 10
94.07102347842715
 20
156.6289462852367
 10
94.09602347842713
 20
156.6159462852367
 10
94.12002347842713
 20
156.6039462852366
 10
94.1460234784272
 20
156.5899462852367
 10
94.17102347842706
 20
156.5759462852365
 10
94.19702347842713
 20
156.5609462852366
 10
94.2220234784271
 20
156.5449462852366
 10
94.24902347842703
 20
156.5289462852367
 10
94.2750234784271
 20
156.5119462852367
 10
94.30102347842694
 20
156.4939462852367
 10
94.3280234784271
 20
156.4759462852367
 10
94.35502347842703
 20
156.4569462852367
 10
94.38302347842705
 20
156.4379462852367
 10
94.41002347842698
 20
156.4179462852367
 10
94.43802347842711
 20
156.3969462852367
 10
94.46602347842713
 20
156.3759462852367
 10
94.49402347842715
 20
156.3539462852366
 10
94.52202347842695
 20
156.3319462852367
 10
94.55102347842694
 20
156.3089462852367
 10
94.58002347842694
 20
156.2859462852366
 10
94.60902347842716
 20
156.2619462852367
 10
94.63802347842716
 20
156.2369462852367
 10
94.66702347842715
 20
156.2119462852367
 10
94.69702347842713
 20
156.1869462852367
 10
94.7270234784271
 20
156.1609462852366
 10
94.7570234784273
 20
156.1349462852367
 10
94.78702347842705
 20
156.1079462852367
 10
94.81702347842713
 20
156.0809462852367
 10
94.8470234784271
 20
156.0529462852367
 10
94.87802347842694
 20
156.0249462852367
 10
94.90902347842712
 20
155.9969462852366
 10
94.94002347842707
 20
155.9679462852366
 10
94.97102347842713
 20
155.9379462852367
 10
95.00202347842696
 20
155.9089462852367
 10
95.03302347842714
 20
155.8789462852367
 10
95.06502347842707
 20
155.8479462852368
 10
95.09602347842713
 20
155.8169462852366
 10
95.12802347842694
 20
155.7859462852366
 10
95.16002347842698
 20
155.7549462852367
 10
95.19202347842713
 20
155.7229462852368
 10
95.22402347842694
 20
155.6909462852366
 10
95.2560234784271
 20
155.6579462852367
 10
95.28902347842711
 20
155.6259462852367
 10
95.32102347842715
 20
155.5929462852366
 10
95.35402347842705
 20
155.5589462852367
 10
95.3860234784272
 20
155.5259462852366
 10
95.4190234784271
 20
155.4919462852366
 10
95.45202347842712
 20
155.4579462852367
 10
95.48502347842714
 20
155.4239462852366
 10
95.51802347842704
 20
155.3889462852367
 10
95.55102347842694
 20
155.3539462852366
 10
95.5840234784273
 20
155.3189462852366
 10
95.6170234784272
 20
155.2839462852367
 10
95.6510234784273
 20
155.2489462852366
 10
95.68402347842698
 20
155.2129462852366
 10
95.71802347842697
 20
155.1779462852367
 10
95.7510234784271
 20
155.1419462852366
 10
95.78502347842698
 20
155.1059462852367
 10
95.81802347842711
 20
155.0699462852367
 10
95.8520234784271
 20
155.0339462852367
 10
95.8860234784272
 20
154.9969462852366
 10
95.9190234784271
 20
154.9609462852367
 10
95.9530234784271
 20
154.9239462852366
 10
95.98702347842698
 20
154.8879462852367
 10
96.0210234784272
 20
154.8509462852367
 10
96.0550234784273
 20
154.8139462852365
 10
96.08902347842695
 20
154.7779462852366
 10
96.12302347842706
 20
154.7409462852367
 10
96.15602347842696
 20
154.7039462852366
 10
96.19002347842707
 20
154.6669462852367
 10
96.22402347842694
 20
154.6299462852367
  0
LWPOLYLINE
  5
59D
330
5A
100
AcDbEntity
  8
0
  6
Continuous
 62
     7
100
AcDbPolyline
 90
      160
 70
     0
 43
0.0
 10
201.0050234784271
 20
154.6299462852367
 10
201.0320234784272
 20
154.6679462852367
 10
201.0600234784271
 20
154.7059462852367
 10
201.0880234784272
 20
154.7429462852367
 10
201.1160234784271
 20
154.7809462852367
 10
201.1440234784271
 20
154.8189462852366
 10
201.1720234784272
 20
154.8559462852367
 10
201.200023478427
 20
154.8939462852367
 10
201.2280234784271
 20
154.9309462852366
 10
201.2560234784272
 20
154.9679462852366
 10
201.2840234784271
 20
155.0059462852366
 10
201.3120234784273
 20
155.0429462852367
 10
201.3400234784271
 20
155.0799462852368
 10
201.3680234784271
 20
155.1169462852366
 10
201.3950234784271
 20
155.1529462852366
 10
201.4230234784271
 20
155.1899462852367
 10
201.4510234784273
 20
155.2259462852367
 10
201.4790234784271
 20
155.2619462852367
 10
201.5070234784271
 20
155.2979462852367
 10
201.5350234784272
 20
155.3339462852367
 10
201.5630234784271
 20
155.3689462852368
 10
201.5910234784273
 20
155.4039462852367
 10
201.6190234784272
 20
155.4389462852367
 10
201.6470234784271
 20
155.4739462852368
 10
201.675023478427
 20
155.5079462852366
 10
201.7030234784272
 20
155.5429462852367
 10
201.7300234784272
 20
155.5759462852366
 10
201.7580234784272
 20
155.6099462852367
 10
201.7860234784271
 20
155.6429462852366
 10
201.8140234784272
 20
155.6759462852368
 10
201.8420234784271
 20
155.7089462852367
 10
201.8700234784271
 20
155.7409462852367
 10
201.8980234784272
 20
155.7729462852367
 10
201.9260234784271
 20
155.8039462852366
 10
201.9540234784271
 20
155.8349462852366
 10
201.9820234784272
 20
155.8659462852367
 10
202.0100234784271
 20
155.8959462852366
 10
202.0380234784273
 20
155.9259462852368
 10
202.0660234784272
 20
155.9549462852368
 10
202.0930234784271
 20
155.9839462852368
 10
202.1210234784271
 20
156.0119462852367
 10
202.1490234784271
 20
156.0399462852366
 10
202.1770234784273
 20
156.0679462852367
 10
202.2050234784271
 20
156.0949462852366
 10
202.2330234784271
 20
156.1209462852367
 10
202.2610234784272
 20
156.1469462852368
 10
202.2890234784271
 20
156.1719462852366
 10
202.3170234784273
 20
156.1969462852367
 10
202.3450234784272
 20
156.2219462852367
 10
202.373023478427
 20
156.2449462852367
 10
202.4010234784271
 20
156.2679462852366
 10
202.4290234784272
 20
156.2909462852367
 10
202.4560234784273
 20
156.3129462852367
 10
202.4840234784272
 20
156.3339462852367
 10
202.5120234784271
 20
156.3549462852366
 10
202.5400234784272
 20
156.3749462852367
 10
202.5680234784271
 20
156.3939462852367
 10
202.5960234784271
 20
156.4129462852367
 10
202.6240234784273
 20
156.4309462852366
 10
202.6520234784271
 20
156.4479462852367
 10
202.6800234784271
 20
156.4649462852368
 10
202.7080234784272
 20
156.4799462852366
 10
202.7360234784271
 20
156.4959462852367
 10
202.7640234784273
 20
156.5099462852367
 10
202.7920234784272
 20
156.5239462852367
 10
202.8190234784273
 20
156.5369462852366
 10
202.8470234784271
 20
156.5489462852367
 10
202.8750234784271
 20
156.5599462852367
 10
202.9030234784272
 20
156.5709462852367
 10
202.9310234784272
 20
156.5799462852368
 10
202.9590234784271
 20
156.5889462852367
 10
202.9870234784272
 20
156.5969462852367
 10
203.0150234784271
 20
156.6039462852367
 10
203.0430234784271
 20
156.6109462852367
 10
203.0710234784272
 20
156.6159462852367
 10
203.099023478427
 20
156.6209462852367
 10
203.1270234784271
 20
156.6249462852367
 10
203.1550234784272
 20
156.6269462852367
 10
203.1820234784273
 20
156.6289462852367
 10
203.2100234784272
 20
156.6299462852367
 10
203.2380234784271
 20
156.6299462852367
 10
203.2660234784271
 20
156.6289462852367
 10
203.2940234784271
 20
156.6269462852367
 10
203.3220234784271
 20
156.6249462852367
 10
203.3500234784273
 20
156.6209462852367
 10
203.3780234784271
 20
156.6159462852367
 10
203.4060234784271
 20
156.6109462852367
 10
203.4340234784272
 20
156.6039462852367
 10
203.4620234784271
 20
156.5969462852367
 10
203.4900234784273
 20
156.5889462852367
 10
203.5170234784271
 20
156.5799462852368
 10
203.5450234784271
 20
156.5709462852367
 10
203.5730234784271
 20
156.5599462852367
 10
203.6010234784271
 20
156.5489462852367
 10
203.6290234784272
 20
156.5369462852366
 10
203.6570234784272
 20
156.5239462852367
 10
203.6850234784271
 20
156.5099462852367
 10
203.7130234784272
 20
156.4959462852367
 10
203.7410234784271
 20
156.4799462852366
 10
203.7690234784271
 20
156.4649462852368
 10
203.7970234784272
 20
156.4479462852367
 10
203.825023478427
 20
156.4309462852366
 10
203.8530234784271
 20
156.4129462852367
 10
203.8800234784271
 20
156.3939462852367
 10
203.9080234784273
 20
156.3749462852367
 10
203.9360234784272
 20
156.3549462852366
 10
203.9640234784271
 20
156.3339462852367
 10
203.9920234784272
 20
156.3129462852367
 10
204.0200234784271
 20
156.2909462852367
 10
204.0480234784271
 20
156.2679462852366
 10
204.0760234784273
 20
156.2449462852367
 10
204.1040234784271
 20
156.2219462852367
 10
204.1320234784271
 20
156.1969462852367
 10
204.1600234784272
 20
156.1719462852366
 10
204.1880234784271
 20
156.1469462852368
 10
204.2160234784273
 20
156.1209462852367
 10
204.2430234784271
 20
156.0949462852366
 10
204.2710234784273
 20
156.0679462852367
 10
204.2990234784271
 20
156.0399462852366
 10
204.3270234784271
 20
156.0119462852367
 10
204.3550234784272
 20
155.9839462852368
 10
204.3830234784272
 20
155.9549462852368
 10
204.4110234784271
 20
155.9259462852368
 10
204.4390234784272
 20
155.8959462852366
 10
204.4670234784271
 20
155.8659462852367
 10
204.4950234784271
 20
155.8349462852366
 10
204.5230234784272
 20
155.8039462852366
 10
204.5510234784271
 20
155.7729462852367
 10
204.5790234784271
 20
155.7409462852367
 10
204.6060234784271
 20
155.7089462852367
 10
204.6340234784273
 20
155.6759462852368
 10
204.6620234784272
 20
155.6429462852366
 10
204.6900234784271
 20
155.6099462852367
 10
204.7180234784271
 20
155.5759462852366
 10
204.7460234784271
 20
155.5429462852367
 10
204.7740234784271
 20
155.5079462852366
 10
204.8020234784273
 20
155.4739462852368
 10
204.8300234784271
 20
155.4389462852367
 10
204.8580234784271
 20
155.4039462852367
 10
204.8860234784272
 20
155.3689462852368
 10
204.9140234784271
 20
155.3339462852367
 10
204.9420234784273
 20
155.2979462852367
 10
204.9690234784271
 20
155.2619462852367
 10
204.9970234784271
 20
155.2259462852367
 10
205.0250234784271
 20
155.1899462852367
 10
205.0530234784271
 20
155.1529462852366
 10
205.0810234784273
 20
155.1169462852366
 10
205.1090234784272
 20
155.0799462852368
 10
205.1370234784271
 20
155.0429462852367
 10
205.1650234784272
 20
155.0059462852366
 10
205.1930234784271
 20
154.9679462852366
 10
205.2210234784271
 20
154.9309462852366
 10
205.2490234784273
 20
154.8939462852367
 10
205.2770234784271
 20
154.8559462852367
 10
205.3040234784272
 20
154.8189462852366
 10
205.3320234784271
 20
154.7809462852367
 10
205.3600234784273
 20
154.7429462852367
 10
205.3880234784271
 20
154.7059462852367
 10
205.4160234784271
 20
154.6679462852367
 10
205.4440234784273
 20
154.6299462852367
  0
LWPOLYLINE
  5
59E
330
5A
100
AcDbEntity
  8
0
  6
Continuous
 62
     7
100
AcDbPolyline
 90
      160
 70
     0
 43
0.0
 10
216.3920234784271
 20
154.6299462852367
 10
216.3880234784271
 20
154.6739462852367
 10
216.3850234784271
 20
154.7169462852367
 10
216.3810234784272
 20
154.7609462852366
 10
216.3780234784271
 20
154.8039462852366
 10
216.3740234784273
 20
154.8469462852367
 10
216.3710234784271
 20
154.8909462852366
 10
216.3670234784272
 20
154.9339462852366
 10
216.3640234784271
 20
154.9769462852366
 10
216.3600234784273
 20
155.0199462852367
 10
216.3560234784271
 20
155.0619462852367
 10
216.3530234784271
 20
155.1049462852366
 10
216.349023478427
 20
155.1469462852368
 10
216.3450234784272
 20
155.1889462852367
 10
216.3410234784273
 20
155.2309462852367
 10
216.3370234784271
 20
155.2729462852367
 10
216.3330234784272
 20
155.3149462852367
 10
216.3280234784272
 20
155.3559462852367
 10
216.3240234784271
 20
155.3969462852368
 10
216.3200234784271
 20
155.4369462852367
 10
216.3150234784271
 20
155.4779462852366
 10
216.3100234784269
 20
155.5179462852366
 10
216.3050234784271
 20
155.5569462852366
 10
216.300023478427
 20
155.5959462852367
 10
216.2950234784271
 20
155.6349462852367
 10
216.2900234784272
 20
155.6739462852367
 10
216.2840234784271
 20
155.7119462852367
 10
216.2790234784271
 20
155.7489462852366
 10
216.2730234784272
 20
155.7859462852367
 10
216.2670234784271
 20
155.8229462852367
 10
216.2610234784272
 20
155.8589462852368
 10
216.2540234784272
 20
155.8949462852367
 10
216.248023478427
 20
155.9299462852367
 10
216.2410234784271
 20
155.9639462852367
 10
216.2340234784272
 20
155.9979462852367
 10
216.2270234784271
 20
156.0319462852368
 10
216.2190234784271
 20
156.0649462852367
 10
216.2110234784273
 20
156.0969462852367
 10
216.204023478427
 20
156.1279462852368
 10
216.1950234784271
 20
156.1589462852367
 10
216.1870234784273
 20
156.1899462852367
 10
216.1780234784271
 20
156.2189462852367
 10
216.1690234784271
 20
156.2479462852367
 10
216.1600234784272
 20
156.2769462852367
 10
216.1510234784271
 20
156.3039462852366
 10
216.1410234784271
 20
156.3309462852367
 10
216.1310234784272
 20
156.3569462852366
 10
216.1210234784271
 20
156.3819462852367
 10
216.1100234784273
 20
156.4069462852368
 10
216.099023478427
 20
156.4299462852367
 10
216.0880234784272
 20
156.4529462852366
 10
216.0760234784273
 20
156.4749462852367
 10
216.0640234784272
 20
156.4959462852367
 10
216.0520234784273
 20
156.5159462852366
 10
216.0390234784271
 20
156.5359462852367
 10
216.0260234784271
 20
156.5539462852366
 10
216.0130234784271
 20
156.5719462852367
 10
216.0000234784271
 20
156.5879462852367
 10
215.9860234784271
 20
156.6039462852367
 10
215.9710234784271
 20
156.6179462852367
 10
215.9560234784273
 20
156.6319462852367
 10
215.9410234784272
 20
156.6439462852367
 10
215.9260234784271
 20
156.6559462852367
 10
215.9100234784272
 20
156.6669462852368
 10
215.8940234784271
 20
156.6759462852368
 10
215.877023478427
 20
156.6849462852367
 10
215.8600234784273
 20
156.6929462852367
 10
215.8430234784271
 20
156.6989462852366
 10
215.825023478427
 20
156.7049462852368
 10
215.8070234784273
 20
156.7099462852366
 10
215.7880234784273
 20
156.7139462852367
 10
215.7700234784272
 20
156.7169462852367
 10
215.7510234784272
 20
156.7189462852367
 10
215.7310234784271
 20
156.7209462852367
 10
215.7110234784273
 20
156.7209462852367
 10
215.6910234784272
 20
156.7209462852367
 10
215.6710234784271
 20
156.7189462852367
 10
215.6500234784271
 20
156.7169462852367
 10
215.6290234784272
 20
156.7139462852367
 10
215.6080234784269
 20
156.7099462852366
 10
215.5860234784273
 20
156.7059462852367
 10
215.5640234784272
 20
156.6999462852367
 10
215.5420234784272
 20
156.6939462852366
 10
215.5190234784271
 20
156.6869462852367
 10
215.4960234784271
 20
156.6789462852366
 10
215.4730234784273
 20
156.6699462852366
 10
215.450023478427
 20
156.6609462852367
 10
215.4260234784271
 20
156.6509462852366
 10
215.4020234784271
 20
156.6399462852367
 10
215.3780234784271
 20
156.6289462852367
 10
215.3530234784271
 20
156.6159462852367
 10
215.3280234784272
 20
156.6039462852367
 10
215.3030234784271
 20
156.5899462852368
 10
215.2780234784272
 20
156.5759462852366
 10
215.252023478427
 20
156.5609462852368
 10
215.2260234784271
 20
156.5449462852366
 10
215.200023478427
 20
156.5289462852367
 10
215.1740234784272
 20
156.5119462852367
 10
215.1470234784271
 20
156.4939462852368
 10
215.1200234784271
 20
156.4759462852367
 10
215.0930234784271
 20
156.4569462852367
 10
215.0660234784272
 20
156.4379462852367
 10
215.0380234784273
 20
156.4179462852367
 10
215.0110234784272
 20
156.3969462852368
 10
214.9830234784269
 20
156.3759462852367
 10
214.9550234784271
 20
156.3539462852367
 10
214.9260234784271
 20
156.3319462852367
 10
214.8980234784272
 20
156.3089462852366
 10
214.8690234784272
 20
156.2859462852367
 10
214.8400234784271
 20
156.2619462852367
 10
214.8110234784272
 20
156.2369462852366
 10
214.781023478427
 20
156.2119462852367
 10
214.752023478427
 20
156.1869462852367
 10
214.7220234784272
 20
156.1609462852367
 10
214.6920234784273
 20
156.1349462852367
 10
214.6620234784272
 20
156.1079462852367
 10
214.6320234784271
 20
156.0809462852367
 10
214.6010234784271
 20
156.0529462852367
 10
214.5710234784272
 20
156.0249462852367
 10
214.5400234784272
 20
155.9969462852366
 10
214.5090234784273
 20
155.9679462852366
 10
214.4780234784271
 20
155.9379462852367
 10
214.4470234784271
 20
155.9089462852367
 10
214.4150234784272
 20
155.8789462852367
 10
214.3840234784273
 20
155.8479462852367
 10
214.3520234784271
 20
155.8169462852367
 10
214.3210234784272
 20
155.7859462852367
 10
214.2890234784271
 20
155.7549462852367
 10
214.2570234784271
 20
155.7229462852367
 10
214.2250234784273
 20
155.6909462852366
 10
214.1920234784273
 20
155.6579462852367
 10
214.1600234784272
 20
155.6259462852367
 10
214.1280234784271
 20
155.5929462852366
 10
214.0950234784272
 20
155.5589462852366
 10
214.0620234784273
 20
155.5259462852366
 10
214.0300234784272
 20
155.4919462852366
 10
213.9970234784271
 20
155.4579462852366
 10
213.964023478427
 20
155.4239462852367
 10
213.9310234784271
 20
155.3889462852367
 10
213.8980234784272
 20
155.3539462852367
 10
213.8640234784271
 20
155.3189462852366
 10
213.8310234784273
 20
155.2839462852367
 10
213.7980234784271
 20
155.2489462852366
 10
213.7640234784273
 20
155.2129462852367
 10
213.7310234784271
 20
155.1779462852367
 10
213.6970234784271
 20
155.1419462852367
 10
213.6640234784271
 20
155.1059462852367
 10
213.6300234784271
 20
155.0699462852368
 10
213.5970234784272
 20
155.0339462852367
 10
213.5630234784271
 20
154.9969462852366
 10
213.5290234784271
 20
154.9609462852367
 10
213.4950234784271
 20
154.9239462852367
 10
213.4620234784271
 20
154.8879462852368
 10
213.4280234784271
 20
154.8509462852367
 10
213.3940234784271
 20
154.8139462852367
 10
213.3600234784273
 20
154.7779462852366
 10
213.3260234784273
 20
154.7409462852367
 10
213.2920234784272
 20
154.7039462852368
 10
213.2580234784272
 20
154.6669462852368
 10
213.224023478427
 20
154.6299462852367
  0
LWPOLYLINE
  5
59F
330
5A
100
AcDbEntity
  8
0
  6
Continuous
 62
     7
100
AcDbPolyline
 90
      160
 70
     0
 43
0.0
 10
190.0570234784273
 20
154.6299462852367
 10
190.0600234784271
 20
154.6739462852367
 10
190.0640234784272
 20
154.7169462852367
 10
190.0670234784273
 20
154.7609462852366
 10
190.0710234784272
 20
154.8039462852366
 10
190.0740234784271
 20
154.8469462852367
 10
190.0780234784272
 20
154.8909462852366
 10
190.0810234784273
 20
154.9339462852366
 10
190.0850234784272
 20
154.9769462852366
 10
190.0880234784272
 20
155.0199462852367
 10
190.0920234784271
 20
155.0619462852367
 10
190.0960234784271
 20
155.1049462852366
 10
190.1000234784273
 20
155.1469462852368
 10
190.1040234784272
 20
155.1889462852367
 10
190.1080234784271
 20
155.2309462852367
 10
190.1120234784272
 20
155.2729462852367
 10
190.1160234784271
 20
155.3149462852367
 10
190.1200234784271
 20
155.3559462852367
 10
190.1250234784271
 20
155.3969462852368
 10
190.1290234784272
 20
155.4369462852367
 10
190.1340234784273
 20
155.4779462852366
 10
190.1380234784271
 20
155.5179462852366
 10
190.1430234784272
 20
155.5569462852366
 10
190.1480234784272
 20
155.5959462852367
 10
190.1540234784271
 20
155.6349462852367
 10
190.1590234784271
 20
155.6739462852367
 10
190.1640234784271
 20
155.7119462852367
 10
190.1700234784271
 20
155.7489462852366
 10
190.1760234784271
 20
155.7859462852367
 10
190.1820234784273
 20
155.8229462852367
 10
190.1880234784271
 20
155.8589462852368
 10
190.1940234784273
 20
155.8949462852367
 10
190.2010234784273
 20
155.9299462852367
 10
190.2080234784272
 20
155.9639462852367
 10
190.2150234784271
 20
155.9979462852367
 10
190.2220234784271
 20
156.0319462852368
 10
190.2300234784272
 20
156.0649462852367
 10
190.2370234784272
 20
156.0969462852367
 10
190.2450234784271
 20
156.1279462852368
 10
190.2530234784271
 20
156.1589462852367
 10
190.2620234784271
 20
156.1899462852367
 10
190.2700234784271
 20
156.2189462852367
 10
190.2790234784271
 20
156.2479462852367
 10
190.2880234784273
 20
156.2769462852367
 10
190.2980234784271
 20
156.3039462852366
 10
190.3080234784271
 20
156.3309462852367
 10
190.3180234784271
 20
156.3569462852366
 10
190.3280234784272
 20
156.3819462852367
 10
190.3390234784271
 20
156.4069462852368
 10
190.3500234784273
 20
156.4299462852367
 10
190.3610234784271
 20
156.4529462852366
 10
190.3720234784271
 20
156.4749462852367
 10
190.3840234784273
 20
156.4959462852367
 10
190.3970234784271
 20
156.5159462852366
 10
190.4090234784271
 20
156.5359462852367
 10
190.4220234784272
 20
156.5539462852366
 10
190.4350234784271
 20
156.5719462852367
 10
190.4490234784271
 20
156.5879462852367
 10
190.4630234784272
 20
156.6039462852367
 10
190.4770234784271
 20
156.6179462852367
 10
190.4920234784272
 20
156.6319462852367
 10
190.5070234784273
 20
156.6439462852367
 10
190.5230234784272
 20
156.6559462852367
 10
190.5390234784271
 20
156.6669462852368
 10
190.5550234784273
 20
156.6759462852368
 10
190.5720234784271
 20
156.6849462852367
 10
190.5890234784271
 20
156.6929462852367
 10
190.6060234784271
 20
156.6989462852366
 10
190.6240234784273
 20
156.7049462852368
 10
190.6420234784272
 20
156.7099462852366
 10
190.6600234784272
 20
156.7139462852367
 10
190.6790234784272
 20
156.7169462852367
 10
190.6980234784271
 20
156.7189462852367
 10
190.7170234784271
 20
156.7209462852367
 10
190.7370234784272
 20
156.7209462852367
 10
190.7570234784273
 20
156.7209462852367
 10
190.7780234784272
 20
156.7189462852367
 10
190.7980234784271
 20
156.7169462852367
 10
190.8200234784271
 20
156.7139462852367
 10
190.8410234784273
 20
156.7099462852366
 10
190.8630234784274
 20
156.7059462852367
 10
190.8850234784271
 20
156.6999462852367
 10
190.9070234784272
 20
156.6939462852366
 10
190.9290234784272
 20
156.6869462852367
 10
190.9520234784271
 20
156.6789462852366
 10
190.9760234784271
 20
156.6699462852366
 10
190.9990234784273
 20
156.6609462852367
 10
191.0230234784272
 20
156.6509462852366
 10
191.0470234784272
 20
156.6399462852367
 10
191.0710234784272
 20
156.6289462852367
 10
191.0960234784271
 20
156.6159462852367
 10
191.1200234784271
 20
156.6039462852367
 10
191.1460234784273
 20
156.5899462852368
 10
191.1710234784272
 20
156.5759462852366
 10
191.1970234784271
 20
156.5609462852368
 10
191.2220234784271
 20
156.5449462852366
 10
191.2490234784273
 20
156.5289462852367
 10
191.2750234784271
 20
156.5119462852367
 10
191.3010234784271
 20
156.4939462852368
 10
191.3280234784272
 20
156.4759462852367
 10
191.3550234784272
 20
156.4569462852367
 10
191.3830234784272
 20
156.4379462852367
 10
191.4100234784272
 20
156.4179462852367
 10
191.4380234784271
 20
156.3969462852368
 10
191.4660234784273
 20
156.3759462852367
 10
191.4940234784272
 20
156.3539462852367
 10
191.5220234784271
 20
156.3319462852367
 10
191.5510234784271
 20
156.3089462852366
 10
191.5800234784271
 20
156.2859462852367
 10
191.6090234784272
 20
156.2619462852367
 10
191.6380234784271
 20
156.2369462852366
 10
191.6670234784272
 20
156.2119462852367
 10
191.6970234784271
 20
156.1869462852367
 10
191.7270234784271
 20
156.1609462852367
 10
191.7570234784273
 20
156.1349462852367
 10
191.7870234784272
 20
156.1079462852367
 10
191.8170234784273
 20
156.0809462852367
 10
191.8470234784271
 20
156.0529462852367
 10
191.8780234784271
 20
156.0249462852367
 10
191.9090234784271
 20
155.9969462852366
 10
191.9400234784271
 20
155.9679462852366
 10
191.9710234784271
 20
155.9379462852367
 10
192.0020234784271
 20
155.9089462852367
 10
192.0330234784273
 20
155.8789462852367
 10
192.0650234784271
 20
155.8479462852367
 10
192.0960234784271
 20
155.8169462852367
 10
192.1280234784271
 20
155.7859462852367
 10
192.1600234784272
 20
155.7549462852367
 10
192.1920234784273
 20
155.7229462852367
 10
192.224023478427
 20
155.6909462852366
 10
192.2560234784272
 20
155.6579462852367
 10
192.2890234784271
 20
155.6259462852367
 10
192.3210234784272
 20
155.5929462852366
 10
192.3540234784272
 20
155.5589462852366
 10
192.3860234784272
 20
155.5259462852366
 10
192.4190234784271
 20
155.4919462852366
 10
192.4520234784271
 20
155.4579462852366
 10
192.4850234784273
 20
155.4239462852367
 10
192.5180234784272
 20
155.3889462852367
 10
192.5510234784271
 20
155.3539462852367
 10
192.5840234784274
 20
155.3189462852366
 10
192.6170234784272
 20
155.2839462852367
 10
192.6510234784273
 20
155.2489462852366
 10
192.6840234784272
 20
155.2129462852367
 10
192.7180234784271
 20
155.1779462852367
 10
192.7510234784271
 20
155.1419462852367
 10
192.7850234784272
 20
155.1059462852367
 10
192.8180234784271
 20
155.0699462852368
 10
192.8520234784271
 20
155.0339462852367
 10
192.8860234784272
 20
154.9969462852366
 10
192.9190234784271
 20
154.9609462852367
 10
192.9530234784272
 20
154.9239462852367
 10
192.9870234784272
 20
154.8879462852368
 10
193.0210234784273
 20
154.8509462852367
 10
193.0550234784273
 20
154.8139462852367
 10
193.0890234784271
 20
154.7779462852366
 10
193.1230234784272
 20
154.7409462852367
 10
193.1560234784271
 20
154.7039462852368
 10
193.1900234784271
 20
154.6669462852368
 10
193.224023478427
 20
154.6299462852367
  0
ENDBLK
  5
5C
330
5A
100
AcDbEntity
  8
0
100
AcDbBlockEnd
  0
BLOCK
  5
60
330
5D
100
AcDbEntity
  8
0
100
AcDbBlockBegin
  2
T3360F
 70
     0
 10
805.2847786750162
 20
890.99432286693
 30
0.0
  3
T3360F
  1

  0
INSERT
  5
5E
330
5D
100
AcDbEntity
  8
1
100
AcDbBlockReference
  2
81-93AK
 10
225.2322688658748
 20
99.97416009275508
 30
0.0
  0
INSERT
  5
5F
330
5D
100
AcDbEntity
  8
1
100
AcDbBlockReference
  2
T3360-H1AK
 10
195.9322688658747
 20
-88.3697407147633
 30
0.0
  0
LINE
  5
5A0
330
5D
100
AcDbEntity
  8
1
  6
PHANTOM
 62
     4
100
AcDbLine
 10
203.2243354784271
 20
105.7147611044249
 30
0.0
 11
208.7796328461004
 21
99.76824561226783
 31
0.0
  0
LINE
  5
5A1
330
5D
100
AcDbEntity
  8
中心線
  6
PHANTOM
 62
     4
100
AcDbLine
 10
203.2243354784271
 20
166.6302592852366
 30
0.0
 11
203.2243354784271
 21
105.7147611044249
 31
0.0
  0
ENDBLK
  5
61
330
5D
100
AcDbEntity
  8
0
100
AcDbBlockEnd
  0
BLOCK
  5
63
330
62
100
AcDbEntity
  8
0
100
AcDbBlockBegin
  2
開示A4
 70
     0
 10
0.0
 20
0.0
 30
0.0
  3
開示A4
  1

  0
POINT
  5
5A2
330
62
100
AcDbEntity
  8
1
 62
     4
100
AcDbPoint
 10
34.0
 20
34.00000000000001
 30
0.0
  0
POINT
  5
5A3
330
62
100
AcDbEntity
  8
1
 62
     4
100
AcDbPoint
 10
57.00000000000003
 20
12.25
 30
0.0
  0
POINT
  5
5A4
330
62
100
AcDbEntity
  8
1
 62
     4
100
AcDbPoint
 10
57.00000000000003
 20
20.75000000000001
 30
0.0
  0
POINT
  5
5A5
330
62
100
AcDbEntity
  8
1
 62
     4
100
AcDbPoint
 10
57.00000000000003
 20
24.75000000000001
 30
0.0
  0
POINT
  5
5A6
330
62
100
AcDbEntity
  8
1
 62
     4
100
AcDbPoint
 10
57.00000000000003
 20
16.25
 30
0.0
  0
POINT
  5
5A7
330
62
100
AcDbEntity
  8
1
 62
     4
100
AcDbPoint
 10
157.5
 20
19.00000000000001
 30
0.0
  0
POINT
  5
5A8
330
62
100
AcDbEntity
  8
1
 62
     4
100
AcDbPoint
 10
47.50000000000003
 20
282.0000000000003
 30
0.0
  0
POINT
  5
5A9
330
62
100
AcDbEntity
  8
1
 62
     4
100
AcDbPoint
 10
57.00000000000003
 20
22.75000000000001
 30
0.0
  0
POINT
  5
5AA
330
62
100
AcDbEntity
  8
1
 62
     4
100
AcDbPoint
 10
57.00000000000003
 20
14.25
 30
0.0
  0
POINT
  5
5AB
330
62
100
AcDbEntity
  8
1
 62
     4
100
AcDbPoint
 10
157.5
 20
12.5
 30
0.0
  0
POINT
  5
5AC
330
62
100
AcDbEntity
  8
1
 62
     4
100
AcDbPoint
 10
163.25
 20
12.5
 30
0.0
  0
POINT
  5
5AD
330
62
100
AcDbEntity
  8
1
 62
     4
100
AcDbPoint
 10
151.75
 20
12.5
 30
0.0
  0
POINT
  5
5AE
330
62
100
AcDbEntity
  8
1
 62
     4
100
AcDbPoint
 10
134.75
 20
12.5
 30
0.0
  0
POINT
  5
5AF
330
62
100
AcDbEntity
  8
1
 62
     4
100
AcDbPoint
 10
146.25
 20
12.5
 30
0.0
  0
POINT
  5
5B0
330
62
100
AcDbEntity
  8
1
 62
     4
100
AcDbPoint
 10
140.5
 20
12.5
 30
0.0
  0
POINT
  5
5B1
330
62
100
AcDbEntity
  8
1
 62
     4
100
AcDbPoint
 10
140.5
 20
19.00000000000001
 30
0.0
  0
POINT
  5
5B2
330
62
100
AcDbEntity
  8
1
 62
     4
100
AcDbPoint
 10
117.75
 20
12.5
 30
0.0
  0
POINT
  5
5B3
330
62
100
AcDbEntity
  8
1
 62
     4
100
AcDbPoint
 10
129.25
 20
12.5
 30
0.0
  0
POINT
  5
5B4
330
62
100
AcDbEntity
  8
1
 62
     4
100
AcDbPoint
 10
123.5
 20
12.5
 30
0.0
  0
POINT
  5
5B5
330
62
100
AcDbEntity
  8
1
 62
     4
100
AcDbPoint
 10
123.5
 20
19.00000000000001
 30
0.0
  0
POINT
  5
5B6
330
62
100
AcDbEntity
  8
1
 62
     4
100
AcDbPoint
 10
100.75
 20
12.5
 30
0.0
  0
POINT
  5
5B7
330
62
100
AcDbEntity
  8
1
 62
     4
100
AcDbPoint
 10
112.25
 20
12.5
 30
0.0
  0
POINT
  5
5B8
330
62
100
AcDbEntity
  8
1
 62
     4
100
AcDbPoint
 10
106.5
 20
12.5
 30
0.0
  0
POINT
  5
5B9
330
62
100
AcDbEntity
  8
1
 62
     4
100
AcDbPoint
 10
106.5
 20
19.00000000000001
 30
0.0
  0
POINT
  5
5BA
330
62
100
AcDbEntity
  8
1
 62
     4
100
AcDbPoint
 10
85.25000000000003
 20
17.0
 30
0.0
  0
POINT
  5
5BB
330
62
100
AcDbEntity
  8
1
 62
     4
100
AcDbPoint
 10
93.75000000000003
 20
17.0
 30
0.0
  0
LINE
  5
5BC
330
62
100
AcDbEntity
  8
1
  6
Continuous
 62
     2
100
AcDbLine
 10
81.00000000000003
 20
27.00000000000001
 30
0.0
 11
81.00000000000003
 21
10.0
 31
0.0
  0
LINE
  5
5BD
330
62
100
AcDbEntity
  8
1
  6
DOT_CENTER
 62
     2
100
AcDbLine
 10
187.0
 20
26.50000000000001
 30
0.0
 11
187.0
 21
20.50000000000001
 31
0.0
  0
LINE
  5
5BE
330
62
100
AcDbEntity
  8
1
  6
DOT_CENTER
 62
     2
100
AcDbLine
 10
184.0
 20
23.50000000000001
 30
0.0
 11
197.0
 21
23.50000000000001
 31
0.0
  0
LINE
  5
5BF
330
62
100
AcDbEntity
  8
1
  6
Continuous
 62
     7
100
AcDbLine
 10
196.0
 20
21.50000000000001
 30
0.0
 11
191.0
 21
22.30000000000001
 31
0.0
  0
LINE
  5
5C0
330
62
100
AcDbEntity
  8
1
  6
Continuous
 62
     7
100
AcDbLine
 10
196.0
 20
25.50000000000001
 30
0.0
 11
196.0
 21
21.50000000000001
 31
0.0
  0
LINE
  5
5C1
330
62
100
AcDbEntity
  8
1
  6
Continuous
 62
     7
100
AcDbLine
 10
191.0
 20
24.70000000000001
 30
0.0
 11
196.0
 21
25.50000000000001
 31
0.0
  0
LINE
  5
5C2
330
62
100
AcDbEntity
  8
1
  6
Continuous
 62
     7
100
AcDbLine
 10
191.0
 20
24.70000000000001
 30
0.0
 11
191.0
 21
22.30000000000001
 31
0.0
  0
LINE
  5
5C3
330
62
100
AcDbEntity
  8
1
  6
Continuous
 62
     2
100
AcDbLine
 10
33.0
 20
27.0
 30
0.0
 11
33.0
 21
10.0
 31
0.0
  0
LINE
  5
5C4
330
62
100
AcDbEntity
  8
1
  6
Continuous
 62
     2
100
AcDbLine
 10
25.0
 20
18.50000000000001
 30
0.0
 11
81.00000000000003
 21
18.50000000000001
 31
0.0
  0
LINE
  5
5C5
330
62
100
AcDbEntity
  8
1
  6
Continuous
 62
     7
100
AcDbLine
 10
200.0
 20
287.0000000000003
 30
0.0
 11
105.0
 21
287.0000000000003
 31
0.0
  0
LINE
  5
5C6
330
62
100
AcDbEntity
  8
1
  6
Continuous
 62
     7
100
AcDbLine
 10
200.0
 20
10.0
 30
0.0
 11
200.0
 21
148.5
 31
0.0
  0
LINE
  5
5C7
330
62
100
AcDbEntity
  8
1
  6
Continuous
 62
     7
100
AcDbLine
 10
25.0
 20
10.0
 30
0.0
 11
105.0
 21
10.0
 31
0.0
  0
LINE
  5
5C8
330
62
100
AcDbEntity
  8
1
  6
PHANTOM
 62
     4
100
AcDbLine
 10
0.0
 20
297.0
 30
0.0
 11
0.0
 21
0.0
 31
0.0
  0
LINE
  5
5C9
330
62
100
AcDbEntity
  8
1
  6
PHANTOM
 62
     4
100
AcDbLine
 10
210.0
 20
297.0
 30
0.0
 11
0.0
 21
297.0
 31
0.0
  0
LINE
  5
5CA
330
62
100
AcDbEntity
  8
1
  6
PHANTOM
 62
     4
100
AcDbLine
 10
210.0
 20
0.0
 30
0.0
 11
210.0
 21
297.0
 31
0.0
  0
LINE
  5
5CB
330
62
100
AcDbEntity
  8
1
  6
PHANTOM
 62
     4
100
AcDbLine
 10
0.0
 20
0.0
 30
0.0
 11
210.0
 21
0.0
 31
0.0
  0
LINE
  5
5CC
330
62
100
AcDbEntity
  8
1
  6
Continuous
 62
     7
100
AcDbLine
 10
25.0
 20
41.0
 30
0.0
 11
200.0
 21
41.0
 31
0.0
  0
LINE
  5
5CD
330
62
100
AcDbEntity
  8
1
  6
Continuous
 62
     7
100
AcDbLine
 10
200.0
 20
27.00000000000001
 30
0.0
 11
25.0
 21
27.00000000000001
 31
0.0
  0
LINE
  5
5CE
330
62
100
AcDbEntity
  8
1
  6
Continuous
 62
     2
100
AcDbLine
 10
33.0
 20
41.00000000000001
 30
0.0
 11
33.0
 21
27.0
 31
0.0
  0
LINE
  5
5CF
330
62
100
AcDbEntity
  8
1
  6
Continuous
 62
     2
100
AcDbLine
 10
55.00000000000003
 20
287.0000000000003
 30
0.0
 11
55.00000000000003
 21
277.0000000000003
 31
0.0
  0
LINE
  5
5D0
330
62
100
AcDbEntity
  8
1
  6
Continuous
 62
     2
100
AcDbLine
 10
40.0
 20
287.0000000000003
 30
0.0
 11
40.0
 21
277.0000000000003
 31
0.0
  0
LINE
  5
5D1
330
62
100
AcDbEntity
  8
1
  6
Continuous
 62
     7
100
AcDbLine
 10
25.0
 20
10.0
 30
0.0
 11
25.0
 21
148.5
 31
0.0
  0
LINE
  5
5D2
330
62
100
AcDbEntity
  8
1
  6
Continuous
 62
     2
100
AcDbLine
 10
55.00000000000003
 20
277.0000000000003
 30
0.0
 11
25.0
 21
277.0000000000003
 31
0.0
  0
LINE
  5
5D3
330
62
100
AcDbEntity
  8
1
  6
Continuous
 62
     2
100
AcDbLine
 10
166.0
 20
27.00000000000001
 30
0.0
 11
166.0
 21
10.0
 31
0.0
  0
LINE
  5
5D4
330
62
100
AcDbEntity
  8
1
  6
Continuous
 62
     2
100
AcDbLine
 10
132.0
 20
27.00000000000001
 30
0.0
 11
132.0
 21
9.99999999999999
 31
0.0
  0
LINE
  5
5D5
330
62
100
AcDbEntity
  8
1
  6
Continuous
 62
     2
100
AcDbLine
 10
149.0
 20
27.00000000000001
 30
0.0
 11
149.0
 21
10.0
 31
0.0
  0
LINE
  5
5D6
330
62
100
AcDbEntity
  8
1
  6
Continuous
 62
     2
100
AcDbLine
 10
115.0
 20
27.00000000000001
 30
0.0
 11
115.0
 21
9.99999999999999
 31
0.0
  0
LINE
  5
5D7
330
62
100
AcDbEntity
  8
1
  6
Continuous
 62
     2
100
AcDbLine
 10
98.00000000000003
 20
27.00000000000001
 30
0.0
 11
98.00000000000003
 21
9.99999999999999
 31
0.0
  0
LINE
  5
5D8
330
62
100
AcDbEntity
  8
1
  6
Continuous
 62
     2
100
AcDbLine
 10
166.0
 20
20.00000000000001
 30
0.0
 11
200.0
 21
20.00000000000001
 31
0.0
  0
LINE
  5
5D9
330
62
100
AcDbEntity
  8
1
  6
Continuous
 62
     2
100
AcDbLine
 10
105.0
 20
287.0000000000003
 30
0.0
 11
105.0
 21
292.0000000000003
 31
0.0
  0
LINE
  5
5DA
330
62
100
AcDbEntity
  8
1
  6
Continuous
 62
     7
100
AcDbLine
 10
105.0
 20
287.0000000000003
 30
0.0
 11
25.0
 21
287.0000000000003
 31
0.0
  0
LINE
  5
5DB
330
62
100
AcDbEntity
  8
1
  6
Continuous
 62
     2
100
AcDbLine
 10
25.0
 20
148.5
 30
0.0
 11
20.0
 21
148.5
 31
0.0
  0
LINE
  5
5DC
330
62
100
AcDbEntity
  8
1
  6
Continuous
 62
     7
100
AcDbLine
 10
25.0
 20
148.5
 30
0.0
 11
25.0
 21
287.0000000000003
 31
0.0
  0
LINE
  5
5DD
330
62
100
AcDbEntity
  8
1
  6
Continuous
 62
     2
100
AcDbLine
 10
200.0
 20
148.5
 30
0.0
 11
205.0
 21
148.5
 31
0.0
  0
LINE
  5
5DE
330
62
100
AcDbEntity
  8
1
  6
Continuous
 62
     7
100
AcDbLine
 10
200.0
 20
148.5
 30
0.0
 11
200.0
 21
287.0000000000003
 31
0.0
  0
LINE
  5
5DF
330
62
100
AcDbEntity
  8
1
  6
Continuous
 62
     2
100
AcDbLine
 10
105.0
 20
10.0
 30
0.0
 11
105.0
 21
5.0
 31
0.0
  0
LINE
  5
5E0
330
62
100
AcDbEntity
  8
1
  6
Continuous
 62
     7
100
AcDbLine
 10
105.0
 20
10.0
 30
0.0
 11
200.0
 21
10.0
 31
0.0
  0
CIRCLE
  5
5E1
330
62
100
AcDbEntity
  8
1
  6
DOT_CENTER
 62
     7
100
AcDbCircle
 10
89.50000000000003
 20
18.0
 30
0.0
 40
0.1000000000000227
  0
CIRCLE
  5
5E2
330
62
100
AcDbEntity
  8
1
  6
DOT_CENTER
 62
     7
100
AcDbCircle
 10
89.50000000000003
 20
16.0
 30
0.0
 40
0.1000000000000227
  0
CIRCLE
  5
5E3
330
62
100
AcDbEntity
  8
1
  6
Continuous
 62
     7
100
AcDbCircle
 10
187.0
 20
23.50000000000001
 30
0.0
 40
2.0
  0
CIRCLE
  5
5E4
330
62
100
AcDbEntity
  8
1
  6
Continuous
 62
     7
100
AcDbCircle
 10
187.0
 20
23.50000000000001
 30
0.0
 40
1.200000000000102
  0
CIRCLE
  5
5E5
330
62
100
AcDbEntity
  8
1
  6
Continuous
 62
     7
100
AcDbCircle
 10
154.5
 20
12.5
 30
0.0
 40
0.3000000000000114
  0
CIRCLE
  5
5E6
330
62
100
AcDbEntity
  8
1
  6
Continuous
 62
     7
100
AcDbCircle
 10
160.5
 20
12.5
 30
0.0
 40
0.3000000000000114
  0
CIRCLE
  5
5E7
330
62
100
AcDbEntity
  8
1
  6
Continuous
 62
     7
100
AcDbCircle
 10
143.5
 20
12.5
 30
0.0
 40
0.3000000000000114
  0
CIRCLE
  5
5E8
330
62
100
AcDbEntity
  8
1
  6
Continuous
 62
     7
100
AcDbCircle
 10
137.5
 20
12.5
 30
0.0
 40
0.3000000000000114
  0
CIRCLE
  5
5E9
330
62
100
AcDbEntity
  8
1
  6
Continuous
 62
     7
100
AcDbCircle
 10
126.5
 20
12.5
 30
0.0
 40
0.2999999999999972
  0
CIRCLE
  5
5EA
330
62
100
AcDbEntity
  8
1
  6
Continuous
 62
     7
100
AcDbCircle
 10
120.5
 20
12.5
 30
0.0
 40
0.2999999999999972
  0
CIRCLE
  5
5EB
330
62
100
AcDbEntity
  8
1
  6
Continuous
 62
     7
100
AcDbCircle
 10
109.5
 20
12.5
 30
0.0
 40
0.2999999999999972
  0
CIRCLE
  5
5EC
330
62
100
AcDbEntity
  8
1
  6
Continuous
 62
     7
100
AcDbCircle
 10
103.5
 20
12.5
 30
0.0
 40
0.2999999999999972
  0
MTEXT
  5
5EE
330
62
100
AcDbEntity
  8
1
 62
   250
100
AcDbMText
 10
25.0
 20
5.0
 30
0.0
 40
3.5
 41
0.0
 71
     4
 72
     1
  1
備考欄の文字列 原点位置=4
  7
CONVERTER_11
 73
     1
 44
0.54545454545455
  0
MTEXT
  5
5EF
330
62
100
AcDbEntity
  8
1
 62
     2
100
AcDbMText
 10
89.50000000000003
 20
24.00000000000001
 30
0.0
 40
3.5
 41
0.0
 71
     5
 72
     1
  1
尺度
  7
CONVERTER_11
 73
     1
 44
0.54545454545455
  0
MTEXT
  5
5F0
330
62
100
AcDbEntity
  8
1
 62
     2
100
AcDbMText
 10
135.5
 20
25.00000000000001
 30
0.0
 40
3.0
 41
0.0
 71
     5
 72
     1
  1
製図
  7
CONVERTER_11
 73
     1
 44
0.59090909090909
  0
MTEXT
  5
5F1
330
62
100
AcDbEntity
  8
1
 62
     2
100
AcDbMText
 10
152.5
 20
25.00000000000001
 30
0.0
 40
3.0
 41
0.0
 71
     5
 72
     1
  1
設計
  7
CONVERTER_11
 73
     1
 44
0.59090909090909
  0
MTEXT
  5
5F2
330
62
100
AcDbEntity
  8
1
 62
     2
100
AcDbMText
 10
118.5
 20
25.00000000000001
 30
0.0
 40
3.0
 41
0.0
 71
     5
 72
     1
  1
検図
  7
CONVERTER_11
 73
     1
 44
0.59090909090909
  0
MTEXT
  5
5F3
330
62
100
AcDbEntity
  8
1
 62
     2
100
AcDbMText
 10
175.0
 20
23.50000000000001
 30
0.0
 40
3.5
 41
0.0
 71
     5
 72
     1
  1
第三角法
  7
CONVERTER_11
 73
     1
 44
0.54545454545455
  0
MTEXT
  5
5F4
330
62
100
AcDbEntity
  8
1
 62
     2
100
AcDbMText
 10
101.5
 20
25.00000000000001
 30
0.0
 40
3.0
 41
0.0
 71
     5
 72
     1
  1
承認
  7
CONVERTER_11
 73
     1
 44
0.59090909090909
  0
MTEXT
  5
5F5
330
62
100
AcDbEntity
  8
1
 62
     2
100
AcDbMText
 10
29.0
 20
14.25
 30
0.0
 40
3.5
 41
0.0
 71
     5
 72
     1
  1
品番
  7
CONVERTER_11
 73
     1
 44
0.72727272727273
  0
MTEXT
  5
5F6
330
62
100
AcDbEntity
  8
1
 62
     2
100
AcDbMText
 10
29.0
 20
22.75
 30
0.0
 40
3.5
 41
0.0
 71
     5
 72
     1
  1
品名
  7
CONVERTER_11
 73
     1
 44
0.72727272727273
  0
MTEXT
  5
5F7
330
62
100
AcDbEntity
  8
1
 62
     2
100
AcDbMText
 10
29.0
 20
34.00000000000001
 30
0.0
 40
3.5
 41
0.0
 71
     5
 72
     1
  1
備考
  7
CONVERTER_11
 73
     1
 44
0.45454545454545
  0
MTEXT
  5
5F8
330
62
100
AcDbEntity
  8
1
 62
     2
100
AcDbMText
 10
32.5
 20
282.0000000000003
 30
0.0
 40
5.0
 41
0.0
 71
     5
 72
     1
  1
図番
  7
CONVERTER_11
 73
     1
 44
0.45454545454545
  0
MTEXT
  5
5F9
330
62
100
AcDbEntity
  8
1
 62
     7
100
AcDbMText
 10
171.5
 20
15.0
 30
0.0
 40
2.5
 41
0.0
 71
     5
 72
     1
  1
株式会社
  7
CONVERTER_11
 73
     1
 44
1.0
  0
MTEXT
  5
5FA
330
62
100
AcDbEntity
  8
1
 62
     7
100
AcDbMText
 10
188.5
 20
15.0
 30
0.0
 40
3.0
 41
0.0
 71
     5
 72
     1
  1
三栄水栓製作所
  7
CONVERTER_11
 73
     1
 44
1.0
  0
ENDBLK
  5
64
330
62
100
AcDbEntity
  8
0
100
AcDbBlockEnd
  0
BLOCK
  5
618
330
611
100
AcDbEntity
  8
0
100
AcDbBlockBegin
  2
*D10
 70
     1
 10
0.0
 20
0.0
 30
0.0
  3
*D10
  1

  0
LINE
  5
612
330
611
100
AcDbEntity
  8
1
  6
Continuous
 62
     2
100
AcDbLine
 10
160.6766082636745
 20
272.7157277441954
 30
0.0
 11
270.7243354784273
 21
272.7157277441954
 31
0.0
  0
LINE
  5
613
330
611
100
AcDbEntity
  8
1
  6
Continuous
 62
     2
100
AcDbLine
 10
160.6766082636745
 20
220.1593785580913
 30
0.0
 11
160.6766082636745
 21
274.2157277441954
 31
0.0
  0
LINE
  5
614
330
611
100
AcDbEntity
  8
1
  6
Continuous
 62
     2
100
AcDbLine
 10
270.7243354784273
 20
200.4835005294428
 30
0.0
 11
270.7243354784273
 21
274.2157277441954
 31
0.0
  0
SOLID
  5
615
330
611
100
AcDbEntity
  8
1
 62
     2
100
AcDbTrace
 10
165.9266082636745
 20
273.4069033565293
 30
0.0
 11
165.9266082636745
 21
272.0245521318616
 31
0.0
 12
160.6766082636745
 22
272.7157277441954
 32
0.0
 13
160.6766082636745
 23
272.7157277441954
 33
0.0
  0
SOLID
  5
616
330
611
100
AcDbEntity
  8
1
 62
     2
100
AcDbTrace
 10
265.4743354784273
 20
272.0245521318616
 30
0.0
 11
265.4743354784273
 21
273.4069033565293
 31
0.0
 12
270.7243354784273
 22
272.7157277441954
 32
0.0
 13
270.7243354784273
 23
272.7157277441954
 33
0.0
  0
MTEXT
  5
617
330
611
100
AcDbEntity
  8
1
 62
     7
100
AcDbMText
 10
210.9754718710509
 20
274.2157277441954
 30
0.0
 40
5.25000000000001
 41
0.0
 71
     7
 72
     1
  1
110
  7
CONVERTER_12
 11
0.9999999999970619
 21
2.424068405545306E-6
 31
0.0
 73
     1
 44
0.60024009603842
  0
ENDBLK
  5
619
330
611
100
AcDbEntity
  8
0
100
AcDbBlockEnd
  0
BLOCK
  5
623
330
61C
100
AcDbEntity
  8
0
100
AcDbBlockBegin
  2
*D11
 70
     1
 10
0.0
 20
0.0
 30
0.0
  3
*D11
  1

  0
LINE
  5
61D
330
61C
100
AcDbEntity
  8
1
  6
Continuous
 62
     2
100
AcDbLine
 10
196.1324523863902
 20
261.1715718669111
 30
0.0
 11
240.6801796011427
 21
216.6238446521587
 31
0.0
  0
LINE
  5
61E
330
61C
100
AcDbEntity
  8
1
  6
Continuous
 62
     2
100
AcDbLine
 10
215.224335478427
 20
191.1680005294429
 30
0.0
 11
241.7408397729225
 21
217.6845048239385
 31
0.0
  0
LINE
  5
61F
330
61C
100
AcDbEntity
  8
1
  6
Continuous
 62
     2
100
AcDbLine
 10
170.6766082636745
 20
235.7157277441953
 30
0.0
 11
197.19311255817
 21
262.2322320386909
 31
0.0
  0
SOLID
  5
620
330
61C
100
AcDbEntity
  8
1
 62
     2
100
AcDbTrace
 10
200.3334979500916
 20
257.9479962281537
 30
0.0
 11
199.3560280251475
 21
256.9705263032097
 31
0.0
 12
196.1324523863902
 22
261.1715718669111
 32
0.0
 13
196.1324523863902
 23
261.1715718669111
 33
0.0
  0
SOLID
  5
621
330
61C
100
AcDbEntity
  8
1
 62
     2
100
AcDbTrace
 10
236.4791340374413
 20
219.8474202909161
 30
0.0
 11
237.4566039623853
 21
220.8248902158601
 31
0.0
 12
240.6801796011427
 22
216.6238446521587
 32
0.0
 13
240.6801796011427
 23
216.6238446521587
 33
0.0
  0
MTEXT
  5
622
330
61C
100
AcDbEntity
  8
1
 62
     7
100
AcDbMText
 10
209.443737542227
 20
249.981607054634
 30
0.0
 40
5.25000000000001
 41
0.0
 71
     7
 72
     1
  1
63リフト5
  7
CONVERTER_11
 11
0.7071067811865485
 21
-0.7071067811865467
 31
0.0
 73
     1
 44
0.45454545454545
  0
ENDBLK
  5
624
330
61C
100
AcDbEntity
  8
0
100
AcDbBlockEnd
  0
BLOCK
  5
62E
330
627
100
AcDbEntity
  8
0
100
AcDbBlockBegin
  2
*D12
 70
     1
 10
0.0
 20
0.0
 30
0.0
  3
*D12
  1

  0
LINE
  5
628
330
627
100
AcDbEntity
  8
1
  6
Continuous
 62
     2
100
AcDbLine
 10
69.22433547842707
 20
235.7156957035765
 30
0.0
 11
69.22433547842707
 21
191.1680005294429
 31
0.0
  0
LINE
  5
629
330
627
100
AcDbEntity
  8
1
  6
Continuous
 62
     2
100
AcDbLine
 10
82.84288485849372
 20
235.7156957035765
 30
0.0
 11
67.72433547842707
 21
235.7156957035765
 31
0.0
  0
LINE
  5
62A
330
627
100
AcDbEntity
  8
1
  6
Continuous
 62
     2
100
AcDbLine
 10
78.724335478427
 20
191.1680005294429
 30
0.0
 11
67.72433547842707
 21
191.1680005294429
 31
0.0
  0
SOLID
  5
62B
330
627
100
AcDbEntity
  8
1
 62
     2
100
AcDbTrace
 10
69.91551109076089
 20
230.4656957035765
 30
0.0
 11
68.53315986609323
 21
230.4656957035765
 31
0.0
 12
69.22433547842707
 22
235.7156957035765
 32
0.0
 13
69.22433547842707
 23
235.7156957035765
 33
0.0
  0
SOLID
  5
62C
330
627
100
AcDbEntity
  8
1
 62
     2
100
AcDbTrace
 10
68.53315986609324
 20
196.4180005294429
 30
0.0
 11
69.9155110907609
 21
196.4180005294429
 31
0.0
 12
69.22433547842707
 22
191.1680005294429
 32
0.0
 13
69.22433547842707
 23
191.1680005294429
 33
0.0
  0
MTEXT
  5
62D
330
627
100
AcDbEntity
  8
1
 62
     7
100
AcDbMText
 10
67.72433547842707
 20
209.5043481165097
 30
0.0
 40
5.25000000000001
 41
0.0
 71
     7
 72
     1
  1
45
  7
CONVERTER_12
 11
0.0
 21
1.0
 31
0.0
 73
     1
 44
0.60024009603842
  0
ENDBLK
  5
62F
330
627
100
AcDbEntity
  8
0
100
AcDbBlockEnd
  0
BLOCK
  5
639
330
632
100
AcDbEntity
  8
0
100
AcDbBlockBegin
  2
*D13
 70
     1
 10
0.0
 20
0.0
 30
0.0
  3
*D13
  1

  0
LINE
  5
633
330
632
100
AcDbEntity
  8
1
  6
Continuous
 62
     2
100
AcDbLine
 10
203.2243354784272
 20
85.1258922852367
 30
0.0
 11
270.7243354784273
 21
85.1258922852367
 31
0.0
  0
LINE
  5
634
330
632
100
AcDbEntity
  8
1
  6
Continuous
 62
     2
100
AcDbLine
 10
203.2243354784271
 20
105.7147611044249
 30
0.0
 11
203.2243354784271
 21
83.6258922852367
 31
0.0
  0
LINE
  5
635
330
632
100
AcDbEntity
  8
1
  6
Continuous
 62
     2
100
AcDbLine
 10
270.7243354784273
 20
181.8525005294429
 30
0.0
 11
270.7243354784273
 21
83.6258922852367
 31
0.0
  0
SOLID
  5
636
330
632
100
AcDbEntity
  8
1
 62
     2
100
AcDbTrace
 10
208.4743354784272
 20
85.81706789757052
 30
0.0
 11
208.4743354784272
 21
84.43471667290288
 31
0.0
 12
203.2243354784272
 22
85.1258922852367
 32
0.0
 13
203.2243354784272
 23
85.1258922852367
 33
0.0
  0
SOLID
  5
637
330
632
100
AcDbEntity
  8
1
 62
     2
100
AcDbTrace
 10
265.4743354784273
 20
84.43471667290288
 30
0.0
 11
265.4743354784273
 21
85.81706789757052
 31
0.0
 12
270.7243354784273
 22
85.1258922852367
 32
0.0
 13
270.7243354784273
 23
85.1258922852367
 33
0.0
  0
MTEXT
  5
638
330
632
100
AcDbEntity
  8
1
 62
     7
100
AcDbMText
 10
233.0368354784272
 20
86.6258922852367
 30
0.0
 40
5.25000000000001
 41
0.0
 71
     7
 72
     1
  1
68
  7
CONVERTER_12
 11
0.9999999999970619
 21
2.424068405545306E-6
 31
0.0
 73
     1
 44
0.60024009603842
  0
ENDBLK
  5
63A
330
632
100
AcDbEntity
  8
0
100
AcDbBlockEnd
  0
BLOCK
  5
644
330
63D
100
AcDbEntity
  8
0
100
AcDbBlockBegin
  2
*D14
 70
     1
 10
0.0
 20
0.0
 30
0.0
  3
*D14
  1

  0
LINE
  5
63E
330
63D
100
AcDbEntity
  8
1
  6
Continuous
 62
     2
100
AcDbLine
 10
285.7243354784273
 20
214.1680005294429
 30
0.0
 11
285.7243354784273
 21
168.1680005294429
 31
0.0
  0
LINE
  5
63F
330
63D
100
AcDbEntity
  8
1
  6
Continuous
 62
     2
100
AcDbLine
 10
256.724335478427
 20
214.1680005294429
 30
0.0
 11
287.2243354784273
 21
214.1680005294429
 31
0.0
  0
LINE
  5
640
330
63D
100
AcDbEntity
  8
1
  6
Continuous
 62
     2
100
AcDbLine
 10
256.724335478427
 20
168.1680005294429
 30
0.0
 11
287.2243354784273
 21
168.1680005294429
 31
0.0
  0
SOLID
  5
641
330
63D
100
AcDbEntity
  8
1
 62
     2
100
AcDbTrace
 10
286.4155110907611
 20
208.9180005294429
 30
0.0
 11
285.0331598660935
 21
208.9180005294429
 31
0.0
 12
285.7243354784273
 22
214.1680005294429
 32
0.0
 13
285.7243354784273
 23
214.1680005294429
 33
0.0
  0
SOLID
  5
642
330
63D
100
AcDbEntity
  8
1
 62
     2
100
AcDbTrace
 10
285.0331598660935
 20
173.4180005294429
 30
0.0
 11
286.4155110907611
 21
173.4180005294429
 31
0.0
 12
285.7243354784273
 22
168.1680005294429
 32
0.0
 13
285.7243354784273
 23
168.1680005294429
 33
0.0
  0
MTEXT
  5
643
330
63D
100
AcDbEntity
  8
1
 62
     7
100
AcDbMText
 10
284.2243354784273
 20
186.0755005294429
 30
0.0
 40
5.25000000000001
 41
0.0
 71
     7
 72
     1
  1
\C7;{\Fgdt;n}\C7;46
  7
CONVERTER_12
 11
0.0
 21
1.0
 31
0.0
 73
     1
 44
0.60024009603842
  0
ENDBLK
  5
645
330
63D
100
AcDbEntity
  8
0
100
AcDbBlockEnd
  0
BLOCK
  5
64F
330
648
100
AcDbEntity
  8
0
100
AcDbBlockBegin
  2
*D15
 70
     1
 10
0.0
 20
0.0
 30
0.0
  3
*D15
  1

  0
LINE
  5
649
330
648
100
AcDbEntity
  8
1
  6
Continuous
 62
     2
100
AcDbLine
 10
84.22433547842707
 20
73.1258922852367
 30
0.0
 11
128.224335478427
 21
73.1258922852367
 31
0.0
  0
LINE
  5
64A
330
648
100
AcDbEntity
  8
1
  6
Continuous
 62
     2
100
AcDbLine
 10
84.22433547842707
 20
132.8802592852366
 30
0.0
 11
84.22433547842707
 21
71.6258922852367
 31
0.0
  0
LINE
  5
64B
330
648
100
AcDbEntity
  8
1
  6
Continuous
 62
     2
100
AcDbLine
 10
128.224335478427
 20
132.8802592852366
 30
0.0
 11
128.224335478427
 21
71.6258922852367
 31
0.0
  0
SOLID
  5
64C
330
648
100
AcDbEntity
  8
1
 62
     2
100
AcDbTrace
 10
89.47433547842707
 20
73.81706789757052
 30
0.0
 11
89.47433547842707
 21
72.43471667290288
 31
0.0
 12
84.22433547842707
 22
73.1258922852367
 32
0.0
 13
84.22433547842707
 23
73.1258922852367
 33
0.0
  0
SOLID
  5
64D
330
648
100
AcDbEntity
  8
1
 62
     2
100
AcDbTrace
 10
122.974335478427
 20
72.43471667290288
 30
0.0
 11
122.974335478427
 21
73.81706789757052
 31
0.0
 12
128.224335478427
 22
73.1258922852367
 32
0.0
 13
128.224335478427
 23
73.1258922852367
 33
0.0
  0
MTEXT
  5
64E
330
648
100
AcDbEntity
  8
1
 62
     7
100
AcDbMText
 10
101.1318354784396
 20
74.62588184962222
 30
0.0
 40
5.25000000000001
 41
0.0
 71
     7
 72
     1
  1
\C7;{\Fgdt;n}\C7;44
  7
CONVERTER_12
 11
0.9999999999970619
 21
2.424068405545306E-6
 31
0.0
 73
     1
 44
0.60024009603842
  0
ENDBLK
  5
650
330
648
100
AcDbEntity
  8
0
100
AcDbBlockEnd
  0
BLOCK
  5
65B
330
653
100
AcDbEntity
  8
0
100
AcDbBlockBegin
  2
*D16
 70
     1
 10
0.0
 20
0.0
 30
0.0
  3
*D16
  1

  0
LINE
  5
654
330
653
100
AcDbEntity
  8
1
  6
Continuous
 62
     2
100
AcDbLine
 10
114.0743354784272
 20
85.1258922852367
 30
0.0
 11
151.024911769175
 21
85.1258922852367
 31
0.0
  0
LINE
  5
655
330
653
100
AcDbEntity
  8
1
  6
Continuous
 62
     2
100
AcDbLine
 10
98.37433547842716
 20
85.1258922852367
 30
0.0
 11
114.0743354784272
 21
85.1258922852367
 31
0.0
  0
LINE
  5
656
330
653
100
AcDbEntity
  8
1
  6
Continuous
 62
     2
100
AcDbLine
 10
98.37433547842716
 20
112.6302592852366
 30
0.0
 11
98.37433547842716
 21
83.6258922852367
 31
0.0
  0
LINE
  5
657
330
653
100
AcDbEntity
  8
1
  6
Continuous
 62
     2
100
AcDbLine
 10
114.0743354784272
 20
112.6302592852366
 30
0.0
 11
114.0743354784272
 21
83.6258922852367
 31
0.0
  0
SOLID
  5
658
330
653
100
AcDbEntity
  8
1
 62
     2
100
AcDbTrace
 10
103.6243354784272
 20
85.81706789757052
 30
0.0
 11
103.6243354784272
 21
84.43471667290288
 31
0.0
 12
98.37433547842716
 22
85.1258922852367
 32
0.0
 13
98.37433547842716
 23
85.1258922852367
 33
0.0
  0
SOLID
  5
659
330
653
100
AcDbEntity
  8
1
 62
     2
100
AcDbTrace
 10
108.8243354784272
 20
84.43471667290288
 30
0.0
 11
108.8243354784272
 21
85.81706789757052
 31
0.0
 12
114.0743354784272
 22
85.1258922852367
 32
0.0
 13
114.0743354784272
 23
85.1258922852367
 33
0.0
  0
MTEXT
  5
65A
330
653
100
AcDbEntity
  8
1
 62
     7
100
AcDbMText
 10
133.8574117691876
 20
87.15088184962222
 30
0.0
 40
5.25000000000001
 41
0.0
 71
     7
 72
     1
  1
\C7;{\Fgdt;n}\C7;15,7
  7
CONVERTER_12
 11
0.9999999999970619
 21
2.424068405545306E-6
 31
0.0
 73
     1
 44
0.60024009603842
  0
ENDBLK
  5
65C
330
653
100
AcDbEntity
  8
0
100
AcDbBlockEnd
  0
BLOCK
  5
666
330
65F
100
AcDbEntity
  8
0
100
AcDbBlockBegin
  2
*D17
 70
     1
 10
0.0
 20
0.0
 30
0.0
  3
*D17
  1

  0
LINE
  5
660
330
65F
100
AcDbEntity
  8
1
  6
Continuous
 62
     2
100
AcDbLine
 10
69.22433547842707
 20
191.168000529443
 30
0.0
 11
69.22433547842707
 21
101.1258932852367
 31
0.0
  0
LINE
  5
661
330
65F
100
AcDbEntity
  8
1
  6
Continuous
 62
     2
100
AcDbLine
 10
104.4243354784269
 20
101.1258932852367
 30
0.0
 11
67.72433547842707
 21
101.1258932852367
 31
0.0
  0
LINE
  5
662
330
65F
100
AcDbEntity
  8
1
  6
Continuous
 62
     2
100
AcDbLine
 10
78.724335478427
 20
191.168000529443
 30
0.0
 11
67.72433547842707
 21
191.168000529443
 31
0.0
  0
SOLID
  5
663
330
65F
100
AcDbEntity
  8
1
 62
     2
100
AcDbTrace
 10
69.91551109076089
 20
185.918000529443
 30
0.0
 11
68.53315986609324
 21
185.918000529443
 31
0.0
 12
69.22433547842707
 22
191.168000529443
 32
0.0
 13
69.22433547842707
 23
191.168000529443
 33
0.0
  0
SOLID
  5
664
330
65F
100
AcDbEntity
  8
1
 62
     2
100
AcDbTrace
 10
68.53315986609324
 20
106.3758932852367
 30
0.0
 11
69.9155110907609
 21
106.3758932852367
 31
0.0
 12
69.22433547842707
 22
101.1258932852367
 32
0.0
 13
69.22433547842707
 23
101.1258932852367
 33
0.0
  0
MTEXT
  5
665
330
65F
100
AcDbEntity
  8
1
 62
     7
100
AcDbMText
 10
67.72433547842707
 20
141.7094464073398
 30
0.0
 40
5.25000000000001
 41
0.0
 71
     7
 72
     1
  1
90
  7
CONVERTER_12
 11
0.0
 21
1.0
 31
0.0
 73
     1
 44
0.60024009603842
  0
ENDBLK
  5
667
330
65F
100
AcDbEntity
  8
0
100
AcDbBlockEnd
  0
ENDSEC
  0
SECTION
  2
ENTITIES
  0
INSERT
  5
65
330
1F
100
AcDbEntity
  8
0
100
AcDbBlockReference
  2
81-93
 10
315.0000000000003
 20
445.5000000000005
 30
0.0
  0
INSERT
  5
66
330
1F
100
AcDbEntity
  8
0
100
AcDbBlockReference
  2
Y143-0B
 10
438.9184797446813
 20
46.30176690675238
 30
0.0
  0
INSERT
  5
67
330
1F
100
AcDbEntity
  8
1
100
AcDbBlockReference
  2
89-107
 10
171.2329574497786
 20
190.4608937482562
 30
0.0
  0
INSERT
  5
68
330
1F
100
AcDbEntity
  8
0
100
AcDbBlockReference
  2
84-35-B
 10
249.5073880971829
 20
326.3892321010264
 30
0.0
  0
INSERT
  5
69
330
1F
100
AcDbEntity
  8
0
100
AcDbBlockReference
  2
38-134-M1
 10
292.7643104025775
 20
244.5740171654183
 30
0.0
  0
INSERT
  5
6A
330
1F
100
AcDbEntity
  8
1
100
AcDbBlockReference
  2
T3360F
 10
805.2847786750162
 20
890.99432286693
 30
0.0
  0
INSERT
  5
6B
330
1F
100
AcDbEntity
  8
1
100
AcDbBlockReference
  2
開示A4
 10
0.0
 20
0.0
 30
0.0
 41
1.5
 42
1.5
 43
1.5
  0
LINE
  5
5FB
330
1F
100
AcDbEntity
  8
1
  6
DASH_CENTER
 62
     2
100
AcDbLine
 10
215.224335478427
 20
191.1680005294429
 30
0.0
 11
218.7598693843597
 21
187.6324666235101
 31
0.0
  0
LINE
  5
5FC
330
1F
100
AcDbEntity
  8
1
  6
DASH_CENTER
 62
     2
100
AcDbLine
 10
208.7796328461004
 20
99.7682456122678
 30
0.0
 11
203.2243354784271
 21
105.7147611044248
 31
0.0
  0
LINE
  5
5FD
330
1F
100
AcDbEntity
  8
1
  6
DASH_CENTER
 62
     2
100
AcDbLine
 10
167.494627748335
 20
238.8977082595348
 30
0.0
 11
215.224335478427
 21
191.1680005294429
 31
0.0
  0
LINE
  5
5FE
330
1F
100
AcDbEntity
  8
1
  6
DASH_CENTER
 62
     2
100
AcDbLine
 10
106.224335478427
 20
250.2157277441953
 30
0.0
 11
106.224335478427
 21
95.62589228523669
 31
0.0
  0
LINE
  5
5FF
330
1F
100
AcDbEntity
  8
1
  6
DASH_CENTER
 62
     2
100
AcDbLine
 10
78.724335478427
 20
191.1680005294429
 30
0.0
 11
133.724335478427
 21
191.1680005294429
 31
0.0
  0
LINE
  5
600
330
1F
100
AcDbEntity
  8
1
  6
DASH_CENTER
 62
     2
100
AcDbLine
 10
82.64573410288985
 20
297.5704672262098
 30
0.0
 11
129.8029359980737
 21
297.5704672262098
 31
0.0
  0
LINE
  5
601
330
1F
100
AcDbEntity
  8
1
  6
DASH_CENTER
 62
     2
100
AcDbLine
 10
106.2241588151371
 20
401.7646410503691
 30
0.0
 11
106.2241588151371
 21
282.7169138362454
 31
0.0
  0
LINE
  5
602
330
1F
100
AcDbEntity
  8
1
  6
DASH_CENTER
 62
     2
100
AcDbLine
 10
203.224335478427
 20
194.1680005294429
 30
0.0
 11
203.224335478427
 21
168.1668132852367
 31
0.0
  0
LINE
  5
603
330
1F
100
AcDbEntity
  8
1
  6
DASH_CENTER
 62
     2
100
AcDbLine
 10
276.7243354784273
 20
191.1680005294429
 30
0.0
 11
215.224335478427
 21
191.1680005294429
 31
0.0
  0
LINE
  5
604
330
1F
100
AcDbEntity
  8
1
  6
DASH_CENTER
 62
     2
100
AcDbLine
 10
215.224335478427
 20
191.1680005294429
 30
0.0
 11
200.0620988420184
 21
191.1680005294429
 31
0.0
  0
LINE
  5
605
330
1F
100
AcDbEntity
  8
中心線
  6
DASH_CENTER
 62
     2
100
AcDbLine
 10
203.224335478427
 20
168.1668132852367
 30
0.0
 11
203.2243354784271
 21
105.7147611044248
 31
0.0
  0
LINE
  5
606
330
1F
100
AcDbEntity
  8
1
  6
DASH_CENTER
 62
     2
100
AcDbLine
 10
82.84288485849372
 20
235.7156957035765
 30
0.0
 11
129.6057852685864
 21
235.7156957035765
 31
0.0
  0
LINE
  5
607
330
1F
100
AcDbEntity
  8
1
  6
DASH_CENTER
 62
     2
100
AcDbLine
 10
132.7243354784268
 20
329.7646410503691
 30
0.0
 11
79.72433547842692
 21
329.7646410503691
 31
0.0
  0
SOLID
  5
608
330
1F
100
AcDbEntity
  8
1
 62
     2
100
AcDbTrace
 10
264.3669111171843
 20
176.4894549657415
 30
0.0
 11
263.1697598396696
 21
175.7982793534077
 31
0.0
 12
261.143335478427
 22
180.6905005294429
 32
0.0
 13
261.143335478427
 23
180.6905005294429
 33
0.0
  0
LEADER
  5
609
330
1F
100
AcDbEntity
  8
1
  6
Continuous
 62
     2
100
AcDbLeader
  3
Standard
 71
     0
 76
     3
 10
261.143335478427
 20
180.6905005294429
 30
0.0
 10
274.7243354784273
 20
157.1675185118494
 30
0.0
 10
296.596927438674
 20
157.1675185118494
 30
0.0
  0
MTEXT
  5
60B
330
1F
100
AcDbEntity
  8
1
 62
     7
100
AcDbMText
 10
285.6606314585507
 20
161.6675185118494
 30
0.0
 40
5.25000000000001
 41
0.0
 71
     5
 72
     1
  1
PJ1/2
  7
CONVERTER_12
 73
     1
 44
1.32052821128451
  0
MTEXT
  5
60C
330
1F
100
AcDbEntity
  8
1
 62
     7
100
AcDbMText
 10
85.50000000000013
 20
34.12500000000006
 30
0.0
 40
5.25
 41
0.0
 71
     5
 72
     1
  1
洗濯機用送り座水栓
  7
CONVERTER_11
 73
     1
 44
0.54545454545455
  0
MTEXT
  5
60D
330
1F
100
AcDbEntity
  8
1
 62
     7
100
AcDbMText
 10
85.50000000000014
 20
21.37500000000003
 30
0.0
 40
5.25
 41
0.0
 71
     5
 72
     1
  1
Y143CTV-2-13
  7
CONVERTER_12
 73
     1
 44
0.7202881152461
  0
MTEXT
  5
60E
330
1F
100
AcDbEntity
  8
1
 62
     7
100
AcDbMText
 10
51.00000000000006
 20
51.00000000000006
 30
0.0
 40
5.25
 41
0.0
 71
     4
 72
     1
  1
JIS
  7
CONVERTER_12
 73
     1
 44
0.7202881152461
  0
MTEXT
  5
60F
330
1F
100
AcDbEntity
  8
0
 62
     7
100
AcDbMText
 10
140.6250000001406
 20
25.5000000000255
 30
0.0
 40
5.25
 41
0.0
 71
     5
 72
     1
  1
1,5
  7
CONVERTER_12
 73
     1
 44
0.7202881152461
  0
MTEXT
  5
610
330
1F
100
AcDbEntity
  8
0
 62
     7
100
AcDbMText
 10
127.8750000001277
 20
25.5000000000255
 30
0.0
 40
5.25
 41
0.0
 71
     5
 72
     1
  1
1
  7
CONVERTER_12
 73
     1
 44
0.7202881152461
  0
DIMENSION
  5
61B
330
1F
100
AcDbEntity
  8
1
100
AcDbDimension
  2
*D10
 10
160.6766082636745
 20
272.7157277441954
 30
0.0
 11
215.7004718710509
 21
276.8407277441954
 31
0.0
 70
    32
  1
110
 71
     5
 42
-1.0
 53
0.00013888888889
  3
ME10_DIM_10
100
AcDbAlignedDimension
 13
270.7243354784273
 23
200.4835005294428
 33
0.0
 14
160.6766082636745
 24
220.1593785580913
 34
0.0
100
AcDbRotatedDimension
  0
DIMENSION
  5
626
330
1F
100
AcDbEntity
  8
1
100
AcDbDimension
  2
*D11
 10
196.1324523863902
 20
261.1715718669111
 30
0.0
 11
221.323131466161
 21
241.8145237319294
 31
0.0
 70
    33
  1
63リフト5
 71
     5
 42
-1.0
 53
-44.99999999999995
  3
ME10_DIM_11
100
AcDbAlignedDimension
 13
215.224335478427
 23
191.1680005294429
 33
0.0
 14
170.6766082636745
 24
235.7157277441953
 34
0.0
  0
DIMENSION
  5
631
330
1F
100
AcDbEntity
  8
1
100
AcDbDimension
  2
*D12
 10
69.22433547842707
 20
235.7156957035765
 30
0.0
 11
65.09933547842707
 21
213.4418481165097
 31
0.0
 70
    32
  1
45
 71
     5
 42
-1.0
 53
90.0
  3
ME10_DIM_12
100
AcDbAlignedDimension
 13
78.724335478427
 23
191.1680005294429
 33
0.0
 14
82.84288485849372
 24
235.7156957035765
 34
0.0
 50
90.0
100
AcDbRotatedDimension
  0
DIMENSION
  5
63C
330
1F
100
AcDbEntity
  8
1
100
AcDbDimension
  2
*D13
 10
203.2243354784272
 20
85.1258922852367
 30
0.0
 11
236.9743354784272
 21
89.2508922852367
 31
0.0
 70
    32
  1
68
 71
     5
 42
-1.0
 53
0.00013888888889
  3
ME10_DIM_13
100
AcDbAlignedDimension
 13
270.7243354784273
 23
181.8525005294429
 33
0.0
 14
203.2243354784271
 24
105.7147611044249
 34
0.0
100
AcDbRotatedDimension
  0
DIMENSION
  5
647
330
1F
100
AcDbEntity
  8
1
100
AcDbDimension
  2
*D14
 10
285.7243354784273
 20
214.1680005294429
 30
0.0
 11
281.5993354784273
 21
191.1680005294429
 31
0.0
 70
    32
  1
<>
 71
     5
 42
-1.0
 53
90.0
  3
ME10_DIM_14
100
AcDbAlignedDimension
 13
256.724335478427
 23
168.1680005294429
 33
0.0
 14
256.724335478427
 24
214.1680005294429
 34
0.0
 50
90.0
100
AcDbRotatedDimension
  0
DIMENSION
  5
652
330
1F
100
AcDbEntity
  8
1
100
AcDbDimension
  2
*D15
 10
84.22433547842707
 20
73.1258922852367
 30
0.0
 11
106.224335478427
 21
77.2508922852367
 31
0.0
 70
    32
  1
<>
 71
     5
 42
-1.0
 53
0.00013888888889
  3
ME10_DIM_15
100
AcDbAlignedDimension
 13
128.224335478427
 23
132.8802592852366
 33
0.0
 14
84.22433547842707
 24
132.8802592852366
 34
0.0
100
AcDbRotatedDimension
  0
DIMENSION
  5
65E
330
1F
100
AcDbEntity
  8
1
100
AcDbDimension
  2
*D16
 10
98.37433547842716
 20
85.1258922852367
 30
0.0
 11
141.443661769175
 21
89.5133922852367
 31
0.0
 70
    32
  1
<>
 71
     5
 42
-1.0
 53
0.00013888888889
  3
ME10_DIM_16
100
AcDbAlignedDimension
 13
114.0743354784272
 23
112.6302592852366
 33
0.0
 14
98.37433547842716
 24
112.6302592852366
 34
0.0
100
AcDbRotatedDimension
  0
DIMENSION
  5
669
330
1F
100
AcDbEntity
  8
1
100
AcDbDimension
  2
*D17
 10
69.22433547842707
 20
191.168000529443
 30
0.0
 11
65.09933547842707
 21
145.6469464073398
 31
0.0
 70
    32
  1
90
 71
     5
 42
-1.0
 53
90.0
  3
ME10_DIM_17
100
AcDbAlignedDimension
 13
104.4243354784269
 23
101.1258932852367
 33
0.0
 14
78.724335478427
 24
191.1680005294429
 34
0.0
 50
90.0
100
AcDbRotatedDimension
  0
ENDSEC
  0
SECTION
  2
OBJECTS
  0
DICTIONARY
  5
C
330
0
100
AcDbDictionary
281
     1
  3
ACAD_GROUP
350
D
  3
ACAD_LAYOUT
350
1A
  3
ACAD_MATERIAL
350
3B
  3
ACAD_MLEADERSTYLE
350
66C
  3
ACAD_MLINESTYLE
350
17
  3
ACAD_PLOTSETTINGS
350
19
  3
ACAD_PLOTSTYLENAME
350
E
  3
ACAD_VISUALSTYLE
350
2A
  3
AcDbVariableDictionary
350
66A
  0
DICTIONARY
  5
D
102
{ACAD_REACTORS
330
C
102
}
330
C
100
AcDbDictionary
281
     1
  0
DICTIONARY
  5
1A
102
{ACAD_REACTORS
330
C
102
}
330
C
100
AcDbDictionary
281
     1
  3
Layout1
350
1E
  3
Layout2
350
26
  3
Model
350
22
  0
DICTIONARY
  5
3B
102
{ACAD_REACTORS
330
C
102
}
330
C
100
AcDbDictionary
281
     1
  3
ByBlock
350
3D
  3
ByLayer
350
3C
  3
Global
350
3E
  0
DICTIONARY
  5
66C
102
{ACAD_REACTORS
330
C
102
}
330
C
100
AcDbDictionary
281
     1
  0
DICTIONARY
  5
17
102
{ACAD_REACTORS
330
C
102
}
330
C
100
AcDbDictionary
281
     1
  3
Standard
350
18
  0
DICTIONARY
  5
19
102
{ACAD_REACTORS
330
C
102
}
330
C
100
AcDbDictionary
281
     1
  0
ACDBDICTIONARYWDFLT
  5
E
102
{ACAD_REACTORS
330
C
102
}
330
C
100
AcDbDictionary
281
     1
  3
Normal
350
F
100
AcDbDictionaryWithDefault
340
F
  0
DICTIONARY
  5
2A
102
{ACAD_REACTORS
330
C
102
}
330
C
100
AcDbDictionary
281
     1
  3
2dWireframe
350
2F
  3
3D Hidden
350
31
  3
3dWireframe
350
30
  3
Basic
350
32
  3
Brighten
350
36
  3
ColorChange
350
3A
  3
Conceptual
350
34
  3
Dim
350
35
  3
Facepattern
350
39
  3
Flat
350
2B
  3
FlatWithEdges
350
2C
  3
Gouraud
350
2D
  3
GouraudWithEdges
350
2E
  3
Linepattern
350
38
  3
Realistic
350
33
  3
Thicken
350
37
  0
DICTIONARY
  5
66A
102
{ACAD_REACTORS
330
C
102
}
330
C
100
AcDbDictionary
281
     1
  3
DIMASSOC
350
66D
  3
HIDETEXT
350
66E
  0
LAYOUT
  5
1E
102
{ACAD_REACTORS
330
1A
102
}
330
1A
100
AcDbPlotSettings
  1

  2
none_device
  4

  6

 40
0.0
 41
0.0
 42
0.0
 43
0.0
 44
0.0
 45
0.0
 46
0.0
 47
0.0
 48
0.0
 49
0.0
140
0.0
141
0.0
142
1.0
143
1.0
 70
   688
 72
     0
 73
     0
 74
     5
  7

 75
    16
147
1.0
148
0.0
149
0.0
100
AcDbLayout
  1
Layout1
 70
     1
 71
     1
 10
0.0
 20
0.0
 11
12.0
 21
9.0
 12
0.0
 22
0.0
 32
0.0
 14
1.00000000000000E+20
 24
1.00000000000000E+20
 34
1.00000000000000E+20
 15
-1.00000000000000E+20
 25
-1.00000000000000E+20
 35
-1.00000000000000E+20
146
0.0
 13
0.0
 23
0.0
 33
0.0
 16
1.0
 26
0.0
 36
0.0
 17
0.0
 27
1.0
 37
0.0
 76
     0
330
1B
  0
LAYOUT
  5
26
102
{ACAD_REACTORS
330
1A
102
}
330
1A
100
AcDbPlotSettings
  1

  2
none_device
  4

  6

 40
0.0
 41
0.0
 42
0.0
 43
0.0
 44
0.0
 45
0.0
 46
0.0
 47
0.0
 48
0.0
 49
0.0
140
0.0
141
0.0
142
1.0
143
1.0
 70
   688
 72
     0
 73
     0
 74
     5
  7

 75
    16
147
1.0
148
0.0
149
0.0
100
AcDbLayout
  1
Layout2
 70
     1
 71
     2
 10
0.0
 20
0.0
 11
0.0
 21
0.0
 12
0.0
 22
0.0
 32
0.0
 14
0.0
 24
0.0
 34
0.0
 15
0.0
 25
0.0
 35
0.0
146
0.0
 13
0.0
 23
0.0
 33
0.0
 16
1.0
 26
0.0
 36
0.0
 17
0.0
 27
1.0
 37
0.0
 76
     0
330
23
  0
LAYOUT
  5
22
102
{ACAD_REACTORS
330
1A
102
}
330
1A
100
AcDbPlotSettings
  1

  2
none_device
  4

  6

 40
0.0
 41
0.0
 42
0.0
 43
0.0
 44
0.0
 45
0.0
 46
0.0
 47
0.0
 48
0.0
 49
0.0
140
0.0
141
0.0
142
1.0
143
1.0
 70
  1712
 72
     0
 73
     0
 74
     0
  7

 75
     0
147
1.0
148
0.0
149
0.0
100
AcDbLayout
  1
Model
 70
     1
 71
     0
 10
0.0
 20
0.0
 11
12.0
 21
9.0
 12
0.0
 22
0.0
 32
0.0
 14
0.0
 24
0.0
 34
0.0
 15
315.0000000000003
 25
445.5000000000005
 35
0.0
146
0.0
 13
0.0
 23
0.0
 33
0.0
 16
1.0
 26
0.0
 36
0.0
 17
0.0
 27
1.0
 37
0.0
 76
     0
330
1F
331
29
  0
MATERIAL
  5
3D
102
{ACAD_REACTORS
330
3B
102
}
102
{ACAD_XDICTIONARY
360
691
102
}
330
3B
100
AcDbMaterial
  1
ByBlock
  0
MATERIAL
  5
3C
102
{ACAD_REACTORS
330
3B
102
}
102
{ACAD_XDICTIONARY
360
68F
102
}
330
3B
100
AcDbMaterial
  1
ByLayer
  0
MATERIAL
  5
3E
102
{ACAD_REACTORS
330
3B
102
}
102
{ACAD_XDICTIONARY
360
693
102
}
330
3B
100
AcDbMaterial
  1
Global
  0
MLINESTYLE
  5
18
102
{ACAD_REACTORS
330
17
102
}
330
17
100
AcDbMlineStyle
  2
Standard
 70
     0
  3

 62
   256
 51
90.0
 52
90.0
 71
     2
 49
0.5
 62
   256
  6
BYLAYER
 49
-0.5
 62
   256
  6
BYLAYER
  0
ACDBPLACEHOLDER
  5
F
102
{ACAD_REACTORS
330
E
102
}
330
E
  0
VISUALSTYLE
  5
2F
102
{ACAD_REACTORS
330
2A
102
}
102
{ACAD_XDICTIONARY
360
677
102
}
330
2A
100
AcDbVisualStyle
  2
2dWireframe
 70
     4
 71
     0
 72
     2
 73
     0
 90
        0
 40
-0.6
 41
-30.0
 62
     5
 63
     7
 74
     1
 91
        4
 64
     7
 65
   257
 75
     1
175
     1
 42
1.0
 92
        0
 66
   257
 43
1.0
 76
     1
 77
     6
 78
     2
 67
     7
 79
     5
170
     0
171
     0
290
     0
174
     0
 93
        1
 44
0.0
173
     0
291
     0
 45
0.0
1001
ACAD
1000
AcDbSavedByObjectVersion
1070
     0
  0
VISUALSTYLE
  5
31
102
{ACAD_REACTORS
330
2A
102
}
102
{ACAD_XDICTIONARY
360
67B
102
}
330
2A
100
AcDbVisualStyle
  2
3D Hidden
 70
     6
 71
     1
 72
     2
 73
     2
 90
        0
 40
-0.6
 41
-30.0
 62
     5
 63
     7
 74
     2
 91
        2
 64
     7
 65
   257
 75
     2
175
     1
 42
40.0
 92
        0
 66
   257
 43
1.0
 76
     1
 77
     6
 78
     2
 67
     7
 79
     3
170
     0
171
     0
290
     0
174
     0
 93
        1
 44
0.0
173
     0
291
     0
 45
0.0
1001
ACAD
1000
AcDbSavedByObjectVersion
1070
     0
  0
VISUALSTYLE
  5
30
102
{ACAD_REACTORS
330
2A
102
}
102
{ACAD_XDICTIONARY
360
679
102
}
330
2A
100
AcDbVisualStyle
  2
3dWireframe
 70
     5
 71
     0
 72
     2
 73
     0
 90
        0
 40
-0.6
 41
-30.0
 62
     5
 63
     7
 74
     1
 91
        4
 64
     7
 65
   257
 75
     1
175
     1
 42
1.0
 92
        0
 66
   257
 43
1.0
 76
     1
 77
     6
 78
     2
 67
     7
 79
     5
170
     0
171
     0
290
     0
174
     0
 93
        1
 44
0.0
173
     0
291
     0
 45
0.0
1001
ACAD
1000
AcDbSavedByObjectVersion
1070
     0
  0
VISUALSTYLE
  5
32
102
{ACAD_REACTORS
330
2A
102
}
102
{ACAD_XDICTIONARY
360
67D
102
}
330
2A
100
AcDbVisualStyle
  2
Basic
 70
     7
 71
     1
 72
     0
 73
     1
 90
        0
 40
-0.6
 41
-30.0
 62
     5
 63
     7
 74
     0
 91
        4
 64
     7
 65
   257
 75
     1
175
     1
 42
1.0
 92
        8
 66
     7
 43
1.0
 76
     1
 77
     6
 78
     2
 67
     7
 79
     5
170
     0
171
     0
290
     0
174
     0
 93
        1
 44
0.0
173
     0
291
     1
 45
0.0
1001
ACAD
1000
AcDbSavedByObjectVersion
1070
     0
  0
VISUALSTYLE
  5
36
102
{ACAD_REACTORS
330
2A
102
}
102
{ACAD_XDICTIONARY
360
685
102
}
330
2A
100
AcDbVisualStyle
  2
Brighten
 70
    12
 71
     2
 72
     2
 73
     0
 90
        0
 40
-0.6
 41
-30.0
 62
     5
 63
     7
 74
     1
 91
        4
 64
     7
 65
   257
 75
     1
175
     1
 42
1.0
 92
        8
 66
     7
 43
1.0
 76
     1
 77
     6
 78
     2
 67
     7
 79
     5
170
     0
171
     0
290
     0
174
     0
 93
        1
 44
50.0
173
     0
291
     1
 45
0.0
1001
ACAD
1000
AcDbSavedByObjectVersion
1070
     0
  0
VISUALSTYLE
  5
3A
102
{ACAD_REACTORS
330
2A
102
}
102
{ACAD_XDICTIONARY
360
68D
102
}
330
2A
100
AcDbVisualStyle
  2
ColorChange
 70
    16
 71
     2
 72
     2
 73
     3
 90
        0
 40
-0.6
 41
-30.0
 62
     5
 63
     8
 74
     1
 91
        4
 64
     7
 65
   257
 75
     1
175
     1
 42
1.0
 92
        8
 66
     8
 43
1.0
 76
     1
 77
     6
 78
     2
 67
     7
 79
     5
170
     0
171
     0
290
     0
174
     0
 93
        1
 44
0.0
173
     0
291
     1
 45
0.0
1001
ACAD
1000
AcDbSavedByObjectVersion
1070
     0
  0
VISUALSTYLE
  5
34
102
{ACAD_REACTORS
330
2A
102
}
102
{ACAD_XDICTIONARY
360
681
102
}
330
2A
100
AcDbVisualStyle
  2
Conceptual
 70
     9
 71
     3
 72
     2
 73
     0
 90
        0
 40
-0.6
 41
-30.0
 62
     5
 63
     7
 74
     2
 91
        2
 64
     7
 65
   257
 75
     1
175
     1
 42
40.0
 92
        8
 66
     7
 43
1.0
 76
     1
 77
     6
 78
     2
 67
     7
 79
     3
170
     0
171
     0
290
     0
174
     0
 93
        1
 44
0.0
173
     0
291
     0
 45
0.0
1001
ACAD
1000
AcDbSavedByObjectVersion
1070
     0
  0
VISUALSTYLE
  5
35
102
{ACAD_REACTORS
330
2A
102
}
102
{ACAD_XDICTIONARY
360
683
102
}
330
2A
100
AcDbVisualStyle
  2
Dim
 70
    11
 71
     2
 72
     2
 73
     0
 90
        0
 40
-0.6
 41
-30.0
 62
     5
 63
     7
 74
     1
 91
        4
 64
     7
 65
   257
 75
     1
175
     1
 42
1.0
 92
        8
 66
     7
 43
1.0
 76
     1
 77
     6
 78
     2
 67
     7
 79
     5
170
     0
171
     0
290
     0
174
     0
 93
        1
 44
-50.0
173
     0
291
     1
 45
0.0
1001
ACAD
1000
AcDbSavedByObjectVersion
1070
     0
  0
VISUALSTYLE
  5
39
102
{ACAD_REACTORS
330
2A
102
}
102
{ACAD_XDICTIONARY
360
68B
102
}
330
2A
100
AcDbVisualStyle
  2
Facepattern
 70
    15
 71
     2
 72
     2
 73
     0
 90
        0
 40
-0.6
 41
-30.0
 62
     5
 63
     7
 74
     1
 91
        4
 64
     7
 65
   257
 75
     1
175
     1
 42
1.0
 92
        8
 66
     7
 43
1.0
 76
     1
 77
     6
 78
     2
 67
     7
 79
     5
170
     0
171
     0
290
     0
174
     0
 93
        1
 44
0.0
173
     0
291
     1
 45
0.0
1001
ACAD
1000
AcDbSavedByObjectVersion
1070
     0
  0
VISUALSTYLE
  5
2B
102
{ACAD_REACTORS
330
2A
102
}
102
{ACAD_XDICTIONARY
360
66F
102
}
330
2A
100
AcDbVisualStyle
  2
Flat
 70
     0
 71
     2
 72
     1
 73
     1
 90
        2
 40
-0.6
 41
30.0
 62
     5
 63
     7
 74
     0
 91
        4
 64
     7
 65
   257
 75
     1
175
     1
 42
1.0
 92
        8
 66
     7
 43
1.0
 76
     1
 77
     6
 78
     2
 67
     7
 79
     5
170
     0
171
     0
290
     0
174
     0
 93
       13
 44
0.0
173
     0
291
     1
 45
0.0
1001
ACAD
1000
AcDbSavedByObjectVersion
1070
     0
  0
VISUALSTYLE
  5
2C
102
{ACAD_REACTORS
330
2A
102
}
102
{ACAD_XDICTIONARY
360
671
102
}
330
2A
100
AcDbVisualStyle
  2
FlatWithEdges
 70
     1
 71
     2
 72
     1
 73
     1
 90
        2
 40
-0.6
 41
30.0
 62
     5
 63
     7
 74
     1
 91
        4
 64
     7
 65
   257
 75
     1
175
     1
 42
1.0
 92
        0
 66
   257
 43
1.0
 76
     1
 77
     6
 78
     2
 67
     7
 79
     5
170
     0
171
     0
290
     0
174
     0
 93
       13
 44
0.0
173
     0
291
     1
 45
0.0
1001
ACAD
1000
AcDbSavedByObjectVersion
1070
     0
  0
VISUALSTYLE
  5
2D
102
{ACAD_REACTORS
330
2A
102
}
102
{ACAD_XDICTIONARY
360
673
102
}
330
2A
100
AcDbVisualStyle
  2
Gouraud
 70
     2
 71
     2
 72
     2
 73
     1
 90
        2
 40
-0.6
 41
30.0
 62
     5
 63
     7
 74
     0
 91
        4
 64
     7
 65
   257
 75
     1
175
     1
 42
1.0
 92
        0
 66
     7
 43
1.0
 76
     1
 77
     6
 78
     2
 67
     7
 79
     5
170
     0
171
     0
290
     0
174
     0
 93
       13
 44
0.0
173
     0
291
     1
 45
0.0
1001
ACAD
1000
AcDbSavedByObjectVersion
1070
     0
  0
VISUALSTYLE
  5
2E
102
{ACAD_REACTORS
330
2A
102
}
102
{ACAD_XDICTIONARY
360
675
102
}
330
2A
100
AcDbVisualStyle
  2
GouraudWithEdges
 70
     3
 71
     2
 72
     2
 73
     1
 90
        2
 40
-0.6
 41
30.0
 62
     5
 63
     7
 74
     1
 91
        4
 64
     7
 65
   257
 75
     1
175
     1
 42
1.0
 92
        0
 66
   257
 43
1.0
 76
     1
 77
     6
 78
     2
 67
     7
 79
     5
170
     0
171
     0
290
     0
174
     0
 93
       13
 44
0.0
173
     0
291
     1
 45
0.0
1001
ACAD
1000
AcDbSavedByObjectVersion
1070
     0
  0
VISUALSTYLE
  5
38
102
{ACAD_REACTORS
330
2A
102
}
102
{ACAD_XDICTIONARY
360
689
102
}
330
2A
100
AcDbVisualStyle
  2
Linepattern
 70
    14
 71
     2
 72
     2
 73
     0
 90
        0
 40
-0.6
 41
-30.0
 62
     5
 63
     7
 74
     1
 91
        4
 64
     7
 65
   257
 75
     7
175
     7
 42
1.0
 92
        8
 66
     7
 43
1.0
 76
     1
 77
     6
 78
     2
 67
     7
 79
     5
170
     0
171
     0
290
     0
174
     0
 93
        1
 44
0.0
173
     0
291
     1
 45
0.0
1001
ACAD
1000
AcDbSavedByObjectVersion
1070
     0
  0
VISUALSTYLE
  5
33
102
{ACAD_REACTORS
330
2A
102
}
102
{ACAD_XDICTIONARY
360
67F
102
}
330
2A
100
AcDbVisualStyle
  2
Realistic
 70
     8
 71
     2
 72
     2
 73
     0
 90
        0
 40
-0.6
 41
-30.0
 62
     5
 63
     7
 74
     1
 91
        0
 64
     7
 65
   257
 75
     1
175
     1
 42
1.0
 92
        8
 66
     8
 43
1.0
 76
     1
 77
     6
 78
     2
 67
     7
 79
     5
170
     0
171
     0
290
     0
174
     0
 93
       13
 44
0.0
173
     0
291
     0
 45
0.0
1001
ACAD
1000
AcDbSavedByObjectVersion
1070
     0
  0
VISUALSTYLE
  5
37
102
{ACAD_REACTORS
330
2A
102
}
102
{ACAD_XDICTIONARY
360
687
102
}
330
2A
100
AcDbVisualStyle
  2
Thicken
 70
    13
 71
     2
 72
     2
 73
     0
 90
        0
 40
-0.6
 41
-30.0
 62
     5
 63
     7
 74
     1
 91
        4
 64
     7
 65
   257
 75
     1
175
     1
 42
1.0
 92
       12
 66
     7
 43
1.0
 76
     1
 77
     6
 78
     2
 67
     7
 79
     5
170
     0
171
     0
290
     0
174
     0
 93
        1
 44
0.0
173
     0
291
     1
 45
0.0
1001
ACAD
1000
AcDbSavedByObjectVersion
1070
     0
  0
DICTIONARYVAR
  5
66D
102
{ACAD_REACTORS
330
66A
102
}
330
66A
100
DictionaryVariables
280
     0
  1
2
  0
DICTIONARYVAR
  5
66E
102
{ACAD_REACTORS
330
66A
102
}
330
66A
100
DictionaryVariables
280
     0
  1
1
  0
DICTIONARY
  5
691
330
3D
100
AcDbDictionary
280
     1
281
     1
  3
ACAD_XREC_ROUNDTRIP
360
692
  0
DICTIONARY
  5
68F
330
3C
100
AcDbDictionary
280
     1
281
     1
  3
ACAD_XREC_ROUNDTRIP
360
690
  0
DICTIONARY
  5
693
330
3E
100
AcDbDictionary
280
     1
281
     1
  3
ACAD_XREC_ROUNDTRIP
360
694
  0
DICTIONARY
  5
677
330
2F
100
AcDbDictionary
280
     1
281
     1
  3
ACAD_XREC_ROUNDTRIP
360
678
  0
DICTIONARY
  5
67B
330
31
100
AcDbDictionary
280
     1
281
     1
  3
ACAD_XREC_ROUNDTRIP
360
67C
  0
DICTIONARY
  5
679
330
30
100
AcDbDictionary
280
     1
281
     1
  3
ACAD_XREC_ROUNDTRIP
360
67A
  0
DICTIONARY
  5
67D
330
32
100
AcDbDictionary
280
     1
281
     1
  3
ACAD_XREC_ROUNDTRIP
360
67E
  0
DICTIONARY
  5
685
330
36
100
AcDbDictionary
280
     1
281
     1
  3
ACAD_XREC_ROUNDTRIP
360
686
  0
DICTIONARY
  5
68D
330
3A
100
AcDbDictionary
280
     1
281
     1
  3
ACAD_XREC_ROUNDTRIP
360
68E
  0
DICTIONARY
  5
681
330
34
100
AcDbDictionary
280
     1
281
     1
  3
ACAD_XREC_ROUNDTRIP
360
682
  0
DICTIONARY
  5
683
330
35
100
AcDbDictionary
280
     1
281
     1
  3
ACAD_XREC_ROUNDTRIP
360
684
  0
DICTIONARY
  5
68B
330
39
100
AcDbDictionary
280
     1
281
     1
  3
ACAD_XREC_ROUNDTRIP
360
68C
  0
DICTIONARY
  5
66F
330
2B
100
AcDbDictionary
280
     1
281
     1
  3
ACAD_XREC_ROUNDTRIP
360
670
  0
DICTIONARY
  5
671
330
2C
100
AcDbDictionary
280
     1
281
     1
  3
ACAD_XREC_ROUNDTRIP
360
672
  0
DICTIONARY
  5
673
330
2D
100
AcDbDictionary
280
     1
281
     1
  3
ACAD_XREC_ROUNDTRIP
360
674
  0
DICTIONARY
  5
675
330
2E
100
AcDbDictionary
280
     1
281
     1
  3
ACAD_XREC_ROUNDTRIP
360
676
  0
DICTIONARY
  5
689
330
38
100
AcDbDictionary
280
     1
281
     1
  3
ACAD_XREC_ROUNDTRIP
360
68A
  0
DICTIONARY
  5
67F
330
33
100
AcDbDictionary
280
     1
281
     1
  3
ACAD_XREC_ROUNDTRIP
360
680
  0
DICTIONARY
  5
687
330
37
100
AcDbDictionary
280
     1
281
     1
  3
ACAD_XREC_ROUNDTRIP
360
688
  0
XRECORD
  5
692
102
{ACAD_REACTORS
330
691
102
}
330
691
100
AcDbXrecord
280
     1
102
MATERIAL
148
0.0
149
0.0
149
0.0
 93
        0
 94
      127
282
     0
 72
     1
 77
     1
171
     1
175
     1
179
     1
273
     0
  0
XRECORD
  5
690
102
{ACAD_REACTORS
330
68F
102
}
330
68F
100
AcDbXrecord
280
     1
102
MATERIAL
148
0.0
149
0.0
149
0.0
 93
        0
 94
      127
282
     0
 72
     1
 77
     1
171
     1
175
     1
179
     1
273
     0
  0
XRECORD
  5
694
102
{ACAD_REACTORS
330
693
102
}
330
693
100
AcDbXrecord
280
     1
102
MATERIAL
148
0.0
149
0.0
149
0.0
 93
        0
 94
      127
282
     0
 72
     1
 77
     1
171
     1
175
     1
179
     1
273
     0
  0
XRECORD
  5
678
102
{ACAD_REACTORS
330
677
102
}
330
677
100
AcDbXrecord
280
     1
102
RTVSPropertyOp0
 70
     1
102
RTVSPropertyOp1
 70
     1
102
RTVSPropertyOp2
 70
     1
102
RTVSPropertyOp3
 70
     1
102
RTVSPropertyOp4
 70
     1
102
RTVSPropertyOp5
 70
     1
102
RTVSPropertyOp6
 70
     1
102
RTVSPropertyOp7
 70
     1
102
RTVSPropertyOp8
 70
     1
102
RTVSPropertyOp9
 70
     1
102
RTVSPropertyOp10
 70
     1
102
RTVSPropertyOp11
 70
     1
102
RTVSPropertyOp12
 70
     1
102
RTVSPropertyOp13
 70
     1
102
RTVSPropertyOp14
 70
     1
102
RTVSPropertyOp15
 70
     1
102
RTVSPropertyOp16
 70
     1
102
RTVSPropertyOp17
 70
     1
102
RTVSPropertyOp18
 70
     1
102
RTVSPropertyOp19
 70
     1
102
RTVSPropertyOp20
 70
     1
102
RTVSPropertyOp21
 70
     1
102
RTVSPropertyOp22
 70
     1
102
RTVSPropertyOp23
 70
     1
102
RTVSPropertyOp24
 70
     1
102
RTVSPropertyOp25
 70
     1
102
RTVSPropertyOp26
 70
     1
102
RTVSPropertyOp27
 70
     1
102
RTVSPropertyOp28
 70
     1
102
RTVSPropertyOp29
 70
     1
102
RTVSPropertyOp30
 70
     1
102
RTVSPropertyOp31
 70
     1
102
RTVSPropertyOp32
 70
     1
  0
XRECORD
  5
67C
102
{ACAD_REACTORS
330
67B
102
}
330
67B
100
AcDbXrecord
280
     1
102
RTVSPropertyOp0
 70
     1
102
RTVSPropertyOp1
 70
     1
102
RTVSPropertyOp2
 70
     1
102
RTVSPropertyOp3
 70
     1
102
RTVSPropertyOp4
 70
     1
102
RTVSPropertyOp5
 70
     1
102
RTVSPropertyOp6
 70
     1
102
RTVSPropertyOp7
 70
     1
102
RTVSPropertyOp8
 70
     1
102
RTVSPropertyOp9
 70
     1
102
RTVSPropertyOp10
 70
     1
102
RTVSPropertyOp11
 70
     1
102
RTVSPropertyOp12
 70
     1
102
RTVSPropertyOp13
 70
     1
102
RTVSPropertyOp14
 70
     1
102
RTVSPropertyOp15
 70
     1
102
RTVSPropertyOp16
 70
     1
102
RTVSPropertyOp17
 70
     1
102
RTVSPropertyOp18
 70
     1
102
RTVSPropertyOp19
 70
     1
102
RTVSPropertyOp20
 70
     1
102
RTVSPropertyOp21
 70
     1
102
RTVSPropertyOp22
 70
     1
102
RTVSPropertyOp23
 70
     1
102
RTVSPropertyOp24
 70
     1
102
RTVSPropertyOp25
 70
     1
102
RTVSPropertyOp26
 70
     1
102
RTVSPropertyOp27
 70
     1
102
RTVSPropertyOp28
 70
     1
102
RTVSPropertyOp29
 70
     1
102
RTVSPropertyOp30
 70
     1
102
RTVSPropertyOp31
 70
     1
102
RTVSPropertyOp32
 70
     1
  0
XRECORD
  5
67A
102
{ACAD_REACTORS
330
679
102
}
330
679
100
AcDbXrecord
280
     1
102
RTVSPropertyOp0
 70
     1
102
RTVSPropertyOp1
 70
     1
102
RTVSPropertyOp2
 70
     1
102
RTVSPropertyOp3
 70
     1
102
RTVSPropertyOp4
 70
     1
102
RTVSPropertyOp5
 70
     1
102
RTVSPropertyOp6
 70
     1
102
RTVSPropertyOp7
 70
     1
102
RTVSPropertyOp8
 70
     1
102
RTVSPropertyOp9
 70
     1
102
RTVSPropertyOp10
 70
     1
102
RTVSPropertyOp11
 70
     1
102
RTVSPropertyOp12
 70
     1
102
RTVSPropertyOp13
 70
     1
102
RTVSPropertyOp14
 70
     1
102
RTVSPropertyOp15
 70
     1
102
RTVSPropertyOp16
 70
     1
102
RTVSPropertyOp17
 70
     1
102
RTVSPropertyOp18
 70
     1
102
RTVSPropertyOp19
 70
     1
102
RTVSPropertyOp20
 70
     1
102
RTVSPropertyOp21
 70
     1
102
RTVSPropertyOp22
 70
     1
102
RTVSPropertyOp23
 70
     1
102
RTVSPropertyOp24
 70
     1
102
RTVSPropertyOp25
 70
     1
102
RTVSPropertyOp26
 70
     1
102
RTVSPropertyOp27
 70
     1
102
RTVSPropertyOp28
 70
     1
102
RTVSPropertyOp29
 70
     1
102
RTVSPropertyOp30
 70
     1
102
RTVSPropertyOp31
 70
     1
102
RTVSPropertyOp32
 70
     1
  0
XRECORD
  5
67E
102
{ACAD_REACTORS
330
67D
102
}
330
67D
100
AcDbXrecord
280
     1
102
RTVSPropertyOp0
 70
     1
102
RTVSPropertyOp1
 70
     1
102
RTVSPropertyOp2
 70
     1
102
RTVSPropertyOp3
 70
     1
102
RTVSPropertyOp4
 70
     1
102
RTVSPropertyOp5
 70
     1
102
RTVSPropertyOp6
 70
     1
102
RTVSPropertyOp7
 70
     1
102
RTVSPropertyOp8
 70
     1
102
RTVSPropertyOp9
 70
     1
102
RTVSPropertyOp10
 70
     1
102
RTVSPropertyOp11
 70
     1
102
RTVSPropertyOp12
 70
     1
102
RTVSPropertyOp13
 70
     1
102
RTVSPropertyOp14
 70
     1
102
RTVSPropertyOp15
 70
     1
102
RTVSPropertyOp16
 70
     1
102
RTVSPropertyOp17
 70
     1
102
RTVSPropertyOp18
 70
     1
102
RTVSPropertyOp19
 70
     1
102
RTVSPropertyOp20
 70
     1
102
RTVSPropertyOp21
 70
     1
102
RTVSPropertyOp22
 70
     1
102
RTVSPropertyOp23
 70
     1
102
RTVSPropertyOp24
 70
     1
102
RTVSPropertyOp25
 70
     1
102
RTVSPropertyOp26
 70
     1
102
RTVSPropertyOp27
 70
     1
102
RTVSPropertyOp28
 70
     1
102
RTVSPropertyOp29
 70
     1
102
RTVSPropertyOp30
 70
     1
102
RTVSPropertyOp31
 70
     1
102
RTVSPropertyOp32
 70
     1
  0
XRECORD
  5
686
102
{ACAD_REACTORS
330
685
102
}
330
685
100
AcDbXrecord
280
     1
102
RTVSPropertyOp0
 70
     1
102
RTVSPropertyOp1
 70
     1
102
RTVSPropertyOp2
 70
     1
102
RTVSPropertyOp3
 70
     1
102
RTVSPropertyOp4
 70
     1
102
RTVSPropertyOp5
 70
     1
102
RTVSPropertyOp6
 70
     1
102
RTVSPropertyOp7
 70
     1
102
RTVSPropertyOp8
 70
     1
102
RTVSPropertyOp9
 70
     1
102
RTVSPropertyOp10
 70
     1
102
RTVSPropertyOp11
 70
     1
102
RTVSPropertyOp12
 70
     1
102
RTVSPropertyOp13
 70
     1
102
RTVSPropertyOp14
 70
     1
102
RTVSPropertyOp15
 70
     1
102
RTVSPropertyOp16
 70
     1
102
RTVSPropertyOp17
 70
     1
102
RTVSPropertyOp18
 70
     1
102
RTVSPropertyOp19
 70
     1
102
RTVSPropertyOp20
 70
     1
102
RTVSPropertyOp21
 70
     1
102
RTVSPropertyOp22
 70
     1
102
RTVSPropertyOp23
 70
     1
102
RTVSPropertyOp24
 70
     1
102
RTVSPropertyOp25
 70
     1
102
RTVSPropertyOp26
 70
     1
102
RTVSPropertyOp27
 70
     1
102
RTVSPropertyOp28
 70
     1
102
RTVSPropertyOp29
 70
     1
102
RTVSPropertyOp30
 70
     1
102
RTVSPropertyOp31
 70
     1
102
RTVSPropertyOp32
 70
     1
  0
XRECORD
  5
68E
102
{ACAD_REACTORS
330
68D
102
}
330
68D
100
AcDbXrecord
280
     1
102
RTVSPropertyOp0
 70
     1
102
RTVSPropertyOp1
 70
     1
102
RTVSPropertyOp2
 70
     1
102
RTVSPropertyOp3
 70
     1
102
RTVSPropertyOp4
 70
     1
102
RTVSPropertyOp5
 70
     1
102
RTVSPropertyOp6
 70
     1
102
RTVSPropertyOp7
 70
     1
102
RTVSPropertyOp8
 70
     1
102
RTVSPropertyOp9
 70
     1
102
RTVSPropertyOp10
 70
     1
102
RTVSPropertyOp11
 70
     1
102
RTVSPropertyOp12
 70
     1
102
RTVSPropertyOp13
 70
     1
102
RTVSPropertyOp14
 70
     1
102
RTVSPropertyOp15
 70
     1
102
RTVSPropertyOp16
 70
     1
102
RTVSPropertyOp17
 70
     1
102
RTVSPropertyOp18
 70
     1
102
RTVSPropertyOp19
 70
     1
102
RTVSPropertyOp20
 70
     1
102
RTVSPropertyOp21
 70
     1
102
RTVSPropertyOp22
 70
     1
102
RTVSPropertyOp23
 70
     1
102
RTVSPropertyOp24
 70
     1
102
RTVSPropertyOp25
 70
     1
102
RTVSPropertyOp26
 70
     1
102
RTVSPropertyOp27
 70
     1
102
RTVSPropertyOp28
 70
     1
102
RTVSPropertyOp29
 70
     1
102
RTVSPropertyOp30
 70
     1
102
RTVSPropertyOp31
 70
     1
102
RTVSPropertyOp32
 70
     1
  0
XRECORD
  5
682
102
{ACAD_REACTORS
330
681
102
}
330
681
100
AcDbXrecord
280
     1
102
RTVSPropertyOp0
 70
     1
102
RTVSPropertyOp1
 70
     1
102
RTVSPropertyOp2
 70
     1
102
RTVSPropertyOp3
 70
     1
102
RTVSPropertyOp4
 70
     1
102
RTVSPropertyOp5
 70
     1
102
RTVSPropertyOp6
 70
     1
102
RTVSPropertyOp7
 70
     1
102
RTVSPropertyOp8
 70
     1
102
RTVSPropertyOp9
 70
     1
102
RTVSPropertyOp10
 70
     1
102
RTVSPropertyOp11
 70
     1
102
RTVSPropertyOp12
 70
     1
102
RTVSPropertyOp13
 70
     1
102
RTVSPropertyOp14
 70
     1
102
RTVSPropertyOp15
 70
     1
102
RTVSPropertyOp16
 70
     1
102
RTVSPropertyOp17
 70
     1
102
RTVSPropertyOp18
 70
     1
102
RTVSPropertyOp19
 70
     1
102
RTVSPropertyOp20
 70
     1
102
RTVSPropertyOp21
 70
     1
102
RTVSPropertyOp22
 70
     1
102
RTVSPropertyOp23
 70
     1
102
RTVSPropertyOp24
 70
     1
102
RTVSPropertyOp25
 70
     1
102
RTVSPropertyOp26
 70
     1
102
RTVSPropertyOp27
 70
     1
102
RTVSPropertyOp28
 70
     1
102
RTVSPropertyOp29
 70
     1
102
RTVSPropertyOp30
 70
     1
102
RTVSPropertyOp31
 70
     1
102
RTVSPropertyOp32
 70
     1
  0
XRECORD
  5
684
102
{ACAD_REACTORS
330
683
102
}
330
683
100
AcDbXrecord
280
     1
102
RTVSPropertyOp0
 70
     1
102
RTVSPropertyOp1
 70
     1
102
RTVSPropertyOp2
 70
     1
102
RTVSPropertyOp3
 70
     1
102
RTVSPropertyOp4
 70
     1
102
RTVSPropertyOp5
 70
     1
102
RTVSPropertyOp6
 70
     1
102
RTVSPropertyOp7
 70
     1
102
RTVSPropertyOp8
 70
     1
102
RTVSPropertyOp9
 70
     1
102
RTVSPropertyOp10
 70
     1
102
RTVSPropertyOp11
 70
     1
102
RTVSPropertyOp12
 70
     1
102
RTVSPropertyOp13
 70
     1
102
RTVSPropertyOp14
 70
     1
102
RTVSPropertyOp15
 70
     1
102
RTVSPropertyOp16
 70
     1
102
RTVSPropertyOp17
 70
     1
102
RTVSPropertyOp18
 70
     1
102
RTVSPropertyOp19
 70
     1
102
RTVSPropertyOp20
 70
     1
102
RTVSPropertyOp21
 70
     1
102
RTVSPropertyOp22
 70
     1
102
RTVSPropertyOp23
 70
     1
102
RTVSPropertyOp24
 70
     1
102
RTVSPropertyOp25
 70
     1
102
RTVSPropertyOp26
 70
     1
102
RTVSPropertyOp27
 70
     1
102
RTVSPropertyOp28
 70
     1
102
RTVSPropertyOp29
 70
     1
102
RTVSPropertyOp30
 70
     1
102
RTVSPropertyOp31
 70
     1
102
RTVSPropertyOp32
 70
     1
  0
XRECORD
  5
68C
102
{ACAD_REACTORS
330
68B
102
}
330
68B
100
AcDbXrecord
280
     1
102
RTVSPropertyOp0
 70
     1
102
RTVSPropertyOp1
 70
     1
102
RTVSPropertyOp2
 70
     1
102
RTVSPropertyOp3
 70
     1
102
RTVSPropertyOp4
 70
     1
102
RTVSPropertyOp5
 70
     1
102
RTVSPropertyOp6
 70
     1
102
RTVSPropertyOp7
 70
     1
102
RTVSPropertyOp8
 70
     1
102
RTVSPropertyOp9
 70
     1
102
RTVSPropertyOp10
 70
     1
102
RTVSPropertyOp11
 70
     1
102
RTVSPropertyOp12
 70
     1
102
RTVSPropertyOp13
 70
     1
102
RTVSPropertyOp14
 70
     1
102
RTVSPropertyOp15
 70
     1
102
RTVSPropertyOp16
 70
     1
102
RTVSPropertyOp17
 70
     1
102
RTVSPropertyOp18
 70
     1
102
RTVSPropertyOp19
 70
     1
102
RTVSPropertyOp20
 70
     1
102
RTVSPropertyOp21
 70
     1
102
RTVSPropertyOp22
 70
     1
102
RTVSPropertyOp23
 70
     1
102
RTVSPropertyOp24
 70
     1
102
RTVSPropertyOp25
 70
     1
102
RTVSPropertyOp26
 70
     1
102
RTVSPropertyOp27
 70
     1
102
RTVSPropertyOp28
 70
     1
102
RTVSPropertyOp29
 70
     1
102
RTVSPropertyOp30
 70
     1
102
RTVSPropertyOp31
 70
     1
102
RTVSPropertyOp32
 70
     1
  0
XRECORD
  5
670
102
{ACAD_REACTORS
330
66F
102
}
330
66F
100
AcDbXrecord
280
     1
102
RTVSPropertyOp0
 70
     1
102
RTVSPropertyOp1
 70
     1
102
RTVSPropertyOp2
 70
     1
102
RTVSPropertyOp3
 70
     1
102
RTVSPropertyOp4
 70
     1
102
RTVSPropertyOp5
 70
     1
102
RTVSPropertyOp6
 70
     1
102
RTVSPropertyOp7
 70
     1
102
RTVSPropertyOp8
 70
     1
102
RTVSPropertyOp9
 70
     1
102
RTVSPropertyOp10
 70
     1
102
RTVSPropertyOp11
 70
     1
102
RTVSPropertyOp12
 70
     1
102
RTVSPropertyOp13
 70
     1
102
RTVSPropertyOp14
 70
     1
102
RTVSPropertyOp15
 70
     1
102
RTVSPropertyOp16
 70
     1
102
RTVSPropertyOp17
 70
     1
102
RTVSPropertyOp18
 70
     1
102
RTVSPropertyOp19
 70
     1
102
RTVSPropertyOp20
 70
     1
102
RTVSPropertyOp21
 70
     1
102
RTVSPropertyOp22
 70
     1
102
RTVSPropertyOp23
 70
     1
102
RTVSPropertyOp24
 70
     1
102
RTVSPropertyOp25
 70
     1
102
RTVSPropertyOp26
 70
     1
102
RTVSPropertyOp27
 70
     1
102
RTVSPropertyOp28
 70
     1
102
RTVSPropertyOp29
 70
     1
102
RTVSPropertyOp30
 70
     1
102
RTVSPropertyOp31
 70
     1
102
RTVSPropertyOp32
 70
     1
  0
XRECORD
  5
672
102
{ACAD_REACTORS
330
671
102
}
330
671
100
AcDbXrecord
280
     1
102
RTVSPropertyOp0
 70
     1
102
RTVSPropertyOp1
 70
     1
102
RTVSPropertyOp2
 70
     1
102
RTVSPropertyOp3
 70
     1
102
RTVSPropertyOp4
 70
     1
102
RTVSPropertyOp5
 70
     1
102
RTVSPropertyOp6
 70
     1
102
RTVSPropertyOp7
 70
     1
102
RTVSPropertyOp8
 70
     1
102
RTVSPropertyOp9
 70
     1
102
RTVSPropertyOp10
 70
     1
102
RTVSPropertyOp11
 70
     1
102
RTVSPropertyOp12
 70
     1
102
RTVSPropertyOp13
 70
     1
102
RTVSPropertyOp14
 70
     1
102
RTVSPropertyOp15
 70
     1
102
RTVSPropertyOp16
 70
     1
102
RTVSPropertyOp17
 70
     1
102
RTVSPropertyOp18
 70
     1
102
RTVSPropertyOp19
 70
     1
102
RTVSPropertyOp20
 70
     1
102
RTVSPropertyOp21
 70
     1
102
RTVSPropertyOp22
 70
     1
102
RTVSPropertyOp23
 70
     1
102
RTVSPropertyOp24
 70
     1
102
RTVSPropertyOp25
 70
     1
102
RTVSPropertyOp26
 70
     1
102
RTVSPropertyOp27
 70
     1
102
RTVSPropertyOp28
 70
     1
102
RTVSPropertyOp29
 70
     1
102
RTVSPropertyOp30
 70
     1
102
RTVSPropertyOp31
 70
     1
102
RTVSPropertyOp32
 70
     1
  0
XRECORD
  5
674
102
{ACAD_REACTORS
330
673
102
}
330
673
100
AcDbXrecord
280
     1
102
RTVSPropertyOp0
 70
     1
102
RTVSPropertyOp1
 70
     1
102
RTVSPropertyOp2
 70
     1
102
RTVSPropertyOp3
 70
     1
102
RTVSPropertyOp4
 70
     1
102
RTVSPropertyOp5
 70
     1
102
RTVSPropertyOp6
 70
     1
102
RTVSPropertyOp7
 70
     1
102
RTVSPropertyOp8
 70
     1
102
RTVSPropertyOp9
 70
     1
102
RTVSPropertyOp10
 70
     1
102
RTVSPropertyOp11
 70
     1
102
RTVSPropertyOp12
 70
     1
102
RTVSPropertyOp13
 70
     1
102
RTVSPropertyOp14
 70
     1
102
RTVSPropertyOp15
 70
     1
102
RTVSPropertyOp16
 70
     1
102
RTVSPropertyOp17
 70
     1
102
RTVSPropertyOp18
 70
     1
102
RTVSPropertyOp19
 70
     1
102
RTVSPropertyOp20
 70
     1
102
RTVSPropertyOp21
 70
     1
102
RTVSPropertyOp22
 70
     1
102
RTVSPropertyOp23
 70
     1
102
RTVSPropertyOp24
 70
     1
102
RTVSPropertyOp25
 70
     1
102
RTVSPropertyOp26
 70
     1
102
RTVSPropertyOp27
 70
     1
102
RTVSPropertyOp28
 70
     1
102
RTVSPropertyOp29
 70
     1
102
RTVSPropertyOp30
 70
     1
102
RTVSPropertyOp31
 70
     1
102
RTVSPropertyOp32
 70
     1
  0
XRECORD
  5
676
102
{ACAD_REACTORS
330
675
102
}
330
675
100
AcDbXrecord
280
     1
102
RTVSPropertyOp0
 70
     1
102
RTVSPropertyOp1
 70
     1
102
RTVSPropertyOp2
 70
     1
102
RTVSPropertyOp3
 70
     1
102
RTVSPropertyOp4
 70
     1
102
RTVSPropertyOp5
 70
     1
102
RTVSPropertyOp6
 70
     1
102
RTVSPropertyOp7
 70
     1
102
RTVSPropertyOp8
 70
     1
102
RTVSPropertyOp9
 70
     1
102
RTVSPropertyOp10
 70
     1
102
RTVSPropertyOp11
 70
     1
102
RTVSPropertyOp12
 70
     1
102
RTVSPropertyOp13
 70
     1
102
RTVSPropertyOp14
 70
     1
102
RTVSPropertyOp15
 70
     1
102
RTVSPropertyOp16
 70
     1
102
RTVSPropertyOp17
 70
     1
102
RTVSPropertyOp18
 70
     1
102
RTVSPropertyOp19
 70
     1
102
RTVSPropertyOp20
 70
     1
102
RTVSPropertyOp21
 70
     1
102
RTVSPropertyOp22
 70
     1
102
RTVSPropertyOp23
 70
     1
102
RTVSPropertyOp24
 70
     1
102
RTVSPropertyOp25
 70
     1
102
RTVSPropertyOp26
 70
     1
102
RTVSPropertyOp27
 70
     1
102
RTVSPropertyOp28
 70
     1
102
RTVSPropertyOp29
 70
     1
102
RTVSPropertyOp30
 70
     1
102
RTVSPropertyOp31
 70
     1
102
RTVSPropertyOp32
 70
     1
  0
XRECORD
  5
68A
102
{ACAD_REACTORS
330
689
102
}
330
689
100
AcDbXrecord
280
     1
102
RTVSPropertyOp0
 70
     1
102
RTVSPropertyOp1
 70
     1
102
RTVSPropertyOp2
 70
     1
102
RTVSPropertyOp3
 70
     1
102
RTVSPropertyOp4
 70
     1
102
RTVSPropertyOp5
 70
     1
102
RTVSPropertyOp6
 70
     1
102
RTVSPropertyOp7
 70
     1
102
RTVSPropertyOp8
 70
     1
102
RTVSPropertyOp9
 70
     1
102
RTVSPropertyOp10
 70
     1
102
RTVSPropertyOp11
 70
     1
102
RTVSPropertyOp12
 70
     1
102
RTVSPropertyOp13
 70
     1
102
RTVSPropertyOp14
 70
     1
102
RTVSPropertyOp15
 70
     1
102
RTVSPropertyOp16
 70
     1
102
RTVSPropertyOp17
 70
     1
102
RTVSPropertyOp18
 70
     1
102
RTVSPropertyOp19
 70
     1
102
RTVSPropertyOp20
 70
     1
102
RTVSPropertyOp21
 70
     1
102
RTVSPropertyOp22
 70
     1
102
RTVSPropertyOp23
 70
     1
102
RTVSPropertyOp24
 70
     1
102
RTVSPropertyOp25
 70
     1
102
RTVSPropertyOp26
 70
     1
102
RTVSPropertyOp27
 70
     1
102
RTVSPropertyOp28
 70
     1
102
RTVSPropertyOp29
 70
     1
102
RTVSPropertyOp30
 70
     1
102
RTVSPropertyOp31
 70
     1
102
RTVSPropertyOp32
 70
     1
  0
XRECORD
  5
680
102
{ACAD_REACTORS
330
67F
102
}
330
67F
100
AcDbXrecord
280
     1
102
RTVSPropertyOp0
 70
     1
102
RTVSPropertyOp1
 70
     1
102
RTVSPropertyOp2
 70
     1
102
RTVSPropertyOp3
 70
     1
102
RTVSPropertyOp4
 70
     1
102
RTVSPropertyOp5
 70
     1
102
RTVSPropertyOp6
 70
     1
102
RTVSPropertyOp7
 70
     1
102
RTVSPropertyOp8
 70
     1
102
RTVSPropertyOp9
 70
     1
102
RTVSPropertyOp10
 70
     1
102
RTVSPropertyOp11
 70
     1
102
RTVSPropertyOp12
 70
     1
102
RTVSPropertyOp13
 70
     1
102
RTVSPropertyOp14
 70
     1
102
RTVSPropertyOp15
 70
     1
102
RTVSPropertyOp16
 70
     1
102
RTVSPropertyOp17
 70
     1
102
RTVSPropertyOp18
 70
     1
102
RTVSPropertyOp19
 70
     1
102
RTVSPropertyOp20
 70
     1
102
RTVSPropertyOp21
 70
     1
102
RTVSPropertyOp22
 70
     1
102
RTVSPropertyOp23
 70
     1
102
RTVSPropertyOp24
 70
     1
102
RTVSPropertyOp25
 70
     1
102
RTVSPropertyOp26
 70
     1
102
RTVSPropertyOp27
 70
     1
102
RTVSPropertyOp28
 70
     1
102
RTVSPropertyOp29
 70
     1
102
RTVSPropertyOp30
 70
     1
102
RTVSPropertyOp31
 70
     1
102
RTVSPropertyOp32
 70
     1
  0
XRECORD
  5
688
102
{ACAD_REACTORS
330
687
102
}
330
687
100
AcDbXrecord
280
     1
102
RTVSPropertyOp0
 70
     1
102
RTVSPropertyOp1
 70
     1
102
RTVSPropertyOp2
 70
     1
102
RTVSPropertyOp3
 70
     1
102
RTVSPropertyOp4
 70
     1
102
RTVSPropertyOp5
 70
     1
102
RTVSPropertyOp6
 70
     1
102
RTVSPropertyOp7
 70
     1
102
RTVSPropertyOp8
 70
     1
102
RTVSPropertyOp9
 70
     1
102
RTVSPropertyOp10
 70
     1
102
RTVSPropertyOp11
 70
     1
102
RTVSPropertyOp12
 70
     1
102
RTVSPropertyOp13
 70
     1
102
RTVSPropertyOp14
 70
     1
102
RTVSPropertyOp15
 70
     1
102
RTVSPropertyOp16
 70
     1
102
RTVSPropertyOp17
 70
     1
102
RTVSPropertyOp18
 70
     1
102
RTVSPropertyOp19
 70
     1
102
RTVSPropertyOp20
 70
     1
102
RTVSPropertyOp21
 70
     1
102
RTVSPropertyOp22
 70
     1
102
RTVSPropertyOp23
 70
     1
102
RTVSPropertyOp24
 70
     1
102
RTVSPropertyOp25
 70
     1
102
RTVSPropertyOp26
 70
     1
102
RTVSPropertyOp27
 70
     1
102
RTVSPropertyOp28
 70
     1
102
RTVSPropertyOp29
 70
     1
102
RTVSPropertyOp30
 70
     1
102
RTVSPropertyOp31
 70
     1
102
RTVSPropertyOp32
 70
     1
  0
ENDSEC
  0
EOF
